  0
SECTION
  2
HEADER
  9
$ACADVER
  1
AC1018
  9
$ACADMAINTVER
 70
     0
  9
$DWGCODEPAGE
  3
ANSI_1252
  9
$INSBASE
 10
0.0
 20
0.0
 30
0.0
  9
$EXTMIN
 10
0.0575544912421507
 20
-0.9344680807832851
 30
0.0031
  9
$EXTMAX
 10
3.179114084391764
 20
1.27269526790836
 30
-0.0031
  9
$LIMMIN
 10
0.0
 20
0.0
  9
$LIMMAX
 10
12.0
 20
9.0
  9
$ORTHOMODE
 70
     0
  9
$REGENMODE
 70
     1
  9
$FILLMODE
 70
     1
  9
$QTEXTMODE
 70
     0
  9
$MIRRTEXT
 70
     1
  9
$LTSCALE
 40
1.0
  9
$ATTMODE
 70
     1
  9
$TEXTSIZE
 40
0.2
  9
$TRACEWID
 40
0.05
  9
$TEXTSTYLE
  7
Simplex
  9
$CLAYER
  8
0
  9
$CELTYPE
  6
ByLayer
  9
$CECOLOR
 62
   256
  9
$CELTSCALE
 40
1.0
  9
$DISPSILH
 70
     0
  9
$DIMSCALE
 40
1.0
  9
$DIMASZ
 40
0.18
  9
$DIMEXO
 40
0.0625
  9
$DIMDLI
 40
0.38
  9
$DIMRND
 40
0.0
  9
$DIMDLE
 40
0.0
  9
$DIMEXE
 40
0.18
  9
$DIMTP
 40
0.0
  9
$DIMTM
 40
0.0
  9
$DIMTXT
 40
0.18
  9
$DIMCEN
 40
0.09
  9
$DIMTSZ
 40
0.0
  9
$DIMTOL
 70
     0
  9
$DIMLIM
 70
     0
  9
$DIMTIH
 70
     1
  9
$DIMTOH
 70
     1
  9
$DIMSE1
 70
     0
  9
$DIMSE2
 70
     0
  9
$DIMTAD
 70
     0
  9
$DIMZIN
 70
     0
  9
$DIMBLK
  1

  9
$DIMASO
 70
     1
  9
$DIMSHO
 70
     1
  9
$DIMPOST
  1

  9
$DIMAPOST
  1

  9
$DIMALT
 70
     0
  9
$DIMALTD
 70
     2
  9
$DIMALTF
 40
25.4
  9
$DIMLFAC
 40
1.0
  9
$DIMTOFL
 70
     0
  9
$DIMTVP
 40
0.0
  9
$DIMTIX
 70
     0
  9
$DIMSOXD
 70
     0
  9
$DIMSAH
 70
     0
  9
$DIMBLK1
  1

  9
$DIMBLK2
  1

  9
$DIMSTYLE
  2
Standard
  9
$DIMCLRD
 70
     0
  9
$DIMCLRE
 70
     0
  9
$DIMCLRT
 70
     0
  9
$DIMTFAC
 40
1.0
  9
$DIMGAP
 40
0.09
  9
$DIMJUST
 70
     0
  9
$DIMSD1
 70
     0
  9
$DIMSD2
 70
     0
  9
$DIMTOLJ
 70
     1
  9
$DIMTZIN
 70
     0
  9
$DIMALTZ
 70
     0
  9
$DIMALTTZ
 70
     0
  9
$DIMUPT
 70
     0
  9
$DIMDEC
 70
     4
  9
$DIMTDEC
 70
     4
  9
$DIMALTU
 70
     2
  9
$DIMALTTD
 70
     2
  9
$DIMTXSTY
  7
Standard
  9
$DIMAUNIT
 70
     0
  9
$DIMADEC
 70
     0
  9
$DIMALTRND
 40
0.0
  9
$DIMAZIN
 70
     0
  9
$DIMDSEP
 70
    46
  9
$DIMATFIT
 70
     3
  9
$DIMFRAC
 70
     0
  9
$DIMLDRBLK
  1

  9
$DIMLUNIT
 70
     2
  9
$DIMLWD
 70
    -2
  9
$DIMLWE
 70
    -2
  9
$DIMTMOVE
 70
     0
  9
$LUNITS
 70
     2
  9
$LUPREC
 70
     4
  9
$SKETCHINC
 40
0.1
  9
$FILLETRAD
 40
0.5
  9
$AUNITS
 70
     0
  9
$AUPREC
 70
     0
  9
$MENU
  1
.
  9
$ELEVATION
 40
0.0
  9
$PELEVATION
 40
0.0
  9
$THICKNESS
 40
0.0
  9
$LIMCHECK
 70
     0
  9
$CHAMFERA
 40
0.5
  9
$CHAMFERB
 40
0.5
  9
$CHAMFERC
 40
1.0
  9
$CHAMFERD
 40
0.0
  9
$SKPOLY
 70
     0
  9
$TDCREATE
 40
2452381.314152083
  9
$TDUCREATE
 40
2452380.897485417
  9
$TDUPDATE
 40
2457966.343186481
  9
$TDUUPDATE
 40
2457965.926519815
  9
$TDINDWG
 40
0.0040921296
  9
$TDUSRTIMER
 40
0.0040921296
  9
$USRTIMER
 70
     1
  9
$ANGBASE
 50
0.0
  9
$ANGDIR
 70
     0
  9
$PDMODE
 70
     0
  9
$PDSIZE
 40
0.0
  9
$PLINEWID
 40
0.0
  9
$SPLFRAME
 70
     0
  9
$SPLINETYPE
 70
     6
  9
$SPLINESEGS
 70
     8
  9
$HANDSEED
  5
349
  9
$SURFTAB1
 70
     6
  9
$SURFTAB2
 70
     6
  9
$SURFTYPE
 70
     6
  9
$SURFU
 70
     6
  9
$SURFV
 70
     6
  9
$UCSBASE
  2

  9
$UCSNAME
  2

  9
$UCSORG
 10
0.0
 20
0.0
 30
0.0
  9
$UCSXDIR
 10
1.0
 20
0.0
 30
0.0
  9
$UCSYDIR
 10
0.0
 20
1.0
 30
0.0
  9
$UCSORTHOREF
  2

  9
$UCSORTHOVIEW
 70
     0
  9
$UCSORGTOP
 10
0.0
 20
0.0
 30
0.0
  9
$UCSORGBOTTOM
 10
0.0
 20
0.0
 30
0.0
  9
$UCSORGLEFT
 10
0.0
 20
0.0
 30
0.0
  9
$UCSORGRIGHT
 10
0.0
 20
0.0
 30
0.0
  9
$UCSORGFRONT
 10
0.0
 20
0.0
 30
0.0
  9
$UCSORGBACK
 10
0.0
 20
0.0
 30
0.0
  9
$PUCSBASE
  2

  9
$PUCSNAME
  2

  9
$PUCSORG
 10
0.0
 20
0.0
 30
0.0
  9
$PUCSXDIR
 10
1.0
 20
0.0
 30
0.0
  9
$PUCSYDIR
 10
0.0
 20
1.0
 30
0.0
  9
$PUCSORTHOREF
  2

  9
$PUCSORTHOVIEW
 70
     0
  9
$PUCSORGTOP
 10
0.0
 20
0.0
 30
0.0
  9
$PUCSORGBOTTOM
 10
0.0
 20
0.0
 30
0.0
  9
$PUCSORGLEFT
 10
0.0
 20
0.0
 30
0.0
  9
$PUCSORGRIGHT
 10
0.0
 20
0.0
 30
0.0
  9
$PUCSORGFRONT
 10
0.0
 20
0.0
 30
0.0
  9
$PUCSORGBACK
 10
0.0
 20
0.0
 30
0.0
  9
$USERI1
 70
     0
  9
$USERI2
 70
     0
  9
$USERI3
 70
     0
  9
$USERI4
 70
     0
  9
$USERI5
 70
     0
  9
$USERR1
 40
0.0
  9
$USERR2
 40
0.0
  9
$USERR3
 40
0.0
  9
$USERR4
 40
0.0
  9
$USERR5
 40
0.0
  9
$WORLDVIEW
 70
     1
  9
$SHADEDGE
 70
     3
  9
$SHADEDIF
 70
    70
  9
$TILEMODE
 70
     1
  9
$MAXACTVP
 70
    64
  9
$PINSBASE
 10
0.0
 20
0.0
 30
0.0
  9
$PLIMCHECK
 70
     0
  9
$PEXTMIN
 10
1.000000000000000E+20
 20
1.000000000000000E+20
 30
1.000000000000000E+20
  9
$PEXTMAX
 10
-1.000000000000000E+20
 20
-1.000000000000000E+20
 30
-1.000000000000000E+20
  9
$PLIMMIN
 10
0.0
 20
0.0
  9
$PLIMMAX
 10
12.0
 20
9.0
  9
$UNITMODE
 70
     0
  9
$VISRETAIN
 70
     1
  9
$PLINEGEN
 70
     0
  9
$PSLTSCALE
 70
     1
  9
$TREEDEPTH
 70
  3020
  9
$CMLSTYLE
  2
Standard
  9
$CMLJUST
 70
     0
  9
$CMLSCALE
 40
1.0
  9
$PROXYGRAPHICS
 70
     1
  9
$MEASUREMENT
 70
     0
  9
$CELWEIGHT
370
    -1
  9
$ENDCAPS
280
     0
  9
$JOINSTYLE
280
     0
  9
$LWDISPLAY
290
     1
  9
$INSUNITS
 70
     0
  9
$HYPERLINKBASE
  1

  9
$STYLESHEET
  1

  9
$XEDIT
290
     1
  9
$CEPSNTYPE
380
     0
  9
$PSTYLEMODE
290
     1
  9
$FINGERPRINTGUID
  2
{2DA8D5D2-0A6F-4433-BE9F-7C818D36D6ED}
  9
$VERSIONGUID
  2
{A098EE71-2063-4C44-BF23-3920F6FD3DB3}
  9
$EXTNAMES
290
     1
  9
$PSVPSCALE
 40
0.0
  9
$OLESTARTUP
290
     0
  9
$SORTENTS
280
   127
  9
$INDEXCTL
280
     0
  9
$HIDETEXT
280
     1
  9
$XCLIPFRAME
290
     0
  9
$HALOGAP
280
     0
  9
$OBSCOLOR
 70
   257
  9
$OBSLTYPE
280
     0
  9
$INTERSECTIONDISPLAY
280
     0
  9
$INTERSECTIONCOLOR
 70
   257
  9
$DIMASSOC
280
     1
  9
$PROJECTNAME
  1

  0
ENDSEC
  0
SECTION
  2
CLASSES
  0
CLASS
  1
ACDBDICTIONARYWDFLT
  2
AcDbDictionaryWithDefault
  3
ObjectDBX Classes
 90
        0
 91
        4
280
     0
281
     0
  0
CLASS
  1
ACDBPLACEHOLDER
  2
AcDbPlaceHolder
  3
ObjectDBX Classes
 90
        0
 91
        1
280
     0
281
     0
  0
CLASS
  1
LAYOUT
  2
AcDbLayout
  3
ObjectDBX Classes
 90
        0
 91
        1
280
     0
281
     0
  0
CLASS
  1
DICTIONARYVAR
  2
AcDbDictionaryVar
  3
ObjectDBX Classes
 90
        0
 91
        4
280
     0
281
     0
  0
CLASS
  1
VISUALSTYLE
  2
AcDbVisualStyle
  3
ObjectDBX Classes
 90
     4095
 91
        4
280
     0
281
     0
  0
CLASS
  1
SCALE
  2
AcDbScale
  3
ObjectDBX Classes
 90
     1153
 91
        4
280
     0
281
     0
  0
CLASS
  1
MATERIAL
  2
AcDbMaterial
  3
ObjectDBX Classes
 90
     1153
 91
        4
280
     0
281
     0
  0
CLASS
  1
TABLESTYLE
  2
AcDbTableStyle
  3
ObjectDBX Classes
 90
     4095
 91
        4
280
     0
281
     0
  0
CLASS
  1
MLEADERSTYLE
  2
AcDbMLeaderStyle
  3
ACDB_MLEADERSTYLE_CLASS
 90
     4095
 91
        4
280
     0
281
     0
  0
CLASS
  1
RASTERVARIABLES
  2
AcDbRasterVariables
  3
ISM
 90
        0
 91
        4
280
     0
281
     0
  0
CLASS
  1
SUN
  2
AcDbSun
  3
SCENEOE
 90
     1153
 91
        4
280
     0
281
     0
  0
CLASS
  1
CELLSTYLEMAP
  2
AcDbCellStyleMap
  3
ObjectDBX Classes
 90
     1152
 91
        4
280
     0
281
     0
  0
ENDSEC
  0
SECTION
  2
TABLES
  0
TABLE
  2
VPORT
  5
8
102
{ACAD_XDICTIONARY
360
303
102
}
330
0
100
AcDbSymbolTable
 70
     2
  0
VPORT
  5
55
330
8
100
AcDbSymbolTableRecord
100
AcDbViewportTableRecord
  2
*Active
 70
     0
 10
0.0
 20
0.0
 11
1.0
 21
1.0
 12
0.0
 22
0.0
 13
0.0
 23
0.0
 14
0.5
 24
0.5
 15
0.5
 25
0.5
 16
0.0
 26
0.0
 36
1.0
 17
1.618334287816957
 27
0.1691135935625375
 37
0.0
 40
2.427879683560807
 41
1.414285714285714
 42
50.0
 43
0.0
 44
0.0
 50
0.0
 51
0.0
 71
     8
 72
   100
 73
     1
 74
     3
 75
     0
 76
     0
 77
     0
 78
     0
281
     0
 65
     1
110
0.0
120
0.0
130
0.0
111
1.0
121
0.0
131
0.0
112
0.0
122
1.0
132
0.0
 79
     0
146
0.0
  0
ENDTAB
  0
TABLE
  2
LTYPE
  5
5
330
0
100
AcDbSymbolTable
 70
    25
  0
LTYPE
  5
14
330
5
100
AcDbSymbolTableRecord
100
AcDbLinetypeTableRecord
  2
ByBlock
 70
     0
  3

 72
    65
 73
     0
 40
0.0
  0
LTYPE
  5
15
330
5
100
AcDbSymbolTableRecord
100
AcDbLinetypeTableRecord
  2
ByLayer
 70
     0
  3

 72
    65
 73
     0
 40
0.0
  0
LTYPE
  5
16
330
5
100
AcDbSymbolTableRecord
100
AcDbLinetypeTableRecord
  2
Continuous
 70
     0
  3
Solid line
 72
    65
 73
     0
 40
0.0
  0
LTYPE
  5
2D
330
5
100
AcDbSymbolTableRecord
100
AcDbLinetypeTableRecord
  2
BORDER
 70
     0
  3
Border __ __ . __ __ . __ __ . __ __ . __ __ .
 72
    65
 73
     6
 40
1.75
 49
0.5
 74
     0
 49
-0.25
 74
     0
 49
0.5
 74
     0
 49
-0.25
 74
     0
 49
0.0
 74
     0
 49
-0.25
 74
     0
  0
LTYPE
  5
2E
330
5
100
AcDbSymbolTableRecord
100
AcDbLinetypeTableRecord
  2
BORDER2
 70
     0
  3
Border (.5x) __.__.__.__.__.__.__.__.__.__.__.
 72
    65
 73
     6
 40
0.875
 49
0.25
 74
     0
 49
-0.125
 74
     0
 49
0.25
 74
     0
 49
-0.125
 74
     0
 49
0.0
 74
     0
 49
-0.125
 74
     0
  0
LTYPE
  5
2F
330
5
100
AcDbSymbolTableRecord
100
AcDbLinetypeTableRecord
  2
BORDERX2
 70
     0
  3
Border (2x) ____  ____  .  ____  ____  .  ___
 72
    65
 73
     6
 40
3.5
 49
1.0
 74
     0
 49
-0.5
 74
     0
 49
1.0
 74
     0
 49
-0.5
 74
     0
 49
0.0
 74
     0
 49
-0.5
 74
     0
  0
LTYPE
  5
30
330
5
100
AcDbSymbolTableRecord
100
AcDbLinetypeTableRecord
  2
CENTER
 70
     0
  3
Center ____ _ ____ _ ____ _ ____ _ ____ _ ____
 72
    65
 73
     4
 40
2.0
 49
1.25
 74
     0
 49
-0.25
 74
     0
 49
0.25
 74
     0
 49
-0.25
 74
     0
  0
LTYPE
  5
31
330
5
100
AcDbSymbolTableRecord
100
AcDbLinetypeTableRecord
  2
CENTER2
 70
     0
  3
Center (.5x) ___ _ ___ _ ___ _ ___ _ ___ _ ___
 72
    65
 73
     4
 40
1.125
 49
0.75
 74
     0
 49
-0.125
 74
     0
 49
0.125
 74
     0
 49
-0.125
 74
     0
  0
LTYPE
  5
32
330
5
100
AcDbSymbolTableRecord
100
AcDbLinetypeTableRecord
  2
CENTERX2
 70
     0
  3
Center (2x) ________  __  ________  __  _____
 72
    65
 73
     4
 40
4.0
 49
2.5
 74
     0
 49
-0.5
 74
     0
 49
0.5
 74
     0
 49
-0.5
 74
     0
  0
LTYPE
  5
33
330
5
100
AcDbSymbolTableRecord
100
AcDbLinetypeTableRecord
  2
DASHDOT
 70
     0
  3
Dash dot __ . __ . __ . __ . __ . __ . __ . __
 72
    65
 73
     4
 40
1.0
 49
0.5
 74
     0
 49
-0.25
 74
     0
 49
0.0
 74
     0
 49
-0.25
 74
     0
  0
LTYPE
  5
34
330
5
100
AcDbSymbolTableRecord
100
AcDbLinetypeTableRecord
  2
DASHDOT2
 70
     0
  3
Dash dot (.5x) _._._._._._._._._._._._._._._.
 72
    65
 73
     4
 40
0.5
 49
0.25
 74
     0
 49
-0.125
 74
     0
 49
0.0
 74
     0
 49
-0.125
 74
     0
  0
LTYPE
  5
35
330
5
100
AcDbSymbolTableRecord
100
AcDbLinetypeTableRecord
  2
DASHDOTX2
 70
     0
  3
Dash dot (2x) ____  .  ____  .  ____  .  ___
 72
    65
 73
     4
 40
2.0
 49
1.0
 74
     0
 49
-0.5
 74
     0
 49
0.0
 74
     0
 49
-0.5
 74
     0
  0
LTYPE
  5
36
330
5
100
AcDbSymbolTableRecord
100
AcDbLinetypeTableRecord
  2
DASHED
 70
     0
  3
Dashed __ __ __ __ __ __ __ __ __ __ __ __ __ _
 72
    65
 73
     2
 40
0.75
 49
0.5
 74
     0
 49
-0.25
 74
     0
  0
LTYPE
  5
37
330
5
100
AcDbSymbolTableRecord
100
AcDbLinetypeTableRecord
  2
DASHED2
 70
     0
  3
Dashed (.5x) _ _ _ _ _ _ _ _ _ _ _ _ _ _ _ _ _
 72
    65
 73
     2
 40
0.375
 49
0.25
 74
     0
 49
-0.125
 74
     0
  0
LTYPE
  5
38
330
5
100
AcDbSymbolTableRecord
100
AcDbLinetypeTableRecord
  2
DASHEDX2
 70
     0
  3
Dashed (2x) ____  ____  ____  ____  ____  ___
 72
    65
 73
     2
 40
1.5
 49
1.0
 74
     0
 49
-0.5
 74
     0
  0
LTYPE
  5
39
330
5
100
AcDbSymbolTableRecord
100
AcDbLinetypeTableRecord
  2
DIVIDE
 70
     0
  3
Divide ____ . . ____ . . ____ . . ____ . . ____
 72
    65
 73
     6
 40
1.25
 49
0.5
 74
     0
 49
-0.25
 74
     0
 49
0.0
 74
     0
 49
-0.25
 74
     0
 49
0.0
 74
     0
 49
-0.25
 74
     0
  0
LTYPE
  5
3A
330
5
100
AcDbSymbolTableRecord
100
AcDbLinetypeTableRecord
  2
DIVIDE2
 70
     0
  3
Divide (.5x) __..__..__..__..__..__..__..__.._
 72
    65
 73
     6
 40
0.625
 49
0.25
 74
     0
 49
-0.125
 74
     0
 49
0.0
 74
     0
 49
-0.125
 74
     0
 49
0.0
 74
     0
 49
-0.125
 74
     0
  0
LTYPE
  5
3B
330
5
100
AcDbSymbolTableRecord
100
AcDbLinetypeTableRecord
  2
DIVIDEX2
 70
     0
  3
Divide (2x) ________  .  .  ________  .  .  _
 72
    65
 73
     6
 40
2.5
 49
1.0
 74
     0
 49
-0.5
 74
     0
 49
0.0
 74
     0
 49
-0.5
 74
     0
 49
0.0
 74
     0
 49
-0.5
 74
     0
  0
LTYPE
  5
3C
330
5
100
AcDbSymbolTableRecord
100
AcDbLinetypeTableRecord
  2
DOT
 70
     0
  3
Dot . . . . . . . . . . . . . . . . . . . . . .
 72
    65
 73
     2
 40
0.25
 49
0.0
 74
     0
 49
-0.25
 74
     0
  0
LTYPE
  5
3D
330
5
100
AcDbSymbolTableRecord
100
AcDbLinetypeTableRecord
  2
DOT2
 70
     0
  3
Dot (.5x) .....................................
 72
    65
 73
     2
 40
0.125
 49
0.0
 74
     0
 49
-0.125
 74
     0
  0
LTYPE
  5
3E
330
5
100
AcDbSymbolTableRecord
100
AcDbLinetypeTableRecord
  2
DOTX2
 70
     0
  3
Dot (2x) .  .  .  .  .  .  .  .  .  .  .  .  . 
 72
    65
 73
     2
 40
0.5
 49
0.0
 74
     0
 49
-0.5
 74
     0
  0
LTYPE
  5
3F
330
5
100
AcDbSymbolTableRecord
100
AcDbLinetypeTableRecord
  2
HIDDEN
 70
     0
  3
Hidden __ __ __ __ __ __ __ __ __ __ __ __ __ _
 72
    65
 73
     2
 40
0.375
 49
0.25
 74
     0
 49
-0.125
 74
     0
  0
LTYPE
  5
40
330
5
100
AcDbSymbolTableRecord
100
AcDbLinetypeTableRecord
  2
HIDDEN2
 70
     0
  3
Hidden (.5x) _ _ _ _ _ _ _ _ _ _ _ _ _ _ _ _ _
 72
    65
 73
     2
 40
0.1875
 49
0.125
 74
     0
 49
-0.0625
 74
     0
  0
LTYPE
  5
41
330
5
100
AcDbSymbolTableRecord
100
AcDbLinetypeTableRecord
  2
HIDDENX2
 70
     0
  3
Hidden (2x) ____ ____ ____ ____ ____ ____ ____
 72
    65
 73
     2
 40
0.75
 49
0.5
 74
     0
 49
-0.25
 74
     0
  0
LTYPE
  5
42
330
5
100
AcDbSymbolTableRecord
100
AcDbLinetypeTableRecord
  2
PHANTOM
 70
     0
  3
Phantom ______  __  __  ______  __  __  ______
 72
    65
 73
     6
 40
2.5
 49
1.25
 74
     0
 49
-0.25
 74
     0
 49
0.25
 74
     0
 49
-0.25
 74
     0
 49
0.25
 74
     0
 49
-0.25
 74
     0
  0
LTYPE
  5
43
330
5
100
AcDbSymbolTableRecord
100
AcDbLinetypeTableRecord
  2
PHANTOM2
 70
     0
  3
Phantom (.5x) ___ _ _ ___ _ _ ___ _ _ ___ _ _
 72
    65
 73
     6
 40
1.25
 49
0.625
 74
     0
 49
-0.125
 74
     0
 49
0.125
 74
     0
 49
-0.125
 74
     0
 49
0.125
 74
     0
 49
-0.125
 74
     0
  0
LTYPE
  5
44
330
5
100
AcDbSymbolTableRecord
100
AcDbLinetypeTableRecord
  2
PHANTOMX2
 70
     0
  3
Phantom (2x) ____________    ____    ____   _
 72
    65
 73
     6
 40
5.0
 49
2.5
 74
     0
 49
-0.5
 74
     0
 49
0.5
 74
     0
 49
-0.5
 74
     0
 49
0.5
 74
     0
 49
-0.5
 74
     0
  0
ENDTAB
  0
TABLE
  2
LAYER
  5
2
330
0
100
AcDbSymbolTable
 70
     5
  0
LAYER
  5
10
330
2
100
AcDbSymbolTableRecord
100
AcDbLayerTableRecord
  2
0
 70
     0
 62
     7
  6
Continuous
370
    -3
390
F
  0
LAYER
  5
9B
330
2
100
AcDbSymbolTableRecord
100
AcDbLayerTableRecord
  2
1
 70
     0
 62
     7
  6
Continuous
370
     0
390
F
  0
LAYER
  5
9C
330
2
100
AcDbSymbolTableRecord
100
AcDbLayerTableRecord
  2
2
 70
     0
 62
     7
  6
Continuous
370
     0
390
F
  0
LAYER
  5
9D
330
2
100
AcDbSymbolTableRecord
100
AcDbLayerTableRecord
  2
3
 70
     0
 62
     7
  6
Continuous
370
     0
390
F
  0
LAYER
  5
2C3
330
2
100
AcDbSymbolTableRecord
100
AcDbLayerTableRecord
  2
Defpoints
 70
     0
 62
     7
  6
Continuous
290
     0
370
    -3
390
F
  0
ENDTAB
  0
TABLE
  2
STYLE
  5
3
330
0
100
AcDbSymbolTable
 70
     8
  0
STYLE
  5
11
330
3
100
AcDbSymbolTableRecord
100
AcDbTextStyleTableRecord
  2
Standard
 70
     0
 40
0.0
 41
1.0
 50
0.0
 71
     0
 42
0.2
  3
txt
  4

  0
STYLE
  5
2C
330
3
100
AcDbSymbolTableRecord
100
AcDbTextStyleTableRecord
  2

 70
     1
 40
0.0
 41
1.0
 50
0.0
 71
     0
 42
0.2
  3
ltypeshp.shx
  4

  0
STYLE
  5
4A
330
3
100
AcDbSymbolTableRecord
100
AcDbTextStyleTableRecord
  2
Simplex
 70
     0
 40
0.0
 41
1.0
 50
0.0
 71
     0
 42
0.2
  3
simplex.shx
  4

  0
STYLE
  5
4B
330
3
100
AcDbSymbolTableRecord
100
AcDbTextStyleTableRecord
  2
BigFont
 70
     0
 40
0.0
 41
1.0
 50
0.0
 71
     0
 42
0.2
  3
simplex.shx
  4
bigfont.shx
  0
STYLE
  5
E1
330
3
100
AcDbSymbolTableRecord
100
AcDbTextStyleTableRecord
  2
DC_TEXTSTYLE4
 70
     0
 40
0.2
 41
1.0
 50
0.0
 71
     0
 42
0.2
  3
arialbi.ttf
  4

1001
ACAD
1000
Arial
1071
 50331682
  0
STYLE
  5
E6
330
3
100
AcDbSymbolTableRecord
100
AcDbTextStyleTableRecord
  2
DC_TEXTSTYLE5
 70
     0
 40
0.2
 41
1.0
 50
0.0
 71
     0
 42
0.2
  3
arial.ttf
  4

1001
ACAD
1000
Arial
1071
       34
  0
STYLE
  5
107
330
3
100
AcDbSymbolTableRecord
100
AcDbTextStyleTableRecord
  2
DC_TEXTSTYLE6
 70
     0
 40
0.2
 41
1.0
 50
0.0
 71
     0
 42
0.2
  3
timesbd.ttf
  4

1001
ACAD
1000
Times New Roman
1071
 33554450
  0
STYLE
  5
2C2
330
3
100
AcDbSymbolTableRecord
100
AcDbTextStyleTableRecord
  2
DC_TEXTSTYLE7
 70
     0
 40
0.027
 41
1.0
 50
0.0
 71
     0
 42
0.2
  3
arial.ttf
  4

1001
ACAD
1000
Arial
1071
        4
  0
ENDTAB
  0
TABLE
  2
VIEW
  5
6
330
0
100
AcDbSymbolTable
 70
     0
  0
ENDTAB
  0
TABLE
  2
UCS
  5
7
330
0
100
AcDbSymbolTable
 70
     0
  0
ENDTAB
  0
TABLE
  2
APPID
  5
9
330
0
100
AcDbSymbolTable
 70
     2
  0
APPID
  5
12
330
9
100
AcDbSymbolTableRecord
100
AcDbRegAppTableRecord
  2
ACAD
 70
     0
  0
APPID
  5
340
330
9
100
AcDbSymbolTableRecord
100
AcDbRegAppTableRecord
  2
ACAD_MLEADERVER
 70
     0
  0
ENDTAB
  0
TABLE
  2
DIMSTYLE
  5
A
330
0
100
AcDbSymbolTable
 70
     1
100
AcDbDimStyleTable
  0
DIMSTYLE
105
27
102
{ACAD_REACTORS
330
2C1
330
2D0
330
2DD
102
}
330
A
100
AcDbSymbolTableRecord
100
AcDbDimStyleTableRecord
  2
Standard
 70
     0
178
     0
340
11
  0
ENDTAB
  0
TABLE
  2
BLOCK_RECORD
  5
1
330
0
100
AcDbSymbolTable
 70
     5
  0
BLOCK_RECORD
  5
1F
330
1
100
AcDbSymbolTableRecord
100
AcDbBlockTableRecord
  2
*Model_Space
340
22
  0
BLOCK_RECORD
  5
1B
330
1
100
AcDbSymbolTableRecord
100
AcDbBlockTableRecord
  2
*Paper_Space
340
1E
  0
BLOCK_RECORD
  5
9E
330
1
100
AcDbSymbolTableRecord
100
AcDbBlockTableRecord
  2
1
340
0
  0
BLOCK_RECORD
  5
2C4
330
1
100
AcDbSymbolTableRecord
100
AcDbBlockTableRecord
  2
*D2
340
0
  0
BLOCK_RECORD
  5
2D1
330
1
100
AcDbSymbolTableRecord
100
AcDbBlockTableRecord
  2
*D3
340
0
  0
BLOCK_RECORD
  5
2DE
330
1
100
AcDbSymbolTableRecord
100
AcDbBlockTableRecord
  2
*D4
340
0
  0
ENDTAB
  0
ENDSEC
  0
SECTION
  2
BLOCKS
  0
BLOCK
  5
20
330
1F
100
AcDbEntity
  8
0
100
AcDbBlockBegin
  2
*Model_Space
 70
     0
 10
0.0
 20
0.0
 30
0.0
  3
*Model_Space
  1

  0
ENDBLK
  5
21
330
1F
100
AcDbEntity
  8
0
100
AcDbBlockEnd
  0
BLOCK
  5
1C
330
1B
100
AcDbEntity
 67
     1
  8
0
100
AcDbBlockBegin
  2
*Paper_Space
 70
     0
 10
0.0
 20
0.0
 30
0.0
  3
*Paper_Space
  1

  0
ENDBLK
  5
1D
330
1B
100
AcDbEntity
 67
     1
  8
0
100
AcDbBlockEnd
  0
BLOCK
  5
D4
330
9E
100
AcDbEntity
  8
0
100
AcDbBlockBegin
  2
1
 70
     0
 10
1.833888647433221
 20
0.025633171126641
 30
0.0
  3
1
  1

  0
POLYLINE
  5
9F
330
9E
100
AcDbEntity
  8
1
  6
Continuous
 62
     7
 48
0.0006889496814055
370
     0
100
AcDb2dPolyline
 66
     1
 10
0.0
 20
0.0
 30
0.0
  0
VERTEX
  5
A0
330
9F
100
AcDbEntity
  8
1
  6
Continuous
 62
     7
 48
0.0006889496814055
100
AcDbVertex
100
AcDb2dVertex
 10
1.732209856468478
 20
-0.0311927839110888
 30
0.0
 40
13.24372082254107
 41
13.24372082254107
  0
VERTEX
  5
A1
330
9F
100
AcDbEntity
  8
1
  6
Continuous
 62
     7
 48
0.0006889496814055
100
AcDbVertex
100
AcDb2dVertex
 10
1.732209856468478
 20
-0.0311927839110888
 30
0.0
 40
13.24372082254107
 41
13.24372082254107
  0
SEQEND
  5
A2
330
9F
100
AcDbEntity
  8
1
  6
Continuous
 62
     7
 48
0.0006889496814055
370
     0
  0
POLYLINE
  5
A3
330
9E
100
AcDbEntity
  8
1
  6
Continuous
 62
     7
 48
0.0006889496814055
370
     0
100
AcDb2dPolyline
 66
     1
 10
0.0
 20
0.0
 30
0.0
  0
VERTEX
  5
A4
330
A3
100
AcDbEntity
  8
1
  6
Continuous
 62
     7
 48
0.0006889496814055
100
AcDbVertex
100
AcDb2dVertex
 10
1.911838812121616
 20
-0.0436670169425567
 30
0.0
 40
13.24372082254107
 41
13.24372082254107
  0
VERTEX
  5
A5
330
A3
100
AcDbEntity
  8
1
  6
Continuous
 62
     7
 48
0.0006889496814055
100
AcDbVertex
100
AcDb2dVertex
 10
1.895284945773521
 20
-0.0311927839110888
 30
0.0
 40
13.24372082254107
 41
13.24372082254107
  0
SEQEND
  5
A6
330
A3
100
AcDbEntity
  8
1
  6
Continuous
 62
     7
 48
0.0006889496814055
370
     0
  0
POLYLINE
  5
A7
330
9E
100
AcDbEntity
  8
1
  6
Continuous
 62
     7
 48
0.0006889496814055
370
     0
100
AcDb2dPolyline
 66
     1
 10
0.0
 20
0.0
 30
0.0
  0
VERTEX
  5
A8
330
A7
100
AcDbEntity
  8
1
  6
Continuous
 62
     7
 48
0.0006889496814055
100
AcDbVertex
100
AcDb2dVertex
 10
1.737199549681065
 20
-0.0311927839110888
 30
0.0
 40
13.24372082254107
 41
13.24372082254107
  0
VERTEX
  5
A9
330
A7
100
AcDbEntity
  8
1
  6
Continuous
 62
     7
 48
0.0006889496814055
100
AcDbVertex
100
AcDb2dVertex
 10
1.732209856468478
 20
-0.0262030906985019
 30
0.0
 40
13.24372082254107
 41
13.24372082254107
  0
SEQEND
  5
AA
330
A7
100
AcDbEntity
  8
1
  6
Continuous
 62
     7
 48
0.0006889496814055
370
     0
  0
POLYLINE
  5
AB
330
9E
100
AcDbEntity
  8
1
  6
Continuous
 62
     7
 48
0.0006889496814055
370
     0
100
AcDb2dPolyline
 66
     1
 10
0.0
 20
0.0
 30
0.0
  0
VERTEX
  5
AC
330
AB
100
AcDbEntity
  8
1
  6
Continuous
 62
     7
 48
0.0006889496814055
100
AcDbVertex
100
AcDb2dVertex
 10
1.911838812121616
 20
0.0486423074903059
 30
0.0
 40
13.24372082254107
 41
13.24372082254107
  0
VERTEX
  5
AD
330
AB
100
AcDbEntity
  8
1
  6
Continuous
 62
     7
 48
0.0006889496814055
100
AcDbVertex
100
AcDb2dVertex
 10
1.732209856468478
 20
0.0486423074903059
 30
0.0
 40
13.24372082254107
 41
13.24372082254107
  0
SEQEND
  5
AE
330
AB
100
AcDbEntity
  8
1
  6
Continuous
 62
     7
 48
0.0006889496814055
370
     0
  0
POLYLINE
  5
AF
330
9E
100
AcDbEntity
  8
1
  6
Continuous
 62
     7
 48
0.0006889496814055
370
     0
100
AcDb2dPolyline
 66
     1
 10
0.0
 20
0.0
 30
0.0
  0
VERTEX
  5
B0
330
AF
100
AcDbEntity
  8
1
  6
Continuous
 62
     7
 48
0.0006889496814055
100
AcDbVertex
100
AcDb2dVertex
 10
1.911838812121616
 20
0.1010340862224713
 30
0.0
 40
13.24372082254107
 41
13.24372082254107
  0
VERTEX
  5
B1
330
AF
100
AcDbEntity
  8
1
  6
Continuous
 62
     7
 48
0.0006889496814055
100
AcDbVertex
100
AcDb2dVertex
 10
1.895284945773521
 20
0.0885598531910033
 30
0.0
 40
13.24372082254107
 41
13.24372082254107
  0
SEQEND
  5
B2
330
AF
100
AcDbEntity
  8
1
  6
Continuous
 62
     7
 48
0.0006889496814055
370
     0
  0
POLYLINE
  5
B3
330
9E
100
AcDbEntity
  8
1
  6
Continuous
 62
     7
 48
0.0006889496814055
370
     0
100
AcDb2dPolyline
 66
     1
 10
0.0
 20
0.0
 30
0.0
  0
VERTEX
  5
B4
330
B3
100
AcDbEntity
  8
1
  6
Continuous
 62
     7
 48
0.0006889496814055
100
AcDbVertex
100
AcDb2dVertex
 10
1.737199549681065
 20
0.0885598531910033
 30
0.0
 40
13.24372082254107
 41
13.24372082254107
  0
VERTEX
  5
B5
330
B3
100
AcDbEntity
  8
1
  6
Continuous
 62
     7
 48
0.0006889496814055
100
AcDbVertex
100
AcDb2dVertex
 10
1.732209856468478
 20
0.0835701599784165
 30
0.0
 40
13.24372082254107
 41
13.24372082254107
  0
SEQEND
  5
B6
330
B3
100
AcDbEntity
  8
1
  6
Continuous
 62
     7
 48
0.0006889496814055
370
     0
  0
POLYLINE
  5
B7
330
9E
100
AcDbEntity
  8
1
  6
Continuous
 62
     7
 48
0.0006889496814055
370
     0
100
AcDb2dPolyline
 66
     1
 10
0.0
 20
0.0
 30
0.0
  0
VERTEX
  5
B8
330
B7
100
AcDbEntity
  8
1
  6
Continuous
 62
     7
 48
0.0006889496814055
100
AcDbVertex
100
AcDb2dVertex
 10
1.911838812121616
 20
0.0087247617896085
 30
0.0
 40
13.24372082254107
 41
13.24372082254107
  0
VERTEX
  5
B9
330
B7
100
AcDbEntity
  8
1
  6
Continuous
 62
     7
 48
0.0006889496814055
100
AcDbVertex
100
AcDb2dVertex
 10
1.732209856468478
 20
0.0087247617896085
 30
0.0
 40
13.24372082254107
 41
13.24372082254107
  0
SEQEND
  5
BA
330
B7
100
AcDbEntity
  8
1
  6
Continuous
 62
     7
 48
0.0006889496814055
370
     0
  0
POLYLINE
  5
BB
330
9E
100
AcDbEntity
  8
1
  6
Continuous
 62
     7
 48
0.0006889496814055
370
     0
100
AcDb2dPolyline
 66
     1
 10
0.0
 20
0.0
 30
0.0
  0
VERTEX
  5
BC
330
BB
100
AcDbEntity
  8
1
  6
Continuous
 62
     7
 48
0.0006889496814055
100
AcDbVertex
100
AcDb2dVertex
 10
1.906849118909029
 20
0.0486423074903059
 30
0.0
 40
13.24372082254107
 41
13.24372082254107
  0
VERTEX
  5
BD
330
BB
100
AcDbEntity
  8
1
  6
Continuous
 62
     7
 48
0.0006889496814055
100
AcDbVertex
100
AcDb2dVertex
 10
1.737199549681065
 20
0.0486423074903059
 30
0.0
 40
13.24372082254107
 41
13.24372082254107
  0
SEQEND
  5
BE
330
BB
100
AcDbEntity
  8
1
  6
Continuous
 62
     7
 48
0.0006889496814055
370
     0
  0
POLYLINE
  5
BF
330
9E
100
AcDbEntity
  8
1
  6
Continuous
 62
     7
 48
0.0006889496814055
370
     0
100
AcDb2dPolyline
 66
     1
 10
0.0
 20
0.0
 30
0.0
  0
VERTEX
  5
C0
330
BF
100
AcDbEntity
  8
1
  6
Continuous
 62
     7
 48
0.0006889496814055
100
AcDbVertex
100
AcDb2dVertex
 10
1.911838812121616
 20
-0.0436670169425567
 30
0.0
 40
13.24372082254107
 41
13.24372082254107
  0
VERTEX
  5
C1
330
BF
100
AcDbEntity
  8
1
  6
Continuous
 62
     7
 48
0.0006889496814055
100
AcDbVertex
100
AcDb2dVertex
 10
1.911838812121616
 20
0.1010340862224717
 30
0.0
 40
13.24372082254107
 41
13.24372082254107
  0
SEQEND
  5
C2
330
BF
100
AcDbEntity
  8
1
  6
Continuous
 62
     7
 48
0.0006889496814055
370
     0
  0
POLYLINE
  5
C3
330
9E
100
AcDbEntity
  8
1
  6
Continuous
 62
     7
 48
0.0006889496814055
370
     0
100
AcDb2dPolyline
 66
     1
 10
0.0
 20
0.0
 30
0.0
 70
   128
  0
VERTEX
  5
C4
330
C3
100
AcDbEntity
  8
1
  6
Continuous
 62
     7
 48
0.0006889496814055
100
AcDbVertex
100
AcDb2dVertex
 10
1.895284945773521
 20
0.0885598531910033
 30
0.0
 40
13.24372082254107
 41
13.24372082254107
  0
VERTEX
  5
C5
330
C3
100
AcDbEntity
  8
1
  6
Continuous
 62
     7
 48
0.0006889496814055
100
AcDbVertex
100
AcDb2dVertex
 10
1.737199549681065
 20
0.0885598531910033
 30
0.0
 40
13.24372082254107
 41
13.24372082254107
  0
VERTEX
  5
C6
330
C3
100
AcDbEntity
  8
1
  6
Continuous
 62
     7
 48
0.0006889496814055
100
AcDbVertex
100
AcDb2dVertex
 10
1.732209856468478
 20
0.0835701599784164
 30
0.0
 40
13.24372082254107
 41
13.24372082254107
  0
SEQEND
  5
C7
330
C3
100
AcDbEntity
  8
1
  6
Continuous
 62
     7
 48
0.0006889496814055
370
     0
  0
POLYLINE
  5
C8
330
9E
100
AcDbEntity
  8
1
  6
Continuous
 62
     7
 48
0.0006889496814055
370
     0
100
AcDb2dPolyline
 66
     1
 10
0.0
 20
0.0
 30
0.0
 70
   128
  0
VERTEX
  5
C9
330
C8
100
AcDbEntity
  8
1
  6
Continuous
 62
     7
 48
0.0006889496814055
100
AcDbVertex
100
AcDb2dVertex
 10
1.895284945773521
 20
-0.0311927839110888
 30
0.0
 40
13.24372082254107
 41
13.24372082254107
  0
VERTEX
  5
CA
330
C8
100
AcDbEntity
  8
1
  6
Continuous
 62
     7
 48
0.0006889496814055
100
AcDbVertex
100
AcDb2dVertex
 10
1.737199549681065
 20
-0.0311927839110888
 30
0.0
 40
13.24372082254107
 41
13.24372082254107
  0
VERTEX
  5
CB
330
C8
100
AcDbEntity
  8
1
  6
Continuous
 62
     7
 48
0.0006889496814055
100
AcDbVertex
100
AcDb2dVertex
 10
1.732209856468478
 20
-0.0262030906985019
 30
0.0
 40
13.24372082254107
 41
13.24372082254107
  0
SEQEND
  5
CC
330
C8
100
AcDbEntity
  8
1
  6
Continuous
 62
     7
 48
0.0006889496814055
370
     0
  0
POLYLINE
  5
CD
330
9E
100
AcDbEntity
  8
1
  6
Continuous
 62
     7
 48
0.0006889496814055
370
     0
100
AcDb2dPolyline
 66
     1
 10
0.0
 20
0.0
 30
0.0
  0
VERTEX
  5
CE
330
CD
100
AcDbEntity
  8
1
  6
Continuous
 62
     7
 48
0.0006889496814055
100
AcDbVertex
100
AcDb2dVertex
 10
1.732209856468478
 20
-0.0262030906985019
 30
0.0
 40
13.24372082254107
 41
13.24372082254107
  0
VERTEX
  5
CF
330
CD
100
AcDbEntity
  8
1
  6
Continuous
 62
     7
 48
0.0006889496814055
100
AcDbVertex
100
AcDb2dVertex
 10
1.732209856468478
 20
0.0835701599784163
 30
0.0
 40
13.24372082254107
 41
13.24372082254107
  0
SEQEND
  5
D0
330
CD
100
AcDbEntity
  8
1
  6
Continuous
 62
     7
 48
0.0006889496814055
370
     0
  0
HATCH
  5
D1
330
9E
100
AcDbEntity
  8
1
  6
Continuous
 62
     7
 48
0.0018799126536527
370
     0
100
AcDbHatch
 10
0.0
 20
0.0
 30
0.0
210
0.0
220
0.0
230
1.0
  2
DC_ANSI31
 70
     0
 71
     0
 91
        1
 92
        3
 72
     0
 73
     1
 93
        6
 10
1.911838812121616
 20
0.048642307490306
 10
1.732209856468478
 20
0.048642307490306
 10
1.732209856468478
 20
0.0835701599784153
 10
1.737199549681065
 20
0.0885598531910033
 10
1.895284945773523
 20
0.0885598531910033
 10
1.911838812121616
 20
0.1010340862224718
 97
        0
 75
     0
 76
     2
 52
0.0
 41
50.0
 77
     0
 78
     1
 53
45.0
 43
0.0
 44
0.0
 45
-0.0132929898543621
 46
0.0132929898543621
 79
     1
 49
3.759825307305369
 98
        1
 10
0.0
 20
0.0
  0
HATCH
  5
D2
330
9E
100
AcDbEntity
  8
1
  6
Continuous
 62
     7
 48
0.0018799126536527
370
     0
100
AcDbHatch
 10
0.0
 20
0.0
 30
0.0
210
0.0
220
0.0
230
1.0
  2
DC_ANSI31
 70
     0
 71
     0
 91
        1
 92
        3
 72
     0
 73
     1
 93
        6
 10
1.911838812121616
 20
-0.0436670169425566
 10
1.895284945773522
 20
-0.0311927839110888
 10
1.737199549681066
 20
-0.0311927839110888
 10
1.732209856468478
 20
-0.0262030906985011
 10
1.732209856468478
 20
0.0087247617896085
 10
1.911838812121616
 20
0.0087247617896085
 97
        0
 75
     0
 76
     2
 52
0.0
 41
50.0
 77
     0
 78
     1
 53
45.0
 43
0.0
 44
0.0
 45
-0.0132929898543621
 46
0.0132929898543621
 79
     1
 49
3.759825307305369
 98
        1
 10
0.0
 20
0.0
  0
LINE
  5
D3
330
9E
100
AcDbEntity
  8
1
  6
Continuous
 62
     7
 48
0.0006015720491689
370
     0
100
AcDbLine
 10
1.732209856468478
 20
0.0286835346399572
 30
0.0
 11
1.911838812121617
 21
0.0286835346399574
 31
0.0
  0
ENDBLK
  5
D5
330
9E
100
AcDbEntity
  8
0
100
AcDbBlockEnd
  0
BLOCK
  5
2C5
330
2C4
100
AcDbEntity
  8
0
100
AcDbBlockBegin
  2
*D2
 70
     1
 10
0.0
 20
0.0
 30
0.0
  3
*D2
  1

  0
LINE
  5
2C7
330
2C4
100
AcDbEntity
  8
1
  6
Continuous
 62
     0
 48
0.0000375982530731
370
    -2
100
AcDbLine
 10
1.535298468555846
 20
0.6004736655004893
 30
0.0
 11
1.535298468555846
 21
0.764508665500489
 31
0.0
  0
LINE
  5
2C8
330
2C4
100
AcDbEntity
  8
1
  6
Continuous
 62
     0
 48
0.0000375982530731
370
    -2
100
AcDbLine
 10
1.906498468555846
 20
0.6444736655004895
 30
0.0
 11
1.906498468555846
 21
0.764508665500489
 31
0.0
  0
LINE
  5
2C9
330
2C4
100
AcDbEntity
  8
1
  6
Continuous
 62
     0
 48
0.0000375982530731
370
    -2
100
AcDbLine
 10
1.562298468555846
 20
0.756473665500489
 30
0.0
 11
1.879498468555846
 21
0.756473665500489
 31
0.0
  0
SOLID
  5
2CA
330
2C4
100
AcDbEntity
  8
1
 62
     0
100
AcDbTrace
 10
1.562298468555846
 20
0.760973665500489
 30
0.0
 11
1.562298468555846
 21
0.751973665500489
 31
0.0
 12
1.535298468555846
 22
0.756473665500489
 32
0.0
 13
1.535298468555846
 23
0.756473665500489
 33
0.0
  0
SOLID
  5
2CB
330
2C4
100
AcDbEntity
  8
1
 62
     0
100
AcDbTrace
 10
1.879498468555846
 20
0.751973665500489
 30
0.0
 11
1.879498468555846
 21
0.760973665500489
 31
0.0
 12
1.906498468555846
 22
0.756473665500489
 32
0.0
 13
1.906498468555846
 23
0.756473665500489
 33
0.0
  0
MTEXT
  5
2CC
330
2C4
100
AcDbEntity
  8
1
 62
     0
370
     0
100
AcDbMText
 10
1.720898468555846
 20
0.7814571655004889
 30
0.0
 40
0.027
 41
0.0
 71
     5
 72
     1
  1
\A1;0.371
  7
DC_TEXTSTYLE7
 73
     1
 44
1.0
  0
POINT
  5
2CD
330
2C4
100
AcDbEntity
  8
Defpoints
 62
     0
100
AcDbPoint
 10
1.535298468555846
 20
0.5734736655004893
 30
0.0
  0
POINT
  5
2CE
330
2C4
100
AcDbEntity
  8
Defpoints
 62
     0
100
AcDbPoint
 10
1.906498468555846
 20
0.6174736655004894
 30
0.0
  0
POINT
  5
2CF
330
2C4
100
AcDbEntity
  8
Defpoints
 62
     0
100
AcDbPoint
 10
1.906498468555846
 20
0.756473665500489
 30
0.0
  0
ENDBLK
  5
2C6
330
2C4
100
AcDbEntity
  8
0
100
AcDbBlockEnd
  0
BLOCK
  5
2D2
330
2D1
100
AcDbEntity
  8
0
100
AcDbBlockBegin
  2
*D3
 70
     1
 10
0.0
 20
0.0
 30
0.0
  3
*D3
  1

  0
LINE
  5
2D4
330
2D1
100
AcDbEntity
  8
1
  6
Continuous
 62
     0
 48
0.0000375982530731
370
    -2
100
AcDbLine
 10
1.226498468555846
 20
0.6013315298767586
 30
0.0
 11
1.226498468555846
 21
0.8455086655004891
 31
0.0
  0
LINE
  5
2D5
330
2D1
100
AcDbEntity
  8
1
  6
Continuous
 62
     0
 48
0.0000375982530731
370
    -2
100
AcDbLine
 10
1.906498468555846
 20
0.6444736655004895
 30
0.0
 11
1.906498468555846
 21
0.8455086655004891
 31
0.0
  0
LINE
  5
2D6
330
2D1
100
AcDbEntity
  8
1
  6
Continuous
 62
     0
 48
0.0000375982530731
370
    -2
100
AcDbLine
 10
1.253498468555846
 20
0.8374736655004891
 30
0.0
 11
1.879498468555846
 21
0.8374736655004891
 31
0.0
  0
SOLID
  5
2D7
330
2D1
100
AcDbEntity
  8
1
 62
     0
100
AcDbTrace
 10
1.253498468555846
 20
0.841973665500489
 30
0.0
 11
1.253498468555846
 21
0.8329736655004891
 31
0.0
 12
1.226498468555846
 22
0.8374736655004891
 32
0.0
 13
1.226498468555846
 23
0.8374736655004891
 33
0.0
  0
SOLID
  5
2D8
330
2D1
100
AcDbEntity
  8
1
 62
     0
100
AcDbTrace
 10
1.879498468555846
 20
0.8329736655004891
 30
0.0
 11
1.879498468555846
 21
0.841973665500489
 31
0.0
 12
1.906498468555846
 22
0.8374736655004891
 32
0.0
 13
1.906498468555846
 23
0.8374736655004891
 33
0.0
  0
MTEXT
  5
2D9
330
2D1
100
AcDbEntity
  8
1
 62
     0
370
     0
100
AcDbMText
 10
1.566498468555846
 20
0.862457165500489
 30
0.0
 40
0.027
 41
0.0
 71
     5
 72
     1
  1
\A1;0.680
  7
DC_TEXTSTYLE7
 73
     1
 44
1.0
  0
POINT
  5
2DA
330
2D1
100
AcDbEntity
  8
Defpoints
 62
     0
100
AcDbPoint
 10
1.226498468555846
 20
0.5743315298767586
 30
0.0
  0
POINT
  5
2DB
330
2D1
100
AcDbEntity
  8
Defpoints
 62
     0
100
AcDbPoint
 10
1.906498468555846
 20
0.6174736655004894
 30
0.0
  0
POINT
  5
2DC
330
2D1
100
AcDbEntity
  8
Defpoints
 62
     0
100
AcDbPoint
 10
1.906498468555846
 20
0.8374736655004891
 30
0.0
  0
ENDBLK
  5
2D3
330
2D1
100
AcDbEntity
  8
0
100
AcDbBlockEnd
  0
BLOCK
  5
2DF
330
2DE
100
AcDbEntity
  8
0
100
AcDbBlockBegin
  2
*D4
 70
     1
 10
0.0
 20
0.0
 30
0.0
  3
*D4
  1

  0
LINE
  5
2E1
330
2DE
100
AcDbEntity
  8
1
  6
Continuous
 62
     0
 48
0.0000375982530731
370
    -2
100
AcDbLine
 10
1.747789377646755
 20
-0.0985263344995107
 30
0.0
 11
2.022533468555846
 21
-0.0985263344995108
 31
0.0
  0
LINE
  5
2E2
330
2DE
100
AcDbEntity
  8
1
  6
Continuous
 62
     0
 48
0.0000375982530731
370
    -2
100
AcDbLine
 10
1.747789377646755
 20
0.675473665500489
 30
0.0
 11
2.022533468555846
 21
0.675473665500489
 31
0.0
  0
LINE
  5
2E3
330
2DE
100
AcDbEntity
  8
1
  6
Continuous
 62
     0
 48
0.0000375982530731
370
    -2
100
AcDbLine
 10
2.014498468555846
 20
-0.0715263344995108
 30
0.0
 11
2.014498468555846
 21
0.648473665500489
 31
0.0
  0
SOLID
  5
2E4
330
2DE
100
AcDbEntity
  8
1
 62
     0
100
AcDbTrace
 10
2.009998468555846
 20
-0.0715263344995108
 30
0.0
 11
2.018998468555846
 21
-0.0715263344995108
 31
0.0
 12
2.014498468555846
 22
-0.0985263344995108
 32
0.0
 13
2.014498468555846
 23
-0.0985263344995108
 33
0.0
  0
SOLID
  5
2E5
330
2DE
100
AcDbEntity
  8
1
 62
     0
100
AcDbTrace
 10
2.018998468555846
 20
0.648473665500489
 30
0.0
 11
2.009998468555846
 21
0.648473665500489
 31
0.0
 12
2.014498468555846
 22
0.675473665500489
 32
0.0
 13
2.014498468555846
 23
0.675473665500489
 33
0.0
  0
MTEXT
  5
2E6
330
2DE
100
AcDbEntity
  8
1
 62
     0
370
     0
100
AcDbMText
 10
1.988772468555846
 20
0.2884736655004891
 30
0.0
 40
0.027
 41
0.0
 71
     5
 72
     1
  1
\A1;Ø0.774
  7
DC_TEXTSTYLE7
 11
0.0
 21
1.0
 31
0.0
 73
     1
 44
1.0
  0
POINT
  5
2E7
330
2DE
100
AcDbEntity
  8
Defpoints
 62
     0
100
AcDbPoint
 10
1.720789377646755
 20
-0.0985263344995107
 30
0.0
  0
POINT
  5
2E8
330
2DE
100
AcDbEntity
  8
Defpoints
 62
     0
100
AcDbPoint
 10
1.720789377646755
 20
0.675473665500489
 30
0.0
  0
POINT
  5
2E9
330
2DE
100
AcDbEntity
  8
Defpoints
 62
     0
100
AcDbPoint
 10
2.014498468555846
 20
0.675473665500489
 30
0.0
  0
ENDBLK
  5
2E0
330
2DE
100
AcDbEntity
  8
0
100
AcDbBlockEnd
  0
ENDSEC
  0
SECTION
  2
ENTITIES
  0
LINE
  5
D6
330
1F
100
AcDbEntity
  8
1
  6
Continuous
 62
     7
 48
0.0006015720491689
370
     0
100
AcDbLine
 10
0.0575544912421507
 20
-0.9344680807832851
 30
0.0
 11
3.179114084391764
 21
-0.9344680807832851
 31
0.0
  0
LINE
  5
D7
330
1F
100
AcDbEntity
  8
1
  6
Continuous
 62
     7
 48
0.0006015720491689
370
     0
100
AcDbLine
 10
0.0575544912421507
 20
-0.9344680807832851
 30
0.0
 11
0.0575544912421507
 21
1.27269526790836
 31
0.0
  0
LINE
  5
D8
330
1F
100
AcDbEntity
  8
1
  6
Continuous
 62
     7
 48
0.0006015720491689
370
     0
100
AcDbLine
 10
3.179114084391764
 20
-0.9344680807832851
 30
0.0
 11
3.179114084391764
 21
1.27269526790836
 31
0.0
  0
LINE
  5
D9
330
1F
100
AcDbEntity
  8
1
  6
Continuous
 62
     7
 48
0.0006015720491689
370
     0
100
AcDbLine
 10
3.179114084391764
 20
1.27269526790836
 30
0.0
 11
0.0575544912421507
 21
1.27269526790836
 31
0.0
  0
POLYLINE
  5
DA
330
1F
100
AcDbEntity
  8
1
  6
Continuous
 62
     7
 48
0.0006015720491689
370
     0
100
AcDb2dPolyline
 66
     1
 10
0.0
 20
0.0
 30
0.0
 70
   128
  0
VERTEX
  5
DB
330
DA
100
AcDbEntity
  8
1
  6
Continuous
 62
     7
 48
0.0006015720491689
100
AcDbVertex
100
AcDb2dVertex
 10
2.495944476463397
 20
-0.912908487633672
 30
0.0
  0
VERTEX
  5
DC
330
DA
100
AcDbEntity
  8
1
  6
Continuous
 62
     7
 48
0.0006015720491689
100
AcDbVertex
100
AcDb2dVertex
 10
2.495944476463397
 20
-0.8288260743501807
 30
0.0
  0
VERTEX
  5
DD
330
DA
100
AcDbEntity
  8
1
  6
Continuous
 62
     7
 48
0.0006015720491689
100
AcDbVertex
100
AcDb2dVertex
 10
0.0791140843917636
 20
-0.8288260743501806
 30
0.0
  0
SEQEND
  5
DE
330
DA
100
AcDbEntity
  8
1
  6
Continuous
 62
     7
 48
0.0006015720491689
370
     0
  0
LINE
  5
DF
330
1F
100
AcDbEntity
  8
1
  6
Continuous
 62
     7
 48
0.0006015720491689
370
     0
100
AcDbLine
 10
1.899484857233631
 20
-0.7447436610666894
 30
0.0
 11
1.899484857233631
 21
-0.9129084876336723
 31
0.0
  0
LINE
  5
E0
330
1F
100
AcDbEntity
  8
1
  6
Continuous
 62
     7
 48
0.0006015720491689
370
     0
100
AcDbLine
 10
1.303025238003864
 20
-0.7447436610666899
 30
0.0
 11
1.303025238003864
 21
-0.9129084876336723
 31
0.0
  0
TEXT
  5
E2
330
1F
100
AcDbEntity
  8
1
  6
Continuous
 62
     1
420
 16711680
370
     0
100
AcDbText
 10
0.1203023918623007
 20
-0.8142187737255295
 30
0.0
 40
0.0420412066417456
  1
SPEED
  7
DC_TEXTSTYLE4
100
AcDbText
  0
TEXT
  5
E3
330
1F
100
AcDbEntity
  8
1
  6
Continuous
 62
     5
420
      255
370
     0
100
AcDbText
 10
0.3217903928060925
 20
-0.8146180116344305
 30
0.0
 40
0.0420412066417456
  1
FLOW
  7
DC_TEXTSTYLE4
100
AcDbText
  0
TEXT
  5
E4
330
1F
100
AcDbEntity
  8
1
  6
Continuous
 62
     7
370
     0
100
AcDbText
 10
0.5099908476818268
 20
-0.8148224231584404
 30
0.0
 40
0.0420412066417456
  1
PRODUCTS PTY LTD
  7
DC_TEXTSTYLE4
100
AcDbText
  0
LINE
  5
E5
330
1F
100
AcDbEntity
  8
1
  6
Continuous
 62
     7
 48
0.0006015720491689
370
     0
100
AcDbLine
 10
1.144814946579832
 20
-0.7447436610666899
 30
0.0
 11
1.144814946579832
 21
-0.8288260743501807
 31
0.0
  0
TEXT
  5
E7
330
1F
100
AcDbEntity
  8
1
  6
Continuous
 62
     7
370
     0
100
AcDbText
 10
1.172182580151265
 20
-0.7833630145835506
 30
0.0
 40
0.0210206033208729
  1
MAX 3D
  7
DC_TEXTSTYLE5
100
AcDbText
  0
TEXT
  5
E8
330
1F
100
AcDbEntity
  8
1
  6
Continuous
 62
     7
370
     0
100
AcDbText
 10
1.197427089061965
 20
-0.82000342392487
 30
0.0
 40
0.0210206033208729
  1
V14
  7
DC_TEXTSTYLE5
100
AcDbText
  0
LINE
  5
E9
330
1F
100
AcDbEntity
  8
1
  6
Continuous
 62
     7
 48
0.0006015720491689
370
     0
100
AcDbLine
 10
1.303025238003864
 20
-0.8288260743501807
 30
0.0
 11
1.303025238003864
 21
-0.8288260743501807
 31
0.0
  0
LINE
  5
EA
330
1F
100
AcDbEntity
  8
1
  6
Continuous
 62
     7
 48
0.0006015720491689
370
     0
100
AcDbLine
 10
1.899484857233631
 20
-0.8288260743501807
 30
0.0
 11
1.899484857233631
 21
-0.8288260743501807
 31
0.0
  0
TEXT
  5
EB
330
1F
100
AcDbEntity
  8
1
  6
Continuous
 62
     7
370
     0
100
AcDbText
 10
1.324045841324738
 20
-0.8078054710293079
 30
0.0
 40
0.0367860558115274
  1
Drg No: 820-06
  7
DC_TEXTSTYLE5
100
AcDbText
  0
ARC
  5
EC
330
1F
100
AcDbEntity
  8
1
  6
Continuous
 62
     7
 48
0.0006015720491689
370
     0
100
AcDbCircle
 10
0.0791151097870478
 20
1.251134649363463
 30
0.0
 40
0.000001025395284
100
AcDbArc
 50
90.0
 51
180.0
  0
LINE
  5
ED
330
1F
100
AcDbEntity
  8
1
  6
Continuous
 62
     7
 48
0.0006015720491689
370
     0
100
AcDbLine
 10
0.0791151097870478
 20
1.251135674758747
 30
0.0
 11
3.157553465846867
 21
1.251135674758747
 31
0.0
  0
LINE
  5
EE
330
1F
100
AcDbEntity
  8
1
  6
Continuous
 62
     7
 48
0.0006015720491689
370
     0
100
AcDbLine
 10
3.15755449124215
 20
1.251134649363463
 30
0.0
 11
3.15755449124215
 21
-0.9129074622383885
 31
0.0
  0
LINE
  5
EF
330
1F
100
AcDbEntity
  8
1
  6
Continuous
 62
     7
 48
0.0006015720491689
370
     0
100
AcDbLine
 10
3.157553465846867
 20
-0.912908487633672
 30
0.0
 11
0.0791151097870474
 21
-0.912908487633672
 31
0.0
  0
ARC
  5
F0
330
1F
100
AcDbEntity
  8
1
  6
Continuous
 62
     7
 48
0.0006015720491689
370
     0
100
AcDbCircle
 10
0.0791151097870478
 20
-0.912907462238388
 30
0.0
 40
0.0000010253952839
100
AcDbArc
 50
180.0
 51
269.9999999782875
  0
LINE
  5
F1
330
1F
100
AcDbEntity
  8
1
  6
Continuous
 62
     7
 48
0.0006015720491689
370
     0
100
AcDbLine
 10
0.0791140843917639
 20
-0.912907462238388
 30
0.0
 11
0.0791140843917639
 21
1.251134649363463
 31
0.0
  0
LINE
  5
F2
330
1F
100
AcDbEntity
  8
1
  6
Continuous
 62
     7
 48
0.0006015720491689
370
     0
100
AcDbLine
 10
1.618334287816958
 20
1.251135674758747
 30
0.0
 11
1.618334287816958
 21
1.27269526790836
 31
0.0
  0
LINE
  5
F3
330
1F
100
AcDbEntity
  8
1
  6
Continuous
 62
     7
 48
0.0006015720491689
370
     0
100
AcDbLine
 10
3.157554491242151
 20
0.2531960068460283
 30
0.0
 11
3.179114084391764
 21
0.2531960068460281
 31
0.0
  0
LINE
  5
F4
330
1F
100
AcDbEntity
  8
1
  6
Continuous
 62
     7
 48
0.0006015720491689
370
     0
100
AcDbLine
 10
0.0791140843917636
 20
0.2531960068460281
 30
0.0
 11
0.0575544912421507
 21
0.2531960068460281
 31
0.0
  0
POLYLINE
  5
F5
330
1F
100
AcDbEntity
  8
1
  6
Continuous
 62
     7
 48
0.0006015720491689
370
     0
100
AcDb2dPolyline
 66
     1
 10
0.0
 20
0.0
 30
0.0
 70
   128
  0
VERTEX
  5
F6
330
F5
100
AcDbEntity
  8
1
  6
Continuous
 62
     7
 48
0.0006015720491689
100
AcDbVertex
100
AcDb2dVertex
 10
2.495944476463397
 20
-0.8288260743501807
 30
0.0
  0
VERTEX
  5
F7
330
F5
100
AcDbEntity
  8
1
  6
Continuous
 62
     7
 48
0.0006015720491689
100
AcDbVertex
100
AcDb2dVertex
 10
2.495944476463397
 20
-0.7447436610666894
 30
0.0
  0
VERTEX
  5
F8
330
F5
100
AcDbEntity
  8
1
  6
Continuous
 62
     7
 48
0.0006015720491689
100
AcDbVertex
100
AcDb2dVertex
 10
0.0791140843917636
 20
-0.7447436610666898
 30
0.0
  0
SEQEND
  5
F9
330
F5
100
AcDbEntity
  8
1
  6
Continuous
 62
     7
 48
0.0006015720491689
370
     0
  0
POLYLINE
  5
FA
330
1F
100
AcDbEntity
  8
1
  6
Continuous
 62
     7
 48
0.0003007860245844
370
     0
100
AcDb2dPolyline
 66
     1
 10
0.0
 20
0.0
 30
0.0
 70
   128
  0
VERTEX
  5
FB
330
FA
100
AcDbEntity
  8
1
  6
Continuous
 62
     7
 48
0.0003007860245844
100
AcDbVertex
100
AcDb2dVertex
 10
0.0791140843917641
 20
1.194795385013359
 30
0.0
  0
VERTEX
  5
FC
330
FA
100
AcDbEntity
  8
1
  6
Continuous
 62
     7
 48
0.0003007860245844
100
AcDbVertex
100
AcDb2dVertex
 10
0.4271152452142602
 20
1.194795385013358
 30
0.0
  0
VERTEX
  5
FD
330
FA
100
AcDbEntity
  8
1
  6
Continuous
 62
     7
 48
0.0003007860245844
100
AcDbVertex
100
AcDb2dVertex
 10
0.4271152452142602
 20
1.251135674758747
 30
0.0
  0
SEQEND
  5
FE
330
FA
100
AcDbEntity
  8
1
  6
Continuous
 62
     7
 48
0.0003007860245844
370
     0
  0
POLYLINE
  5
FF
330
1F
100
AcDbEntity
  8
1
  6
Continuous
 62
     7
 48
0.0030078602458443
370
     0
100
AcDb2dPolyline
 66
     1
 10
0.0
 20
0.0
 30
0.0
 70
   128
  0
VERTEX
  5
100
330
FF
100
AcDbEntity
  8
1
  6
Continuous
 62
     7
 48
0.0030078602458443
100
AcDbVertex
100
AcDb2dVertex
 10
3.047208745122933
 20
1.25113485444252
 30
0.0
  0
VERTEX
  5
101
330
FF
100
AcDbEntity
  8
1
  6
Continuous
 62
     7
 48
0.0030078602458443
100
AcDbVertex
100
AcDb2dVertex
 10
3.047208745122933
 20
1.184073343212058
 30
0.0
  0
VERTEX
  5
102
330
FF
100
AcDbEntity
  8
1
  6
Continuous
 62
     7
 48
0.0030078602458443
100
AcDbVertex
100
AcDb2dVertex
 10
3.157553465846866
 20
1.184073343212058
 30
0.0
  0
SEQEND
  5
103
330
FF
100
AcDbEntity
  8
1
  6
Continuous
 62
     7
 48
0.0030078602458443
370
     0
  0
LINE
  5
104
330
1F
100
AcDbEntity
  8
1
  6
Continuous
 62
     7
 48
0.0006015720491689
370
     0
100
AcDbLine
 10
2.495944476463397
 20
-0.7447436610666894
 30
0.0
 11
3.15755449124215
 21
-0.7447436610666894
 31
0.0
  0
TEXT
  5
105
330
1F
100
AcDbEntity
  8
1
  6
Continuous
 62
     7
370
     0
100
AcDbText
 10
1.920505460554504
 20
-0.8078054710293079
 30
0.0
 40
0.0367860558115274
  1
Drg Date: 27/07/2017
  7
DC_TEXTSTYLE5
100
AcDbText
  0
TEXT
  5
106
330
1F
100
AcDbEntity
  8
1
  6
Continuous
 62
     5
420
      255
370
     0
100
AcDbText
 10
0.0871312286930536
 20
1.203638367438469
 30
0.0
 40
0.027372059462749
  1
-6 AN FLARE CAP
  7
DC_TEXTSTYLE5
100
AcDbText
  0
TEXT
  5
108
330
1F
100
AcDbEntity
  8
1
  6
DASHED
 62
     1
420
 16711680
370
     0
100
AcDbText
 10
3.07575431130482
 20
1.197485645458148
 30
0.0
 40
0.0294249639224548
  1
A4
 41
1.000000000000003
  7
DC_TEXTSTYLE6
 72
     1
 11
3.1023811054849
 21
1.197485645458148
 31
0.0
100
AcDbText
  0
LINE
  5
109
330
1F
100
AcDbEntity
  8
1
  6
Continuous
 62
     7
 48
0.0017962943824593
370
     0
100
AcDbLine
 10
3.047208745122933
 20
1.184073343212058
 30
0.0
 11
2.860081472395659
 21
1.184073343212058
 31
0.0
  0
LINE
  5
10A
330
1F
100
AcDbEntity
  8
1
  6
CENTER
 62
    94
420
    37376
 48
0.0450909090909091
370
     0
100
AcDbLine
 10
2.923661300414617
 20
1.217604098827289
 30
0.0
 11
2.874144359478692
 21
1.217604098827289
 31
0.0
  0
POLYLINE
  5
10B
330
1F
100
AcDbEntity
  8
1
  6
Continuous
 62
     7
 48
0.0017962943824593
370
     0
100
AcDb2dPolyline
 66
     1
 10
0.0
 20
0.0
 30
0.0
  0
VERTEX
  5
10C
330
10B
100
AcDbEntity
  8
1
  6
Continuous
 62
     7
 48
0.0017962943824593
100
AcDbVertex
100
AcDb2dVertex
 10
3.024663290577479
 20
1.235640462463653
 30
0.0
 40
0.002852
 41
0.002852
  0
VERTEX
  5
10D
330
10B
100
AcDbEntity
  8
1
  6
Continuous
 62
     7
 48
0.0017962943824593
100
AcDbVertex
100
AcDb2dVertex
 10
3.024663290577479
 20
1.199567735190926
 30
0.0
 40
0.002852
 41
0.002852
  0
SEQEND
  5
10E
330
10B
100
AcDbEntity
  8
1
  6
Continuous
 62
     7
 48
0.0017962943824593
370
     0
  0
POLYLINE
  5
10F
330
1F
100
AcDbEntity
  8
1
  6
Continuous
 62
     7
 48
0.0017962943824593
370
     0
100
AcDb2dPolyline
 66
     1
 10
0.0
 20
0.0
 30
0.0
  0
VERTEX
  5
110
330
10F
100
AcDbEntity
  8
1
  6
Continuous
 62
     7
 48
0.0017962943824593
100
AcDbVertex
100
AcDb2dVertex
 10
2.957026926941115
 20
1.228876826100016
 30
0.0
 40
0.002852
 41
0.002852
  0
VERTEX
  5
111
330
10F
100
AcDbEntity
  8
1
  6
Continuous
 62
     7
 48
0.0017962943824593
100
AcDbVertex
100
AcDb2dVertex
 10
2.957026926941115
 20
1.206331371554562
 30
0.0
 40
0.002852
 41
0.002852
  0
SEQEND
  5
112
330
10F
100
AcDbEntity
  8
1
  6
Continuous
 62
     7
 48
0.0017962943824593
370
     0
  0
POLYLINE
  5
113
330
1F
100
AcDbEntity
  8
1
  6
Continuous
 62
     7
 48
0.0017962943824593
370
     0
100
AcDb2dPolyline
 66
     1
 10
0.0
 20
0.0
 30
0.0
  0
VERTEX
  5
114
330
113
100
AcDbEntity
  8
1
  6
Continuous
 62
     7
 48
0.0017962943824593
100
AcDbVertex
100
AcDb2dVertex
 10
2.957026926941115
 20
1.228876826100016
 30
0.0
 40
0.002852
 41
0.002852
  0
VERTEX
  5
115
330
113
100
AcDbEntity
  8
1
  6
Continuous
 62
     7
 48
0.0017962943824593
100
AcDbVertex
100
AcDb2dVertex
 10
3.024663290577479
 20
1.235640462463653
 30
0.0
 40
0.002852
 41
0.002852
  0
SEQEND
  5
116
330
113
100
AcDbEntity
  8
1
  6
Continuous
 62
     7
 48
0.0017962943824593
370
     0
  0
POLYLINE
  5
117
330
1F
100
AcDbEntity
  8
1
  6
Continuous
 62
     7
 48
0.0017962943824593
370
     0
100
AcDb2dPolyline
 66
     1
 10
0.0
 20
0.0
 30
0.0
  0
VERTEX
  5
118
330
117
100
AcDbEntity
  8
1
  6
Continuous
 62
     7
 48
0.0017962943824593
100
AcDbVertex
100
AcDb2dVertex
 10
2.957026926941115
 20
1.206331371554562
 30
0.0
 40
0.002852
 41
0.002852
  0
VERTEX
  5
119
330
117
100
AcDbEntity
  8
1
  6
Continuous
 62
     7
 48
0.0017962943824593
100
AcDbVertex
100
AcDb2dVertex
 10
3.024663290577479
 20
1.199567735190926
 30
0.0
 40
0.002852
 41
0.002852
  0
SEQEND
  5
11A
330
117
100
AcDbEntity
  8
1
  6
Continuous
 62
     7
 48
0.0017962943824593
370
     0
  0
LINE
  5
11B
330
1F
100
AcDbEntity
  8
1
  6
CENTER
 62
    94
420
    37376
 48
0.0450909090909091
370
     0
100
AcDbLine
 10
2.900663290577479
 20
1.240149553372744
 30
0.0
 11
2.900663290577479
 21
1.195058644281835
 31
0.0
  0
LINE
  5
11C
330
1F
100
AcDbEntity
  8
1
  6
Continuous
 62
     7
 48
0.0017962943824593
370
     0
100
AcDbLine
 10
2.860081472395659
 20
1.184073343212058
 30
0.0
 11
2.860081472395658
 21
1.251135674758747
 31
0.0
  0
LINE
  5
11D
330
1F
100
AcDbEntity
  8
1
  6
Continuous
 62
     7
 48
0.0017962943824593
370
     0
100
AcDbLine
 10
2.860081472395659
 20
1.148000615939331
 30
0.0
 11
3.157554286163094
 21
1.148000615939332
 31
0.0
  0
TEXT
  5
11E
330
1F
100
AcDbEntity
  8
1
  6
DASHED
 62
     7
370
     0
100
AcDbText
 10
2.868428727303083
 20
1.15341152448636
 30
0.0
 40
0.016232727272727
  1
3RD ANGLE PROJECTION
 41
1.000000000000007
  7
DC_TEXTSTYLE5
 72
     1
 11
3.008817469121263
 21
1.15341152448636
 31
0.0
100
AcDbText
  0
LINE
  5
11F
330
1F
100
AcDbEntity
  8
1
  6
Continuous
 62
     7
 48
0.0017962943824593
370
     0
100
AcDbLine
 10
2.860081472395659
 20
1.184073343212058
 30
0.0
 11
2.860081472395659
 21
1.148000615939331
 31
0.0
  0
TEXT
  5
120
330
1F
100
AcDbEntity
  8
1
  6
Continuous
 62
     7
370
     0
100
AcDbText
 10
1.724787132672275
 20
-0.7332975072329353
 30
0.0
 40
0.0228923076675076
  1
MK #
 41
1.0
  7
DC_TEXTSTYLE4
100
AcDbText
  0
TEXT
  5
121
330
1F
100
AcDbEntity
  8
1
  6
Continuous
 62
     7
370
     0
100
AcDbText
 10
1.822303248991778
 20
-0.7332975072329353
 30
0.0
 40
0.0228923076675076
  1
QTY
 41
1.000000000000001
  7
DC_TEXTSTYLE4
100
AcDbText
  0
TEXT
  5
122
330
1F
100
AcDbEntity
  8
1
  6
Continuous
 62
     7
370
     0
100
AcDbText
 10
1.910931011067385
 20
-0.7332975072329353
 30
0.0
 40
0.0228923076675076
  1
PART #
 41
0.9999999999999999
  7
DC_TEXTSTYLE4
100
AcDbText
  0
TEXT
  5
123
330
1F
100
AcDbEntity
  8
1
  6
Continuous
 62
     7
370
     0
100
AcDbText
 10
2.112011214254792
 20
-0.733297507232935
 30
0.0
 40
0.0228923076675076
  1
DESCRIPTION
 41
0.9999999999999996
  7
DC_TEXTSTYLE4
100
AcDbText
  0
TEXT
  5
124
330
1F
100
AcDbEntity
  8
1
  6
Continuous
 62
     7
370
     0
100
AcDbText
 10
2.50739063029715
 20
-0.7332975072329353
 30
0.0
 40
0.0228923076675076
  1
MATERIAL
 41
0.9999999999999994
  7
DC_TEXTSTYLE4
100
AcDbText
  0
TEXT
  5
125
330
1F
100
AcDbEntity
  8
1
  6
Continuous
 62
     7
370
     0
100
AcDbText
 10
1.754487132672275
 20
-0.68751289189792
 30
0.0
 40
0.0228923076675078
  1
1
 41
1.000000000000003
  7
DC_TEXTSTYLE5
100
AcDbText
  0
TEXT
  5
126
330
1F
100
AcDbEntity
  8
1
  6
Continuous
 62
     7
370
     0
100
AcDbText
 10
1.846603248991778
 20
-0.68751289189792
 30
0.0
 40
0.0228923076675078
  1
1
 41
1.000000000000004
  7
DC_TEXTSTYLE5
100
AcDbText
  0
TEXT
  5
127
330
1F
100
AcDbEntity
  8
1
  6
Continuous
 62
     7
370
     0
100
AcDbText
 10
1.910931011067385
 20
-0.68751289189792
 30
0.0
 40
0.0228923076675078
  1
C820-06
 41
1.000000000000003
  7
DC_TEXTSTYLE5
100
AcDbText
  0
TEXT
  5
128
330
1F
100
AcDbEntity
  8
1
  6
Continuous
 62
     7
370
     0
100
AcDbText
 10
2.112011214254792
 20
-0.6875128918979198
 30
0.0
 40
0.0228923076675078
  1
-6 AN FLARE CAP
 41
0.9999999999999996
  7
DC_TEXTSTYLE5
100
AcDbText
  0
TEXT
  5
129
330
1F
100
AcDbEntity
  8
1
  6
Continuous
 62
     7
370
     0
100
AcDbText
 10
2.50739063029715
 20
-0.6875128918979201
 30
0.0
 40
0.0228923076675078
  1
ALLOY
 41
0.9999999999999994
  7
DC_TEXTSTYLE5
100
AcDbText
  0
LINE
  5
12A
330
1F
100
AcDbEntity
  8
1
  6
Continuous
 62
     7
 48
0.0017962943824593
370
     0
100
AcDbLine
 10
3.15755449124215
 20
-0.6531744303966586
 30
0.0
 11
1.713340978838521
 21
-0.6531744303966589
 31
0.0
  0
LINE
  5
12B
330
1F
100
AcDbEntity
  8
1
  6
CENTER
 62
    94
420
    37376
 48
0.0450909090909091
370
     0
100
AcDbLine
 10
3.030602107234017
 20
1.217604098827289
 30
0.0
 11
2.950391076411307
 21
1.217604098827289
 31
0.0
  0
LINE
  5
12C
330
1F
100
AcDbEntity
  8
1
  6
Continuous
 62
     7
 48
0.0017962943824593
370
     0
100
AcDbLine
 10
1.713340978838521
 20
-0.7447436610666892
 30
0.0
 11
1.713340978838521
 21
-0.6989590457316739
 31
0.0
  0
LINE
  5
12D
330
1F
100
AcDbEntity
  8
1
  6
Continuous
 62
     7
 48
0.0017962943824593
370
     0
100
AcDbLine
 10
3.15755449124215
 20
-0.7447436610666894
 30
0.0
 11
3.15755449124215
 21
-0.6989590457316741
 31
0.0
  0
LINE
  5
12E
330
1F
100
AcDbEntity
  8
1
  6
Continuous
 62
     7
 48
0.0017962943824593
370
     0
100
AcDbLine
 10
1.900299994471284
 20
-0.7447436610666895
 30
0.0
 11
3.15755449124215
 21
-0.7447436610666895
 31
0.0
  0
LINE
  5
12F
330
1F
100
AcDbEntity
  8
1
  6
Continuous
 62
     7
 48
0.0017962943824593
370
     0
100
AcDbLine
 10
3.15755449124215
 20
-0.6989590457316741
 30
0.0
 11
1.713340978838521
 21
-0.6989590457316743
 31
0.0
  0
LINE
  5
130
330
1F
100
AcDbEntity
  8
1
  6
Continuous
 62
     7
 48
0.0017962943824593
370
     0
100
AcDbLine
 10
1.713340978838521
 20
-0.6989590457316739
 30
0.0
 11
1.713340978838521
 21
-0.6531744303966585
 31
0.0
  0
LINE
  5
131
330
1F
100
AcDbEntity
  8
1
  6
Continuous
 62
     7
 48
0.0017962943824593
370
     0
100
AcDbLine
 10
3.15755449124215
 20
-0.6531744303966586
 30
0.0
 11
3.15755449124215
 21
-0.6989590457316741
 31
0.0
  0
LINE
  5
132
330
1F
100
AcDbEntity
  8
1
  6
Continuous
 62
     7
 48
0.0017962943824593
370
     0
100
AcDbLine
 10
1.810857095158024
 20
-0.7447436610666894
 30
0.0
 11
1.810857095158024
 21
-0.6989590457316739
 31
0.0
  0
LINE
  5
133
330
1F
100
AcDbEntity
  8
1
  6
Continuous
 62
     7
 48
0.0017962943824593
370
     0
100
AcDbLine
 10
1.899484857233631
 20
-0.7447436610666894
 30
0.0
 11
1.899484857233631
 21
-0.6989590457316739
 31
0.0
  0
LINE
  5
134
330
1F
100
AcDbEntity
  8
1
  6
Continuous
 62
     7
 48
0.0017962943824593
370
     0
100
AcDbLine
 10
2.100565060421038
 20
-0.7447436610666892
 30
0.0
 11
2.100565060421038
 21
-0.6989590457316738
 31
0.0
  0
LINE
  5
135
330
1F
100
AcDbEntity
  8
1
  6
Continuous
 62
     7
 48
0.0017962943824593
370
     0
100
AcDbLine
 10
2.495944476463397
 20
-0.7447436610666894
 30
0.0
 11
2.495944476463397
 21
-0.6989590457316736
 31
0.0
  0
LINE
  5
136
330
1F
100
AcDbEntity
  8
1
  6
Continuous
 62
     7
 48
0.0017962943824593
370
     0
100
AcDbLine
 10
1.810857095158024
 20
-0.6989590457316739
 30
0.0
 11
1.810857095158024
 21
-0.6531744303966587
 31
0.0
  0
LINE
  5
137
330
1F
100
AcDbEntity
  8
1
  6
Continuous
 62
     7
 48
0.0017962943824593
370
     0
100
AcDbLine
 10
1.899484857233631
 20
-0.6989590457316739
 30
0.0
 11
1.899484857233631
 21
-0.6531744303966587
 31
0.0
  0
LINE
  5
138
330
1F
100
AcDbEntity
  8
1
  6
Continuous
 62
     7
 48
0.0017962943824593
370
     0
100
AcDbLine
 10
2.100565060421038
 20
-0.6989590457316738
 30
0.0
 11
2.100565060421038
 21
-0.6531744303966589
 31
0.0
  0
LINE
  5
139
330
1F
100
AcDbEntity
  8
1
  6
Continuous
 62
     7
 48
0.0017962943824593
370
     0
100
AcDbLine
 10
2.495944476463397
 20
-0.6989590457316736
 30
0.0
 11
2.495944476463397
 21
-0.6531744303966586
 31
0.0
  0
TEXT
  5
13A
330
1F
100
AcDbEntity
  8
1
  6
Continuous
 62
     7
370
     0
100
AcDbText
 10
2.713680320382172
 20
-0.7332975072329357
 30
0.0
 40
0.0228923076675076
  1
SURFACE CONDITION
 41
1.000000000000001
  7
DC_TEXTSTYLE4
100
AcDbText
  0
TEXT
  5
13B
330
1F
100
AcDbEntity
  8
1
  6
Continuous
 62
     7
370
     0
100
AcDbText
 10
2.713680320382172
 20
-0.6875128918979203
 30
0.0
 40
0.0228923076675078
  1
HARD COAT ANODIZED
 41
1.000000000000004
  7
DC_TEXTSTYLE5
100
AcDbText
  0
LINE
  5
13C
330
1F
100
AcDbEntity
  8
1
  6
Continuous
 62
     7
 48
0.0017962943824593
370
     0
100
AcDbLine
 10
2.702234166548419
 20
-0.7447436610666899
 30
0.0
 11
2.702234166548419
 21
-0.6989590457316743
 31
0.0
  0
LINE
  5
13D
330
1F
100
AcDbEntity
  8
1
  6
Continuous
 62
     7
 48
0.0017962943824593
370
     0
100
AcDbLine
 10
2.702234166548419
 20
-0.6989590457316743
 30
0.0
 11
2.702234166548419
 21
-0.6531744303966591
 31
0.0
  0
TEXT
  5
13E
330
1F
100
AcDbEntity
  8
1
  6
Continuous
 62
     7
370
     0
100
AcDbText
 10
1.754487132672275
 20
-0.6417282765629044
 30
0.0
 40
0.0228923076675078
  1
2
 41
1.000000000000003
  7
DC_TEXTSTYLE5
100
AcDbText
  0
TEXT
  5
13F
330
1F
100
AcDbEntity
  8
1
  6
Continuous
 62
     7
370
     0
100
AcDbText
 10
1.846603248991778
 20
-0.6417282765629044
 30
0.0
 40
0.0228923076675078
  1
1
 41
1.000000000000004
  7
DC_TEXTSTYLE5
100
AcDbText
  0
TEXT
  5
140
330
1F
100
AcDbEntity
  8
1
  6
Continuous
 62
     7
370
     0
100
AcDbText
 10
1.910931011067385
 20
-0.6417282765629044
 30
0.0
 40
0.0228923076675078
  1
COB-06
 41
1.000000000000003
  7
DC_TEXTSTYLE5
100
AcDbText
  0
TEXT
  5
141
330
1F
100
AcDbEntity
  8
1
  6
Continuous
 62
     7
370
     0
100
AcDbText
 10
2.50739063029715
 20
-0.6417282765629045
 30
0.0
 40
0.0228923076675078
  1
NITRILE 90
 41
0.9999999999999994
  7
DC_TEXTSTYLE5
100
AcDbText
  0
LINE
  5
142
330
1F
100
AcDbEntity
  8
1
  6
Continuous
 62
     7
 48
0.0017962943824593
370
     0
100
AcDbLine
 10
3.15755449124215
 20
-0.607389815061643
 30
0.0
 11
1.713340978838521
 21
-0.6073898150616434
 31
0.0
  0
LINE
  5
143
330
1F
100
AcDbEntity
  8
1
  6
Continuous
 62
     7
 48
0.0017962943824593
370
     0
100
AcDbLine
 10
3.15755449124215
 20
-0.6531744303966586
 30
0.0
 11
1.713340978838521
 21
-0.6531744303966589
 31
0.0
  0
LINE
  5
144
330
1F
100
AcDbEntity
  8
1
  6
Continuous
 62
     7
 48
0.0017962943824593
370
     0
100
AcDbLine
 10
1.713340978838521
 20
-0.6531744303966585
 30
0.0
 11
1.713340978838521
 21
-0.6073898150616429
 31
0.0
  0
LINE
  5
145
330
1F
100
AcDbEntity
  8
1
  6
Continuous
 62
     7
 48
0.0017962943824593
370
     0
100
AcDbLine
 10
3.15755449124215
 20
-0.607389815061643
 30
0.0
 11
3.15755449124215
 21
-0.6531744303966586
 31
0.0
  0
LINE
  5
146
330
1F
100
AcDbEntity
  8
1
  6
Continuous
 62
     7
 48
0.0017962943824593
370
     0
100
AcDbLine
 10
1.810857095158024
 20
-0.6531744303966585
 30
0.0
 11
1.810857095158024
 21
-0.6073898150616432
 31
0.0
  0
LINE
  5
147
330
1F
100
AcDbEntity
  8
1
  6
Continuous
 62
     7
 48
0.0017962943824593
370
     0
100
AcDbLine
 10
1.899484857233631
 20
-0.6531744303966585
 30
0.0
 11
1.899484857233631
 21
-0.6073898150616432
 31
0.0
  0
LINE
  5
148
330
1F
100
AcDbEntity
  8
1
  6
Continuous
 62
     7
 48
0.0017962943824593
370
     0
100
AcDbLine
 10
2.100565060421038
 20
-0.6531744303966583
 30
0.0
 11
2.100565060421038
 21
-0.6073898150616434
 31
0.0
  0
LINE
  5
149
330
1F
100
AcDbEntity
  8
1
  6
Continuous
 62
     7
 48
0.0017962943824593
370
     0
100
AcDbLine
 10
2.495944476463397
 20
-0.653174430396658
 30
0.0
 11
2.495944476463397
 21
-0.607389815061643
 31
0.0
  0
TEXT
  5
14A
330
1F
100
AcDbEntity
  8
1
  6
Continuous
 62
     7
370
     0
100
AcDbText
 10
2.713680320382172
 20
-0.6417282765629049
 30
0.0
 40
0.0228923076675078
  1
AS PURCHASED
 41
1.000000000000004
  7
DC_TEXTSTYLE5
100
AcDbText
  0
LINE
  5
14B
330
1F
100
AcDbEntity
  8
1
  6
Continuous
 62
     7
 48
0.0017962943824593
370
     0
100
AcDbLine
 10
2.702234166548419
 20
-0.6531744303966589
 30
0.0
 11
2.702234166548419
 21
-0.6073898150616436
 31
0.0
  0
LINE
  5
14C
330
1F
100
AcDbEntity
  8
1
  6
Continuous
 62
     7
 48
0.0017962943824593
370
     0
100
AcDbLine
 10
3.15755449124215
 20
-0.6073898150616427
 30
0.0
 11
1.713340978838521
 21
-0.6073898150616429
 31
0.0
  0
LINE
  5
14D
330
1F
100
AcDbEntity
  8
1
  6
Continuous
 62
     7
 48
0.0017962943824593
370
     0
100
AcDbLine
 10
3.15755449124215
 20
-0.6073898150616427
 30
0.0
 11
1.713340978838521
 21
-0.6073898150616429
 31
0.0
  0
LINE
  5
14E
330
1F
100
AcDbEntity
  8
1
  6
Continuous
 62
     7
 48
0.0017962943824593
370
     0
100
AcDbLine
 10
3.15755449124215
 20
-0.5616051997266271
 30
0.0
 11
3.15755449124215
 21
-0.6073898150616427
 31
0.0
  0
LINE
  5
14F
330
1F
100
AcDbEntity
  8
1
  6
Continuous
 62
     7
 48
0.0006015720491689
370
     0
100
AcDbLine
 10
0.6596202775918834
 20
-0.9129084876336723
 30
0.0
 11
0.6596202775918834
 21
-0.8288260743501806
 31
0.0
  0
TEXT
  5
150
330
1F
100
AcDbEntity
  8
1
  6
Continuous
 62
     7
370
     0
100
AcDbText
 10
1.920505460554504
 20
-0.8918878843127989
 30
0.0
 40
0.0367860558115274
  1
.
  7
DC_TEXTSTYLE5
100
AcDbText
  0
TEXT
  5
151
330
1F
100
AcDbEntity
  8
1
  6
Continuous
 62
    94
420
    37376
370
     0
100
AcDbText
 10
1.324045841324738
 20
-0.8918878843127994
 30
0.0
 40
0.0367860558115274
  1
.
  7
DC_TEXTSTYLE5
100
AcDbText
  0
TEXT
  5
152
330
1F
100
AcDbEntity
  8
1
  6
Continuous
 62
    94
420
    37376
370
     0
100
AcDbText
 10
0.6806408809127562
 20
-0.8918878843127994
 30
0.0
 40
0.0367860558115274
  1
.
  7
DC_TEXTSTYLE5
100
AcDbText
  0
TEXT
  5
153
330
1F
100
AcDbEntity
  8
1
  6
Continuous
 62
    94
420
    37376
370
     0
100
AcDbText
 10
0.1206163012047691
 20
-0.8918878843127992
 30
0.0
 40
0.0367860558115274
  1
.
  7
DC_TEXTSTYLE5
100
AcDbText
  0
ARC
  5
154
330
1F
100
AcDbEntity
  8
1
  6
Continuous
 62
     7
 48
0.0006015720491689
370
     0
100
AcDbCircle
 10
3.157553465846866
 20
1.25113485444252
 30
0.0
 40
0.0000008203162269
100
AcDbArc
 50
0.0
 51
89.99999996898217
  0
POLYLINE
  5
155
330
1F
100
AcDbEntity
  8
1
  6
Continuous
 62
     7
 48
0.0017962943824593
370
     0
100
AcDb2dPolyline
 66
     1
 10
0.0
 20
0.0
 30
0.0
 70
   129
  0
VERTEX
  5
156
330
155
100
AcDbEntity
  8
1
  6
Continuous
 62
     7
 48
0.0017962943824593
100
AcDbVertex
100
AcDb2dVertex
 10
2.918699654213844
 20
1.217604098827289
 30
0.0
 40
0.002852
 41
0.002852
  0
VERTEX
  5
157
330
155
100
AcDbEntity
  8
1
  6
Continuous
 62
     7
 48
0.0017962943824593
100
AcDbVertex
100
AcDb2dVertex
 10
2.918425641322719
 20
1.220736080504482
 30
0.0
 40
0.002852
 41
0.002852
  0
VERTEX
  5
158
330
155
100
AcDbEntity
  8
1
  6
Continuous
 62
     7
 48
0.0017962943824593
100
AcDbVertex
100
AcDb2dVertex
 10
2.917611928392382
 20
1.223772898503272
 30
0.0
 40
0.002852
 41
0.002852
  0
VERTEX
  5
159
330
155
100
AcDbEntity
  8
1
  6
Continuous
 62
     7
 48
0.0017962943824593
100
AcDbVertex
100
AcDb2dVertex
 10
2.916283239678465
 20
1.226622280645471
 30
0.0
 40
0.002852
 41
0.002852
  0
VERTEX
  5
15A
330
155
100
AcDbEntity
  8
1
  6
Continuous
 62
     7
 48
0.0017962943824593
100
AcDbVertex
100
AcDb2dVertex
 10
2.91447994671519
 20
1.229197649896545
 30
0.0
 40
0.002852
 41
0.002852
  0
VERTEX
  5
15B
330
155
100
AcDbEntity
  8
1
  6
Continuous
 62
     7
 48
0.0017962943824593
100
AcDbVertex
100
AcDb2dVertex
 10
2.912256841646735
 20
1.231420754964999
 30
0.0
 40
0.002852
 41
0.002852
  0
VERTEX
  5
15C
330
155
100
AcDbEntity
  8
1
  6
Continuous
 62
     7
 48
0.0017962943824593
100
AcDbVertex
100
AcDb2dVertex
 10
2.909681472395662
 20
1.233224047928275
 30
0.0
 40
0.002852
 41
0.002852
  0
VERTEX
  5
15D
330
155
100
AcDbEntity
  8
1
  6
Continuous
 62
     7
 48
0.0017962943824593
100
AcDbVertex
100
AcDb2dVertex
 10
2.906832090253463
 20
1.234552736642192
 30
0.0
 40
0.002852
 41
0.002852
  0
VERTEX
  5
15E
330
155
100
AcDbEntity
  8
1
  6
Continuous
 62
     7
 48
0.0017962943824593
100
AcDbVertex
100
AcDb2dVertex
 10
2.903795272254672
 20
1.235366449572528
 30
0.0
 40
0.002852
 41
0.002852
  0
VERTEX
  5
15F
330
155
100
AcDbEntity
  8
1
  6
Continuous
 62
     7
 48
0.0017962943824593
100
AcDbVertex
100
AcDb2dVertex
 10
2.900663290577479
 20
1.235640462463653
 30
0.0
 40
0.002852
 41
0.002852
  0
VERTEX
  5
160
330
155
100
AcDbEntity
  8
1
  6
Continuous
 62
     7
 48
0.0017962943824593
100
AcDbVertex
100
AcDb2dVertex
 10
2.897531308900287
 20
1.235366449572528
 30
0.0
 40
0.002852
 41
0.002852
  0
VERTEX
  5
161
330
155
100
AcDbEntity
  8
1
  6
Continuous
 62
     7
 48
0.0017962943824593
100
AcDbVertex
100
AcDb2dVertex
 10
2.894494490901496
 20
1.234552736642192
 30
0.0
 40
0.002852
 41
0.002852
  0
VERTEX
  5
162
330
155
100
AcDbEntity
  8
1
  6
Continuous
 62
     7
 48
0.0017962943824593
100
AcDbVertex
100
AcDb2dVertex
 10
2.891645108759297
 20
1.233224047928275
 30
0.0
 40
0.002852
 41
0.002852
  0
VERTEX
  5
163
330
155
100
AcDbEntity
  8
1
  6
Continuous
 62
     7
 48
0.0017962943824593
100
AcDbVertex
100
AcDb2dVertex
 10
2.889069739508223
 20
1.231420754964999
 30
0.0
 40
0.002852
 41
0.002852
  0
VERTEX
  5
164
330
155
100
AcDbEntity
  8
1
  6
Continuous
 62
     7
 48
0.0017962943824593
100
AcDbVertex
100
AcDb2dVertex
 10
2.886846634439769
 20
1.229197649896545
 30
0.0
 40
0.002852
 41
0.002852
  0
VERTEX
  5
165
330
155
100
AcDbEntity
  8
1
  6
Continuous
 62
     7
 48
0.0017962943824593
100
AcDbVertex
100
AcDb2dVertex
 10
2.885043341476494
 20
1.226622280645471
 30
0.0
 40
0.002852
 41
0.002852
  0
VERTEX
  5
166
330
155
100
AcDbEntity
  8
1
  6
Continuous
 62
     7
 48
0.0017962943824593
100
AcDbVertex
100
AcDb2dVertex
 10
2.883714652762576
 20
1.223772898503272
 30
0.0
 40
0.002852
 41
0.002852
  0
VERTEX
  5
167
330
155
100
AcDbEntity
  8
1
  6
Continuous
 62
     7
 48
0.0017962943824593
100
AcDbVertex
100
AcDb2dVertex
 10
2.88290093983224
 20
1.220736080504482
 30
0.0
 40
0.002852
 41
0.002852
  0
VERTEX
  5
168
330
155
100
AcDbEntity
  8
1
  6
Continuous
 62
     7
 48
0.0017962943824593
100
AcDbVertex
100
AcDb2dVertex
 10
2.882626926941115
 20
1.217604098827289
 30
0.0
 40
0.002852
 41
0.002852
  0
VERTEX
  5
169
330
155
100
AcDbEntity
  8
1
  6
Continuous
 62
     7
 48
0.0017962943824593
100
AcDbVertex
100
AcDb2dVertex
 10
2.88290093983224
 20
1.214472117150097
 30
0.0
 40
0.002852
 41
0.002852
  0
VERTEX
  5
16A
330
155
100
AcDbEntity
  8
1
  6
Continuous
 62
     7
 48
0.0017962943824593
100
AcDbVertex
100
AcDb2dVertex
 10
2.883714652762576
 20
1.211435299151306
 30
0.0
 40
0.002852
 41
0.002852
  0
VERTEX
  5
16B
330
155
100
AcDbEntity
  8
1
  6
Continuous
 62
     7
 48
0.0017962943824593
100
AcDbVertex
100
AcDb2dVertex
 10
2.885043341476494
 20
1.208585917009107
 30
0.0
 40
0.002852
 41
0.002852
  0
VERTEX
  5
16C
330
155
100
AcDbEntity
  8
1
  6
Continuous
 62
     7
 48
0.0017962943824593
100
AcDbVertex
100
AcDb2dVertex
 10
2.886846634439769
 20
1.206010547758034
 30
0.0
 40
0.002852
 41
0.002852
  0
VERTEX
  5
16D
330
155
100
AcDbEntity
  8
1
  6
Continuous
 62
     7
 48
0.0017962943824593
100
AcDbVertex
100
AcDb2dVertex
 10
2.889069739508223
 20
1.203787442689579
 30
0.0
 40
0.002852
 41
0.002852
  0
VERTEX
  5
16E
330
155
100
AcDbEntity
  8
1
  6
Continuous
 62
     7
 48
0.0017962943824593
100
AcDbVertex
100
AcDb2dVertex
 10
2.891645108759297
 20
1.201984149726304
 30
0.0
 40
0.002852
 41
0.002852
  0
VERTEX
  5
16F
330
155
100
AcDbEntity
  8
1
  6
Continuous
 62
     7
 48
0.0017962943824593
100
AcDbVertex
100
AcDb2dVertex
 10
2.894494490901496
 20
1.200655461012387
 30
0.0
 40
0.002852
 41
0.002852
  0
VERTEX
  5
170
330
155
100
AcDbEntity
  8
1
  6
Continuous
 62
     7
 48
0.0017962943824593
100
AcDbVertex
100
AcDb2dVertex
 10
2.897531308900287
 20
1.19984174808205
 30
0.0
 40
0.002852
 41
0.002852
  0
VERTEX
  5
171
330
155
100
AcDbEntity
  8
1
  6
Continuous
 62
     7
 48
0.0017962943824593
100
AcDbVertex
100
AcDb2dVertex
 10
2.900663290577479
 20
1.199567735190925
 30
0.0
 40
0.002852
 41
0.002852
  0
VERTEX
  5
172
330
155
100
AcDbEntity
  8
1
  6
Continuous
 62
     7
 48
0.0017962943824593
100
AcDbVertex
100
AcDb2dVertex
 10
2.903795272254672
 20
1.19984174808205
 30
0.0
 40
0.002852
 41
0.002852
  0
VERTEX
  5
173
330
155
100
AcDbEntity
  8
1
  6
Continuous
 62
     7
 48
0.0017962943824593
100
AcDbVertex
100
AcDb2dVertex
 10
2.906832090253463
 20
1.200655461012387
 30
0.0
 40
0.002852
 41
0.002852
  0
VERTEX
  5
174
330
155
100
AcDbEntity
  8
1
  6
Continuous
 62
     7
 48
0.0017962943824593
100
AcDbVertex
100
AcDb2dVertex
 10
2.909681472395662
 20
1.201984149726304
 30
0.0
 40
0.002852
 41
0.002852
  0
VERTEX
  5
175
330
155
100
AcDbEntity
  8
1
  6
Continuous
 62
     7
 48
0.0017962943824593
100
AcDbVertex
100
AcDb2dVertex
 10
2.912256841646735
 20
1.203787442689579
 30
0.0
 40
0.002852
 41
0.002852
  0
VERTEX
  5
176
330
155
100
AcDbEntity
  8
1
  6
Continuous
 62
     7
 48
0.0017962943824593
100
AcDbVertex
100
AcDb2dVertex
 10
2.91447994671519
 20
1.206010547758034
 30
0.0
 40
0.002852
 41
0.002852
  0
VERTEX
  5
177
330
155
100
AcDbEntity
  8
1
  6
Continuous
 62
     7
 48
0.0017962943824593
100
AcDbVertex
100
AcDb2dVertex
 10
2.916283239678465
 20
1.208585917009107
 30
0.0
 40
0.002852
 41
0.002852
  0
VERTEX
  5
178
330
155
100
AcDbEntity
  8
1
  6
Continuous
 62
     7
 48
0.0017962943824593
100
AcDbVertex
100
AcDb2dVertex
 10
2.917611928392382
 20
1.211435299151306
 30
0.0
 40
0.002852
 41
0.002852
  0
VERTEX
  5
179
330
155
100
AcDbEntity
  8
1
  6
Continuous
 62
     7
 48
0.0017962943824593
100
AcDbVertex
100
AcDb2dVertex
 10
2.918425641322719
 20
1.214472117150097
 30
0.0
 40
0.002852
 41
0.002852
  0
VERTEX
  5
17A
330
155
100
AcDbEntity
  8
1
  6
Continuous
 62
     7
 48
0.0017962943824593
100
AcDbVertex
100
AcDb2dVertex
 10
2.918699654213844
 20
1.217604098827289
 30
0.0
 40
0.002852
 41
0.002852
  0
SEQEND
  5
17B
330
155
100
AcDbEntity
  8
1
  6
Continuous
 62
     7
 48
0.0017962943824593
370
     0
  0
POLYLINE
  5
17C
330
1F
100
AcDbEntity
  8
1
  6
Continuous
 62
     7
 48
0.0017962943824593
370
     0
100
AcDb2dPolyline
 66
     1
 10
0.0
 20
0.0
 30
0.0
 70
   129
  0
VERTEX
  5
17D
330
17C
100
AcDbEntity
  8
1
  6
Continuous
 62
     7
 48
0.0017962943824593
100
AcDbVertex
100
AcDb2dVertex
 10
2.911936017850207
 20
1.217604098827289
 30
0.0
 40
0.002852
 41
0.002852
  0
VERTEX
  5
17E
330
17C
100
AcDbEntity
  8
1
  6
Continuous
 62
     7
 48
0.0017962943824593
100
AcDbVertex
100
AcDb2dVertex
 10
2.911764759793253
 20
1.219561587375535
 30
0.0
 40
0.002852
 41
0.002852
  0
VERTEX
  5
17F
330
17C
100
AcDbEntity
  8
1
  6
Continuous
 62
     7
 48
0.0017962943824593
100
AcDbVertex
100
AcDb2dVertex
 10
2.911256189211794
 20
1.221459598624779
 30
0.0
 40
0.002852
 41
0.002852
  0
VERTEX
  5
180
330
17C
100
AcDbEntity
  8
1
  6
Continuous
 62
     7
 48
0.0017962943824593
100
AcDbVertex
100
AcDb2dVertex
 10
2.910425758765595
 20
1.223240462463653
 30
0.0
 40
0.002852
 41
0.002852
  0
VERTEX
  5
181
330
17C
100
AcDbEntity
  8
1
  6
Continuous
 62
     7
 48
0.0017962943824593
100
AcDbVertex
100
AcDb2dVertex
 10
2.909298700663548
 20
1.224850068245574
 30
0.0
 40
0.002852
 41
0.002852
  0
VERTEX
  5
182
330
17C
100
AcDbEntity
  8
1
  6
Continuous
 62
     7
 48
0.0017962943824593
100
AcDbVertex
100
AcDb2dVertex
 10
2.907909259995764
 20
1.226239508913358
 30
0.0
 40
0.002852
 41
0.002852
  0
VERTEX
  5
183
330
17C
100
AcDbEntity
  8
1
  6
Continuous
 62
     7
 48
0.0017962943824593
100
AcDbVertex
100
AcDb2dVertex
 10
2.906299654213843
 20
1.227366567015405
 30
0.0
 40
0.002852
 41
0.002852
  0
VERTEX
  5
184
330
17C
100
AcDbEntity
  8
1
  6
Continuous
 62
     7
 48
0.0017962943824593
100
AcDbVertex
100
AcDb2dVertex
 10
2.904518790374969
 20
1.228196997461603
 30
0.0
 40
0.002852
 41
0.002852
  0
VERTEX
  5
185
330
17C
100
AcDbEntity
  8
1
  6
Continuous
 62
     7
 48
0.0017962943824593
100
AcDbVertex
100
AcDb2dVertex
 10
2.902620779125725
 20
1.228705568043063
 30
0.0
 40
0.002852
 41
0.002852
  0
VERTEX
  5
186
330
17C
100
AcDbEntity
  8
1
  6
Continuous
 62
     7
 48
0.0017962943824593
100
AcDbVertex
100
AcDb2dVertex
 10
2.900663290577479
 20
1.228876826100016
 30
0.0
 40
0.002852
 41
0.002852
  0
VERTEX
  5
187
330
17C
100
AcDbEntity
  8
1
  6
Continuous
 62
     7
 48
0.0017962943824593
100
AcDbVertex
100
AcDb2dVertex
 10
2.898705802029234
 20
1.228705568043063
 30
0.0
 40
0.002852
 41
0.002852
  0
VERTEX
  5
188
330
17C
100
AcDbEntity
  8
1
  6
Continuous
 62
     7
 48
0.0017962943824593
100
AcDbVertex
100
AcDb2dVertex
 10
2.89680779077999
 20
1.228196997461603
 30
0.0
 40
0.002852
 41
0.002852
  0
VERTEX
  5
189
330
17C
100
AcDbEntity
  8
1
  6
Continuous
 62
     7
 48
0.0017962943824593
100
AcDbVertex
100
AcDb2dVertex
 10
2.895026926941116
 20
1.227366567015405
 30
0.0
 40
0.002852
 41
0.002852
  0
VERTEX
  5
18A
330
17C
100
AcDbEntity
  8
1
  6
Continuous
 62
     7
 48
0.0017962943824593
100
AcDbVertex
100
AcDb2dVertex
 10
2.893417321159195
 20
1.226239508913358
 30
0.0
 40
0.002852
 41
0.002852
  0
VERTEX
  5
18B
330
17C
100
AcDbEntity
  8
1
  6
Continuous
 62
     7
 48
0.0017962943824593
100
AcDbVertex
100
AcDb2dVertex
 10
2.892027880491411
 20
1.224850068245574
 30
0.0
 40
0.002852
 41
0.002852
  0
VERTEX
  5
18C
330
17C
100
AcDbEntity
  8
1
  6
Continuous
 62
     7
 48
0.0017962943824593
100
AcDbVertex
100
AcDb2dVertex
 10
2.890900822389364
 20
1.223240462463653
 30
0.0
 40
0.002852
 41
0.002852
  0
VERTEX
  5
18D
330
17C
100
AcDbEntity
  8
1
  6
Continuous
 62
     7
 48
0.0017962943824593
100
AcDbVertex
100
AcDb2dVertex
 10
2.890070391943165
 20
1.221459598624779
 30
0.0
 40
0.002852
 41
0.002852
  0
VERTEX
  5
18E
330
17C
100
AcDbEntity
  8
1
  6
Continuous
 62
     7
 48
0.0017962943824593
100
AcDbVertex
100
AcDb2dVertex
 10
2.889561821361705
 20
1.219561587375535
 30
0.0
 40
0.002852
 41
0.002852
  0
VERTEX
  5
18F
330
17C
100
AcDbEntity
  8
1
  6
Continuous
 62
     7
 48
0.0017962943824593
100
AcDbVertex
100
AcDb2dVertex
 10
2.889390563304752
 20
1.217604098827289
 30
0.0
 40
0.002852
 41
0.002852
  0
VERTEX
  5
190
330
17C
100
AcDbEntity
  8
1
  6
Continuous
 62
     7
 48
0.0017962943824593
100
AcDbVertex
100
AcDb2dVertex
 10
2.889561821361705
 20
1.215646610279044
 30
0.0
 40
0.002852
 41
0.002852
  0
VERTEX
  5
191
330
17C
100
AcDbEntity
  8
1
  6
Continuous
 62
     7
 48
0.0017962943824593
100
AcDbVertex
100
AcDb2dVertex
 10
2.890070391943165
 20
1.2137485990298
 30
0.0
 40
0.002852
 41
0.002852
  0
VERTEX
  5
192
330
17C
100
AcDbEntity
  8
1
  6
Continuous
 62
     7
 48
0.0017962943824593
100
AcDbVertex
100
AcDb2dVertex
 10
2.890900822389364
 20
1.211967735190926
 30
0.0
 40
0.002852
 41
0.002852
  0
VERTEX
  5
193
330
17C
100
AcDbEntity
  8
1
  6
Continuous
 62
     7
 48
0.0017962943824593
100
AcDbVertex
100
AcDb2dVertex
 10
2.892027880491411
 20
1.210358129409005
 30
0.0
 40
0.002852
 41
0.002852
  0
VERTEX
  5
194
330
17C
100
AcDbEntity
  8
1
  6
Continuous
 62
     7
 48
0.0017962943824593
100
AcDbVertex
100
AcDb2dVertex
 10
2.893417321159195
 20
1.208968688741221
 30
0.0
 40
0.002852
 41
0.002852
  0
VERTEX
  5
195
330
17C
100
AcDbEntity
  8
1
  6
Continuous
 62
     7
 48
0.0017962943824593
100
AcDbVertex
100
AcDb2dVertex
 10
2.895026926941115
 20
1.207841630639174
 30
0.0
 40
0.002852
 41
0.002852
  0
VERTEX
  5
196
330
17C
100
AcDbEntity
  8
1
  6
Continuous
 62
     7
 48
0.0017962943824593
100
AcDbVertex
100
AcDb2dVertex
 10
2.89680779077999
 20
1.207011200192975
 30
0.0
 40
0.002852
 41
0.002852
  0
VERTEX
  5
197
330
17C
100
AcDbEntity
  8
1
  6
Continuous
 62
     7
 48
0.0017962943824593
100
AcDbVertex
100
AcDb2dVertex
 10
2.898705802029233
 20
1.206502629611515
 30
0.0
 40
0.002852
 41
0.002852
  0
VERTEX
  5
198
330
17C
100
AcDbEntity
  8
1
  6
Continuous
 62
     7
 48
0.0017962943824593
100
AcDbVertex
100
AcDb2dVertex
 10
2.900663290577479
 20
1.206331371554562
 30
0.0
 40
0.002852
 41
0.002852
  0
VERTEX
  5
199
330
17C
100
AcDbEntity
  8
1
  6
Continuous
 62
     7
 48
0.0017962943824593
100
AcDbVertex
100
AcDb2dVertex
 10
2.902620779125725
 20
1.206502629611515
 30
0.0
 40
0.002852
 41
0.002852
  0
VERTEX
  5
19A
330
17C
100
AcDbEntity
  8
1
  6
Continuous
 62
     7
 48
0.0017962943824593
100
AcDbVertex
100
AcDb2dVertex
 10
2.904518790374969
 20
1.207011200192975
 30
0.0
 40
0.002852
 41
0.002852
  0
VERTEX
  5
19B
330
17C
100
AcDbEntity
  8
1
  6
Continuous
 62
     7
 48
0.0017962943824593
100
AcDbVertex
100
AcDb2dVertex
 10
2.906299654213843
 20
1.207841630639174
 30
0.0
 40
0.002852
 41
0.002852
  0
VERTEX
  5
19C
330
17C
100
AcDbEntity
  8
1
  6
Continuous
 62
     7
 48
0.0017962943824593
100
AcDbVertex
100
AcDb2dVertex
 10
2.907909259995764
 20
1.208968688741221
 30
0.0
 40
0.002852
 41
0.002852
  0
VERTEX
  5
19D
330
17C
100
AcDbEntity
  8
1
  6
Continuous
 62
     7
 48
0.0017962943824593
100
AcDbVertex
100
AcDb2dVertex
 10
2.909298700663548
 20
1.210358129409005
 30
0.0
 40
0.002852
 41
0.002852
  0
VERTEX
  5
19E
330
17C
100
AcDbEntity
  8
1
  6
Continuous
 62
     7
 48
0.0017962943824593
100
AcDbVertex
100
AcDb2dVertex
 10
2.910425758765595
 20
1.211967735190926
 30
0.0
 40
0.002852
 41
0.002852
  0
VERTEX
  5
19F
330
17C
100
AcDbEntity
  8
1
  6
Continuous
 62
     7
 48
0.0017962943824593
100
AcDbVertex
100
AcDb2dVertex
 10
2.911256189211794
 20
1.2137485990298
 30
0.0
 40
0.002852
 41
0.002852
  0
VERTEX
  5
1A0
330
17C
100
AcDbEntity
  8
1
  6
Continuous
 62
     7
 48
0.0017962943824593
100
AcDbVertex
100
AcDb2dVertex
 10
2.911764759793253
 20
1.215646610279044
 30
0.0
 40
0.002852
 41
0.002852
  0
VERTEX
  5
1A1
330
17C
100
AcDbEntity
  8
1
  6
Continuous
 62
     7
 48
0.0017962943824593
100
AcDbVertex
100
AcDb2dVertex
 10
2.911936017850207
 20
1.217604098827289
 30
0.0
 40
0.002852
 41
0.002852
  0
SEQEND
  5
1A2
330
17C
100
AcDbEntity
  8
1
  6
Continuous
 62
     7
 48
0.0017962943824593
370
     0
  0
TEXT
  5
1A3
330
1F
100
AcDbEntity
  8
1
  6
DASHED
 62
     7
370
     0
100
AcDbText
 10
2.574974270900039
 20
-0.8478333921357897
 30
0.0
 40
0.042
  1
-6 AN FLARE CAP
 41
1.000000000000002
  7
DC_TEXTSTYLE5
 72
     1
 11
2.82094727090004
 21
-0.8478333921357897
 31
0.0
100
AcDbText
  0
POLYLINE
  5
1A4
330
1F
100
AcDbEntity
  8
2
  6
Continuous
 62
     7
 48
0.0078292322029794
370
     0
100
AcDb2dPolyline
 66
     1
 10
0.0
 20
0.0
 30
0.0
  0
VERTEX
  5
1A5
330
1A4
100
AcDbEntity
  8
2
  6
Continuous
 62
     7
100
AcDbVertex
100
AcDb2dVertex
 10
1.545298468555846
 20
0.5834736655004893
 30
0.0
 40
0.0031
 41
0.0031
 42
0.414213562373095
  0
VERTEX
  5
1A6
330
1A4
100
AcDbEntity
  8
2
  6
Continuous
 62
     7
100
AcDbVertex
100
AcDb2dVertex
 10
1.535298468555846
 20
0.5734736655004893
 30
0.0
 40
0.0031
 41
0.0031
  0
SEQEND
  5
1A7
330
1A4
100
AcDbEntity
  8
2
  6
Continuous
 62
     7
 48
0.0078292322029794
370
     0
  0
POLYLINE
  5
1A8
330
1F
100
AcDbEntity
  8
2
  6
Continuous
 62
     7
 48
0.0078292322029794
370
     0
100
AcDb2dPolyline
 66
     1
 10
0.0
 20
0.0
 30
0.0
  0
VERTEX
  5
1A9
330
1A8
100
AcDbEntity
  8
2
  6
Continuous
 62
     7
 48
0.0078292322029794
100
AcDbVertex
100
AcDb2dVertex
 10
1.545298468555846
 20
0.5834736655004893
 30
0.0
 40
0.0031
 41
0.0031
  0
VERTEX
  5
1AA
330
1A8
100
AcDbEntity
  8
2
  6
Continuous
 62
     7
 48
0.0078292322029794
100
AcDbVertex
100
AcDb2dVertex
 10
1.635298468555846
 20
0.5834736655004893
 30
0.0
 40
0.0031
 41
0.0031
  0
SEQEND
  5
1AB
330
1A8
100
AcDbEntity
  8
2
  6
Continuous
 62
     7
 48
0.0078292322029794
370
     0
  0
POLYLINE
  5
1AC
330
1F
100
AcDbEntity
  8
2
  6
Continuous
 62
     7
 48
0.0078292322029794
370
     0
100
AcDb2dPolyline
 66
     1
 10
0.0
 20
0.0
 30
0.0
  0
VERTEX
  5
1AD
330
1AC
100
AcDbEntity
  8
2
  6
Continuous
 62
     7
100
AcDbVertex
100
AcDb2dVertex
 10
1.906498468555846
 20
0.6174736655004894
 30
0.0
 40
0.0031
 41
0.0031
 42
0.414213562373095
  0
VERTEX
  5
1AE
330
1AC
100
AcDbEntity
  8
2
  6
Continuous
 62
     7
100
AcDbVertex
100
AcDb2dVertex
 10
1.896498468555846
 20
0.627473665500489
 30
0.0
 40
0.0031
 41
0.0031
  0
SEQEND
  5
1AF
330
1AC
100
AcDbEntity
  8
2
  6
Continuous
 62
     7
 48
0.0078292322029794
370
     0
  0
POLYLINE
  5
1B0
330
1F
100
AcDbEntity
  8
2
  6
Continuous
 62
     7
 48
0.0078292322029794
370
     0
100
AcDb2dPolyline
 66
     1
 10
0.0
 20
0.0
 30
0.0
  0
VERTEX
  5
1B1
330
1B0
100
AcDbEntity
  8
2
  6
Continuous
 62
     7
 48
0.0078292322029794
100
AcDbVertex
100
AcDb2dVertex
 10
1.736498468555846
 20
0.627473665500489
 30
0.0
 40
0.0031
 41
0.0031
  0
VERTEX
  5
1B2
330
1B0
100
AcDbEntity
  8
2
  6
Continuous
 62
     7
 48
0.0078292322029794
100
AcDbVertex
100
AcDb2dVertex
 10
1.720789377646755
 20
0.675473665500489
 30
0.0
 40
0.0031
 41
0.0031
  0
SEQEND
  5
1B3
330
1B0
100
AcDbEntity
  8
2
  6
Continuous
 62
     7
 48
0.0078292322029794
370
     0
  0
POLYLINE
  5
1B4
330
1F
100
AcDbEntity
  8
2
  6
Continuous
 62
     7
 48
0.0078292322029794
370
     0
100
AcDb2dPolyline
 66
     1
 10
0.0
 20
0.0
 30
0.0
  0
VERTEX
  5
1B5
330
1B4
100
AcDbEntity
  8
2
  6
Continuous
 62
     7
 48
0.0078292322029794
100
AcDbVertex
100
AcDb2dVertex
 10
1.736498468555846
 20
0.627473665500489
 30
0.0
 40
0.0031
 41
0.0031
  0
VERTEX
  5
1B6
330
1B4
100
AcDbEntity
  8
2
  6
Continuous
 62
     7
 48
0.0078292322029794
100
AcDbVertex
100
AcDb2dVertex
 10
1.896498468555846
 20
0.627473665500489
 30
0.0
 40
0.0031
 41
0.0031
  0
SEQEND
  5
1B7
330
1B4
100
AcDbEntity
  8
2
  6
Continuous
 62
     7
 48
0.0078292322029794
370
     0
  0
POLYLINE
  5
1B8
330
1F
100
AcDbEntity
  8
2
  6
Continuous
 62
     7
 48
0.0078292322029794
370
     0
100
AcDb2dPolyline
 66
     1
 10
0.0
 20
0.0
 30
0.0
  0
VERTEX
  5
1B9
330
1B8
100
AcDbEntity
  8
2
  6
Continuous
 62
     7
 48
0.0078292322029794
100
AcDbVertex
100
AcDb2dVertex
 10
1.906498468555846
 20
0.6174736655004894
 30
0.0
 40
0.0031
 41
0.0031
  0
VERTEX
  5
1BA
330
1B8
100
AcDbEntity
  8
2
  6
Continuous
 62
     7
 48
0.0078292322029794
100
AcDbVertex
100
AcDb2dVertex
 10
1.906498468555846
 20
0.2884736655004894
 30
0.0
 40
0.0031
 41
0.0031
  0
SEQEND
  5
1BB
330
1B8
100
AcDbEntity
  8
2
  6
Continuous
 62
     7
 48
0.0078292322029794
370
     0
  0
POLYLINE
  5
1BC
330
1F
100
AcDbEntity
  8
2
  6
Continuous
 62
     7
 48
0.0078292322029794
370
     0
100
AcDb2dPolyline
 66
     1
 10
0.0
 20
0.0
 30
0.0
  0
VERTEX
  5
1BD
330
1BC
100
AcDbEntity
  8
2
  6
Continuous
 62
     7
 48
0.0078292322029794
100
AcDbVertex
100
AcDb2dVertex
 10
1.635298468555846
 20
-0.0065263344995109
 30
0.0
 40
0.0031
 41
0.0031
  0
VERTEX
  5
1BE
330
1BC
100
AcDbEntity
  8
2
  6
Continuous
 62
     7
 48
0.0078292322029794
100
AcDbVertex
100
AcDb2dVertex
 10
1.649298468555846
 20
0.0074736655004892
 30
0.0
 40
0.0031
 41
0.0031
  0
SEQEND
  5
1BF
330
1BC
100
AcDbEntity
  8
2
  6
Continuous
 62
     7
 48
0.0078292322029794
370
     0
  0
POLYLINE
  5
1C0
330
1F
100
AcDbEntity
  8
2
  6
Continuous
 62
     7
 48
0.0078292322029794
370
     0
100
AcDb2dPolyline
 66
     1
 10
0.0
 20
0.0
 30
0.0
  0
VERTEX
  5
1C1
330
1C0
100
AcDbEntity
  8
2
  6
Continuous
 62
     7
100
AcDbVertex
100
AcDb2dVertex
 10
1.535298468555846
 20
0.0034736655004892
 30
0.0
 40
0.0031
 41
0.0031
 42
0.414213562373095
  0
VERTEX
  5
1C2
330
1C0
100
AcDbEntity
  8
2
  6
Continuous
 62
     7
100
AcDbVertex
100
AcDb2dVertex
 10
1.545298468555846
 20
-0.0065263344995109
 30
0.0
 40
0.0031
 41
0.0031
  0
SEQEND
  5
1C3
330
1C0
100
AcDbEntity
  8
2
  6
Continuous
 62
     7
 48
0.0078292322029794
370
     0
  0
POLYLINE
  5
1C4
330
1F
100
AcDbEntity
  8
2
  6
Continuous
 62
     7
 48
0.0078292322029794
370
     0
100
AcDb2dPolyline
 66
     1
 10
0.0
 20
0.0
 30
0.0
  0
VERTEX
  5
1C5
330
1C4
100
AcDbEntity
  8
2
  6
Continuous
 62
     7
 48
0.0078292322029794
100
AcDbVertex
100
AcDb2dVertex
 10
1.545298468555846
 20
-0.0065263344995109
 30
0.0
 40
0.0031
 41
0.0031
  0
VERTEX
  5
1C6
330
1C4
100
AcDbEntity
  8
2
  6
Continuous
 62
     7
 48
0.0078292322029794
100
AcDbVertex
100
AcDb2dVertex
 10
1.635298468555846
 20
-0.0065263344995109
 30
0.0
 40
0.0031
 41
0.0031
  0
SEQEND
  5
1C7
330
1C4
100
AcDbEntity
  8
2
  6
Continuous
 62
     7
 48
0.0078292322029794
370
     0
  0
POLYLINE
  5
1C8
330
1F
100
AcDbEntity
  8
2
  6
Continuous
 62
     7
 48
0.0078292322029794
370
     0
100
AcDb2dPolyline
 66
     1
 10
0.0
 20
0.0
 30
0.0
  0
VERTEX
  5
1C9
330
1C8
100
AcDbEntity
  8
2
  6
Continuous
 62
     7
100
AcDbVertex
100
AcDb2dVertex
 10
1.896498468555846
 20
-0.0505263344995105
 30
0.0
 40
0.0031
 41
0.0031
 42
0.414213562373095
  0
VERTEX
  5
1CA
330
1C8
100
AcDbEntity
  8
2
  6
Continuous
 62
     7
100
AcDbVertex
100
AcDb2dVertex
 10
1.906498468555846
 20
-0.0405263344995106
 30
0.0
 40
0.0031
 41
0.0031
  0
SEQEND
  5
1CB
330
1C8
100
AcDbEntity
  8
2
  6
Continuous
 62
     7
 48
0.0078292322029794
370
     0
  0
POLYLINE
  5
1CC
330
1F
100
AcDbEntity
  8
2
  6
Continuous
 62
     7
 48
0.0078292322029794
370
     0
100
AcDb2dPolyline
 66
     1
 10
0.0
 20
0.0
 30
0.0
  0
VERTEX
  5
1CD
330
1CC
100
AcDbEntity
  8
2
  6
Continuous
 62
     7
 48
0.0078292322029794
100
AcDbVertex
100
AcDb2dVertex
 10
1.736498468555846
 20
-0.0505263344995105
 30
0.0
 40
0.0031
 41
0.0031
  0
VERTEX
  5
1CE
330
1CC
100
AcDbEntity
  8
2
  6
Continuous
 62
     7
 48
0.0078292322029794
100
AcDbVertex
100
AcDb2dVertex
 10
1.720789377646755
 20
-0.0985263344995107
 30
0.0
 40
0.0031
 41
0.0031
  0
SEQEND
  5
1CF
330
1CC
100
AcDbEntity
  8
2
  6
Continuous
 62
     7
 48
0.0078292322029794
370
     0
  0
POLYLINE
  5
1D0
330
1F
100
AcDbEntity
  8
2
  6
Continuous
 62
     7
 48
0.0078292322029794
370
     0
100
AcDb2dPolyline
 66
     1
 10
0.0
 20
0.0
 30
0.0
  0
VERTEX
  5
1D1
330
1D0
100
AcDbEntity
  8
2
  6
Continuous
 62
     7
 48
0.0078292322029794
100
AcDbVertex
100
AcDb2dVertex
 10
1.736498468555846
 20
-0.0505263344995105
 30
0.0
 40
0.0031
 41
0.0031
  0
VERTEX
  5
1D2
330
1D0
100
AcDbEntity
  8
2
  6
Continuous
 62
     7
 48
0.0078292322029794
100
AcDbVertex
100
AcDb2dVertex
 10
1.896498468555846
 20
-0.0505263344995105
 30
0.0
 40
0.0031
 41
0.0031
  0
SEQEND
  5
1D3
330
1D0
100
AcDbEntity
  8
2
  6
Continuous
 62
     7
 48
0.0078292322029794
370
     0
  0
POLYLINE
  5
1D4
330
1F
100
AcDbEntity
  8
2
  6
Continuous
 62
     7
 48
0.0078292322029794
370
     0
100
AcDb2dPolyline
 66
     1
 10
0.0
 20
0.0
 30
0.0
  0
VERTEX
  5
1D5
330
1D4
100
AcDbEntity
  8
2
  6
Continuous
 62
     7
 48
0.0078292322029794
100
AcDbVertex
100
AcDb2dVertex
 10
1.906498468555846
 20
-0.0405263344995106
 30
0.0
 40
0.0031
 41
0.0031
  0
VERTEX
  5
1D6
330
1D4
100
AcDbEntity
  8
2
  6
Continuous
 62
     7
 48
0.0078292322029794
100
AcDbVertex
100
AcDb2dVertex
 10
1.906498468555846
 20
0.2884736655004894
 30
0.0
 40
0.0031
 41
0.0031
  0
SEQEND
  5
1D7
330
1D4
100
AcDbEntity
  8
2
  6
Continuous
 62
     7
 48
0.0078292322029794
370
     0
  0
POLYLINE
  5
1D8
330
1F
100
AcDbEntity
  8
2
  6
Continuous
 62
     7
 48
0.0078292322029794
370
     0
100
AcDb2dPolyline
 66
     1
 10
0.0
 20
0.0
 30
0.0
  0
VERTEX
  5
1D9
330
1D8
100
AcDbEntity
  8
2
  6
Continuous
 62
     7
 48
0.0078292322029794
100
AcDbVertex
100
AcDb2dVertex
 10
1.562598468555846
 20
-0.0065263344995109
 30
0.0
 40
0.0031
 41
0.0031
  0
VERTEX
  5
1DA
330
1D8
100
AcDbEntity
  8
2
  6
Continuous
 62
     7
 48
0.0078292322029794
100
AcDbVertex
100
AcDb2dVertex
 10
1.631198468555846
 20
-0.0065263344995109
 30
0.0
 40
0.0031
 41
0.0031
  0
SEQEND
  5
1DB
330
1D8
100
AcDbEntity
  8
2
  6
Continuous
 62
     7
 48
0.0078292322029794
370
     0
  0
POLYLINE
  5
1DC
330
1F
100
AcDbEntity
  8
2
  6
Continuous
 62
     7
 48
0.0078292322029794
370
     0
100
AcDb2dPolyline
 66
     1
 10
0.0
 20
0.0
 30
0.0
  0
VERTEX
  5
1DD
330
1DC
100
AcDbEntity
  8
2
  6
Continuous
 62
     7
 48
0.0078292322029794
100
AcDbVertex
100
AcDb2dVertex
 10
1.562598468555846
 20
0.5834736655004893
 30
0.0
 40
0.0031
 41
0.0031
  0
VERTEX
  5
1DE
330
1DC
100
AcDbEntity
  8
2
  6
Continuous
 62
     7
 48
0.0078292322029794
100
AcDbVertex
100
AcDb2dVertex
 10
1.631198468555846
 20
0.5834736655004893
 30
0.0
 40
0.0031
 41
0.0031
  0
SEQEND
  5
1DF
330
1DC
100
AcDbEntity
  8
2
  6
Continuous
 62
     7
 48
0.0078292322029794
370
     0
  0
LINE
  5
1E0
330
1F
100
AcDbEntity
  8
1
  6
CENTER
 62
    94
420
    43520
 48
0.1000000513756282
370
     0
100
AcDbLine
 10
1.210744798990806
 20
0.2884736655004894
 30
0.0
 11
1.932097705032927
 21
0.2884736655004894
 31
0.0
  0
POLYLINE
  5
1E1
330
1F
100
AcDbEntity
  8
1
  6
Continuous
 62
     7
 48
0.0078292322029794
370
     0
100
AcDb2dPolyline
 66
     1
 10
0.0
 20
0.0
 30
0.0
  0
VERTEX
  5
1E2
330
1E1
100
AcDbEntity
  8
1
  6
Continuous
 62
     7
100
AcDbVertex
100
AcDb2dVertex
 10
1.229427400743981
 20
0.5814025976886242
 30
0.0
 40
0.0031
 41
0.0031
 42
0.198912367379656
  0
VERTEX
  5
1E3
330
1E1
100
AcDbEntity
  8
1
  6
Continuous
 62
     7
100
AcDbVertex
100
AcDb2dVertex
 10
1.226498468555846
 20
0.574331529876759
 30
0.0
 40
0.0031
 41
0.0031
  0
SEQEND
  5
1E4
330
1E1
100
AcDbEntity
  8
1
  6
Continuous
 62
     7
 48
0.0078292322029794
370
     0
  0
POLYLINE
  5
1E5
330
1F
100
AcDbEntity
  8
1
  6
Continuous
 62
     7
 48
0.0078292322029794
370
     0
100
AcDb2dPolyline
 66
     1
 10
0.0
 20
0.0
 30
0.0
  0
VERTEX
  5
1E6
330
1E5
100
AcDbEntity
  8
1
  6
Continuous
 62
     7
 48
0.0078292322029794
100
AcDbVertex
100
AcDb2dVertex
 10
1.226498468555846
 20
0.5743315298767586
 30
0.0
 40
0.0031
 41
0.0031
  0
VERTEX
  5
1E7
330
1E5
100
AcDbEntity
  8
1
  6
Continuous
 62
     7
 48
0.0078292322029794
100
AcDbVertex
100
AcDb2dVertex
 10
1.226498468555846
 20
0.2884736655004894
 30
0.0
 40
0.0031
 41
0.0031
  0
SEQEND
  5
1E8
330
1E5
100
AcDbEntity
  8
1
  6
Continuous
 62
     7
 48
0.0078292322029794
370
     0
  0
POLYLINE
  5
1E9
330
1F
100
AcDbEntity
  8
1
  6
Continuous
 62
     7
 48
0.0078292322029794
370
     0
100
AcDb2dPolyline
 66
     1
 10
0.0
 20
0.0
 30
0.0
  0
VERTEX
  5
1EA
330
1E9
100
AcDbEntity
  8
1
  6
Continuous
 62
     7
100
AcDbVertex
100
AcDb2dVertex
 10
1.226498468555846
 20
0.0026158011242201
 30
0.0
 40
0.0031
 41
0.0031
 42
0.1989123673796538
  0
VERTEX
  5
1EB
330
1E9
100
AcDbEntity
  8
1
  6
Continuous
 62
     7
100
AcDbVertex
100
AcDb2dVertex
 10
1.229427400743981
 20
-0.0044552666876454
 30
0.0
 40
0.0031
 41
0.0031
  0
SEQEND
  5
1EC
330
1E9
100
AcDbEntity
  8
1
  6
Continuous
 62
     7
 48
0.0078292322029794
370
     0
  0
POLYLINE
  5
1ED
330
1F
100
AcDbEntity
  8
1
  6
Continuous
 62
     7
 48
0.0078292322029794
370
     0
100
AcDb2dPolyline
 66
     1
 10
0.0
 20
0.0
 30
0.0
  0
VERTEX
  5
1EE
330
1ED
100
AcDbEntity
  8
1
  6
Continuous
 62
     7
 48
0.0078292322029794
100
AcDbVertex
100
AcDb2dVertex
 10
1.720789377646755
 20
-0.0985263344995107
 30
0.0
 40
0.0031
 41
0.0031
  0
VERTEX
  5
1EF
330
1ED
100
AcDbEntity
  8
1
  6
Continuous
 62
     7
 48
0.0078292322029794
100
AcDbVertex
100
AcDb2dVertex
 10
1.329711671991443
 20
-0.0985263344995107
 30
0.0
 40
0.0031
 41
0.0031
  0
SEQEND
  5
1F0
330
1ED
100
AcDbEntity
  8
1
  6
Continuous
 62
     7
 48
0.0078292322029794
370
     0
  0
POLYLINE
  5
1F1
330
1F
100
AcDbEntity
  8
1
  6
Continuous
 62
     7
 48
0.0078292322029794
370
     0
100
AcDb2dPolyline
 66
     1
 10
0.0
 20
0.0
 30
0.0
  0
VERTEX
  5
1F2
330
1F1
100
AcDbEntity
  8
1
  6
Continuous
 62
     7
100
AcDbVertex
100
AcDb2dVertex
 10
1.319105070273645
 20
-0.0941329362173089
 30
0.0
 40
0.0031
 41
0.0031
 42
0.1989123673796621
  0
VERTEX
  5
1F3
330
1F1
100
AcDbEntity
  8
1
  6
Continuous
 62
     7
100
AcDbVertex
100
AcDb2dVertex
 10
1.329711671991443
 20
-0.0985263344995109
 30
0.0
 40
0.0031
 41
0.0031
  0
SEQEND
  5
1F4
330
1F1
100
AcDbEntity
  8
1
  6
Continuous
 62
     7
 48
0.0078292322029794
370
     0
  0
POLYLINE
  5
1F5
330
1F
100
AcDbEntity
  8
1
  6
Continuous
 62
     7
 48
0.0078292322029794
370
     0
100
AcDb2dPolyline
 66
     1
 10
0.0
 20
0.0
 30
0.0
  0
VERTEX
  5
1F6
330
1F5
100
AcDbEntity
  8
1
  6
Continuous
 62
     7
 48
0.0078292322029794
100
AcDbVertex
100
AcDb2dVertex
 10
1.319105070273645
 20
-0.0941329362173089
 30
0.0
 40
0.0031
 41
0.0031
  0
VERTEX
  5
1F7
330
1F5
100
AcDbEntity
  8
1
  6
Continuous
 62
     7
 48
0.0078292322029794
100
AcDbVertex
100
AcDb2dVertex
 10
1.229427400743981
 20
-0.0044552666876453
 30
0.0
 40
0.0031
 41
0.0031
  0
SEQEND
  5
1F8
330
1F5
100
AcDbEntity
  8
1
  6
Continuous
 62
     7
 48
0.0078292322029794
370
     0
  0
POLYLINE
  5
1F9
330
1F
100
AcDbEntity
  8
1
  6
Continuous
 62
     7
 48
0.0078292322029794
370
     0
100
AcDb2dPolyline
 66
     1
 10
0.0
 20
0.0
 30
0.0
  0
VERTEX
  5
1FA
330
1F9
100
AcDbEntity
  8
1
  6
Continuous
 62
     7
 48
0.0078292322029794
100
AcDbVertex
100
AcDb2dVertex
 10
1.229427400743981
 20
0.5814025976886242
 30
0.0
 40
0.0031
 41
0.0031
  0
VERTEX
  5
1FB
330
1F9
100
AcDbEntity
  8
1
  6
Continuous
 62
     7
 48
0.0078292322029794
100
AcDbVertex
100
AcDb2dVertex
 10
1.319105070273645
 20
0.6710802672182871
 30
0.0
 40
0.0031
 41
0.0031
  0
SEQEND
  5
1FC
330
1F9
100
AcDbEntity
  8
1
  6
Continuous
 62
     7
 48
0.0078292322029794
370
     0
  0
POLYLINE
  5
1FD
330
1F
100
AcDbEntity
  8
1
  6
Continuous
 62
     7
 48
0.0078292322029794
370
     0
100
AcDb2dPolyline
 66
     1
 10
0.0
 20
0.0
 30
0.0
  0
VERTEX
  5
1FE
330
1FD
100
AcDbEntity
  8
1
  6
Continuous
 62
     7
100
AcDbVertex
100
AcDb2dVertex
 10
1.329711671991443
 20
0.675473665500489
 30
0.0
 40
0.0031
 41
0.0031
 42
0.198912367379658
  0
VERTEX
  5
1FF
330
1FD
100
AcDbEntity
  8
1
  6
Continuous
 62
     7
100
AcDbVertex
100
AcDb2dVertex
 10
1.319105070273645
 20
0.6710802672182871
 30
0.0
 40
0.0031
 41
0.0031
  0
SEQEND
  5
200
330
1FD
100
AcDbEntity
  8
1
  6
Continuous
 62
     7
 48
0.0078292322029794
370
     0
  0
POLYLINE
  5
201
330
1F
100
AcDbEntity
  8
1
  6
Continuous
 62
     7
 48
0.0078292322029794
370
     0
100
AcDb2dPolyline
 66
     1
 10
0.0
 20
0.0
 30
0.0
  0
VERTEX
  5
202
330
201
100
AcDbEntity
  8
1
  6
Continuous
 62
     7
 48
0.0078292322029794
100
AcDbVertex
100
AcDb2dVertex
 10
1.329711671991443
 20
0.675473665500489
 30
0.0
 40
0.0031
 41
0.0031
  0
VERTEX
  5
203
330
201
100
AcDbEntity
  8
1
  6
Continuous
 62
     7
 48
0.0078292322029794
100
AcDbVertex
100
AcDb2dVertex
 10
1.720789377646755
 20
0.675473665500489
 30
0.0
 40
0.0031
 41
0.0031
  0
SEQEND
  5
204
330
201
100
AcDbEntity
  8
1
  6
Continuous
 62
     7
 48
0.0078292322029794
370
     0
  0
POLYLINE
  5
205
330
1F
100
AcDbEntity
  8
1
  6
Continuous
 62
     7
 48
0.0078292322029794
370
     0
100
AcDb2dPolyline
 66
     1
 10
0.0
 20
0.0
 30
0.0
  0
VERTEX
  5
206
330
205
100
AcDbEntity
  8
1
  6
Continuous
 62
     7
 48
0.0078292322029794
100
AcDbVertex
100
AcDb2dVertex
 10
1.226498468555846
 20
0.0026158011242201
 30
0.0
 40
0.0031
 41
0.0031
  0
VERTEX
  5
207
330
205
100
AcDbEntity
  8
1
  6
Continuous
 62
     7
 48
0.0078292322029794
100
AcDbVertex
100
AcDb2dVertex
 10
1.226498468555846
 20
0.2884736655004894
 30
0.0
 40
0.0031
 41
0.0031
  0
SEQEND
  5
208
330
205
100
AcDbEntity
  8
1
  6
Continuous
 62
     7
 48
0.0078292322029794
370
     0
  0
POLYLINE
  5
209
330
1F
100
AcDbEntity
  8
2
  6
Continuous
 62
     7
 48
0.0078292322029794
370
     0
100
AcDb2dPolyline
 66
     1
 10
0.0
 20
0.0
 30
0.0
  0
VERTEX
  5
20A
330
209
100
AcDbEntity
  8
2
  6
Continuous
 62
     7
 48
0.0078292322029794
100
AcDbVertex
100
AcDb2dVertex
 10
1.35822986158983
 20
0.1839023495817937
 30
0.0
 40
0.0031
 41
0.0031
  0
VERTEX
  5
20B
330
209
100
AcDbEntity
  8
2
  6
Continuous
 62
     7
 48
0.0078292322029794
100
AcDbVertex
100
AcDb2dVertex
 10
1.535298468555846
 20
0.0504736655004894
 30
0.0
 40
0.0031
 41
0.0031
  0
SEQEND
  5
20C
330
209
100
AcDbEntity
  8
2
  6
Continuous
 62
     7
 48
0.0078292322029794
370
     0
  0
POLYLINE
  5
20D
330
1F
100
AcDbEntity
  8
1
  6
Continuous
 62
     7
 48
0.0078292322029794
370
     0
100
AcDb2dPolyline
 66
     1
 10
0.0
 20
0.0
 30
0.0
  0
VERTEX
  5
20E
330
20D
100
AcDbEntity
  8
1
  6
Continuous
 62
     7
 48
0.0078292322029794
100
AcDbVertex
100
AcDb2dVertex
 10
1.306498468555846
 20
0.2884736655004894
 30
0.0
 40
0.0031
 41
0.0031
  0
VERTEX
  5
20F
330
20D
100
AcDbEntity
  8
1
  6
Continuous
 62
     7
 48
0.0078292322029794
100
AcDbVertex
100
AcDb2dVertex
 10
1.35822986158983
 20
0.1839023495817937
 30
0.0
 40
0.0031
 41
0.0031
  0
SEQEND
  5
210
330
20D
100
AcDbEntity
  8
1
  6
Continuous
 62
     7
 48
0.0078292322029794
370
     0
  0
POLYLINE
  5
211
330
1F
100
AcDbEntity
  8
1
  6
Continuous
 62
     7
 48
0.0078292322029794
370
     0
100
AcDb2dPolyline
 66
     1
 10
0.0
 20
0.0
 30
0.0
  0
VERTEX
  5
212
330
211
100
AcDbEntity
  8
1
  6
Continuous
 62
     7
 48
0.0078292322029794
100
AcDbVertex
100
AcDb2dVertex
 10
1.306498468555846
 20
0.2884736655004894
 30
0.0
 40
0.0031
 41
0.0031
  0
VERTEX
  5
213
330
211
100
AcDbEntity
  8
1
  6
Continuous
 62
     7
 48
0.0078292322029794
100
AcDbVertex
100
AcDb2dVertex
 10
1.35822986158983
 20
0.3930449814191843
 30
0.0
 40
0.0031
 41
0.0031
  0
SEQEND
  5
214
330
211
100
AcDbEntity
  8
1
  6
Continuous
 62
     7
 48
0.0078292322029794
370
     0
  0
POLYLINE
  5
215
330
1F
100
AcDbEntity
  8
2
  6
Continuous
 62
     7
 48
0.0078292322029794
370
     0
100
AcDb2dPolyline
 66
     1
 10
0.0
 20
0.0
 30
0.0
  0
VERTEX
  5
216
330
215
100
AcDbEntity
  8
2
  6
Continuous
 62
     7
 48
0.0078292322029794
100
AcDbVertex
100
AcDb2dVertex
 10
1.35822986158983
 20
0.3930449814191843
 30
0.0
 40
0.0031
 41
0.0031
  0
VERTEX
  5
217
330
215
100
AcDbEntity
  8
2
  6
Continuous
 62
     7
 48
0.0078292322029794
100
AcDbVertex
100
AcDb2dVertex
 10
1.535298468555846
 20
0.5264736655004891
 30
0.0
 40
0.0031
 41
0.0031
  0
SEQEND
  5
218
330
215
100
AcDbEntity
  8
2
  6
Continuous
 62
     7
 48
0.0078292322029794
370
     0
  0
POLYLINE
  5
219
330
1F
100
AcDbEntity
  8
3
  6
Continuous
 62
     7
 48
0.0078292322029794
370
     0
100
AcDb2dPolyline
 66
     1
 10
0.0
 20
0.0
 30
0.0
  0
VERTEX
  5
21A
330
219
100
AcDbEntity
  8
3
  6
Continuous
 62
     7
 48
0.0078292322029794
100
AcDbVertex
100
AcDb2dVertex
 10
1.906498468555846
 20
0.5744736655004894
 30
0.0
 40
0.0031
 41
0.0031
  0
VERTEX
  5
21B
330
219
100
AcDbEntity
  8
3
  6
Continuous
 62
     7
 48
0.0078292322029794
100
AcDbVertex
100
AcDb2dVertex
 10
1.894419630255846
 20
0.5623948272004894
 30
0.0
 40
0.0031
 41
0.0031
  0
SEQEND
  5
21C
330
219
100
AcDbEntity
  8
3
  6
Continuous
 62
     7
 48
0.0078292322029794
370
     0
  0
POLYLINE
  5
21D
330
1F
100
AcDbEntity
  8
3
  6
Continuous
 62
     7
 48
0.0078292322029794
370
     0
100
AcDb2dPolyline
 66
     1
 10
0.0
 20
0.0
 30
0.0
  0
VERTEX
  5
21E
330
21D
100
AcDbEntity
  8
3
  6
Continuous
 62
     7
 48
0.0078292322029794
100
AcDbVertex
100
AcDb2dVertex
 10
1.906498468555846
 20
0.0024736655004893
 30
0.0
 40
0.0031
 41
0.0031
  0
VERTEX
  5
21F
330
21D
100
AcDbEntity
  8
3
  6
Continuous
 62
     7
 48
0.0078292322029794
100
AcDbVertex
100
AcDb2dVertex
 10
1.876808955055846
 20
0.0321631790004893
 30
0.0
 40
0.0031
 41
0.0031
  0
SEQEND
  5
220
330
21D
100
AcDbEntity
  8
3
  6
Continuous
 62
     7
 48
0.0078292322029794
370
     0
  0
POLYLINE
  5
221
330
1F
100
AcDbEntity
  8
2
  6
Continuous
 62
     7
 48
0.0078292322029794
370
     0
100
AcDb2dPolyline
 66
     1
 10
0.0
 20
0.0
 30
0.0
  0
VERTEX
  5
222
330
221
100
AcDbEntity
  8
2
  6
Continuous
 62
     7
 48
0.0078292322029794
100
AcDbVertex
100
AcDb2dVertex
 10
1.684272842755846
 20
0.5414736655004895
 30
0.0
 40
0.0031
 41
0.0031
  0
VERTEX
  5
223
330
221
100
AcDbEntity
  8
2
  6
Continuous
 62
     7
 48
0.0078292322029794
100
AcDbVertex
100
AcDb2dVertex
 10
1.698172842755846
 20
0.5414736655004895
 30
0.0
 40
0.0031
 41
0.0031
  0
SEQEND
  5
224
330
221
100
AcDbEntity
  8
2
  6
Continuous
 62
     7
 48
0.0078292322029794
370
     0
  0
POLYLINE
  5
225
330
1F
100
AcDbEntity
  8
2
  6
Continuous
 62
     7
 48
0.0078292322029794
370
     0
100
AcDb2dPolyline
 66
     1
 10
0.0
 20
0.0
 30
0.0
  0
VERTEX
  5
226
330
225
100
AcDbEntity
  8
2
  6
Continuous
 62
     7
 48
0.0078292322029794
100
AcDbVertex
100
AcDb2dVertex
 10
1.659980537955846
 20
0.5715491718004893
 30
0.0
 40
0.0031
 41
0.0031
  0
VERTEX
  5
227
330
225
100
AcDbEntity
  8
2
  6
Continuous
 62
     7
 48
0.0078292322029794
100
AcDbVertex
100
AcDb2dVertex
 10
1.666908741155847
 20
0.5715491718004893
 30
0.0
 40
0.0031
 41
0.0031
  0
SEQEND
  5
228
330
225
100
AcDbEntity
  8
2
  6
Continuous
 62
     7
 48
0.0078292322029794
370
     0
  0
POLYLINE
  5
229
330
1F
100
AcDbEntity
  8
2
  6
Continuous
 62
     7
 48
0.0078292322029794
370
     0
100
AcDb2dPolyline
 66
     1
 10
0.0
 20
0.0
 30
0.0
  0
VERTEX
  5
22A
330
229
100
AcDbEntity
  8
2
  6
Continuous
 62
     7
 48
0.0078292322029794
100
AcDbVertex
100
AcDb2dVertex
 10
1.666908741155847
 20
0.5715491718004893
 30
0.0
 40
0.0031
 41
0.0031
  0
VERTEX
  5
22B
330
229
100
AcDbEntity
  8
2
  6
Continuous
 62
     7
 48
0.0078292322029794
100
AcDbVertex
100
AcDb2dVertex
 10
1.684272842755846
 20
0.5414736655004895
 30
0.0
 40
0.0031
 41
0.0031
  0
SEQEND
  5
22C
330
229
100
AcDbEntity
  8
2
  6
Continuous
 62
     7
 48
0.0078292322029794
370
     0
  0
POLYLINE
  5
22D
330
1F
100
AcDbEntity
  8
2
  6
Continuous
 62
     7
 48
0.0078292322029794
370
     0
100
AcDb2dPolyline
 66
     1
 10
0.0
 20
0.0
 30
0.0
  0
VERTEX
  5
22E
330
22D
100
AcDbEntity
  8
2
  6
Continuous
 62
     7
 48
0.0078292322029794
100
AcDbVertex
100
AcDb2dVertex
 10
1.739829249255846
 20
0.5414736655004895
 30
0.0
 40
0.0031
 41
0.0031
  0
VERTEX
  5
22F
330
22D
100
AcDbEntity
  8
2
  6
Continuous
 62
     7
 48
0.0078292322029794
100
AcDbVertex
100
AcDb2dVertex
 10
1.753729249255846
 20
0.5414736655004895
 30
0.0
 40
0.0031
 41
0.0031
  0
SEQEND
  5
230
330
22D
100
AcDbEntity
  8
2
  6
Continuous
 62
     7
 48
0.0078292322029794
370
     0
  0
POLYLINE
  5
231
330
1F
100
AcDbEntity
  8
2
  6
Continuous
 62
     7
 48
0.0078292322029794
370
     0
100
AcDb2dPolyline
 66
     1
 10
0.0
 20
0.0
 30
0.0
  0
VERTEX
  5
232
330
231
100
AcDbEntity
  8
2
  6
Continuous
 62
     7
 48
0.0078292322029794
100
AcDbVertex
100
AcDb2dVertex
 10
1.715536944355846
 20
0.5715491718004893
 30
0.0
 40
0.0031
 41
0.0031
  0
VERTEX
  5
233
330
231
100
AcDbEntity
  8
2
  6
Continuous
 62
     7
 48
0.0078292322029794
100
AcDbVertex
100
AcDb2dVertex
 10
1.722465147555847
 20
0.5715491718004893
 30
0.0
 40
0.0031
 41
0.0031
  0
SEQEND
  5
234
330
231
100
AcDbEntity
  8
2
  6
Continuous
 62
     7
 48
0.0078292322029794
370
     0
  0
POLYLINE
  5
235
330
1F
100
AcDbEntity
  8
2
  6
Continuous
 62
     7
 48
0.0078292322029794
370
     0
100
AcDb2dPolyline
 66
     1
 10
0.0
 20
0.0
 30
0.0
  0
VERTEX
  5
236
330
235
100
AcDbEntity
  8
2
  6
Continuous
 62
     7
 48
0.0078292322029794
100
AcDbVertex
100
AcDb2dVertex
 10
1.698172842755846
 20
0.5414736655004895
 30
0.0
 40
0.0031
 41
0.0031
  0
VERTEX
  5
237
330
235
100
AcDbEntity
  8
2
  6
Continuous
 62
     7
 48
0.0078292322029794
100
AcDbVertex
100
AcDb2dVertex
 10
1.715536944355846
 20
0.5715491718004893
 30
0.0
 40
0.0031
 41
0.0031
  0
SEQEND
  5
238
330
235
100
AcDbEntity
  8
2
  6
Continuous
 62
     7
 48
0.0078292322029794
370
     0
  0
POLYLINE
  5
239
330
1F
100
AcDbEntity
  8
2
  6
Continuous
 62
     7
 48
0.0078292322029794
370
     0
100
AcDb2dPolyline
 66
     1
 10
0.0
 20
0.0
 30
0.0
  0
VERTEX
  5
23A
330
239
100
AcDbEntity
  8
2
  6
Continuous
 62
     7
 48
0.0078292322029794
100
AcDbVertex
100
AcDb2dVertex
 10
1.722465147555847
 20
0.5715491718004893
 30
0.0
 40
0.0031
 41
0.0031
  0
VERTEX
  5
23B
330
239
100
AcDbEntity
  8
2
  6
Continuous
 62
     7
 48
0.0078292322029794
100
AcDbVertex
100
AcDb2dVertex
 10
1.739829249255846
 20
0.5414736655004895
 30
0.0
 40
0.0031
 41
0.0031
  0
SEQEND
  5
23C
330
239
100
AcDbEntity
  8
2
  6
Continuous
 62
     7
 48
0.0078292322029794
370
     0
  0
POLYLINE
  5
23D
330
1F
100
AcDbEntity
  8
2
  6
Continuous
 62
     7
 48
0.0078292322029794
370
     0
100
AcDb2dPolyline
 66
     1
 10
0.0
 20
0.0
 30
0.0
  0
VERTEX
  5
23E
330
23D
100
AcDbEntity
  8
2
  6
Continuous
 62
     7
 48
0.0078292322029794
100
AcDbVertex
100
AcDb2dVertex
 10
1.795385655655846
 20
0.5414736655004895
 30
0.0
 40
0.0031
 41
0.0031
  0
VERTEX
  5
23F
330
23D
100
AcDbEntity
  8
2
  6
Continuous
 62
     7
 48
0.0078292322029794
100
AcDbVertex
100
AcDb2dVertex
 10
1.809285655655846
 20
0.5414736655004895
 30
0.0
 40
0.0031
 41
0.0031
  0
SEQEND
  5
240
330
23D
100
AcDbEntity
  8
2
  6
Continuous
 62
     7
 48
0.0078292322029794
370
     0
  0
POLYLINE
  5
241
330
1F
100
AcDbEntity
  8
2
  6
Continuous
 62
     7
 48
0.0078292322029794
370
     0
100
AcDb2dPolyline
 66
     1
 10
0.0
 20
0.0
 30
0.0
  0
VERTEX
  5
242
330
241
100
AcDbEntity
  8
2
  6
Continuous
 62
     7
 48
0.0078292322029794
100
AcDbVertex
100
AcDb2dVertex
 10
1.771093350855846
 20
0.5715491718004893
 30
0.0
 40
0.0031
 41
0.0031
  0
VERTEX
  5
243
330
241
100
AcDbEntity
  8
2
  6
Continuous
 62
     7
 48
0.0078292322029794
100
AcDbVertex
100
AcDb2dVertex
 10
1.778021554055847
 20
0.5715491718004893
 30
0.0
 40
0.0031
 41
0.0031
  0
SEQEND
  5
244
330
241
100
AcDbEntity
  8
2
  6
Continuous
 62
     7
 48
0.0078292322029794
370
     0
  0
POLYLINE
  5
245
330
1F
100
AcDbEntity
  8
2
  6
Continuous
 62
     7
 48
0.0078292322029794
370
     0
100
AcDb2dPolyline
 66
     1
 10
0.0
 20
0.0
 30
0.0
  0
VERTEX
  5
246
330
245
100
AcDbEntity
  8
2
  6
Continuous
 62
     7
 48
0.0078292322029794
100
AcDbVertex
100
AcDb2dVertex
 10
1.753729249255846
 20
0.5414736655004895
 30
0.0
 40
0.0031
 41
0.0031
  0
VERTEX
  5
247
330
245
100
AcDbEntity
  8
2
  6
Continuous
 62
     7
 48
0.0078292322029794
100
AcDbVertex
100
AcDb2dVertex
 10
1.771093350855846
 20
0.5715491718004893
 30
0.0
 40
0.0031
 41
0.0031
  0
SEQEND
  5
248
330
245
100
AcDbEntity
  8
2
  6
Continuous
 62
     7
 48
0.0078292322029794
370
     0
  0
POLYLINE
  5
249
330
1F
100
AcDbEntity
  8
2
  6
Continuous
 62
     7
 48
0.0078292322029794
370
     0
100
AcDb2dPolyline
 66
     1
 10
0.0
 20
0.0
 30
0.0
  0
VERTEX
  5
24A
330
249
100
AcDbEntity
  8
2
  6
Continuous
 62
     7
 48
0.0078292322029794
100
AcDbVertex
100
AcDb2dVertex
 10
1.778021554055847
 20
0.5715491718004893
 30
0.0
 40
0.0031
 41
0.0031
  0
VERTEX
  5
24B
330
249
100
AcDbEntity
  8
2
  6
Continuous
 62
     7
 48
0.0078292322029794
100
AcDbVertex
100
AcDb2dVertex
 10
1.795385655655846
 20
0.5414736655004895
 30
0.0
 40
0.0031
 41
0.0031
  0
SEQEND
  5
24C
330
249
100
AcDbEntity
  8
2
  6
Continuous
 62
     7
 48
0.0078292322029794
370
     0
  0
POLYLINE
  5
24D
330
1F
100
AcDbEntity
  8
2
  6
Continuous
 62
     7
 48
0.0078292322029794
370
     0
100
AcDb2dPolyline
 66
     1
 10
0.0
 20
0.0
 30
0.0
  0
VERTEX
  5
24E
330
24D
100
AcDbEntity
  8
2
  6
Continuous
 62
     7
 48
0.0078292322029794
100
AcDbVertex
100
AcDb2dVertex
 10
1.850942062155846
 20
0.5414736655004895
 30
0.0
 40
0.0031
 41
0.0031
  0
VERTEX
  5
24F
330
24D
100
AcDbEntity
  8
2
  6
Continuous
 62
     7
 48
0.0078292322029794
100
AcDbVertex
100
AcDb2dVertex
 10
1.864842062155846
 20
0.5414736655004895
 30
0.0
 40
0.0031
 41
0.0031
  0
SEQEND
  5
250
330
24D
100
AcDbEntity
  8
2
  6
Continuous
 62
     7
 48
0.0078292322029794
370
     0
  0
POLYLINE
  5
251
330
1F
100
AcDbEntity
  8
2
  6
Continuous
 62
     7
 48
0.0078292322029794
370
     0
100
AcDb2dPolyline
 66
     1
 10
0.0
 20
0.0
 30
0.0
  0
VERTEX
  5
252
330
251
100
AcDbEntity
  8
2
  6
Continuous
 62
     7
 48
0.0078292322029794
100
AcDbVertex
100
AcDb2dVertex
 10
1.826649757255846
 20
0.5715491718004893
 30
0.0
 40
0.0031
 41
0.0031
  0
VERTEX
  5
253
330
251
100
AcDbEntity
  8
2
  6
Continuous
 62
     7
 48
0.0078292322029794
100
AcDbVertex
100
AcDb2dVertex
 10
1.833577960555846
 20
0.5715491718004893
 30
0.0
 40
0.0031
 41
0.0031
  0
SEQEND
  5
254
330
251
100
AcDbEntity
  8
2
  6
Continuous
 62
     7
 48
0.0078292322029794
370
     0
  0
POLYLINE
  5
255
330
1F
100
AcDbEntity
  8
2
  6
Continuous
 62
     7
 48
0.0078292322029794
370
     0
100
AcDb2dPolyline
 66
     1
 10
0.0
 20
0.0
 30
0.0
  0
VERTEX
  5
256
330
255
100
AcDbEntity
  8
2
  6
Continuous
 62
     7
 48
0.0078292322029794
100
AcDbVertex
100
AcDb2dVertex
 10
1.809285655655846
 20
0.5414736655004895
 30
0.0
 40
0.0031
 41
0.0031
  0
VERTEX
  5
257
330
255
100
AcDbEntity
  8
2
  6
Continuous
 62
     7
 48
0.0078292322029794
100
AcDbVertex
100
AcDb2dVertex
 10
1.826649757255846
 20
0.5715491718004893
 30
0.0
 40
0.0031
 41
0.0031
  0
SEQEND
  5
258
330
255
100
AcDbEntity
  8
2
  6
Continuous
 62
     7
 48
0.0078292322029794
370
     0
  0
POLYLINE
  5
259
330
1F
100
AcDbEntity
  8
2
  6
Continuous
 62
     7
 48
0.0078292322029794
370
     0
100
AcDb2dPolyline
 66
     1
 10
0.0
 20
0.0
 30
0.0
  0
VERTEX
  5
25A
330
259
100
AcDbEntity
  8
2
  6
Continuous
 62
     7
 48
0.0078292322029794
100
AcDbVertex
100
AcDb2dVertex
 10
1.833577960555846
 20
0.5715491718004893
 30
0.0
 40
0.0031
 41
0.0031
  0
VERTEX
  5
25B
330
259
100
AcDbEntity
  8
2
  6
Continuous
 62
     7
 48
0.0078292322029794
100
AcDbVertex
100
AcDb2dVertex
 10
1.850942062155846
 20
0.5414736655004895
 30
0.0
 40
0.0031
 41
0.0031
  0
SEQEND
  5
25C
330
259
100
AcDbEntity
  8
2
  6
Continuous
 62
     7
 48
0.0078292322029794
370
     0
  0
POLYLINE
  5
25D
330
1F
100
AcDbEntity
  8
2
  6
Continuous
 62
     7
 48
0.0078292322029794
370
     0
100
AcDb2dPolyline
 66
     1
 10
0.0
 20
0.0
 30
0.0
  0
VERTEX
  5
25E
330
25D
100
AcDbEntity
  8
2
  6
Continuous
 62
     7
 48
0.0078292322029794
100
AcDbVertex
100
AcDb2dVertex
 10
1.882206163755846
 20
0.5715491718004893
 30
0.0
 40
0.0031
 41
0.0031
  0
VERTEX
  5
25F
330
25D
100
AcDbEntity
  8
2
  6
Continuous
 62
     7
 48
0.0078292322029794
100
AcDbVertex
100
AcDb2dVertex
 10
1.889134366955846
 20
0.5715491718004893
 30
0.0
 40
0.0031
 41
0.0031
  0
SEQEND
  5
260
330
25D
100
AcDbEntity
  8
2
  6
Continuous
 62
     7
 48
0.0078292322029794
370
     0
  0
POLYLINE
  5
261
330
1F
100
AcDbEntity
  8
2
  6
Continuous
 62
     7
 48
0.0078292322029794
370
     0
100
AcDb2dPolyline
 66
     1
 10
0.0
 20
0.0
 30
0.0
  0
VERTEX
  5
262
330
261
100
AcDbEntity
  8
2
  6
Continuous
 62
     7
 48
0.0078292322029794
100
AcDbVertex
100
AcDb2dVertex
 10
1.864842062155846
 20
0.5414736655004895
 30
0.0
 40
0.0031
 41
0.0031
  0
VERTEX
  5
263
330
261
100
AcDbEntity
  8
2
  6
Continuous
 62
     7
 48
0.0078292322029794
100
AcDbVertex
100
AcDb2dVertex
 10
1.882206163755846
 20
0.5715491718004893
 30
0.0
 40
0.0031
 41
0.0031
  0
SEQEND
  5
264
330
261
100
AcDbEntity
  8
2
  6
Continuous
 62
     7
 48
0.0078292322029794
370
     0
  0
POLYLINE
  5
265
330
1F
100
AcDbEntity
  8
2
  6
Continuous
 62
     7
 48
0.0078292322029794
370
     0
100
AcDb2dPolyline
 66
     1
 10
0.0
 20
0.0
 30
0.0
  0
VERTEX
  5
266
330
265
100
AcDbEntity
  8
2
  6
Continuous
 62
     7
 48
0.0078292322029794
100
AcDbVertex
100
AcDb2dVertex
 10
1.889134366955846
 20
0.5715491718004893
 30
0.0
 40
0.0031
 41
0.0031
  0
VERTEX
  5
267
330
265
100
AcDbEntity
  8
2
  6
Continuous
 62
     7
 48
0.0078292322029794
100
AcDbVertex
100
AcDb2dVertex
 10
1.894419630255846
 20
0.5623948272004894
 30
0.0
 40
0.0031
 41
0.0031
  0
SEQEND
  5
268
330
265
100
AcDbEntity
  8
2
  6
Continuous
 62
     7
 48
0.0078292322029794
370
     0
  0
POLYLINE
  5
269
330
1F
100
AcDbEntity
  8
2
  6
Continuous
 62
     7
 48
0.0078292322029794
370
     0
100
AcDb2dPolyline
 66
     1
 10
0.0
 20
0.0
 30
0.0
  0
VERTEX
  5
26A
330
269
100
AcDbEntity
  8
2
  6
Continuous
 62
     7
 48
0.0078292322029794
100
AcDbVertex
100
AcDb2dVertex
 10
1.712051045955846
 20
0.0354736655004893
 30
0.0
 40
0.0031
 41
0.0031
  0
VERTEX
  5
26B
330
269
100
AcDbEntity
  8
2
  6
Continuous
 62
     7
 48
0.0078292322029794
100
AcDbVertex
100
AcDb2dVertex
 10
1.725951045955846
 20
0.0354736655004893
 30
0.0
 40
0.0031
 41
0.0031
  0
SEQEND
  5
26C
330
269
100
AcDbEntity
  8
2
  6
Continuous
 62
     7
 48
0.0078292322029794
370
     0
  0
POLYLINE
  5
26D
330
1F
100
AcDbEntity
  8
2
  6
Continuous
 62
     7
 48
0.0078292322029794
370
     0
100
AcDb2dPolyline
 66
     1
 10
0.0
 20
0.0
 30
0.0
  0
VERTEX
  5
26E
330
26D
100
AcDbEntity
  8
2
  6
Continuous
 62
     7
 48
0.0078292322029794
100
AcDbVertex
100
AcDb2dVertex
 10
1.687758741155846
 20
0.0053981593004892
 30
0.0
 40
0.0031
 41
0.0031
  0
VERTEX
  5
26F
330
26D
100
AcDbEntity
  8
2
  6
Continuous
 62
     7
 48
0.0078292322029794
100
AcDbVertex
100
AcDb2dVertex
 10
1.694686944355847
 20
0.0053981593004892
 30
0.0
 40
0.0031
 41
0.0031
  0
SEQEND
  5
270
330
26D
100
AcDbEntity
  8
2
  6
Continuous
 62
     7
 48
0.0078292322029794
370
     0
  0
POLYLINE
  5
271
330
1F
100
AcDbEntity
  8
2
  6
Continuous
 62
     7
 48
0.0078292322029794
370
     0
100
AcDb2dPolyline
 66
     1
 10
0.0
 20
0.0
 30
0.0
  0
VERTEX
  5
272
330
271
100
AcDbEntity
  8
2
  6
Continuous
 62
     7
 48
0.0078292322029794
100
AcDbVertex
100
AcDb2dVertex
 10
1.694686944355847
 20
0.0053981593004892
 30
0.0
 40
0.0031
 41
0.0031
  0
VERTEX
  5
273
330
271
100
AcDbEntity
  8
2
  6
Continuous
 62
     7
 48
0.0078292322029794
100
AcDbVertex
100
AcDb2dVertex
 10
1.712051045955846
 20
0.0354736655004893
 30
0.0
 40
0.0031
 41
0.0031
  0
SEQEND
  5
274
330
271
100
AcDbEntity
  8
2
  6
Continuous
 62
     7
 48
0.0078292322029794
370
     0
  0
POLYLINE
  5
275
330
1F
100
AcDbEntity
  8
2
  6
Continuous
 62
     7
 48
0.0078292322029794
370
     0
100
AcDb2dPolyline
 66
     1
 10
0.0
 20
0.0
 30
0.0
  0
VERTEX
  5
276
330
275
100
AcDbEntity
  8
2
  6
Continuous
 62
     7
 48
0.0078292322029794
100
AcDbVertex
100
AcDb2dVertex
 10
1.767607452455846
 20
0.0354736655004893
 30
0.0
 40
0.0031
 41
0.0031
  0
VERTEX
  5
277
330
275
100
AcDbEntity
  8
2
  6
Continuous
 62
     7
 48
0.0078292322029794
100
AcDbVertex
100
AcDb2dVertex
 10
1.781507452455846
 20
0.0354736655004893
 30
0.0
 40
0.0031
 41
0.0031
  0
SEQEND
  5
278
330
275
100
AcDbEntity
  8
2
  6
Continuous
 62
     7
 48
0.0078292322029794
370
     0
  0
POLYLINE
  5
279
330
1F
100
AcDbEntity
  8
2
  6
Continuous
 62
     7
 48
0.0078292322029794
370
     0
100
AcDb2dPolyline
 66
     1
 10
0.0
 20
0.0
 30
0.0
  0
VERTEX
  5
27A
330
279
100
AcDbEntity
  8
2
  6
Continuous
 62
     7
 48
0.0078292322029794
100
AcDbVertex
100
AcDb2dVertex
 10
1.743315147555846
 20
0.0053981593004892
 30
0.0
 40
0.0031
 41
0.0031
  0
VERTEX
  5
27B
330
279
100
AcDbEntity
  8
2
  6
Continuous
 62
     7
 48
0.0078292322029794
100
AcDbVertex
100
AcDb2dVertex
 10
1.750243350855847
 20
0.0053981593004892
 30
0.0
 40
0.0031
 41
0.0031
  0
SEQEND
  5
27C
330
279
100
AcDbEntity
  8
2
  6
Continuous
 62
     7
 48
0.0078292322029794
370
     0
  0
POLYLINE
  5
27D
330
1F
100
AcDbEntity
  8
2
  6
Continuous
 62
     7
 48
0.0078292322029794
370
     0
100
AcDb2dPolyline
 66
     1
 10
0.0
 20
0.0
 30
0.0
  0
VERTEX
  5
27E
330
27D
100
AcDbEntity
  8
2
  6
Continuous
 62
     7
 48
0.0078292322029794
100
AcDbVertex
100
AcDb2dVertex
 10
1.725951045955846
 20
0.0354736655004893
 30
0.0
 40
0.0031
 41
0.0031
  0
VERTEX
  5
27F
330
27D
100
AcDbEntity
  8
2
  6
Continuous
 62
     7
 48
0.0078292322029794
100
AcDbVertex
100
AcDb2dVertex
 10
1.743315147555846
 20
0.0053981593004892
 30
0.0
 40
0.0031
 41
0.0031
  0
SEQEND
  5
280
330
27D
100
AcDbEntity
  8
2
  6
Continuous
 62
     7
 48
0.0078292322029794
370
     0
  0
POLYLINE
  5
281
330
1F
100
AcDbEntity
  8
2
  6
Continuous
 62
     7
 48
0.0078292322029794
370
     0
100
AcDb2dPolyline
 66
     1
 10
0.0
 20
0.0
 30
0.0
  0
VERTEX
  5
282
330
281
100
AcDbEntity
  8
2
  6
Continuous
 62
     7
 48
0.0078292322029794
100
AcDbVertex
100
AcDb2dVertex
 10
1.750243350855847
 20
0.0053981593004892
 30
0.0
 40
0.0031
 41
0.0031
  0
VERTEX
  5
283
330
281
100
AcDbEntity
  8
2
  6
Continuous
 62
     7
 48
0.0078292322029794
100
AcDbVertex
100
AcDb2dVertex
 10
1.767607452455846
 20
0.0354736655004893
 30
0.0
 40
0.0031
 41
0.0031
  0
SEQEND
  5
284
330
281
100
AcDbEntity
  8
2
  6
Continuous
 62
     7
 48
0.0078292322029794
370
     0
  0
POLYLINE
  5
285
330
1F
100
AcDbEntity
  8
2
  6
Continuous
 62
     7
 48
0.0078292322029794
370
     0
100
AcDb2dPolyline
 66
     1
 10
0.0
 20
0.0
 30
0.0
  0
VERTEX
  5
286
330
285
100
AcDbEntity
  8
2
  6
Continuous
 62
     7
 48
0.0078292322029794
100
AcDbVertex
100
AcDb2dVertex
 10
1.823163858855846
 20
0.0354736655004893
 30
0.0
 40
0.0031
 41
0.0031
  0
VERTEX
  5
287
330
285
100
AcDbEntity
  8
2
  6
Continuous
 62
     7
 48
0.0078292322029794
100
AcDbVertex
100
AcDb2dVertex
 10
1.837063858855846
 20
0.0354736655004893
 30
0.0
 40
0.0031
 41
0.0031
  0
SEQEND
  5
288
330
285
100
AcDbEntity
  8
2
  6
Continuous
 62
     7
 48
0.0078292322029794
370
     0
  0
POLYLINE
  5
289
330
1F
100
AcDbEntity
  8
2
  6
Continuous
 62
     7
 48
0.0078292322029794
370
     0
100
AcDb2dPolyline
 66
     1
 10
0.0
 20
0.0
 30
0.0
  0
VERTEX
  5
28A
330
289
100
AcDbEntity
  8
2
  6
Continuous
 62
     7
 48
0.0078292322029794
100
AcDbVertex
100
AcDb2dVertex
 10
1.798871554055846
 20
0.0053981593004892
 30
0.0
 40
0.0031
 41
0.0031
  0
VERTEX
  5
28B
330
289
100
AcDbEntity
  8
2
  6
Continuous
 62
     7
 48
0.0078292322029794
100
AcDbVertex
100
AcDb2dVertex
 10
1.805799757255846
 20
0.0053981593004892
 30
0.0
 40
0.0031
 41
0.0031
  0
SEQEND
  5
28C
330
289
100
AcDbEntity
  8
2
  6
Continuous
 62
     7
 48
0.0078292322029794
370
     0
  0
POLYLINE
  5
28D
330
1F
100
AcDbEntity
  8
2
  6
Continuous
 62
     7
 48
0.0078292322029794
370
     0
100
AcDb2dPolyline
 66
     1
 10
0.0
 20
0.0
 30
0.0
  0
VERTEX
  5
28E
330
28D
100
AcDbEntity
  8
2
  6
Continuous
 62
     7
 48
0.0078292322029794
100
AcDbVertex
100
AcDb2dVertex
 10
1.781507452455846
 20
0.0354736655004893
 30
0.0
 40
0.0031
 41
0.0031
  0
VERTEX
  5
28F
330
28D
100
AcDbEntity
  8
2
  6
Continuous
 62
     7
 48
0.0078292322029794
100
AcDbVertex
100
AcDb2dVertex
 10
1.798871554055846
 20
0.0053981593004892
 30
0.0
 40
0.0031
 41
0.0031
  0
SEQEND
  5
290
330
28D
100
AcDbEntity
  8
2
  6
Continuous
 62
     7
 48
0.0078292322029794
370
     0
  0
POLYLINE
  5
291
330
1F
100
AcDbEntity
  8
2
  6
Continuous
 62
     7
 48
0.0078292322029794
370
     0
100
AcDb2dPolyline
 66
     1
 10
0.0
 20
0.0
 30
0.0
  0
VERTEX
  5
292
330
291
100
AcDbEntity
  8
2
  6
Continuous
 62
     7
 48
0.0078292322029794
100
AcDbVertex
100
AcDb2dVertex
 10
1.805799757255846
 20
0.0053981593004892
 30
0.0
 40
0.0031
 41
0.0031
  0
VERTEX
  5
293
330
291
100
AcDbEntity
  8
2
  6
Continuous
 62
     7
 48
0.0078292322029794
100
AcDbVertex
100
AcDb2dVertex
 10
1.823163858855846
 20
0.0354736655004893
 30
0.0
 40
0.0031
 41
0.0031
  0
SEQEND
  5
294
330
291
100
AcDbEntity
  8
2
  6
Continuous
 62
     7
 48
0.0078292322029794
370
     0
  0
POLYLINE
  5
295
330
1F
100
AcDbEntity
  8
2
  6
Continuous
 62
     7
 48
0.0078292322029794
370
     0
100
AcDb2dPolyline
 66
     1
 10
0.0
 20
0.0
 30
0.0
  0
VERTEX
  5
296
330
295
100
AcDbEntity
  8
2
  6
Continuous
 62
     7
 48
0.0078292322029794
100
AcDbVertex
100
AcDb2dVertex
 10
1.854427960555846
 20
0.0053981593004892
 30
0.0
 40
0.0031
 41
0.0031
  0
VERTEX
  5
297
330
295
100
AcDbEntity
  8
2
  6
Continuous
 62
     7
 48
0.0078292322029794
100
AcDbVertex
100
AcDb2dVertex
 10
1.861356163755846
 20
0.0053981593004892
 30
0.0
 40
0.0031
 41
0.0031
  0
SEQEND
  5
298
330
295
100
AcDbEntity
  8
2
  6
Continuous
 62
     7
 48
0.0078292322029794
370
     0
  0
POLYLINE
  5
299
330
1F
100
AcDbEntity
  8
2
  6
Continuous
 62
     7
 48
0.0078292322029794
370
     0
100
AcDb2dPolyline
 66
     1
 10
0.0
 20
0.0
 30
0.0
  0
VERTEX
  5
29A
330
299
100
AcDbEntity
  8
2
  6
Continuous
 62
     7
 48
0.0078292322029794
100
AcDbVertex
100
AcDb2dVertex
 10
1.837063858855846
 20
0.0354736655004893
 30
0.0
 40
0.0031
 41
0.0031
  0
VERTEX
  5
29B
330
299
100
AcDbEntity
  8
2
  6
Continuous
 62
     7
 48
0.0078292322029794
100
AcDbVertex
100
AcDb2dVertex
 10
1.854427960555846
 20
0.0053981593004892
 30
0.0
 40
0.0031
 41
0.0031
  0
SEQEND
  5
29C
330
299
100
AcDbEntity
  8
2
  6
Continuous
 62
     7
 48
0.0078292322029794
370
     0
  0
POLYLINE
  5
29D
330
1F
100
AcDbEntity
  8
2
  6
Continuous
 62
     7
 48
0.0078292322029794
370
     0
100
AcDb2dPolyline
 66
     1
 10
0.0
 20
0.0
 30
0.0
  0
VERTEX
  5
29E
330
29D
100
AcDbEntity
  8
2
  6
Continuous
 62
     7
 48
0.0078292322029794
100
AcDbVertex
100
AcDb2dVertex
 10
1.861356163755846
 20
0.0053981593004892
 30
0.0
 40
0.0031
 41
0.0031
  0
VERTEX
  5
29F
330
29D
100
AcDbEntity
  8
2
  6
Continuous
 62
     7
 48
0.0078292322029794
100
AcDbVertex
100
AcDb2dVertex
 10
1.876808955055846
 20
0.0321631790004893
 30
0.0
 40
0.0031
 41
0.0031
  0
SEQEND
  5
2A0
330
29D
100
AcDbEntity
  8
2
  6
Continuous
 62
     7
 48
0.0078292322029794
370
     0
  0
POLYLINE
  5
2A1
330
1F
100
AcDbEntity
  8
2
  6
Continuous
 62
     7
 48
0.0078292322029794
370
     0
100
AcDb2dPolyline
 66
     1
 10
0.0
 20
0.0
 30
0.0
  0
VERTEX
  5
2A2
330
2A1
100
AcDbEntity
  8
2
  6
Continuous
 62
     7
 48
0.0078292322029794
100
AcDbVertex
100
AcDb2dVertex
 10
1.906498468555846
 20
0.5414736655004895
 30
0.0
 40
0.0031
 41
0.0031
  0
VERTEX
  5
2A3
330
2A1
100
AcDbEntity
  8
2
  6
Continuous
 62
     7
 48
0.0078292322029794
100
AcDbVertex
100
AcDb2dVertex
 10
1.906498468555846
 20
0.0354736655004893
 30
0.0
 40
0.0031
 41
0.0031
  0
SEQEND
  5
2A4
330
2A1
100
AcDbEntity
  8
2
  6
Continuous
 62
     7
 48
0.0078292322029794
370
     0
  0
POLYLINE
  5
2A5
330
1F
100
AcDbEntity
  8
2
  6
Continuous
 62
     7
 48
0.0078292322029794
370
     0
100
AcDb2dPolyline
 66
     1
 10
0.0
 20
0.0
 30
0.0
  0
VERTEX
  5
2A6
330
2A5
100
AcDbEntity
  8
2
  6
Continuous
 62
     7
 48
0.0078292322029794
100
AcDbVertex
100
AcDb2dVertex
 10
1.635298468555846
 20
0.5834736655004893
 30
0.0
 40
0.0031
 41
0.0031
  0
VERTEX
  5
2A7
330
2A5
100
AcDbEntity
  8
2
  6
Continuous
 62
     7
 48
0.0078292322029794
100
AcDbVertex
100
AcDb2dVertex
 10
1.655310941151837
 20
0.5634611929044979
 30
0.0
 40
0.0031
 41
0.0031
  0
SEQEND
  5
2A8
330
2A5
100
AcDbEntity
  8
2
  6
Continuous
 62
     7
 48
0.0078292322029794
370
     0
  0
POLYLINE
  5
2A9
330
1F
100
AcDbEntity
  8
2
  6
Continuous
 62
     7
 48
0.0078292322029794
370
     0
100
AcDb2dPolyline
 66
     1
 10
0.0
 20
0.0
 30
0.0
  0
VERTEX
  5
2AA
330
2A9
100
AcDbEntity
  8
2
  6
Continuous
 62
     7
 48
0.0078292322029794
100
AcDbVertex
100
AcDb2dVertex
 10
1.655310941151837
 20
0.5634611929044979
 30
0.0
 40
0.0031
 41
0.0031
  0
VERTEX
  5
2AB
330
2A9
100
AcDbEntity
  8
2
  6
Continuous
 62
     7
 48
0.0078292322029794
100
AcDbVertex
100
AcDb2dVertex
 10
1.659980537955846
 20
0.5715491718004893
 30
0.0
 40
0.0031
 41
0.0031
  0
SEQEND
  5
2AC
330
2A9
100
AcDbEntity
  8
2
  6
Continuous
 62
     7
 48
0.0078292322029794
370
     0
  0
POLYLINE
  5
2AD
330
1F
100
AcDbEntity
  8
2
  6
Continuous
 62
     7
 48
0.0078292322029794
370
     0
100
AcDb2dPolyline
 66
     1
 10
0.0
 20
0.0
 30
0.0
  0
VERTEX
  5
2AE
330
2AD
100
AcDbEntity
  8
2
  6
Continuous
 62
     7
 48
0.0078292322029794
100
AcDbVertex
100
AcDb2dVertex
 10
1.649298468555846
 20
0.0074736655004892
 30
0.0
 40
0.0031
 41
0.0031
  0
VERTEX
  5
2AF
330
2AD
100
AcDbEntity
  8
2
  6
Continuous
 62
     7
 48
0.0078292322029794
100
AcDbVertex
100
AcDb2dVertex
 10
1.672921616353176
 20
0.031096813297819
 30
0.0
 40
0.0031
 41
0.0031
  0
SEQEND
  5
2B0
330
2AD
100
AcDbEntity
  8
2
  6
Continuous
 62
     7
 48
0.0078292322029794
370
     0
  0
POLYLINE
  5
2B1
330
1F
100
AcDbEntity
  8
2
  6
Continuous
 62
     7
 48
0.0078292322029794
370
     0
100
AcDb2dPolyline
 66
     1
 10
0.0
 20
0.0
 30
0.0
  0
VERTEX
  5
2B2
330
2B1
100
AcDbEntity
  8
2
  6
Continuous
 62
     7
 48
0.0078292322029794
100
AcDbVertex
100
AcDb2dVertex
 10
1.672921616353176
 20
0.031096813297819
 30
0.0
 40
0.0031
 41
0.0031
  0
VERTEX
  5
2B3
330
2B1
100
AcDbEntity
  8
2
  6
Continuous
 62
     7
 48
0.0078292322029794
100
AcDbVertex
100
AcDb2dVertex
 10
1.687758741155846
 20
0.0053981593004892
 30
0.0
 40
0.0031
 41
0.0031
  0
SEQEND
  5
2B4
330
2B1
100
AcDbEntity
  8
2
  6
Continuous
 62
     7
 48
0.0078292322029794
370
     0
  0
POLYLINE
  5
2B5
330
1F
100
AcDbEntity
  8
1
  6
Continuous
 62
     7
 48
0.0078292322029794
370
     0
100
AcDb2dPolyline
 66
     1
 10
0.0
 20
0.0
 30
0.0
  0
VERTEX
  5
2B6
330
2B5
100
AcDbEntity
  8
1
  6
Continuous
 62
     7
100
AcDbVertex
100
AcDb2dVertex
 10
1.618998468555847
 20
0.541623665500489
 30
0.0
 40
0.0031
 41
0.0031
 42
0.9999999999999999
  0
VERTEX
  5
2B7
330
2B5
100
AcDbEntity
  8
1
  6
Continuous
 62
     7
100
AcDbVertex
100
AcDb2dVertex
 10
1.535298468555846
 20
0.541623665500489
 30
0.0
 40
0.0031
 41
0.0031
 42
0.9999999999999999
  0
VERTEX
  5
2B8
330
2B5
100
AcDbEntity
  8
1
  6
Continuous
 62
     7
100
AcDbVertex
100
AcDb2dVertex
 10
1.618998468555847
 20
0.541623665500489
 30
0.0
 40
0.0031
 41
0.0031
  0
SEQEND
  5
2B9
330
2B5
100
AcDbEntity
  8
1
  6
Continuous
 62
     7
 48
0.0078292322029794
370
     0
  0
POLYLINE
  5
2BA
330
1F
100
AcDbEntity
  8
1
  6
Continuous
 62
     7
 48
0.0078292322029794
370
     0
100
AcDb2dPolyline
 66
     1
 10
0.0
 20
0.0
 30
0.0
  0
VERTEX
  5
2BB
330
2BA
100
AcDbEntity
  8
1
  6
Continuous
 62
     7
100
AcDbVertex
100
AcDb2dVertex
 10
1.618998468555847
 20
0.0353236655004892
 30
0.0
 40
0.0031
 41
0.0031
 42
0.9999999999999999
  0
VERTEX
  5
2BC
330
2BA
100
AcDbEntity
  8
1
  6
Continuous
 62
     7
100
AcDbVertex
100
AcDb2dVertex
 10
1.535298468555846
 20
0.0353236655004892
 30
0.0
 40
0.0031
 41
0.0031
 42
0.9999999999999999
  0
VERTEX
  5
2BD
330
2BA
100
AcDbEntity
  8
1
  6
Continuous
 62
     7
100
AcDbVertex
100
AcDb2dVertex
 10
1.618998468555847
 20
0.0353236655004892
 30
0.0
 40
0.0031
 41
0.0031
  0
SEQEND
  5
2BE
330
2BA
100
AcDbEntity
  8
1
  6
Continuous
 62
     7
 48
0.0078292322029794
370
     0
  0
HATCH
  5
2BF
330
1F
100
AcDbEntity
  8
1
  6
Continuous
 62
     7
 48
0.0018799126536527
370
     0
100
AcDbHatch
 10
0.0
 20
0.0
 30
0.0
210
0.0
220
0.0
230
1.0
  2
SOLID
 70
     1
 71
     0
 91
        1
 92
        3
 72
     0
 73
     1
 93
       42
 10
1.607826689391925
 20
0.5700888945762019
 10
1.611726561260971
 20
0.5651986099304515
 10
1.614854015677563
 20
0.5597816999825589
 10
1.617139190477996
 20
0.5539591695495851
 10
1.618531038633368
 20
0.5478610843399617
 10
1.618998468555847
 20
0.541623665500489
 10
1.618531038633368
 20
0.535386246661016
 10
1.617139190477996
 20
0.5292881614513923
 10
1.614854015677563
 20
0.5234656310184191
 10
1.611726561260971
 20
0.5180487210705264
 10
1.607826689391925
 20
0.5131584364247759
 10
1.603241516763634
 20
0.5089040179592018
 10
1.598073468555846
 20
0.5053805023521103
 10
1.59243799042558
 20
0.5026665991197288
 10
1.586460969641918
 20
0.5008229323756798
 10
1.580275922972438
 20
0.4998906865884565
 10
1.574021014139255
 20
0.4998906865884565
 10
1.567835967469775
 20
0.5008229323756798
 10
1.561858946686113
 20
0.5026665991197288
 10
1.556223468555846
 20
0.5053805023521103
 10
1.551055420348058
 20
0.5089040179592018
 10
1.546470247719768
 20
0.5131584364247759
 10
1.542570375850722
 20
0.5180487210705264
 10
1.53944292143413
 20
0.5234656310184191
 10
1.537157746633696
 20
0.5292881614513926
 10
1.535765898478325
 20
0.535386246661016
 10
1.535298468555846
 20
0.541623665500489
 10
1.535765898478325
 20
0.5478610843399617
 10
1.537157746633696
 20
0.5539591695495851
 10
1.53944292143413
 20
0.5597816999825589
 10
1.542570375850722
 20
0.5651986099304515
 10
1.546470247719768
 20
0.5700888945762019
 10
1.551055420348058
 20
0.5743433130417759
 10
1.556223468555846
 20
0.5778668286488677
 10
1.561858946686113
 20
0.5805807318812489
 10
1.567835967469775
 20
0.5824243986252983
 10
1.574021014139255
 20
0.5833566444125216
 10
1.580275922972438
 20
0.5833566444125216
 10
1.586460969641918
 20
0.5824243986252983
 10
1.59243799042558
 20
0.5805807318812489
 10
1.598073468555846
 20
0.5778668286488677
 10
1.603241516763634
 20
0.5743433130417759
 97
        0
 75
     0
 76
     1
 98
        1
 10
0.0
 20
0.0
  0
HATCH
  5
2C0
330
1F
100
AcDbEntity
  8
1
  6
Continuous
 62
     7
 48
0.0018799126536527
370
     0
100
AcDbHatch
 10
0.0
 20
0.0
 30
0.0
210
0.0
220
0.0
230
1.0
  2
SOLID
 70
     1
 71
     0
 91
        1
 92
        3
 72
     0
 73
     1
 93
       43
 10
1.611726561260971
 20
0.0588986099304519
 10
1.614854015677563
 20
0.053481699982559
 10
1.617139190477996
 20
0.0476591695495856
 10
1.618531038633368
 20
0.0415610843399621
 10
1.618998468555847
 20
0.0353236655004892
 10
1.618531038633368
 20
0.0290862466610162
 10
1.617139190477996
 20
0.0229881614513928
 10
1.614854015677563
 20
0.0171656310184193
 10
1.611726561260971
 20
0.0117487210705265
 10
1.607826689391925
 20
0.0068584364247762
 10
1.603241516763634
 20
0.002604017959202
 10
1.598073468555846
 20
-0.0009194976478897
 10
1.59243799042558
 20
-0.0036334008802709
 10
1.586460969641918
 20
-0.0054770676243202
 10
1.580275922972438
 20
-0.0064093134115432
 10
1.577148468555846
 20
-0.0065263344995109
 10
1.574021014139255
 20
-0.0064093134115432
 10
1.567835967469775
 20
-0.0054770676243202
 10
1.561858946686113
 20
-0.0036334008802709
 10
1.556223468555846
 20
-0.0009194976478897
 10
1.551055420348058
 20
0.002604017959202
 10
1.546470247719768
 20
0.0068584364247762
 10
1.542570375850722
 20
0.0117487210705265
 10
1.53944292143413
 20
0.0171656310184193
 10
1.537157746633696
 20
0.0229881614513928
 10
1.535765898478325
 20
0.0290862466610163
 10
1.535298468555846
 20
0.0353236655004892
 10
1.535765898478325
 20
0.0415610843399621
 10
1.537157746633696
 20
0.0476591695495856
 10
1.53944292143413
 20
0.053481699982559
 10
1.542570375850722
 20
0.0588986099304517
 10
1.546470247719768
 20
0.0637888945762022
 10
1.551055420348058
 20
0.0680433130417764
 10
1.556223468555846
 20
0.0715668286488679
 10
1.561858946686113
 20
0.0742807318812493
 10
1.567835967469775
 20
0.0761243986252986
 10
1.574021014139255
 20
0.0770566444125216
 10
1.580275922972438
 20
0.0770566444125216
 10
1.586460969641918
 20
0.0761243986252986
 10
1.59243799042558
 20
0.0742807318812491
 10
1.598073468555846
 20
0.0715668286488679
 10
1.603241516763634
 20
0.0680433130417764
 10
1.607826689391925
 20
0.0637888945762022
 97
        0
 75
     0
 76
     1
 98
        1
 10
0.0
 20
0.0
  0
DIMENSION
  5
2C1
330
1F
100
AcDbEntity
  8
1
  6
Continuous
 62
     7
 48
0.0000375982530731
370
     0
100
AcDbDimension
  2
*D2
 10
1.906498468555846
 20
0.756473665500489
 30
0.0
 11
1.720898468555846
 21
0.7814571655004889
 31
0.0
 70
    32
 71
     5
 42
0.3712
  3
Standard
100
AcDbAlignedDimension
 13
1.535298468555846
 23
0.5734736655004893
 33
0.0
 14
1.906498468555846
 24
0.6174736655004894
 34
0.0
100
AcDbRotatedDimension
1001
ACAD
1000
DSTYLE
1002
{
1070
   172
1070
     1
1070
    77
1070
     1
1070
   280
1070
     0
1070
   279
1070
     0
1070
    74
1070
     0
1070
    73
1070
     0
1070
   174
1070
     0
1070
   147
1040
0.0112
1070
    42
1040
0.027
1070
   290
1070
     0
1070
   340
1005
2C2
1070
    78
1070
     0
1070
   272
1070
     3
1070
    71
1070
     0
1070
   146
1040
1.0
1070
   140
1040
0.027
1070
   271
1070
     3
1070
    41
1040
0.027
1070
   342
1005
0
1070
   173
1070
     0
1070
   277
1070
     2
1070
    44
1040
0.008035
1002
}
  0
DIMENSION
  5
2D0
330
1F
100
AcDbEntity
  8
1
  6
Continuous
 62
     7
 48
0.0000375982530731
370
     0
100
AcDbDimension
  2
*D3
 10
1.906498468555846
 20
0.8374736655004891
 30
0.0
 11
1.566498468555846
 21
0.862457165500489
 31
0.0
 70
    32
 71
     5
 42
0.6799999999999999
  3
Standard
100
AcDbAlignedDimension
 13
1.226498468555846
 23
0.5743315298767586
 33
0.0
 14
1.906498468555846
 24
0.6174736655004894
 34
0.0
100
AcDbRotatedDimension
1001
ACAD
1000
DSTYLE
1002
{
1070
   172
1070
     1
1070
    77
1070
     1
1070
   280
1070
     0
1070
   279
1070
     0
1070
    74
1070
     0
1070
    73
1070
     0
1070
   174
1070
     0
1070
   147
1040
0.0112
1070
    42
1040
0.027
1070
   290
1070
     0
1070
   340
1005
2C2
1070
    78
1070
     0
1070
   272
1070
     3
1070
    71
1070
     0
1070
   146
1040
1.0
1070
   140
1040
0.027
1070
   271
1070
     3
1070
    41
1040
0.027
1070
   342
1005
0
1070
   173
1070
     0
1070
   277
1070
     2
1070
    44
1040
0.008035
1002
}
  0
DIMENSION
  5
2DD
330
1F
100
AcDbEntity
  8
1
  6
Continuous
 62
     7
 48
0.0000375982530731
370
     0
100
AcDbDimension
  2
*D4
 10
2.014498468555846
 20
0.675473665500489
 30
0.0
 11
1.988772468555846
 21
0.2884736655004891
 31
0.0
 70
    32
 71
     5
 42
0.7739999999999998
  3
Standard
100
AcDbAlignedDimension
 13
1.720789377646755
 23
-0.0985263344995107
 33
0.0
 14
1.720789377646755
 24
0.675473665500489
 34
0.0
 50
90.0
100
AcDbRotatedDimension
1001
ACAD
1000
DSTYLE
1002
{
1070
   172
1070
     1
1070
    77
1070
     1
1070
   280
1070
     0
1070
   279
1070
     0
1070
    74
1070
     0
1070
    73
1070
     0
1070
   174
1070
     0
1070
   147
1040
0.0112
1070
    42
1040
0.027
1070
   290
1070
     0
1070
   340
1005
2C2
1070
    78
1070
     0
1070
   272
1070
     3
1070
    71
1070
     0
1070
     3
1000
Ø<>
1070
   146
1040
1.0
1070
   140
1040
0.027
1070
   271
1070
     3
1070
    41
1040
0.027
1070
   342
1005
0
1070
   173
1070
     0
1070
   277
1070
     2
1070
    44
1040
0.008035
1002
}
  0
POLYLINE
  5
2EA
330
1F
100
AcDbEntity
  8
1
  6
Continuous
 62
     7
 48
0.0078292322029794
370
     0
100
AcDb2dPolyline
 66
     1
 10
0.0
 20
0.0
 30
0.0
  0
VERTEX
  5
2EB
330
2EA
100
AcDbEntity
  8
1
  6
Continuous
 62
     7
 48
0.0078292322029794
100
AcDbVertex
100
AcDb2dVertex
 10
1.535298468555846
 20
0.5264736655004891
 30
0.0
 40
0.0031
 41
0.0031
  0
VERTEX
  5
2EC
330
2EA
100
AcDbEntity
  8
1
  6
Continuous
 62
     7
 48
0.0078292322029794
100
AcDbVertex
100
AcDb2dVertex
 10
1.535298468555846
 20
0.5734736655004893
 30
0.0
 40
0.0031
 41
0.0031
  0
SEQEND
  5
2ED
330
2EA
100
AcDbEntity
  8
1
  6
Continuous
 62
     7
 48
0.0078292322029794
370
     0
  0
POLYLINE
  5
2EE
330
1F
100
AcDbEntity
  8
1
  6
Continuous
 62
     7
 48
0.0078292322029794
370
     0
100
AcDb2dPolyline
 66
     1
 10
0.0
 20
0.0
 30
0.0
  0
VERTEX
  5
2EF
330
2EE
100
AcDbEntity
  8
1
  6
Continuous
 62
     7
 48
0.0078292322029794
100
AcDbVertex
100
AcDb2dVertex
 10
1.535298468555846
 20
0.0034736655004892
 30
0.0
 40
0.0031
 41
0.0031
  0
VERTEX
  5
2F0
330
2EE
100
AcDbEntity
  8
1
  6
Continuous
 62
     7
 48
0.0078292322029794
100
AcDbVertex
100
AcDb2dVertex
 10
1.535298468555846
 20
0.0504736655004894
 30
0.0
 40
0.0031
 41
0.0031
  0
SEQEND
  5
2F1
330
2EE
100
AcDbEntity
  8
1
  6
Continuous
 62
     7
 48
0.0078292322029794
370
     0
  0
TEXT
  5
2F2
330
1F
100
AcDbEntity
  8
1
  6
DASHED
 62
     7
370
     0
100
AcDbText
 10
1.775051547750953
 20
-0.187354613694631
 30
0.0
 40
0.0278999999999999
  1
2
  7
DC_TEXTSTYLE5
 72
     1
 11
1.785876747750953
 21
-0.187354613694631
 31
0.0
100
AcDbText
  0
CIRCLE
  5
2F3
330
1F
100
AcDbEntity
  8
1
  6
Continuous
 62
     7
 48
0.0006015720491689
370
     0
100
AcDbCircle
 10
1.785876747750951
 20
-0.1734046136946159
 30
0.0
 40
0.0279000000000001
  0
TEXT
  5
2F4
330
1F
100
AcDbEntity
  8
1
  6
DASHED
 62
     7
370
     0
100
AcDbText
 10
1.420722641187269
 20
0.737951944695593
 30
0.0
 40
0.0278999999999999
  1
1
  7
DC_TEXTSTYLE5
 72
     1
 11
1.431547841187269
 21
0.737951944695593
 31
0.0
100
AcDbText
  0
CIRCLE
  5
2F5
330
1F
100
AcDbEntity
  8
1
  6
Continuous
 62
     7
 48
0.0006015720491689
370
     0
100
AcDbCircle
 10
1.43154784118727
 20
0.7519019446955916
 30
0.0
 40
0.0279000000000001
  0
LINE
  5
2F6
330
1F
100
AcDbEntity
  8
1
  6
Continuous
 62
     7
 48
0.0006015720491689
370
     0
100
AcDbLine
 10
1.577148468555846
 20
0.0353236655004892
 30
0.0
 11
1.766148468555846
 21
-0.1536763344995108
 31
0.0
  0
LINE
  5
2F7
330
1F
100
AcDbEntity
  8
1
  6
Continuous
 62
     7
 48
0.0006015720491689
370
     0
100
AcDbLine
 10
1.507976120382375
 20
0.6754736655004868
 30
0.0
 11
1.451276120382375
 21
0.7321736655004867
 31
0.0
  0
TEXT
  5
2F8
330
1F
100
AcDbEntity
  8
1
  6
DASHED
 62
     5
420
      255
370
     0
100
AcDbText
 10
1.293360422972438
 20
-0.2831093134126731
 30
0.0
 40
0.027
  1
PART NET WEIGHT IS 4 GRAMS
  7
DC_TEXTSTYLE5
 72
     1
 11
1.580275922972438
 21
-0.2831093134126731
 31
0.0
100
AcDbText
  0
TEXT
  5
2F9
330
1F
100
AcDbEntity
  8
1
  6
Continuous
 62
     7
370
     0
100
AcDbText
 10
2.112011214254792
 20
-0.6417282765629043
 30
0.0
 40
0.0228923076675078
  1
O RING BOSS GASKET
 41
0.9999999999999996
  7
DC_TEXTSTYLE5
100
AcDbText
  0
TEXT
  5
2FA
330
1F
100
AcDbEntity
  8
1
  6
DASHED
 62
     5
420
      255
370
     0
100
AcDbText
 10
1.620876468555208
 20
0.8482736655004481
 30
0.0
 40
0.027
  1
(17.3mm)
  7
DC_TEXTSTYLE5
 72
     1
 11
1.701498468555208
 21
0.8482736655004481
 31
0.0
100
AcDbText
  0
TEXT
  5
2FB
330
1F
100
AcDbEntity
  8
1
  6
DASHED
 62
     5
420
      255
370
     0
100
AcDbText
 10
1.650752468555811
 20
0.7159736655004582
 30
0.0
 40
0.027
  1
(9.4mm)
  7
DC_TEXTSTYLE5
 72
     1
 11
1.720898468555811
 21
0.7159736655004582
 31
0.0
100
AcDbText
  0
TEXT
  5
2FC
330
1F
100
AcDbEntity
  8
1
  6
DASHED
 62
     5
420
      255
370
     0
100
AcDbText
 10
2.056297705032937
 20
0.2078516655004893
 30
0.0
 40
0.027
  1
(19.7mm)
 50
90.0
  7
DC_TEXTSTYLE5
 72
     1
 11
2.056297705032937
 21
0.2884736655004894
 31
0.0
100
AcDbText
  0
TEXT
  5
2FD
330
1F
100
AcDbEntity
  8
1
  6
HIDDEN
 62
     7
370
     0
100
AcDbText
 10
2.63934349124215
 20
-0.5803898150617824
 30
0.0
 40
0.027
  1
HEX AF = HEX TIP %%c / 1.125
  7
DC_TEXTSTYLE5
 72
     2
 11
3.130554491242151
 21
-0.5803898150617824
 31
0.0
100
AcDbText
  0
POLYLINE
  5
2FE
330
1F
100
AcDbEntity
  8
1
  6
Continuous
 62
     7
 48
0.0078292322029794
370
     0
100
AcDb2dPolyline
 66
     1
 10
0.0
 20
0.0
 30
0.0
  0
VERTEX
  5
2FF
330
2FE
100
AcDbEntity
  8
1
  6
Continuous
 62
     7
 48
0.0078292322029794
100
AcDbVertex
100
AcDb2dVertex
 10
1.535298468555846
 20
0.0504736655004894
 30
0.0
 40
0.0031
 41
0.0031
  0
VERTEX
  5
300
330
2FE
100
AcDbEntity
  8
1
  6
Continuous
 62
     7
 48
0.0078292322029794
100
AcDbVertex
100
AcDb2dVertex
 10
1.535298468555846
 20
0.5264736655004891
 30
0.0
 40
0.0031
 41
0.0031
  0
SEQEND
  5
301
330
2FE
100
AcDbEntity
  8
1
  6
Continuous
 62
     7
 48
0.0078292322029794
370
     0
  0
LINE
  5
302
330
1F
100
AcDbEntity
  8
1
  6
Continuous
 62
     7
 48
0.0006015720491689
370
     0
100
AcDbLine
 10
1.35822986158983
 20
0.1839023495817937
 30
0.0
 11
1.35822986158983
 21
0.3930449814191843
 31
0.0
  0
ENDSEC
  0
SECTION
  2
OBJECTS
  0
DICTIONARY
  5
C
330
0
100
AcDbDictionary
281
     1
  3
ACAD_DETAILVIEWSTYLE
350
347
  3
ACAD_GROUP
350
D
  3
ACAD_IMAGE_VARS
350
99
  3
ACAD_LAYOUT
350
1A
  3
ACAD_MATERIAL
350
91
  3
ACAD_MLEADERSTYLE
350
97
  3
ACAD_MLINESTYLE
350
17
  3
ACAD_PLOTSETTINGS
350
19
  3
ACAD_PLOTSTYLENAME
350
E
  3
ACAD_SCALELIST
350
6F
  3
ACAD_SECTIONVIEWSTYLE
350
348
  3
ACAD_TABLESTYLE
350
95
  3
ACAD_VISUALSTYLE
350
56
  3
ACDB_RECOMPOSE_DATA
350
343
  3
AcDbVariableDictionary
350
4E
  0
DICTIONARY
  5
303
330
8
100
AcDbDictionary
280
     1
281
     1
  3
ACAD_XREC_ROUNDTRIP
360
304
  0
DICTIONARY
  5
347
102
{ACAD_REACTORS
330
C
102
}
330
C
100
AcDbDictionary
281
     1
  0
DICTIONARY
  5
D
102
{ACAD_REACTORS
330
C
102
}
330
C
100
AcDbDictionary
281
     1
  0
RASTERVARIABLES
  5
99
102
{ACAD_REACTORS
330
C
102
}
330
C
100
AcDbRasterVariables
 90
        0
 70
     0
 71
     1
 72
     5
  0
DICTIONARY
  5
1A
102
{ACAD_REACTORS
330
C
102
}
330
C
100
AcDbDictionary
281
     1
  3
Layout1
350
1E
  3
Model
350
22
  0
DICTIONARY
  5
91
102
{ACAD_REACTORS
330
C
102
}
330
C
100
AcDbDictionary
281
     1
  3
ByBlock
350
93
  3
ByLayer
350
92
  3
Global
350
94
  0
DICTIONARY
  5
97
102
{ACAD_REACTORS
330
C
102
}
330
C
100
AcDbDictionary
281
     1
  3
Standard
350
98
  0
DICTIONARY
  5
17
102
{ACAD_REACTORS
330
C
102
}
330
C
100
AcDbDictionary
281
     1
  3
Standard
350
18
  0
DICTIONARY
  5
19
102
{ACAD_REACTORS
330
C
102
}
330
C
100
AcDbDictionary
281
     1
  0
ACDBDICTIONARYWDFLT
  5
E
102
{ACAD_REACTORS
330
C
102
}
330
C
100
AcDbDictionary
281
     1
  3
Normal
350
F
100
AcDbDictionaryWithDefault
340
F
  0
DICTIONARY
  5
6F
102
{ACAD_REACTORS
330
C
102
}
330
C
100
AcDbDictionary
281
     1
  3
A0
350
70
  3
A1
350
71
  3
A2
350
72
  3
A3
350
73
  3
A4
350
74
  3
A5
350
75
  3
A6
350
76
  3
A7
350
77
  3
A8
350
78
  3
A9
350
79
  3
B0
350
7A
  3
B1
350
7B
  3
B2
350
7C
  3
B3
350
7D
  3
B4
350
7E
  3
B5
350
7F
  3
B6
350
80
  3
B7
350
81
  3
B8
350
82
  3
B9
350
83
  3
C0
350
84
  3
C1
350
85
  3
C2
350
86
  3
C3
350
87
  3
C4
350
88
  3
C5
350
89
  3
C6
350
8A
  3
C7
350
8B
  3
C8
350
8C
  3
C9
350
8D
  3
D0
350
8E
  3
D1
350
8F
  3
D2
350
90
  0
DICTIONARY
  5
348
102
{ACAD_REACTORS
330
C
102
}
330
C
100
AcDbDictionary
281
     1
  0
DICTIONARY
  5
95
102
{ACAD_REACTORS
330
C
102
}
330
C
100
AcDbDictionary
281
     1
  3
Standard
350
96
  0
DICTIONARY
  5
56
102
{ACAD_REACTORS
330
C
102
}
330
C
100
AcDbDictionary
281
     1
  3
2dWireframe
350
5B
  3
Basic
350
5E
  3
Brighten
350
62
  3
ColorChange
350
66
  3
Conceptual
350
60
  3
Dim
350
61
  3
EdgeColorOff
350
69
  3
Facepattern
350
65
  3
Flat
350
57
  3
FlatWithEdges
350
58
  3
Gouraud
350
59
  3
GouraudWithEdges
350
5A
  3
Hidden
350
5D
  3
JitterOff
350
67
  3
Linepattern
350
64
  3
OverhangOff
350
68
  3
Realistic
350
5F
  3
Shaded
350
6E
  3
Shaded with edges
350
6D
  3
Shades of Gray
350
6A
  3
Sketchy
350
6B
  3
Thicken
350
63
  3
Wireframe
350
5C
  3
X-Ray
350
6C
  0
XRECORD
  5
343
102
{ACAD_REACTORS
330
C
102
}
330
C
100
AcDbXrecord
280
     1
 90
        1
330
96
  0
DICTIONARY
  5
4E
102
{ACAD_REACTORS
330
C
102
}
330
C
100
AcDbDictionary
281
     1
  3
CANNOSCALE
350
305
  3
CMLEADERSTYLE
350
345
  3
CTABLESTYLE
350
344
  3
DIMASSOC
350
4F
  3
MSLTSCALE
350
346
  3
XCLIPFRAME
350
306
  0
XRECORD
  5
304
102
{ACAD_REACTORS
330
303
102
}
330
303
100
AcDbXrecord
280
     1
102
VTR_0.000_0.000_1.000_1.000_VISUALSTYLE
340
5B
102
VTR_0.000_0.000_1.000_1.000_GRIDDISPLAY
 70
     3
102
VTR_0.000_0.000_1.000_1.000_GRIDMAJOR
 70
     5
102
VTR_0.000_0.000_1.000_1.000_DEFAULTLIGHTING
280
     1
102
VTR_0.000_0.000_1.000_1.000_DEFAULTLIGHTINGTYPE
 70
     1
102
VTR_0.000_0.000_1.000_1.000_BRIGHTNESS
141
0.0
102
VTR_0.000_0.000_1.000_1.000_CONTRAST
142
0.0
  0
LAYOUT
  5
1E
102
{ACAD_REACTORS
330
1A
102
}
330
1A
100
AcDbPlotSettings
  1

  2
HP DeskJet 720C v10.3
  4

  6

 40
0.0
 41
0.0
 42
0.0
 43
0.0
 44
0.0
 45
0.0
 46
0.0
 47
0.0
 48
0.0
 49
0.0
140
0.0
141
0.0
142
1.0
143
1.0
 70
   688
 72
     0
 73
     0
 74
     5
  7

 75
    16
 76
     0
 77
     2
 78
   300
147
1.0
148
0.0
149
0.0
100
AcDbLayout
  1
Layout1
 70
     1
 71
     1
 10
0.0
 20
0.0
 11
12.0
 21
9.0
 12
0.0
 22
0.0
 32
0.0
 14
1.000000000000000E+20
 24
1.000000000000000E+20
 34
1.000000000000000E+20
 15
-1.000000000000000E+20
 25
-1.000000000000000E+20
 35
-1.000000000000000E+20
146
0.0
 13
0.0
 23
0.0
 33
0.0
 16
1.0
 26
0.0
 36
0.0
 17
0.0
 27
1.0
 37
0.0
 76
     0
330
1B
  0
LAYOUT
  5
22
102
{ACAD_REACTORS
330
1A
102
}
330
1A
100
AcDbPlotSettings
  1

  2
None
  4
Custom Paper
  6

 40
0.5
 41
0.5
 42
0.5
 43
0.5
 44
296.9683333333333
 45
209.9733333333333
 46
0.2101666666666233
 47
-0.0000000000000142
 48
0.0
 49
0.0
140
0.0
141
0.0
142
1.0
143
0.0116181315808754
 70
  5796
 72
     2
 73
     0
 74
     0
  7

 75
     0
 76
     0
 77
     2
 78
   300
147
86.07235965945654
148
1.716857776232285
149
1.213939841780404
100
AcDbLayout
  1
Model
 70
     1
 71
     0
 10
0.0
 20
0.0
 11
12.0
 21
9.0
 12
0.0
 22
0.0
 32
0.0
 14
0.0575544912421507
 24
-0.9344680807832851
 34
0.0031
 15
3.179114084391764
 25
1.27269526790836
 35
-0.0031
146
0.0
 13
0.0
 23
0.0
 33
0.0
 16
1.0
 26
0.0
 36
0.0
 17
0.0
 27
1.0
 37
0.0
 76
     0
330
1F
331
55
  0
MATERIAL
  5
93
102
{ACAD_REACTORS
330
91
102
}
102
{ACAD_XDICTIONARY
360
339
102
}
330
91
100
AcDbMaterial
  1
ByBlock
  0
MATERIAL
  5
92
102
{ACAD_REACTORS
330
91
102
}
102
{ACAD_XDICTIONARY
360
337
102
}
330
91
100
AcDbMaterial
  1
ByLayer
  0
MATERIAL
  5
94
102
{ACAD_REACTORS
330
91
102
}
102
{ACAD_XDICTIONARY
360
33B
102
}
330
91
100
AcDbMaterial
  1
Global
  0
MLEADERSTYLE
  5
98
102
{ACAD_REACTORS
330
97
102
}
102
{ACAD_XDICTIONARY
360
341
102
}
330
97
100
AcDbMLeaderStyle
170
     2
171
     1
172
     0
 90
        2
 40
0.0
 41
0.0
173
     1
 91
-1056964608
340
14
 92
       -2
290
     1
 42
0.09
291
     1
 43
0.36
  3
Standard
341
0
 44
0.18
300

342
11
174
     1
178
     6
175
     1
176
     0
 93
-1056964608
 45
0.18
292
     0
297
     0
 46
0.18
343
0
 94
-1056964608
 47
1.0
 49
1.0
140
1.0
293
     1
141
0.0
294
     1
177
     0
142
1.0
295
     0
296
     0
143
0.125
1001
ACAD_MLEADERVER
1070
     2
  0
MLINESTYLE
  5
18
102
{ACAD_REACTORS
330
17
102
}
330
17
100
AcDbMlineStyle
  2
STANDARD
 70
     0
  3

 62
   256
 51
90.0
 52
90.0
 71
     2
 49
0.5
 62
   256
  6
BYLAYER
 49
-0.5
 62
   256
  6
BYLAYER
  0
ACDBPLACEHOLDER
  5
F
102
{ACAD_REACTORS
330
E
102
}
330
E
  0
SCALE
  5
70
102
{ACAD_REACTORS
330
6F
102
}
330
6F
100
AcDbScale
 70
     0
300
1:1
140
1.0
141
1.0
290
     1
  0
SCALE
  5
71
102
{ACAD_REACTORS
330
6F
102
}
330
6F
100
AcDbScale
 70
     0
300
1:2
140
1.0
141
2.0
290
     0
  0
SCALE
  5
72
102
{ACAD_REACTORS
330
6F
102
}
330
6F
100
AcDbScale
 70
     0
300
1:4
140
1.0
141
4.0
290
     0
  0
SCALE
  5
73
102
{ACAD_REACTORS
330
6F
102
}
330
6F
100
AcDbScale
 70
     0
300
1:5
140
1.0
141
5.0
290
     0
  0
SCALE
  5
74
102
{ACAD_REACTORS
330
6F
102
}
330
6F
100
AcDbScale
 70
     0
300
1:8
140
1.0
141
8.0
290
     0
  0
SCALE
  5
75
102
{ACAD_REACTORS
330
6F
102
}
330
6F
100
AcDbScale
 70
     0
300
1:10
140
1.0
141
10.0
290
     0
  0
SCALE
  5
76
102
{ACAD_REACTORS
330
6F
102
}
330
6F
100
AcDbScale
 70
     0
300
1:16
140
1.0
141
16.0
290
     0
  0
SCALE
  5
77
102
{ACAD_REACTORS
330
6F
102
}
330
6F
100
AcDbScale
 70
     0
300
1:20
140
1.0
141
20.0
290
     0
  0
SCALE
  5
78
102
{ACAD_REACTORS
330
6F
102
}
330
6F
100
AcDbScale
 70
     0
300
1:30
140
1.0
141
30.0
290
     0
  0
SCALE
  5
79
102
{ACAD_REACTORS
330
6F
102
}
330
6F
100
AcDbScale
 70
     0
300
1:40
140
1.0
141
40.0
290
     0
  0
SCALE
  5
7A
102
{ACAD_REACTORS
330
6F
102
}
330
6F
100
AcDbScale
 70
     0
300
1:50
140
1.0
141
50.0
290
     0
  0
SCALE
  5
7B
102
{ACAD_REACTORS
330
6F
102
}
330
6F
100
AcDbScale
 70
     0
300
1:100
140
1.0
141
100.0
290
     0
  0
SCALE
  5
7C
102
{ACAD_REACTORS
330
6F
102
}
330
6F
100
AcDbScale
 70
     0
300
2:1
140
2.0
141
1.0
290
     0
  0
SCALE
  5
7D
102
{ACAD_REACTORS
330
6F
102
}
330
6F
100
AcDbScale
 70
     0
300
4:1
140
4.0
141
1.0
290
     0
  0
SCALE
  5
7E
102
{ACAD_REACTORS
330
6F
102
}
330
6F
100
AcDbScale
 70
     0
300
8:1
140
8.0
141
1.0
290
     0
  0
SCALE
  5
7F
102
{ACAD_REACTORS
330
6F
102
}
330
6F
100
AcDbScale
 70
     0
300
10:1
140
10.0
141
1.0
290
     0
  0
SCALE
  5
80
102
{ACAD_REACTORS
330
6F
102
}
330
6F
100
AcDbScale
 70
     0
300
100:1
140
100.0
141
1.0
290
     0
  0
SCALE
  5
81
102
{ACAD_REACTORS
330
6F
102
}
330
6F
100
AcDbScale
 70
     0
300
1/128" = 1'-0"
140
0.0078125
141
12.0
290
     0
  0
SCALE
  5
82
102
{ACAD_REACTORS
330
6F
102
}
330
6F
100
AcDbScale
 70
     0
300
1/64" = 1'-0"
140
0.015625
141
12.0
290
     0
  0
SCALE
  5
83
102
{ACAD_REACTORS
330
6F
102
}
330
6F
100
AcDbScale
 70
     0
300
1/32" = 1'-0"
140
0.03125
141
12.0
290
     0
  0
SCALE
  5
84
102
{ACAD_REACTORS
330
6F
102
}
330
6F
100
AcDbScale
 70
     0
300
1/16" = 1'-0"
140
0.0625
141
12.0
290
     0
  0
SCALE
  5
85
102
{ACAD_REACTORS
330
6F
102
}
330
6F
100
AcDbScale
 70
     0
300
3/32" = 1'-0"
140
0.09375
141
12.0
290
     0
  0
SCALE
  5
86
102
{ACAD_REACTORS
330
6F
102
}
330
6F
100
AcDbScale
 70
     0
300
1/8" = 1'-0"
140
0.125
141
12.0
290
     0
  0
SCALE
  5
87
102
{ACAD_REACTORS
330
6F
102
}
330
6F
100
AcDbScale
 70
     0
300
3/16" = 1'-0"
140
0.1875
141
12.0
290
     0
  0
SCALE
  5
88
102
{ACAD_REACTORS
330
6F
102
}
330
6F
100
AcDbScale
 70
     0
300
1/4" = 1'-0"
140
0.25
141
12.0
290
     0
  0
SCALE
  5
89
102
{ACAD_REACTORS
330
6F
102
}
330
6F
100
AcDbScale
 70
     0
300
3/8" = 1'-0"
140
0.375
141
12.0
290
     0
  0
SCALE
  5
8A
102
{ACAD_REACTORS
330
6F
102
}
330
6F
100
AcDbScale
 70
     0
300
1/2" = 1'-0"
140
0.5
141
12.0
290
     0
  0
SCALE
  5
8B
102
{ACAD_REACTORS
330
6F
102
}
330
6F
100
AcDbScale
 70
     0
300
3/4" = 1'-0"
140
0.75
141
12.0
290
     0
  0
SCALE
  5
8C
102
{ACAD_REACTORS
330
6F
102
}
330
6F
100
AcDbScale
 70
     0
300
1" = 1'-0"
140
1.0
141
12.0
290
     0
  0
SCALE
  5
8D
102
{ACAD_REACTORS
330
6F
102
}
330
6F
100
AcDbScale
 70
     0
300
1-1/2" = 1'-0"
140
1.5
141
12.0
290
     0
  0
SCALE
  5
8E
102
{ACAD_REACTORS
330
6F
102
}
330
6F
100
AcDbScale
 70
     0
300
3" = 1'-0"
140
3.0
141
12.0
290
     0
  0
SCALE
  5
8F
102
{ACAD_REACTORS
330
6F
102
}
330
6F
100
AcDbScale
 70
     0
300
6" = 1'-0"
140
6.0
141
12.0
290
     0
  0
SCALE
  5
90
102
{ACAD_REACTORS
330
6F
102
}
330
6F
100
AcDbScale
 70
     0
300
1'-0" = 1'-0"
140
12.0
141
12.0
290
     0
  0
TABLESTYLE
  5
96
102
{ACAD_REACTORS
330
95
102
}
102
{ACAD_XDICTIONARY
360
33D
102
}
330
95
100
AcDbTableStyle
  3
Standard
 70
     0
 71
     0
 40
0.06
 41
0.06
280
     0
281
     0
  7
Standard
140
0.18
170
     2
 62
     0
 63
   257
283
     0
274
    -2
284
     1
 64
     0
275
    -2
285
     1
 65
     0
276
    -2
286
     1
 66
     0
277
    -2
287
     1
 67
     0
278
    -2
288
     1
 68
     0
279
    -2
289
     1
 69
     0
  7
Standard
140
0.25
170
     5
 62
     0
 63
   257
283
     0
274
    -2
284
     1
 64
     0
275
    -2
285
     1
 65
     0
276
    -2
286
     1
 66
     0
277
    -2
287
     1
 67
     0
278
    -2
288
     1
 68
     0
279
    -2
289
     1
 69
     0
  7
Standard
140
0.18
170
     5
 62
     0
 63
   257
283
     0
274
    -2
284
     1
 64
     0
275
    -2
285
     1
 65
     0
276
    -2
286
     1
 66
     0
277
    -2
287
     1
 67
     0
278
    -2
288
     1
 68
     0
279
    -2
289
     1
 69
     0
  0
VISUALSTYLE
  5
5B
102
{ACAD_REACTORS
330
56
102
}
102
{ACAD_XDICTIONARY
360
30F
102
}
330
56
100
AcDbVisualStyle
  2
2dWireframe
 70
     4
 71
     0
 72
     2
 73
     0
 90
        0
 40
0.6
 41
30.0
 62
     5
 63
     7
421
 16777215
 74
     1
 91
        4
 64
     7
 65
   257
 75
     1
175
     1
 42
1.0
 92
        0
 66
   257
 43
1.0
 76
     1
 77
     6
 78
     2
 67
     7
 79
     5
170
     0
171
     0
290
     0
174
     0
 93
        1
 44
0.0
173
     0
291
     0
 45
0.0
1001
ACAD
1000
AcDbSavedByObjectVersion
1070
     0
  0
VISUALSTYLE
  5
5E
102
{ACAD_REACTORS
330
56
102
}
102
{ACAD_XDICTIONARY
360
315
102
}
330
56
100
AcDbVisualStyle
  2
Basic
 70
     7
 71
     1
 72
     0
 73
     1
 90
        0
 40
0.6
 41
30.0
 62
     5
 63
     7
421
 16777215
 74
     0
 91
        4
 64
     7
 65
   257
 75
     1
175
     1
 42
1.0
 92
        8
 66
     7
 43
1.0
 76
     1
 77
     6
 78
     2
 67
     7
 79
     5
170
     0
171
     0
290
     0
174
     0
 93
        1
 44
0.0
173
     0
291
     1
 45
0.0
1001
ACAD
1000
AcDbSavedByObjectVersion
1070
     0
  0
VISUALSTYLE
  5
62
102
{ACAD_REACTORS
330
56
102
}
102
{ACAD_XDICTIONARY
360
31D
102
}
330
56
100
AcDbVisualStyle
  2
Brighten
 70
    12
 71
     2
 72
     2
 73
     0
 90
        0
 40
0.6
 41
30.0
 62
     5
 63
     7
421
 16777215
 74
     1
 91
        4
 64
     7
 65
   257
 75
     1
175
     1
 42
1.0
 92
        8
 66
     7
 43
1.0
 76
     1
 77
     6
 78
     2
 67
     7
 79
     5
170
     0
171
     0
290
     0
174
     0
 93
        1
 44
50.0
173
     0
291
     1
 45
0.0
1001
ACAD
1000
AcDbSavedByObjectVersion
1070
     0
  0
VISUALSTYLE
  5
66
102
{ACAD_REACTORS
330
56
102
}
102
{ACAD_XDICTIONARY
360
325
102
}
330
56
100
AcDbVisualStyle
  2
ColorChange
 70
    16
 71
     2
 72
     2
 73
     3
 90
        0
 40
0.6
 41
30.0
 62
     5
 63
     8
421
  8421504
 74
     1
 91
        4
 64
     7
 65
   257
 75
     1
175
     1
 42
1.0
 92
        8
 66
     8
424
  8421504
 43
1.0
 76
     1
 77
     6
 78
     2
 67
     7
 79
     5
170
     0
171
     0
290
     0
174
     0
 93
        1
 44
0.0
173
     0
291
     1
 45
0.0
1001
ACAD
1000
AcDbSavedByObjectVersion
1070
     0
  0
VISUALSTYLE
  5
60
102
{ACAD_REACTORS
330
56
102
}
102
{ACAD_XDICTIONARY
360
319
102
}
330
56
100
AcDbVisualStyle
  2
Conceptual
 70
     9
 71
     3
 72
     2
 73
     0
 90
        0
 40
0.6
 41
30.0
 62
     5
 63
     7
421
 16777215
 74
     2
 91
        2
 64
     7
 65
   257
 75
     1
175
     1
 42
179.0
 92
        8
 66
     7
 43
1.0
 76
     1
 77
     6
 78
     2
 67
     7
 79
     3
170
     0
171
     0
290
     0
174
     0
 93
        1
 44
0.0
173
     0
291
     0
 45
0.0
1001
ACAD
1000
AcDbSavedByObjectVersion
1070
     0
  0
VISUALSTYLE
  5
61
102
{ACAD_REACTORS
330
56
102
}
102
{ACAD_XDICTIONARY
360
31B
102
}
330
56
100
AcDbVisualStyle
  2
Dim
 70
    11
 71
     2
 72
     2
 73
     0
 90
        0
 40
0.6
 41
30.0
 62
     5
 63
     7
421
 16777215
 74
     1
 91
        4
 64
     7
 65
   257
 75
     1
175
     1
 42
1.0
 92
        8
 66
     7
 43
1.0
 76
     1
 77
     6
 78
     2
 67
     7
 79
     5
170
     0
171
     0
290
     0
174
     0
 93
        1
 44
-50.0
173
     0
291
     1
 45
0.0
1001
ACAD
1000
AcDbSavedByObjectVersion
1070
     0
  0
VISUALSTYLE
  5
69
102
{ACAD_REACTORS
330
56
102
}
102
{ACAD_XDICTIONARY
360
32B
102
}
330
56
100
AcDbVisualStyle
  2
EdgeColorOff
 70
    22
 71
     2
 72
     2
 73
     0
 90
        0
 40
0.6
 41
30.0
 62
     5
 63
     7
421
 16777215
 74
     1
 91
        4
 64
     7
 65
   257
 75
     1
175
     1
 42
1.0
 92
        8
 66
     7
 43
1.0
 76
     1
 77
     6
 78
     2
 67
     7
 79
     5
170
     0
171
     0
290
     0
174
     0
 93
        1
 44
0.0
173
     0
291
     1
 45
0.0
1001
ACAD
1000
AcDbSavedByObjectVersion
1070
     0
  0
VISUALSTYLE
  5
65
102
{ACAD_REACTORS
330
56
102
}
102
{ACAD_XDICTIONARY
360
323
102
}
330
56
100
AcDbVisualStyle
  2
Facepattern
 70
    15
 71
     2
 72
     2
 73
     0
 90
        0
 40
0.6
 41
30.0
 62
     5
 63
     7
421
 16777215
 74
     1
 91
        4
 64
     7
 65
   257
 75
     1
175
     1
 42
1.0
 92
        8
 66
     7
 43
1.0
 76
     1
 77
     6
 78
     2
 67
     7
 79
     5
170
     0
171
     0
290
     0
174
     0
 93
        1
 44
0.0
173
     0
291
     1
 45
0.0
1001
ACAD
1000
AcDbSavedByObjectVersion
1070
     0
  0
VISUALSTYLE
  5
57
102
{ACAD_REACTORS
330
56
102
}
102
{ACAD_XDICTIONARY
360
307
102
}
330
56
100
AcDbVisualStyle
  2
Flat
 70
     0
 71
     2
 72
     1
 73
     1
 90
        2
 40
0.6
 41
30.0
 62
     5
 63
     7
421
 16777215
 74
     0
 91
        0
 64
     7
 65
   257
 75
     1
175
     1
 42
1.0
 92
        8
 66
     7
 43
1.0
 76
     1
 77
     6
 78
     2
 67
     7
 79
     5
170
     0
171
     0
290
     0
174
     0
 93
       13
 44
0.0
173
     0
291
     1
 45
0.0
1001
ACAD
1000
AcDbSavedByObjectVersion
1070
     0
  0
VISUALSTYLE
  5
58
102
{ACAD_REACTORS
330
56
102
}
102
{ACAD_XDICTIONARY
360
309
102
}
330
56
100
AcDbVisualStyle
  2
FlatWithEdges
 70
     1
 71
     2
 72
     1
 73
     1
 90
        2
 40
0.6
 41
30.0
 62
     5
 63
     7
421
 16777215
 74
     1
 91
        0
 64
     7
 65
   257
 75
     1
175
     1
 42
1.0
 92
        0
 66
   257
 43
1.0
 76
     1
 77
     6
 78
     2
 67
     7
 79
     5
170
     0
171
     0
290
     0
174
     0
 93
       13
 44
0.0
173
     0
291
     1
 45
0.0
1001
ACAD
1000
AcDbSavedByObjectVersion
1070
     0
  0
VISUALSTYLE
  5
59
102
{ACAD_REACTORS
330
56
102
}
102
{ACAD_XDICTIONARY
360
30B
102
}
330
56
100
AcDbVisualStyle
  2
Gouraud
 70
     2
 71
     2
 72
     2
 73
     1
 90
        2
 40
0.6
 41
30.0
 62
     5
 63
     7
421
 16777215
 74
     0
 91
        0
 64
     7
 65
   257
 75
     1
175
     1
 42
1.0
 92
        0
 66
     7
 43
1.0
 76
     1
 77
     6
 78
     2
 67
     7
 79
     5
170
     0
171
     0
290
     0
174
     0
 93
       13
 44
0.0
173
     0
291
     1
 45
0.0
1001
ACAD
1000
AcDbSavedByObjectVersion
1070
     0
  0
VISUALSTYLE
  5
5A
102
{ACAD_REACTORS
330
56
102
}
102
{ACAD_XDICTIONARY
360
30D
102
}
330
56
100
AcDbVisualStyle
  2
GouraudWithEdges
 70
     3
 71
     2
 72
     2
 73
     1
 90
        2
 40
0.6
 41
30.0
 62
     5
 63
     7
421
 16777215
 74
     1
 91
        0
 64
     7
 65
   257
 75
     1
175
     1
 42
1.0
 92
        0
 66
   257
 43
1.0
 76
     1
 77
     6
 78
     2
 67
     7
 79
     5
170
     0
171
     0
290
     0
174
     0
 93
       13
 44
0.0
173
     0
291
     1
 45
0.0
1001
ACAD
1000
AcDbSavedByObjectVersion
1070
     0
  0
VISUALSTYLE
  5
5D
102
{ACAD_REACTORS
330
56
102
}
102
{ACAD_XDICTIONARY
360
313
102
}
330
56
100
AcDbVisualStyle
  2
Hidden
 70
     6
 71
     1
 72
     2
 73
     2
 90
        0
 40
0.6
 41
30.0
 62
     5
 63
     7
421
 16777215
 74
     2
 91
        2
 64
     7
 65
   257
 75
     2
175
     1
 42
40.0
 92
        0
 66
   257
 43
1.0
 76
     1
 77
     6
 78
     2
 67
     7
 79
     3
170
     0
171
     0
290
     0
174
     0
 93
        1
 44
0.0
173
     0
291
     0
 45
0.0
1001
ACAD
1000
AcDbSavedByObjectVersion
1070
     0
  0
VISUALSTYLE
  5
67
102
{ACAD_REACTORS
330
56
102
}
102
{ACAD_XDICTIONARY
360
327
102
}
330
56
100
AcDbVisualStyle
  2
JitterOff
 70
    20
 71
     2
 72
     2
 73
     0
 90
        0
 40
0.6
 41
30.0
 62
     5
 63
     7
421
 16777215
 74
     1
 91
        4
 64
     7
 65
   257
 75
     1
175
     1
 42
1.0
 92
       10
 66
     7
 43
1.0
 76
     1
 77
     6
 78
     2
 67
     7
 79
     5
170
     0
171
     0
290
     0
174
     0
 93
        1
 44
0.0
173
     0
291
     1
 45
0.0
1001
ACAD
1000
AcDbSavedByObjectVersion
1070
     0
  0
VISUALSTYLE
  5
64
102
{ACAD_REACTORS
330
56
102
}
102
{ACAD_XDICTIONARY
360
321
102
}
330
56
100
AcDbVisualStyle
  2
Linepattern
 70
    14
 71
     2
 72
     2
 73
     0
 90
        0
 40
0.6
 41
30.0
 62
     5
 63
     7
421
 16777215
 74
     1
 91
        4
 64
     7
 65
   257
 75
     7
175
     7
 42
1.0
 92
        8
 66
     7
 43
1.0
 76
     1
 77
     6
 78
     2
 67
     7
 79
     5
170
     0
171
     0
290
     0
174
     0
 93
        1
 44
0.0
173
     0
291
     1
 45
0.0
1001
ACAD
1000
AcDbSavedByObjectVersion
1070
     0
  0
VISUALSTYLE
  5
68
102
{ACAD_REACTORS
330
56
102
}
102
{ACAD_XDICTIONARY
360
329
102
}
330
56
100
AcDbVisualStyle
  2
OverhangOff
 70
    21
 71
     2
 72
     2
 73
     0
 90
        0
 40
0.6
 41
30.0
 62
     5
 63
     7
421
 16777215
 74
     1
 91
        4
 64
     7
 65
   257
 75
     1
175
     1
 42
1.0
 92
        9
 66
     7
 43
1.0
 76
     1
 77
     6
 78
     2
 67
     7
 79
     5
170
     0
171
     0
290
     0
174
     0
 93
        1
 44
0.0
173
     0
291
     1
 45
0.0
1001
ACAD
1000
AcDbSavedByObjectVersion
1070
     0
  0
VISUALSTYLE
  5
5F
102
{ACAD_REACTORS
330
56
102
}
102
{ACAD_XDICTIONARY
360
317
102
}
330
56
100
AcDbVisualStyle
  2
Realistic
 70
     8
 71
     2
 72
     3
 73
     0
 90
        2
 40
0.6
 41
30.0
 62
     5
 63
     7
421
 16777215
 74
     0
 91
        0
 64
     7
 65
   257
 75
     1
175
     1
 42
1.0
 92
        8
 66
   257
 43
1.0
 76
     1
 77
     6
 78
     2
 67
     7
 79
     3
170
     0
171
     0
290
     0
174
     0
 93
       13
 44
0.0
173
     0
291
     0
 45
0.0
1001
ACAD
1000
AcDbSavedByObjectVersion
1070
     0
  0
VISUALSTYLE
  5
6E
102
{ACAD_REACTORS
330
56
102
}
102
{ACAD_XDICTIONARY
360
335
102
}
330
56
100
AcDbVisualStyle
  2
Shaded
 70
    27
 71
     2
 72
     2
 73
     1
 90
        2
 40
0.6
 41
30.0
 62
     5
 63
     7
421
 16777215
 74
     0
 91
        4
 64
     7
 65
   257
 75
     1
175
     1
 42
1.0
 92
        8
 66
   257
 43
1.0
 76
     1
 77
     6
 78
     2
 67
     8
425
  7895160
 79
     3
170
     0
171
     0
290
     0
174
     0
 93
        5
 44
0.0
173
     0
291
     0
 45
0.0
1001
ACAD
1000
AcDbSavedByObjectVersion
1070
     0
  0
VISUALSTYLE
  5
6D
102
{ACAD_REACTORS
330
56
102
}
102
{ACAD_XDICTIONARY
360
333
102
}
330
56
100
AcDbVisualStyle
  2
Shaded with edges
 70
    26
 71
     2
 72
     2
 73
     1
 90
        2
 40
0.6
 41
30.0
 62
     5
 63
     7
421
 16777215
 74
     1
 91
       10
 64
     7
 65
   257
 75
     2
175
     1
 42
1.0
 92
        8
 66
   257
 43
1.0
 76
     1
 77
     6
 78
     2
 67
     7
 79
     3
170
     0
171
     0
290
     0
174
     0
 93
        5
 44
0.0
173
     0
291
     0
 45
0.0
1001
ACAD
1000
AcDbSavedByObjectVersion
1070
     0
  0
VISUALSTYLE
  5
6A
102
{ACAD_REACTORS
330
56
102
}
102
{ACAD_XDICTIONARY
360
32D
102
}
330
56
100
AcDbVisualStyle
  2
Shades of Gray
 70
    23
 71
     2
 72
     2
 73
     3
 90
        0
 40
0.6
 41
30.0
 62
     5
 63
     7
421
 16777215
 74
     2
 91
        2
 64
     7
 65
     7
 75
     1
175
     1
 42
40.0
 92
        8
 66
     7
 43
1.0
 76
     1
 77
     6
 78
     2
 67
     7
 79
     3
170
     0
171
     0
290
     0
174
     0
 93
        1
 44
0.0
173
     0
291
     0
 45
0.0
1001
ACAD
1000
AcDbSavedByObjectVersion
1070
     0
  0
VISUALSTYLE
  5
6B
102
{ACAD_REACTORS
330
56
102
}
102
{ACAD_XDICTIONARY
360
32F
102
}
330
56
100
AcDbVisualStyle
  2
Sketchy
 70
    24
 71
     1
 72
     2
 73
     2
 90
        0
 40
0.6
 41
30.0
 62
     5
 63
     7
421
 16777215
 74
     2
 91
        2
 64
     7
 65
     7
 75
     1
175
     1
 42
40.0
 92
       11
 66
     7
 43
1.0
 76
     1
 77
     6
 78
     2
 67
     7
 79
     6
170
     0
171
     0
290
     0
174
     0
 93
        1
 44
0.0
173
     0
291
     0
 45
0.0
1001
ACAD
1000
AcDbSavedByObjectVersion
1070
     0
  0
VISUALSTYLE
  5
63
102
{ACAD_REACTORS
330
56
102
}
102
{ACAD_XDICTIONARY
360
31F
102
}
330
56
100
AcDbVisualStyle
  2
Thicken
 70
    13
 71
     2
 72
     2
 73
     0
 90
        0
 40
0.6
 41
30.0
 62
     5
 63
     7
421
 16777215
 74
     1
 91
        4
 64
     7
 65
   257
 75
     1
175
     1
 42
1.0
 92
       12
 66
     7
 43
1.0
 76
     1
 77
     6
 78
     2
 67
     7
 79
     5
170
     0
171
     0
290
     0
174
     0
 93
        1
 44
0.0
173
     0
291
     1
 45
0.0
1001
ACAD
1000
AcDbSavedByObjectVersion
1070
     0
  0
VISUALSTYLE
  5
5C
102
{ACAD_REACTORS
330
56
102
}
102
{ACAD_XDICTIONARY
360
311
102
}
330
56
100
AcDbVisualStyle
  2
Wireframe
 70
     5
 71
     0
 72
     2
 73
     0
 90
        0
 40
0.6
 41
30.0
 62
     5
 63
     7
421
 16777215
 74
     1
 91
        4
 64
     7
 65
   257
 75
     1
175
     1
 42
1.0
 92
        0
 66
   257
 43
1.0
 76
     1
 77
     6
 78
     2
 67
     7
 79
     3
170
     0
171
     0
290
     0
174
     0
 93
        1
 44
0.0
173
     0
291
     0
 45
0.0
1001
ACAD
1000
AcDbSavedByObjectVersion
1070
     0
  0
VISUALSTYLE
  5
6C
102
{ACAD_REACTORS
330
56
102
}
102
{ACAD_XDICTIONARY
360
331
102
}
330
56
100
AcDbVisualStyle
  2
X-Ray
 70
    25
 71
     2
 72
     2
 73
     1
 90
        1
 40
0.5
 41
30.0
 62
     5
 63
     7
421
 16777215
 74
     1
 91
        0
 64
     7
 65
   257
 75
     1
175
     1
 42
1.0
 92
        8
 66
     7
 43
1.0
 76
     1
 77
     6
 78
     2
 67
     7
 79
     3
170
     0
171
     0
290
     0
174
     0
 93
       13
 44
0.0
173
     0
291
     0
 45
0.0
1001
ACAD
1000
AcDbSavedByObjectVersion
1070
     0
  0
DICTIONARYVAR
  5
305
102
{ACAD_REACTORS
330
4E
102
}
330
4E
100
DictionaryVariables
280
     0
  1
1:1
  0
DICTIONARYVAR
  5
345
102
{ACAD_REACTORS
330
4E
102
}
330
4E
100
DictionaryVariables
280
     0
  1
Standard
  0
DICTIONARYVAR
  5
344
102
{ACAD_REACTORS
330
4E
102
}
330
4E
100
DictionaryVariables
280
     0
  1
Standard
  0
DICTIONARYVAR
  5
4F
102
{ACAD_REACTORS
330
4E
102
}
330
4E
100
DictionaryVariables
280
     0
  1
1
  0
DICTIONARYVAR
  5
346
102
{ACAD_REACTORS
330
4E
102
}
330
4E
100
DictionaryVariables
280
     0
  1
0
  0
DICTIONARYVAR
  5
306
102
{ACAD_REACTORS
330
4E
102
}
330
4E
100
DictionaryVariables
280
     0
  1
2
  0
DICTIONARY
  5
339
330
93
100
AcDbDictionary
280
     1
281
     1
  3
ACAD_XREC_ROUNDTRIP
360
33A
  0
DICTIONARY
  5
337
330
92
100
AcDbDictionary
280
     1
281
     1
  3
ACAD_XREC_ROUNDTRIP
360
338
  0
DICTIONARY
  5
33B
330
94
100
AcDbDictionary
280
     1
281
     1
  3
ACAD_XREC_ROUNDTRIP
360
33C
  0
DICTIONARY
  5
341
330
98
100
AcDbDictionary
280
     1
281
     1
  3
ACAD_XREC_ROUNDTRIP
360
342
  0
DICTIONARY
  5
33D
330
96
100
AcDbDictionary
280
     1
281
     1
  3
ACAD_ROUNDTRIP_2008_TABLESTYLE_CELLSTYLEMAP
360
33F
  3
ACAD_XREC_ROUNDTRIP
360
33E
  0
DICTIONARY
  5
30F
330
5B
100
AcDbDictionary
280
     1
281
     1
  3
ACAD_XREC_ROUNDTRIP
360
310
  0
DICTIONARY
  5
315
330
5E
100
AcDbDictionary
280
     1
281
     1
  3
ACAD_XREC_ROUNDTRIP
360
316
  0
DICTIONARY
  5
31D
330
62
100
AcDbDictionary
280
     1
281
     1
  3
ACAD_XREC_ROUNDTRIP
360
31E
  0
DICTIONARY
  5
325
330
66
100
AcDbDictionary
280
     1
281
     1
  3
ACAD_XREC_ROUNDTRIP
360
326
  0
DICTIONARY
  5
319
330
60
100
AcDbDictionary
280
     1
281
     1
  3
ACAD_XREC_ROUNDTRIP
360
31A
  0
DICTIONARY
  5
31B
330
61
100
AcDbDictionary
280
     1
281
     1
  3
ACAD_XREC_ROUNDTRIP
360
31C
  0
DICTIONARY
  5
32B
330
69
100
AcDbDictionary
280
     1
281
     1
  3
ACAD_XREC_ROUNDTRIP
360
32C
  0
DICTIONARY
  5
323
330
65
100
AcDbDictionary
280
     1
281
     1
  3
ACAD_XREC_ROUNDTRIP
360
324
  0
DICTIONARY
  5
307
330
57
100
AcDbDictionary
280
     1
281
     1
  3
ACAD_XREC_ROUNDTRIP
360
308
  0
DICTIONARY
  5
309
330
58
100
AcDbDictionary
280
     1
281
     1
  3
ACAD_XREC_ROUNDTRIP
360
30A
  0
DICTIONARY
  5
30B
330
59
100
AcDbDictionary
280
     1
281
     1
  3
ACAD_XREC_ROUNDTRIP
360
30C
  0
DICTIONARY
  5
30D
330
5A
100
AcDbDictionary
280
     1
281
     1
  3
ACAD_XREC_ROUNDTRIP
360
30E
  0
DICTIONARY
  5
313
330
5D
100
AcDbDictionary
280
     1
281
     1
  3
ACAD_XREC_ROUNDTRIP
360
314
  0
DICTIONARY
  5
327
330
67
100
AcDbDictionary
280
     1
281
     1
  3
ACAD_XREC_ROUNDTRIP
360
328
  0
DICTIONARY
  5
321
330
64
100
AcDbDictionary
280
     1
281
     1
  3
ACAD_XREC_ROUNDTRIP
360
322
  0
DICTIONARY
  5
329
330
68
100
AcDbDictionary
280
     1
281
     1
  3
ACAD_XREC_ROUNDTRIP
360
32A
  0
DICTIONARY
  5
317
330
5F
100
AcDbDictionary
280
     1
281
     1
  3
ACAD_XREC_ROUNDTRIP
360
318
  0
DICTIONARY
  5
335
330
6E
100
AcDbDictionary
280
     1
281
     1
  3
ACAD_XREC_ROUNDTRIP
360
336
  0
DICTIONARY
  5
333
330
6D
100
AcDbDictionary
280
     1
281
     1
  3
ACAD_XREC_ROUNDTRIP
360
334
  0
DICTIONARY
  5
32D
330
6A
100
AcDbDictionary
280
     1
281
     1
  3
ACAD_XREC_ROUNDTRIP
360
32E
  0
DICTIONARY
  5
32F
330
6B
100
AcDbDictionary
280
     1
281
     1
  3
ACAD_XREC_ROUNDTRIP
360
330
  0
DICTIONARY
  5
31F
330
63
100
AcDbDictionary
280
     1
281
     1
  3
ACAD_XREC_ROUNDTRIP
360
320
  0
DICTIONARY
  5
311
330
5C
100
AcDbDictionary
280
     1
281
     1
  3
ACAD_XREC_ROUNDTRIP
360
312
  0
DICTIONARY
  5
331
330
6C
100
AcDbDictionary
280
     1
281
     1
  3
ACAD_XREC_ROUNDTRIP
360
332
  0
XRECORD
  5
33A
102
{ACAD_REACTORS
330
339
102
}
330
339
100
AcDbXrecord
280
     1
102
MATERIAL
148
0.0
149
0.0
149
0.0
 93
        0
 94
      127
282
     0
 72
     1
 77
     1
171
     1
175
     1
179
     1
273
     0
  0
XRECORD
  5
338
102
{ACAD_REACTORS
330
337
102
}
330
337
100
AcDbXrecord
280
     1
102
MATERIAL
148
0.0
149
0.0
149
0.0
 93
        0
 94
      127
282
     0
 72
     1
 77
     1
171
     1
175
     1
179
     1
273
     0
  0
XRECORD
  5
33C
102
{ACAD_REACTORS
330
33B
102
}
330
33B
100
AcDbXrecord
280
     1
102
MATERIAL
148
0.0
149
0.0
149
0.0
 93
        0
 94
      127
282
     0
 72
     1
 77
     1
171
     1
175
     1
179
     1
273
     0
  0
XRECORD
  5
342
102
{ACAD_REACTORS
330
341
102
}
330
341
100
AcDbXrecord
280
     1
102
ACAD_ROUNDTRIP_2010_MLEADER_STYLE
  0
CELLSTYLEMAP
  5
33F
102
{ACAD_REACTORS
330
33D
102
}
330
33D
100
AcDbCellStyleMap
 90
        3
300
CELLSTYLE
  1
TABLEFORMAT_BEGIN
 90
        5
170
     1
 91
        0
 92
    32768
 62
   257
 93
        1
300
CONTENTFORMAT
  1
CONTENTFORMAT_BEGIN
 90
        0
 91
        0
 92
        4
 93
        0
300

 40
0.0
140
1.0
 94
        5
 62
     0
340
11
144
0.25
309
CONTENTFORMAT_END
171
     1
301
MARGIN
  1
CELLMARGIN_BEGIN
 40
0.06
 40
0.06
 40
0.06
 40
0.06
 40
0.06
 40
0.06
309
CELLMARGIN_END
 94
        6
 95
        1
302
GRIDFORMAT
  1
GRIDFORMAT_BEGIN
 90
        0
 91
        1
 62
     0
 92
       -2
340
14
 93
        0
 40
0.045
309
GRIDFORMAT_END
 95
        2
302
GRIDFORMAT
  1
GRIDFORMAT_BEGIN
 90
        0
 91
        1
 62
     0
 92
       -2
340
14
 93
        0
 40
0.045
309
GRIDFORMAT_END
 95
        4
302
GRIDFORMAT
  1
GRIDFORMAT_BEGIN
 90
        0
 91
        1
 62
     0
 92
       -2
340
14
 93
        0
 40
0.045
309
GRIDFORMAT_END
 95
        8
302
GRIDFORMAT
  1
GRIDFORMAT_BEGIN
 90
        0
 91
        1
 62
     0
 92
       -2
340
14
 93
        0
 40
0.045
309
GRIDFORMAT_END
 95
       16
302
GRIDFORMAT
  1
GRIDFORMAT_BEGIN
 90
        0
 91
        1
 62
     0
 92
       -2
340
14
 93
        0
 40
0.045
309
GRIDFORMAT_END
 95
       32
302
GRIDFORMAT
  1
GRIDFORMAT_BEGIN
 90
        0
 91
        1
 62
     0
 92
       -2
340
14
 93
        0
 40
0.045
309
GRIDFORMAT_END
309
TABLEFORMAT_END
  1
CELLSTYLE_BEGIN
 90
        1
 91
        1
300
_TITLE
309
CELLSTYLE_END
300
CELLSTYLE
  1
TABLEFORMAT_BEGIN
 90
        5
170
     1
 91
        0
 92
        0
 62
   257
 93
        1
300
CONTENTFORMAT
  1
CONTENTFORMAT_BEGIN
 90
        0
 91
        0
 92
        4
 93
        0
300

 40
0.0
140
1.0
 94
        5
 62
     0
340
11
144
0.18
309
CONTENTFORMAT_END
171
     1
301
MARGIN
  1
CELLMARGIN_BEGIN
 40
0.06
 40
0.06
 40
0.06
 40
0.06
 40
0.06
 40
0.06
309
CELLMARGIN_END
 94
        6
 95
        1
302
GRIDFORMAT
  1
GRIDFORMAT_BEGIN
 90
        0
 91
        1
 62
     0
 92
       -2
340
14
 93
        0
 40
0.045
309
GRIDFORMAT_END
 95
        2
302
GRIDFORMAT
  1
GRIDFORMAT_BEGIN
 90
        0
 91
        1
 62
     0
 92
       -2
340
14
 93
        0
 40
0.045
309
GRIDFORMAT_END
 95
        4
302
GRIDFORMAT
  1
GRIDFORMAT_BEGIN
 90
        0
 91
        1
 62
     0
 92
       -2
340
14
 93
        0
 40
0.045
309
GRIDFORMAT_END
 95
        8
302
GRIDFORMAT
  1
GRIDFORMAT_BEGIN
 90
        0
 91
        1
 62
     0
 92
       -2
340
14
 93
        0
 40
0.045
309
GRIDFORMAT_END
 95
       16
302
GRIDFORMAT
  1
GRIDFORMAT_BEGIN
 90
        0
 91
        1
 62
     0
 92
       -2
340
14
 93
        0
 40
0.045
309
GRIDFORMAT_END
 95
       32
302
GRIDFORMAT
  1
GRIDFORMAT_BEGIN
 90
        0
 91
        1
 62
     0
 92
       -2
340
14
 93
        0
 40
0.045
309
GRIDFORMAT_END
309
TABLEFORMAT_END
  1
CELLSTYLE_BEGIN
 90
        2
 91
        1
300
_HEADER
309
CELLSTYLE_END
300
CELLSTYLE
  1
TABLEFORMAT_BEGIN
 90
        5
170
     1
 91
        0
 92
        0
 62
   257
 93
        1
300
CONTENTFORMAT
  1
CONTENTFORMAT_BEGIN
 90
        0
 91
        0
 92
        4
 93
        0
300

 40
0.0
140
1.0
 94
        2
 62
     0
340
11
144
0.18
309
CONTENTFORMAT_END
171
     1
301
MARGIN
  1
CELLMARGIN_BEGIN
 40
0.06
 40
0.06
 40
0.06
 40
0.06
 40
0.06
 40
0.06
309
CELLMARGIN_END
 94
        6
 95
        1
302
GRIDFORMAT
  1
GRIDFORMAT_BEGIN
 90
        0
 91
        1
 62
     0
 92
       -2
340
14
 93
        0
 40
0.045
309
GRIDFORMAT_END
 95
        2
302
GRIDFORMAT
  1
GRIDFORMAT_BEGIN
 90
        0
 91
        1
 62
     0
 92
       -2
340
14
 93
        0
 40
0.045
309
GRIDFORMAT_END
 95
        4
302
GRIDFORMAT
  1
GRIDFORMAT_BEGIN
 90
        0
 91
        1
 62
     0
 92
       -2
340
14
 93
        0
 40
0.045
309
GRIDFORMAT_END
 95
        8
302
GRIDFORMAT
  1
GRIDFORMAT_BEGIN
 90
        0
 91
        1
 62
     0
 92
       -2
340
14
 93
        0
 40
0.045
309
GRIDFORMAT_END
 95
       16
302
GRIDFORMAT
  1
GRIDFORMAT_BEGIN
 90
        0
 91
        1
 62
     0
 92
       -2
340
14
 93
        0
 40
0.045
309
GRIDFORMAT_END
 95
       32
302
GRIDFORMAT
  1
GRIDFORMAT_BEGIN
 90
        0
 91
        1
 62
     0
 92
       -2
340
14
 93
        0
 40
0.045
309
GRIDFORMAT_END
309
TABLEFORMAT_END
  1
CELLSTYLE_BEGIN
 90
        3
 91
        2
300
_DATA
309
CELLSTYLE_END
  0
XRECORD
  5
33E
102
{ACAD_REACTORS
330
33D
102
}
330
33D
100
AcDbXrecord
280
     1
102
ACAD_ROUNDTRIP_PRE2007_TABLESTYLE
 90
        4
 91
        0
  1

 92
        4
 93
        0
  2

 94
        4
 95
        0
  3

  0
XRECORD
  5
310
102
{ACAD_REACTORS
330
30F
102
}
330
30F
100
AcDbXrecord
280
     1
102
RTVSPropertyOp0
 70
     1
102
RTVSPropertyOp1
 70
     1
102
RTVSPropertyOp2
 70
     1
102
RTVSPropertyOp3
 70
     1
102
RTVSPropertyOp4
 70
     1
102
RTVSPropertyOp5
 70
     1
102
RTVSPropertyOp6
 70
     1
102
RTVSPropertyOp7
 70
     1
102
RTVSPropertyOp8
 70
     1
102
RTVSPropertyOp9
 70
     1
102
RTVSPropertyOp10
 70
     1
102
RTVSPropertyOp11
 70
     1
102
RTVSPropertyOp12
 70
     1
102
RTVSPropertyOp13
 70
     1
102
RTVSPropertyOp14
 70
     1
102
RTVSPropertyOp15
 70
     1
102
RTVSPropertyOp16
 70
     1
102
RTVSPropertyOp17
 70
     1
102
RTVSPropertyOp18
 70
     1
102
RTVSPropertyOp19
 70
     1
102
RTVSPropertyOp20
 70
     1
102
RTVSPropertyOp21
 70
     1
102
RTVSPropertyOp22
 70
     1
102
RTVSPropertyOp23
 70
     1
102
RTVSPropertyOp24
 70
     1
102
RTVSPropertyOp25
 70
     1
102
RTVSPropertyOp26
 70
     1
102
RTVSPropertyOp27
 70
     1
102
RTVSPropertyOp28
 70
     1
102
RTVSPropertyOp29
 70
     1
102
RTVSPropertyOp30
 70
     1
102
RTVSPropertyOp31
 70
     1
102
RTVSPropertyOp32
 70
     1
102
RTVSPropertyOp33
 70
     1
102
RTVSPropertyOp34
 70
     1
102
RTVSPropertyOp35
 70
     1
102
RTVSPropertyOp36
 70
     1
102
RTVSPropertyOp37
 70
     1
102
RTVSPropertyOp38
 70
     1
102
RTVSPropertyOp39
 70
     1
102
RTVSPropertyOp40
 70
     1
102
RTVSPropertyOp41
 70
     1
102
RTVSPropertyOp42
 70
     1
102
RTVSPropertyOp43
 70
     1
102
RTVSPropertyOp44
 70
     1
102
RTVSPropertyOp45
 70
     1
102
RTVSPropertyOp46
 70
     1
102
RTVSPropertyOp47
 70
     1
102
RTVSPropertyOp48
 70
     1
102
RTVSPropertyOp49
 70
     1
102
RTVSPropertyOp50
 70
     1
102
RTVSPropertyOp51
 70
     0
102
RTVSPropertyOp52
 70
     0
102
RTVSPropertyOp53
 70
     1
102
RTVSPropertyOp54
 70
     1
102
RTVSPropertyOp55
 70
     1
102
RTVSPropertyOp56
 70
     1
102
RTVSPropertyOp57
 70
     1
102
RTVSPost2010Prop28
280
     1
102
RTVSPost2010PropOp28
 70
     1
102
RTVSPost2010Prop29
280
     1
102
RTVSPost2010PropOp29
 70
     1
102
RTVSPost2010Prop30
280
     0
102
RTVSPost2010PropOp30
 70
     1
102
RTVSPost2010Prop31
280
     0
102
RTVSPost2010PropOp31
 70
     1
102
RTVSPost2010Prop32
280
     0
102
RTVSPost2010PropOp32
 70
     1
102
RTVSPost2010Prop33
280
     0
102
RTVSPost2010PropOp33
 70
     1
102
RTVSPost2010Prop34
280
     0
102
RTVSPost2010PropOp34
 70
     1
102
RTVSPost2010Prop35
280
     0
102
RTVSPost2010PropOp35
 70
     1
102
RTVSPost2010Prop36
280
     0
102
RTVSPost2010PropOp36
 70
     1
102
RTVSPost2010Prop37
 90
       50
102
RTVSPost2010PropOp37
 70
     1
102
RTVSPost2010Prop38
140
0.0
102
RTVSPost2010PropOp38
 70
     1
102
RTVSPost2010Prop39
140
1.0
102
RTVSPost2010PropOp39
 70
     1
102
RTVSPost2010Prop40
 90
        0
102
RTVSPost2010PropOp40
 70
     1
102
RTVSPost2010Prop41ColorIndex
 90
       18
102
RTVSPost2010Prop41ColorRGB
 90
        0
102
RTVSPost2010PropOp41
 70
     1
102
RTVSPost2010Prop42
 90
       50
102
RTVSPost2010PropOp42
 70
     1
102
RTVSPost2010Prop43
 90
        3
102
RTVSPost2010PropOp43
 70
     1
102
RTVSPost2010Prop44ColorIndex
 90
        5
102
RTVSPost2010Prop44ColorRGB
 90
      255
102
RTVSPost2010PropOp44
 70
     1
102
RTVSPost2010Prop45
280
     0
102
RTVSPost2010PropOp45
 70
     1
102
RTVSPost2010Prop46
 90
       50
102
RTVSPost2010PropOp46
 70
     1
102
RTVSPost2010Prop47
 90
       50
102
RTVSPost2010PropOp47
 70
     1
102
RTVSPost2010Prop48
 90
       50
102
RTVSPost2010PropOp48
 70
     1
102
RTVSPost2010Prop49
280
     0
102
RTVSPost2010PropOp49
 70
     1
102
RTVSPost2010Prop50
 90
       50
102
RTVSPost2010PropOp50
 70
     1
102
RTVSPost2010Prop51ColorIndex
 90
      256
102
RTVSPost2010Prop51ColorRGB
 90
-16777216
102
RTVSPost2010PropOp51
 70
     0
102
RTVSPost2010Prop52
140
1.0
102
RTVSPost2010PropOp52
 70
     0
102
RTVSPost2010Prop53
 90
        2
102
RTVSPost2010PropOp53
 70
     1
102
RTVSPost2010Prop54
  1
strokes_ogs.tif
102
RTVSPost2010PropOp54
 70
     1
102
RTVSPost2010Prop55
280
     0
102
RTVSPost2010PropOp55
 70
     1
102
RTVSPost2010Prop56
140
1.0
102
RTVSPost2010PropOp56
 70
     1
102
RTVSPost2010Prop57
140
1.0
102
RTVSPost2010PropOp57
 70
     1
  0
XRECORD
  5
316
102
{ACAD_REACTORS
330
315
102
}
330
315
100
AcDbXrecord
280
     1
102
RTVSPropertyOp0
 70
     1
102
RTVSPropertyOp1
 70
     1
102
RTVSPropertyOp2
 70
     1
102
RTVSPropertyOp3
 70
     1
102
RTVSPropertyOp4
 70
     1
102
RTVSPropertyOp5
 70
     1
102
RTVSPropertyOp6
 70
     1
102
RTVSPropertyOp7
 70
     1
102
RTVSPropertyOp8
 70
     1
102
RTVSPropertyOp9
 70
     1
102
RTVSPropertyOp10
 70
     1
102
RTVSPropertyOp11
 70
     1
102
RTVSPropertyOp12
 70
     1
102
RTVSPropertyOp13
 70
     1
102
RTVSPropertyOp14
 70
     1
102
RTVSPropertyOp15
 70
     1
102
RTVSPropertyOp16
 70
     1
102
RTVSPropertyOp17
 70
     1
102
RTVSPropertyOp18
 70
     1
102
RTVSPropertyOp19
 70
     1
102
RTVSPropertyOp20
 70
     1
102
RTVSPropertyOp21
 70
     1
102
RTVSPropertyOp22
 70
     1
102
RTVSPropertyOp23
 70
     1
102
RTVSPropertyOp24
 70
     1
102
RTVSPropertyOp25
 70
     1
102
RTVSPropertyOp26
 70
     1
102
RTVSPropertyOp27
 70
     1
102
RTVSPropertyOp28
 70
     1
102
RTVSPropertyOp29
 70
     1
102
RTVSPropertyOp30
 70
     1
102
RTVSPropertyOp31
 70
     1
102
RTVSPropertyOp32
 70
     1
102
RTVSPropertyOp33
 70
     1
102
RTVSPropertyOp34
 70
     1
102
RTVSPropertyOp35
 70
     1
102
RTVSPropertyOp36
 70
     1
102
RTVSPropertyOp37
 70
     1
102
RTVSPropertyOp38
 70
     1
102
RTVSPropertyOp39
 70
     1
102
RTVSPropertyOp40
 70
     1
102
RTVSPropertyOp41
 70
     1
102
RTVSPropertyOp42
 70
     1
102
RTVSPropertyOp43
 70
     1
102
RTVSPropertyOp44
 70
     1
102
RTVSPropertyOp45
 70
     1
102
RTVSPropertyOp46
 70
     1
102
RTVSPropertyOp47
 70
     1
102
RTVSPropertyOp48
 70
     1
102
RTVSPropertyOp49
 70
     1
102
RTVSPropertyOp50
 70
     1
102
RTVSPropertyOp51
 70
     0
102
RTVSPropertyOp52
 70
     0
102
RTVSPropertyOp53
 70
     1
102
RTVSPropertyOp54
 70
     1
102
RTVSPropertyOp55
 70
     1
102
RTVSPropertyOp56
 70
     1
102
RTVSPropertyOp57
 70
     1
102
RTVSPost2010Prop28
280
     0
102
RTVSPost2010PropOp28
 70
     1
102
RTVSPost2010Prop29
280
     1
102
RTVSPost2010PropOp29
 70
     1
102
RTVSPost2010Prop30
280
     1
102
RTVSPost2010PropOp30
 70
     1
102
RTVSPost2010Prop31
280
     0
102
RTVSPost2010PropOp31
 70
     1
102
RTVSPost2010Prop32
280
     0
102
RTVSPost2010PropOp32
 70
     1
102
RTVSPost2010Prop33
280
     0
102
RTVSPost2010PropOp33
 70
     1
102
RTVSPost2010Prop34
280
     0
102
RTVSPost2010PropOp34
 70
     1
102
RTVSPost2010Prop35
280
     0
102
RTVSPost2010PropOp35
 70
     1
102
RTVSPost2010Prop36
280
     0
102
RTVSPost2010PropOp36
 70
     1
102
RTVSPost2010Prop37
 90
       50
102
RTVSPost2010PropOp37
 70
     1
102
RTVSPost2010Prop38
140
0.0
102
RTVSPost2010PropOp38
 70
     1
102
RTVSPost2010Prop39
140
1.0
102
RTVSPost2010PropOp39
 70
     1
102
RTVSPost2010Prop40
 90
        0
102
RTVSPost2010PropOp40
 70
     1
102
RTVSPost2010Prop41ColorIndex
 90
       18
102
RTVSPost2010Prop41ColorRGB
 90
        0
102
RTVSPost2010PropOp41
 70
     1
102
RTVSPost2010Prop42
 90
       50
102
RTVSPost2010PropOp42
 70
     1
102
RTVSPost2010Prop43
 90
        3
102
RTVSPost2010PropOp43
 70
     1
102
RTVSPost2010Prop44ColorIndex
 90
        5
102
RTVSPost2010Prop44ColorRGB
 90
      255
102
RTVSPost2010PropOp44
 70
     1
102
RTVSPost2010Prop45
280
     0
102
RTVSPost2010PropOp45
 70
     1
102
RTVSPost2010Prop46
 90
       50
102
RTVSPost2010PropOp46
 70
     1
102
RTVSPost2010Prop47
 90
       50
102
RTVSPost2010PropOp47
 70
     1
102
RTVSPost2010Prop48
 90
       50
102
RTVSPost2010PropOp48
 70
     1
102
RTVSPost2010Prop49
280
     0
102
RTVSPost2010PropOp49
 70
     1
102
RTVSPost2010Prop50
 90
       50
102
RTVSPost2010PropOp50
 70
     1
102
RTVSPost2010Prop51ColorIndex
 90
      256
102
RTVSPost2010Prop51ColorRGB
 90
-16777216
102
RTVSPost2010PropOp51
 70
     0
102
RTVSPost2010Prop52
140
1.0
102
RTVSPost2010PropOp52
 70
     0
102
RTVSPost2010Prop53
 90
        2
102
RTVSPost2010PropOp53
 70
     1
102
RTVSPost2010Prop54
  1
strokes_ogs.tif
102
RTVSPost2010PropOp54
 70
     1
102
RTVSPost2010Prop55
280
     0
102
RTVSPost2010PropOp55
 70
     1
102
RTVSPost2010Prop56
140
1.0
102
RTVSPost2010PropOp56
 70
     1
102
RTVSPost2010Prop57
140
1.0
102
RTVSPost2010PropOp57
 70
     1
  0
XRECORD
  5
31E
102
{ACAD_REACTORS
330
31D
102
}
330
31D
100
AcDbXrecord
280
     1
102
RTVSPropertyOp0
 70
     1
102
RTVSPropertyOp1
 70
     1
102
RTVSPropertyOp2
 70
     1
102
RTVSPropertyOp3
 70
     1
102
RTVSPropertyOp4
 70
     1
102
RTVSPropertyOp5
 70
     1
102
RTVSPropertyOp6
 70
     1
102
RTVSPropertyOp7
 70
     1
102
RTVSPropertyOp8
 70
     1
102
RTVSPropertyOp9
 70
     1
102
RTVSPropertyOp10
 70
     1
102
RTVSPropertyOp11
 70
     1
102
RTVSPropertyOp12
 70
     1
102
RTVSPropertyOp13
 70
     1
102
RTVSPropertyOp14
 70
     1
102
RTVSPropertyOp15
 70
     1
102
RTVSPropertyOp16
 70
     1
102
RTVSPropertyOp17
 70
     1
102
RTVSPropertyOp18
 70
     1
102
RTVSPropertyOp19
 70
     1
102
RTVSPropertyOp20
 70
     1
102
RTVSPropertyOp21
 70
     1
102
RTVSPropertyOp22
 70
     1
102
RTVSPropertyOp23
 70
     1
102
RTVSPropertyOp24
 70
     1
102
RTVSPropertyOp25
 70
     1
102
RTVSPropertyOp26
 70
     1
102
RTVSPropertyOp27
 70
     1
102
RTVSPropertyOp28
 70
     1
102
RTVSPropertyOp29
 70
     1
102
RTVSPropertyOp30
 70
     1
102
RTVSPropertyOp31
 70
     1
102
RTVSPropertyOp32
 70
     1
102
RTVSPropertyOp33
 70
     1
102
RTVSPropertyOp34
 70
     1
102
RTVSPropertyOp35
 70
     1
102
RTVSPropertyOp36
 70
     1
102
RTVSPropertyOp37
 70
     1
102
RTVSPropertyOp38
 70
     1
102
RTVSPropertyOp39
 70
     1
102
RTVSPropertyOp40
 70
     1
102
RTVSPropertyOp41
 70
     1
102
RTVSPropertyOp42
 70
     1
102
RTVSPropertyOp43
 70
     1
102
RTVSPropertyOp44
 70
     1
102
RTVSPropertyOp45
 70
     1
102
RTVSPropertyOp46
 70
     1
102
RTVSPropertyOp47
 70
     1
102
RTVSPropertyOp48
 70
     1
102
RTVSPropertyOp49
 70
     1
102
RTVSPropertyOp50
 70
     1
102
RTVSPropertyOp51
 70
     0
102
RTVSPropertyOp52
 70
     0
102
RTVSPropertyOp53
 70
     1
102
RTVSPropertyOp54
 70
     1
102
RTVSPropertyOp55
 70
     1
102
RTVSPropertyOp56
 70
     1
102
RTVSPropertyOp57
 70
     1
102
RTVSPost2010Prop28
280
     0
102
RTVSPost2010PropOp28
 70
     1
102
RTVSPost2010Prop29
280
     1
102
RTVSPost2010PropOp29
 70
     1
102
RTVSPost2010Prop30
280
     1
102
RTVSPost2010PropOp30
 70
     1
102
RTVSPost2010Prop31
280
     0
102
RTVSPost2010PropOp31
 70
     1
102
RTVSPost2010Prop32
280
     0
102
RTVSPost2010PropOp32
 70
     1
102
RTVSPost2010Prop33
280
     0
102
RTVSPost2010PropOp33
 70
     1
102
RTVSPost2010Prop34
280
     0
102
RTVSPost2010PropOp34
 70
     1
102
RTVSPost2010Prop35
280
     0
102
RTVSPost2010PropOp35
 70
     1
102
RTVSPost2010Prop36
280
     0
102
RTVSPost2010PropOp36
 70
     1
102
RTVSPost2010Prop37
 90
       50
102
RTVSPost2010PropOp37
 70
     1
102
RTVSPost2010Prop38
140
0.0
102
RTVSPost2010PropOp38
 70
     1
102
RTVSPost2010Prop39
140
1.0
102
RTVSPost2010PropOp39
 70
     1
102
RTVSPost2010Prop40
 90
        0
102
RTVSPost2010PropOp40
 70
     1
102
RTVSPost2010Prop41ColorIndex
 90
       18
102
RTVSPost2010Prop41ColorRGB
 90
        0
102
RTVSPost2010PropOp41
 70
     1
102
RTVSPost2010Prop42
 90
       50
102
RTVSPost2010PropOp42
 70
     1
102
RTVSPost2010Prop43
 90
        3
102
RTVSPost2010PropOp43
 70
     1
102
RTVSPost2010Prop44ColorIndex
 90
        5
102
RTVSPost2010Prop44ColorRGB
 90
      255
102
RTVSPost2010PropOp44
 70
     1
102
RTVSPost2010Prop45
280
     0
102
RTVSPost2010PropOp45
 70
     1
102
RTVSPost2010Prop46
 90
       50
102
RTVSPost2010PropOp46
 70
     1
102
RTVSPost2010Prop47
 90
       50
102
RTVSPost2010PropOp47
 70
     1
102
RTVSPost2010Prop48
 90
       50
102
RTVSPost2010PropOp48
 70
     1
102
RTVSPost2010Prop49
280
     0
102
RTVSPost2010PropOp49
 70
     1
102
RTVSPost2010Prop50
 90
       50
102
RTVSPost2010PropOp50
 70
     1
102
RTVSPost2010Prop51ColorIndex
 90
      256
102
RTVSPost2010Prop51ColorRGB
 90
-16777216
102
RTVSPost2010PropOp51
 70
     0
102
RTVSPost2010Prop52
140
1.0
102
RTVSPost2010PropOp52
 70
     0
102
RTVSPost2010Prop53
 90
        2
102
RTVSPost2010PropOp53
 70
     1
102
RTVSPost2010Prop54
  1
strokes_ogs.tif
102
RTVSPost2010PropOp54
 70
     1
102
RTVSPost2010Prop55
280
     0
102
RTVSPost2010PropOp55
 70
     1
102
RTVSPost2010Prop56
140
1.0
102
RTVSPost2010PropOp56
 70
     1
102
RTVSPost2010Prop57
140
1.0
102
RTVSPost2010PropOp57
 70
     1
  0
XRECORD
  5
326
102
{ACAD_REACTORS
330
325
102
}
330
325
100
AcDbXrecord
280
     1
102
RTVSPropertyOp0
 70
     1
102
RTVSPropertyOp1
 70
     1
102
RTVSPropertyOp2
 70
     1
102
RTVSPropertyOp3
 70
     1
102
RTVSPropertyOp4
 70
     1
102
RTVSPropertyOp5
 70
     1
102
RTVSPropertyOp6
 70
     1
102
RTVSPropertyOp7
 70
     1
102
RTVSPropertyOp8
 70
     1
102
RTVSPropertyOp9
 70
     1
102
RTVSPropertyOp10
 70
     1
102
RTVSPropertyOp11
 70
     1
102
RTVSPropertyOp12
 70
     1
102
RTVSPropertyOp13
 70
     1
102
RTVSPropertyOp14
 70
     1
102
RTVSPropertyOp15
 70
     1
102
RTVSPropertyOp16
 70
     1
102
RTVSPropertyOp17
 70
     1
102
RTVSPropertyOp18
 70
     1
102
RTVSPropertyOp19
 70
     1
102
RTVSPropertyOp20
 70
     1
102
RTVSPropertyOp21
 70
     1
102
RTVSPropertyOp22
 70
     1
102
RTVSPropertyOp23
 70
     1
102
RTVSPropertyOp24
 70
     1
102
RTVSPropertyOp25
 70
     1
102
RTVSPropertyOp26
 70
     1
102
RTVSPropertyOp27
 70
     1
102
RTVSPropertyOp28
 70
     1
102
RTVSPropertyOp29
 70
     1
102
RTVSPropertyOp30
 70
     1
102
RTVSPropertyOp31
 70
     1
102
RTVSPropertyOp32
 70
     1
102
RTVSPropertyOp33
 70
     1
102
RTVSPropertyOp34
 70
     1
102
RTVSPropertyOp35
 70
     1
102
RTVSPropertyOp36
 70
     1
102
RTVSPropertyOp37
 70
     1
102
RTVSPropertyOp38
 70
     1
102
RTVSPropertyOp39
 70
     1
102
RTVSPropertyOp40
 70
     1
102
RTVSPropertyOp41
 70
     1
102
RTVSPropertyOp42
 70
     1
102
RTVSPropertyOp43
 70
     1
102
RTVSPropertyOp44
 70
     1
102
RTVSPropertyOp45
 70
     1
102
RTVSPropertyOp46
 70
     1
102
RTVSPropertyOp47
 70
     1
102
RTVSPropertyOp48
 70
     1
102
RTVSPropertyOp49
 70
     1
102
RTVSPropertyOp50
 70
     1
102
RTVSPropertyOp51
 70
     0
102
RTVSPropertyOp52
 70
     0
102
RTVSPropertyOp53
 70
     1
102
RTVSPropertyOp54
 70
     1
102
RTVSPropertyOp55
 70
     1
102
RTVSPropertyOp56
 70
     1
102
RTVSPropertyOp57
 70
     1
102
RTVSPost2010Prop28
280
     0
102
RTVSPost2010PropOp28
 70
     1
102
RTVSPost2010Prop29
280
     1
102
RTVSPost2010PropOp29
 70
     1
102
RTVSPost2010Prop30
280
     1
102
RTVSPost2010PropOp30
 70
     1
102
RTVSPost2010Prop31
280
     0
102
RTVSPost2010PropOp31
 70
     1
102
RTVSPost2010Prop32
280
     0
102
RTVSPost2010PropOp32
 70
     1
102
RTVSPost2010Prop33
280
     0
102
RTVSPost2010PropOp33
 70
     1
102
RTVSPost2010Prop34
280
     0
102
RTVSPost2010PropOp34
 70
     1
102
RTVSPost2010Prop35
280
     0
102
RTVSPost2010PropOp35
 70
     1
102
RTVSPost2010Prop36
280
     0
102
RTVSPost2010PropOp36
 70
     1
102
RTVSPost2010Prop37
 90
       50
102
RTVSPost2010PropOp37
 70
     1
102
RTVSPost2010Prop38
140
0.0
102
RTVSPost2010PropOp38
 70
     1
102
RTVSPost2010Prop39
140
1.0
102
RTVSPost2010PropOp39
 70
     1
102
RTVSPost2010Prop40
 90
        0
102
RTVSPost2010PropOp40
 70
     1
102
RTVSPost2010Prop41ColorIndex
 90
       18
102
RTVSPost2010Prop41ColorRGB
 90
        0
102
RTVSPost2010PropOp41
 70
     1
102
RTVSPost2010Prop42
 90
       50
102
RTVSPost2010PropOp42
 70
     1
102
RTVSPost2010Prop43
 90
        3
102
RTVSPost2010PropOp43
 70
     1
102
RTVSPost2010Prop44ColorIndex
 90
        5
102
RTVSPost2010Prop44ColorRGB
 90
      255
102
RTVSPost2010PropOp44
 70
     1
102
RTVSPost2010Prop45
280
     0
102
RTVSPost2010PropOp45
 70
     1
102
RTVSPost2010Prop46
 90
       50
102
RTVSPost2010PropOp46
 70
     1
102
RTVSPost2010Prop47
 90
       50
102
RTVSPost2010PropOp47
 70
     1
102
RTVSPost2010Prop48
 90
       50
102
RTVSPost2010PropOp48
 70
     1
102
RTVSPost2010Prop49
280
     0
102
RTVSPost2010PropOp49
 70
     1
102
RTVSPost2010Prop50
 90
       50
102
RTVSPost2010PropOp50
 70
     1
102
RTVSPost2010Prop51ColorIndex
 90
      256
102
RTVSPost2010Prop51ColorRGB
 90
-16777216
102
RTVSPost2010PropOp51
 70
     0
102
RTVSPost2010Prop52
140
1.0
102
RTVSPost2010PropOp52
 70
     0
102
RTVSPost2010Prop53
 90
        2
102
RTVSPost2010PropOp53
 70
     1
102
RTVSPost2010Prop54
  1
strokes_ogs.tif
102
RTVSPost2010PropOp54
 70
     1
102
RTVSPost2010Prop55
280
     0
102
RTVSPost2010PropOp55
 70
     1
102
RTVSPost2010Prop56
140
1.0
102
RTVSPost2010PropOp56
 70
     1
102
RTVSPost2010Prop57
140
1.0
102
RTVSPost2010PropOp57
 70
     1
  0
XRECORD
  5
31A
102
{ACAD_REACTORS
330
319
102
}
330
319
100
AcDbXrecord
280
     1
102
RTVSPropertyOp0
 70
     1
102
RTVSPropertyOp1
 70
     1
102
RTVSPropertyOp2
 70
     1
102
RTVSPropertyOp3
 70
     1
102
RTVSPropertyOp4
 70
     1
102
RTVSPropertyOp5
 70
     1
102
RTVSPropertyOp6
 70
     1
102
RTVSPropertyOp7
 70
     1
102
RTVSPropertyOp8
 70
     1
102
RTVSPropertyOp9
 70
     1
102
RTVSPropertyOp10
 70
     1
102
RTVSPropertyOp11
 70
     1
102
RTVSPropertyOp12
 70
     1
102
RTVSPropertyOp13
 70
     1
102
RTVSPropertyOp14
 70
     1
102
RTVSPropertyOp15
 70
     1
102
RTVSPropertyOp16
 70
     1
102
RTVSPropertyOp17
 70
     1
102
RTVSPropertyOp18
 70
     1
102
RTVSPropertyOp19
 70
     1
102
RTVSPropertyOp20
 70
     1
102
RTVSPropertyOp21
 70
     1
102
RTVSPropertyOp22
 70
     1
102
RTVSPropertyOp23
 70
     1
102
RTVSPropertyOp24
 70
     1
102
RTVSPropertyOp25
 70
     1
102
RTVSPropertyOp26
 70
     1
102
RTVSPropertyOp27
 70
     1
102
RTVSPropertyOp28
 70
     1
102
RTVSPropertyOp29
 70
     1
102
RTVSPropertyOp30
 70
     1
102
RTVSPropertyOp31
 70
     1
102
RTVSPropertyOp32
 70
     1
102
RTVSPropertyOp33
 70
     1
102
RTVSPropertyOp34
 70
     1
102
RTVSPropertyOp35
 70
     1
102
RTVSPropertyOp36
 70
     1
102
RTVSPropertyOp37
 70
     1
102
RTVSPropertyOp38
 70
     1
102
RTVSPropertyOp39
 70
     1
102
RTVSPropertyOp40
 70
     1
102
RTVSPropertyOp41
 70
     1
102
RTVSPropertyOp42
 70
     1
102
RTVSPropertyOp43
 70
     1
102
RTVSPropertyOp44
 70
     1
102
RTVSPropertyOp45
 70
     1
102
RTVSPropertyOp46
 70
     1
102
RTVSPropertyOp47
 70
     1
102
RTVSPropertyOp48
 70
     1
102
RTVSPropertyOp49
 70
     1
102
RTVSPropertyOp50
 70
     1
102
RTVSPropertyOp51
 70
     0
102
RTVSPropertyOp52
 70
     0
102
RTVSPropertyOp53
 70
     1
102
RTVSPropertyOp54
 70
     1
102
RTVSPropertyOp55
 70
     1
102
RTVSPropertyOp56
 70
     1
102
RTVSPropertyOp57
 70
     1
102
RTVSPost2010Prop28
280
     0
102
RTVSPost2010PropOp28
 70
     1
102
RTVSPost2010Prop29
280
     1
102
RTVSPost2010PropOp29
 70
     1
102
RTVSPost2010Prop30
280
     1
102
RTVSPost2010PropOp30
 70
     1
102
RTVSPost2010Prop31
280
     0
102
RTVSPost2010PropOp31
 70
     1
102
RTVSPost2010Prop32
280
     0
102
RTVSPost2010PropOp32
 70
     1
102
RTVSPost2010Prop33
280
     0
102
RTVSPost2010PropOp33
 70
     1
102
RTVSPost2010Prop34
280
     0
102
RTVSPost2010PropOp34
 70
     1
102
RTVSPost2010Prop35
280
     0
102
RTVSPost2010PropOp35
 70
     1
102
RTVSPost2010Prop36
280
     0
102
RTVSPost2010PropOp36
 70
     1
102
RTVSPost2010Prop37
 90
       50
102
RTVSPost2010PropOp37
 70
     1
102
RTVSPost2010Prop38
140
0.0
102
RTVSPost2010PropOp38
 70
     1
102
RTVSPost2010Prop39
140
1.0
102
RTVSPost2010PropOp39
 70
     1
102
RTVSPost2010Prop40
 90
        0
102
RTVSPost2010PropOp40
 70
     1
102
RTVSPost2010Prop41ColorIndex
 90
       18
102
RTVSPost2010Prop41ColorRGB
 90
        0
102
RTVSPost2010PropOp41
 70
     1
102
RTVSPost2010Prop42
 90
       50
102
RTVSPost2010PropOp42
 70
     1
102
RTVSPost2010Prop43
 90
        3
102
RTVSPost2010PropOp43
 70
     1
102
RTVSPost2010Prop44ColorIndex
 90
        5
102
RTVSPost2010Prop44ColorRGB
 90
      255
102
RTVSPost2010PropOp44
 70
     1
102
RTVSPost2010Prop45
280
     0
102
RTVSPost2010PropOp45
 70
     1
102
RTVSPost2010Prop46
 90
       50
102
RTVSPost2010PropOp46
 70
     1
102
RTVSPost2010Prop47
 90
       50
102
RTVSPost2010PropOp47
 70
     1
102
RTVSPost2010Prop48
 90
       50
102
RTVSPost2010PropOp48
 70
     1
102
RTVSPost2010Prop49
280
     0
102
RTVSPost2010PropOp49
 70
     1
102
RTVSPost2010Prop50
 90
       50
102
RTVSPost2010PropOp50
 70
     1
102
RTVSPost2010Prop51ColorIndex
 90
      256
102
RTVSPost2010Prop51ColorRGB
 90
-16777216
102
RTVSPost2010PropOp51
 70
     0
102
RTVSPost2010Prop52
140
1.0
102
RTVSPost2010PropOp52
 70
     0
102
RTVSPost2010Prop53
 90
        2
102
RTVSPost2010PropOp53
 70
     1
102
RTVSPost2010Prop54
  1
strokes_ogs.tif
102
RTVSPost2010PropOp54
 70
     1
102
RTVSPost2010Prop55
280
     0
102
RTVSPost2010PropOp55
 70
     1
102
RTVSPost2010Prop56
140
1.0
102
RTVSPost2010PropOp56
 70
     1
102
RTVSPost2010Prop57
140
1.0
102
RTVSPost2010PropOp57
 70
     1
  0
XRECORD
  5
31C
102
{ACAD_REACTORS
330
31B
102
}
330
31B
100
AcDbXrecord
280
     1
102
RTVSPropertyOp0
 70
     1
102
RTVSPropertyOp1
 70
     1
102
RTVSPropertyOp2
 70
     1
102
RTVSPropertyOp3
 70
     1
102
RTVSPropertyOp4
 70
     1
102
RTVSPropertyOp5
 70
     1
102
RTVSPropertyOp6
 70
     1
102
RTVSPropertyOp7
 70
     1
102
RTVSPropertyOp8
 70
     1
102
RTVSPropertyOp9
 70
     1
102
RTVSPropertyOp10
 70
     1
102
RTVSPropertyOp11
 70
     1
102
RTVSPropertyOp12
 70
     1
102
RTVSPropertyOp13
 70
     1
102
RTVSPropertyOp14
 70
     1
102
RTVSPropertyOp15
 70
     1
102
RTVSPropertyOp16
 70
     1
102
RTVSPropertyOp17
 70
     1
102
RTVSPropertyOp18
 70
     1
102
RTVSPropertyOp19
 70
     1
102
RTVSPropertyOp20
 70
     1
102
RTVSPropertyOp21
 70
     1
102
RTVSPropertyOp22
 70
     1
102
RTVSPropertyOp23
 70
     1
102
RTVSPropertyOp24
 70
     1
102
RTVSPropertyOp25
 70
     1
102
RTVSPropertyOp26
 70
     1
102
RTVSPropertyOp27
 70
     1
102
RTVSPropertyOp28
 70
     1
102
RTVSPropertyOp29
 70
     1
102
RTVSPropertyOp30
 70
     1
102
RTVSPropertyOp31
 70
     1
102
RTVSPropertyOp32
 70
     1
102
RTVSPropertyOp33
 70
     1
102
RTVSPropertyOp34
 70
     1
102
RTVSPropertyOp35
 70
     1
102
RTVSPropertyOp36
 70
     1
102
RTVSPropertyOp37
 70
     1
102
RTVSPropertyOp38
 70
     1
102
RTVSPropertyOp39
 70
     1
102
RTVSPropertyOp40
 70
     1
102
RTVSPropertyOp41
 70
     1
102
RTVSPropertyOp42
 70
     1
102
RTVSPropertyOp43
 70
     1
102
RTVSPropertyOp44
 70
     1
102
RTVSPropertyOp45
 70
     1
102
RTVSPropertyOp46
 70
     1
102
RTVSPropertyOp47
 70
     1
102
RTVSPropertyOp48
 70
     1
102
RTVSPropertyOp49
 70
     1
102
RTVSPropertyOp50
 70
     1
102
RTVSPropertyOp51
 70
     0
102
RTVSPropertyOp52
 70
     0
102
RTVSPropertyOp53
 70
     1
102
RTVSPropertyOp54
 70
     1
102
RTVSPropertyOp55
 70
     1
102
RTVSPropertyOp56
 70
     1
102
RTVSPropertyOp57
 70
     1
102
RTVSPost2010Prop28
280
     0
102
RTVSPost2010PropOp28
 70
     1
102
RTVSPost2010Prop29
280
     1
102
RTVSPost2010PropOp29
 70
     1
102
RTVSPost2010Prop30
280
     1
102
RTVSPost2010PropOp30
 70
     1
102
RTVSPost2010Prop31
280
     0
102
RTVSPost2010PropOp31
 70
     1
102
RTVSPost2010Prop32
280
     0
102
RTVSPost2010PropOp32
 70
     1
102
RTVSPost2010Prop33
280
     0
102
RTVSPost2010PropOp33
 70
     1
102
RTVSPost2010Prop34
280
     0
102
RTVSPost2010PropOp34
 70
     1
102
RTVSPost2010Prop35
280
     0
102
RTVSPost2010PropOp35
 70
     1
102
RTVSPost2010Prop36
280
     0
102
RTVSPost2010PropOp36
 70
     1
102
RTVSPost2010Prop37
 90
       50
102
RTVSPost2010PropOp37
 70
     1
102
RTVSPost2010Prop38
140
0.0
102
RTVSPost2010PropOp38
 70
     1
102
RTVSPost2010Prop39
140
1.0
102
RTVSPost2010PropOp39
 70
     1
102
RTVSPost2010Prop40
 90
        0
102
RTVSPost2010PropOp40
 70
     1
102
RTVSPost2010Prop41ColorIndex
 90
       18
102
RTVSPost2010Prop41ColorRGB
 90
        0
102
RTVSPost2010PropOp41
 70
     1
102
RTVSPost2010Prop42
 90
       50
102
RTVSPost2010PropOp42
 70
     1
102
RTVSPost2010Prop43
 90
        3
102
RTVSPost2010PropOp43
 70
     1
102
RTVSPost2010Prop44ColorIndex
 90
        5
102
RTVSPost2010Prop44ColorRGB
 90
      255
102
RTVSPost2010PropOp44
 70
     1
102
RTVSPost2010Prop45
280
     0
102
RTVSPost2010PropOp45
 70
     1
102
RTVSPost2010Prop46
 90
       50
102
RTVSPost2010PropOp46
 70
     1
102
RTVSPost2010Prop47
 90
       50
102
RTVSPost2010PropOp47
 70
     1
102
RTVSPost2010Prop48
 90
       50
102
RTVSPost2010PropOp48
 70
     1
102
RTVSPost2010Prop49
280
     0
102
RTVSPost2010PropOp49
 70
     1
102
RTVSPost2010Prop50
 90
       50
102
RTVSPost2010PropOp50
 70
     1
102
RTVSPost2010Prop51ColorIndex
 90
      256
102
RTVSPost2010Prop51ColorRGB
 90
-16777216
102
RTVSPost2010PropOp51
 70
     0
102
RTVSPost2010Prop52
140
1.0
102
RTVSPost2010PropOp52
 70
     0
102
RTVSPost2010Prop53
 90
        2
102
RTVSPost2010PropOp53
 70
     1
102
RTVSPost2010Prop54
  1
strokes_ogs.tif
102
RTVSPost2010PropOp54
 70
     1
102
RTVSPost2010Prop55
280
     0
102
RTVSPost2010PropOp55
 70
     1
102
RTVSPost2010Prop56
140
1.0
102
RTVSPost2010PropOp56
 70
     1
102
RTVSPost2010Prop57
140
1.0
102
RTVSPost2010PropOp57
 70
     1
  0
XRECORD
  5
32C
102
{ACAD_REACTORS
330
32B
102
}
330
32B
100
AcDbXrecord
280
     1
102
RTVSPropertyOp0
 70
     0
102
RTVSPropertyOp1
 70
     0
102
RTVSPropertyOp2
 70
     0
102
RTVSPropertyOp3
 70
     0
102
RTVSPropertyOp4
 70
     0
102
RTVSPropertyOp5
 70
     0
102
RTVSPropertyOp6
 70
     0
102
RTVSPropertyOp7
 70
     0
102
RTVSPropertyOp8
 70
     0
102
RTVSPropertyOp9
 70
     0
102
RTVSPropertyOp10
 70
     0
102
RTVSPropertyOp11
 70
     0
102
RTVSPropertyOp12
 70
     0
102
RTVSPropertyOp13
 70
     0
102
RTVSPropertyOp14
 70
     2
102
RTVSPropertyOp15
 70
     0
102
RTVSPropertyOp16
 70
     0
102
RTVSPropertyOp17
 70
     0
102
RTVSPropertyOp18
 70
     0
102
RTVSPropertyOp19
 70
     0
102
RTVSPropertyOp20
 70
     0
102
RTVSPropertyOp21
 70
     0
102
RTVSPropertyOp22
 70
     0
102
RTVSPropertyOp23
 70
     0
102
RTVSPropertyOp24
 70
     0
102
RTVSPropertyOp25
 70
     0
102
RTVSPropertyOp26
 70
     0
102
RTVSPropertyOp27
 70
     0
102
RTVSPropertyOp28
 70
     0
102
RTVSPropertyOp29
 70
     0
102
RTVSPropertyOp30
 70
     0
102
RTVSPropertyOp31
 70
     0
102
RTVSPropertyOp32
 70
     0
102
RTVSPropertyOp33
 70
     0
102
RTVSPropertyOp34
 70
     0
102
RTVSPropertyOp35
 70
     0
102
RTVSPropertyOp36
 70
     0
102
RTVSPropertyOp37
 70
     0
102
RTVSPropertyOp38
 70
     0
102
RTVSPropertyOp39
 70
     0
102
RTVSPropertyOp40
 70
     0
102
RTVSPropertyOp41
 70
     0
102
RTVSPropertyOp42
 70
     0
102
RTVSPropertyOp43
 70
     0
102
RTVSPropertyOp44
 70
     0
102
RTVSPropertyOp45
 70
     0
102
RTVSPropertyOp46
 70
     0
102
RTVSPropertyOp47
 70
     0
102
RTVSPropertyOp48
 70
     0
102
RTVSPropertyOp49
 70
     0
102
RTVSPropertyOp50
 70
     0
102
RTVSPropertyOp51
 70
     0
102
RTVSPropertyOp52
 70
     0
102
RTVSPropertyOp53
 70
     0
102
RTVSPropertyOp54
 70
     0
102
RTVSPropertyOp55
 70
     0
102
RTVSPropertyOp56
 70
     0
102
RTVSPropertyOp57
 70
     0
102
RTVSPost2010Prop28
280
     0
102
RTVSPost2010PropOp28
 70
     0
102
RTVSPost2010Prop29
280
     1
102
RTVSPost2010PropOp29
 70
     0
102
RTVSPost2010Prop30
280
     1
102
RTVSPost2010PropOp30
 70
     0
102
RTVSPost2010Prop31
280
     0
102
RTVSPost2010PropOp31
 70
     0
102
RTVSPost2010Prop32
280
     0
102
RTVSPost2010PropOp32
 70
     0
102
RTVSPost2010Prop33
280
     0
102
RTVSPost2010PropOp33
 70
     0
102
RTVSPost2010Prop34
280
     0
102
RTVSPost2010PropOp34
 70
     0
102
RTVSPost2010Prop35
280
     0
102
RTVSPost2010PropOp35
 70
     0
102
RTVSPost2010Prop36
280
     0
102
RTVSPost2010PropOp36
 70
     0
102
RTVSPost2010Prop37
 90
       50
102
RTVSPost2010PropOp37
 70
     0
102
RTVSPost2010Prop38
140
0.0
102
RTVSPost2010PropOp38
 70
     0
102
RTVSPost2010Prop39
140
1.0
102
RTVSPost2010PropOp39
 70
     0
102
RTVSPost2010Prop40
 90
        0
102
RTVSPost2010PropOp40
 70
     0
102
RTVSPost2010Prop41ColorIndex
 90
       18
102
RTVSPost2010Prop41ColorRGB
 90
        0
102
RTVSPost2010PropOp41
 70
     0
102
RTVSPost2010Prop42
 90
       50
102
RTVSPost2010PropOp42
 70
     0
102
RTVSPost2010Prop43
 90
        3
102
RTVSPost2010PropOp43
 70
     0
102
RTVSPost2010Prop44ColorIndex
 90
        5
102
RTVSPost2010Prop44ColorRGB
 90
      255
102
RTVSPost2010PropOp44
 70
     0
102
RTVSPost2010Prop45
280
     0
102
RTVSPost2010PropOp45
 70
     0
102
RTVSPost2010Prop46
 90
       50
102
RTVSPost2010PropOp46
 70
     0
102
RTVSPost2010Prop47
 90
       50
102
RTVSPost2010PropOp47
 70
     0
102
RTVSPost2010Prop48
 90
       50
102
RTVSPost2010PropOp48
 70
     0
102
RTVSPost2010Prop49
280
     0
102
RTVSPost2010PropOp49
 70
     0
102
RTVSPost2010Prop50
 90
       50
102
RTVSPost2010PropOp50
 70
     0
102
RTVSPost2010Prop51ColorIndex
 90
      256
102
RTVSPost2010Prop51ColorRGB
 90
-16777216
102
RTVSPost2010PropOp51
 70
     0
102
RTVSPost2010Prop52
140
1.0
102
RTVSPost2010PropOp52
 70
     0
102
RTVSPost2010Prop53
 90
        2
102
RTVSPost2010PropOp53
 70
     0
102
RTVSPost2010Prop54
  1
strokes_ogs.tif
102
RTVSPost2010PropOp54
 70
     0
102
RTVSPost2010Prop55
280
     0
102
RTVSPost2010PropOp55
 70
     0
102
RTVSPost2010Prop56
140
1.0
102
RTVSPost2010PropOp56
 70
     0
102
RTVSPost2010Prop57
140
1.0
102
RTVSPost2010PropOp57
 70
     0
  0
XRECORD
  5
324
102
{ACAD_REACTORS
330
323
102
}
330
323
100
AcDbXrecord
280
     1
102
RTVSPropertyOp0
 70
     1
102
RTVSPropertyOp1
 70
     1
102
RTVSPropertyOp2
 70
     1
102
RTVSPropertyOp3
 70
     1
102
RTVSPropertyOp4
 70
     1
102
RTVSPropertyOp5
 70
     1
102
RTVSPropertyOp6
 70
     1
102
RTVSPropertyOp7
 70
     1
102
RTVSPropertyOp8
 70
     1
102
RTVSPropertyOp9
 70
     1
102
RTVSPropertyOp10
 70
     1
102
RTVSPropertyOp11
 70
     1
102
RTVSPropertyOp12
 70
     1
102
RTVSPropertyOp13
 70
     1
102
RTVSPropertyOp14
 70
     1
102
RTVSPropertyOp15
 70
     1
102
RTVSPropertyOp16
 70
     1
102
RTVSPropertyOp17
 70
     1
102
RTVSPropertyOp18
 70
     1
102
RTVSPropertyOp19
 70
     1
102
RTVSPropertyOp20
 70
     1
102
RTVSPropertyOp21
 70
     1
102
RTVSPropertyOp22
 70
     1
102
RTVSPropertyOp23
 70
     1
102
RTVSPropertyOp24
 70
     1
102
RTVSPropertyOp25
 70
     1
102
RTVSPropertyOp26
 70
     1
102
RTVSPropertyOp27
 70
     1
102
RTVSPropertyOp28
 70
     1
102
RTVSPropertyOp29
 70
     1
102
RTVSPropertyOp30
 70
     1
102
RTVSPropertyOp31
 70
     1
102
RTVSPropertyOp32
 70
     1
102
RTVSPropertyOp33
 70
     1
102
RTVSPropertyOp34
 70
     1
102
RTVSPropertyOp35
 70
     1
102
RTVSPropertyOp36
 70
     1
102
RTVSPropertyOp37
 70
     1
102
RTVSPropertyOp38
 70
     1
102
RTVSPropertyOp39
 70
     1
102
RTVSPropertyOp40
 70
     1
102
RTVSPropertyOp41
 70
     1
102
RTVSPropertyOp42
 70
     1
102
RTVSPropertyOp43
 70
     1
102
RTVSPropertyOp44
 70
     1
102
RTVSPropertyOp45
 70
     1
102
RTVSPropertyOp46
 70
     1
102
RTVSPropertyOp47
 70
     1
102
RTVSPropertyOp48
 70
     1
102
RTVSPropertyOp49
 70
     1
102
RTVSPropertyOp50
 70
     1
102
RTVSPropertyOp51
 70
     0
102
RTVSPropertyOp52
 70
     0
102
RTVSPropertyOp53
 70
     1
102
RTVSPropertyOp54
 70
     1
102
RTVSPropertyOp55
 70
     1
102
RTVSPropertyOp56
 70
     1
102
RTVSPropertyOp57
 70
     1
102
RTVSPost2010Prop28
280
     0
102
RTVSPost2010PropOp28
 70
     1
102
RTVSPost2010Prop29
280
     1
102
RTVSPost2010PropOp29
 70
     1
102
RTVSPost2010Prop30
280
     1
102
RTVSPost2010PropOp30
 70
     1
102
RTVSPost2010Prop31
280
     0
102
RTVSPost2010PropOp31
 70
     1
102
RTVSPost2010Prop32
280
     0
102
RTVSPost2010PropOp32
 70
     1
102
RTVSPost2010Prop33
280
     0
102
RTVSPost2010PropOp33
 70
     1
102
RTVSPost2010Prop34
280
     0
102
RTVSPost2010PropOp34
 70
     1
102
RTVSPost2010Prop35
280
     0
102
RTVSPost2010PropOp35
 70
     1
102
RTVSPost2010Prop36
280
     0
102
RTVSPost2010PropOp36
 70
     1
102
RTVSPost2010Prop37
 90
       50
102
RTVSPost2010PropOp37
 70
     1
102
RTVSPost2010Prop38
140
0.0
102
RTVSPost2010PropOp38
 70
     1
102
RTVSPost2010Prop39
140
1.0
102
RTVSPost2010PropOp39
 70
     1
102
RTVSPost2010Prop40
 90
        0
102
RTVSPost2010PropOp40
 70
     1
102
RTVSPost2010Prop41ColorIndex
 90
       18
102
RTVSPost2010Prop41ColorRGB
 90
        0
102
RTVSPost2010PropOp41
 70
     1
102
RTVSPost2010Prop42
 90
       50
102
RTVSPost2010PropOp42
 70
     1
102
RTVSPost2010Prop43
 90
        3
102
RTVSPost2010PropOp43
 70
     1
102
RTVSPost2010Prop44ColorIndex
 90
        5
102
RTVSPost2010Prop44ColorRGB
 90
      255
102
RTVSPost2010PropOp44
 70
     1
102
RTVSPost2010Prop45
280
     0
102
RTVSPost2010PropOp45
 70
     1
102
RTVSPost2010Prop46
 90
       50
102
RTVSPost2010PropOp46
 70
     1
102
RTVSPost2010Prop47
 90
       50
102
RTVSPost2010PropOp47
 70
     1
102
RTVSPost2010Prop48
 90
       50
102
RTVSPost2010PropOp48
 70
     1
102
RTVSPost2010Prop49
280
     0
102
RTVSPost2010PropOp49
 70
     1
102
RTVSPost2010Prop50
 90
       50
102
RTVSPost2010PropOp50
 70
     1
102
RTVSPost2010Prop51ColorIndex
 90
      256
102
RTVSPost2010Prop51ColorRGB
 90
-16777216
102
RTVSPost2010PropOp51
 70
     0
102
RTVSPost2010Prop52
140
1.0
102
RTVSPost2010PropOp52
 70
     0
102
RTVSPost2010Prop53
 90
        2
102
RTVSPost2010PropOp53
 70
     1
102
RTVSPost2010Prop54
  1
strokes_ogs.tif
102
RTVSPost2010PropOp54
 70
     1
102
RTVSPost2010Prop55
280
     0
102
RTVSPost2010PropOp55
 70
     1
102
RTVSPost2010Prop56
140
1.0
102
RTVSPost2010PropOp56
 70
     1
102
RTVSPost2010Prop57
140
1.0
102
RTVSPost2010PropOp57
 70
     1
  0
XRECORD
  5
308
102
{ACAD_REACTORS
330
307
102
}
330
307
100
AcDbXrecord
280
     1
102
RTVSPropertyOp0
 70
     1
102
RTVSPropertyOp1
 70
     1
102
RTVSPropertyOp2
 70
     1
102
RTVSPropertyOp3
 70
     1
102
RTVSPropertyOp4
 70
     1
102
RTVSPropertyOp5
 70
     1
102
RTVSPropertyOp6
 70
     1
102
RTVSPropertyOp7
 70
     1
102
RTVSPropertyOp8
 70
     1
102
RTVSPropertyOp9
 70
     1
102
RTVSPropertyOp10
 70
     1
102
RTVSPropertyOp11
 70
     1
102
RTVSPropertyOp12
 70
     1
102
RTVSPropertyOp13
 70
     1
102
RTVSPropertyOp14
 70
     1
102
RTVSPropertyOp15
 70
     1
102
RTVSPropertyOp16
 70
     1
102
RTVSPropertyOp17
 70
     1
102
RTVSPropertyOp18
 70
     1
102
RTVSPropertyOp19
 70
     1
102
RTVSPropertyOp20
 70
     1
102
RTVSPropertyOp21
 70
     1
102
RTVSPropertyOp22
 70
     1
102
RTVSPropertyOp23
 70
     1
102
RTVSPropertyOp24
 70
     1
102
RTVSPropertyOp25
 70
     1
102
RTVSPropertyOp26
 70
     1
102
RTVSPropertyOp27
 70
     1
102
RTVSPropertyOp28
 70
     1
102
RTVSPropertyOp29
 70
     1
102
RTVSPropertyOp30
 70
     1
102
RTVSPropertyOp31
 70
     1
102
RTVSPropertyOp32
 70
     1
102
RTVSPropertyOp33
 70
     1
102
RTVSPropertyOp34
 70
     1
102
RTVSPropertyOp35
 70
     1
102
RTVSPropertyOp36
 70
     1
102
RTVSPropertyOp37
 70
     1
102
RTVSPropertyOp38
 70
     1
102
RTVSPropertyOp39
 70
     1
102
RTVSPropertyOp40
 70
     1
102
RTVSPropertyOp41
 70
     1
102
RTVSPropertyOp42
 70
     1
102
RTVSPropertyOp43
 70
     1
102
RTVSPropertyOp44
 70
     1
102
RTVSPropertyOp45
 70
     1
102
RTVSPropertyOp46
 70
     1
102
RTVSPropertyOp47
 70
     1
102
RTVSPropertyOp48
 70
     1
102
RTVSPropertyOp49
 70
     1
102
RTVSPropertyOp50
 70
     1
102
RTVSPropertyOp51
 70
     0
102
RTVSPropertyOp52
 70
     0
102
RTVSPropertyOp53
 70
     1
102
RTVSPropertyOp54
 70
     1
102
RTVSPropertyOp55
 70
     1
102
RTVSPropertyOp56
 70
     1
102
RTVSPropertyOp57
 70
     1
102
RTVSPost2010Prop28
280
     0
102
RTVSPost2010PropOp28
 70
     1
102
RTVSPost2010Prop29
280
     1
102
RTVSPost2010PropOp29
 70
     1
102
RTVSPost2010Prop30
280
     1
102
RTVSPost2010PropOp30
 70
     1
102
RTVSPost2010Prop31
280
     0
102
RTVSPost2010PropOp31
 70
     1
102
RTVSPost2010Prop32
280
     0
102
RTVSPost2010PropOp32
 70
     1
102
RTVSPost2010Prop33
280
     0
102
RTVSPost2010PropOp33
 70
     1
102
RTVSPost2010Prop34
280
     0
102
RTVSPost2010PropOp34
 70
     1
102
RTVSPost2010Prop35
280
     0
102
RTVSPost2010PropOp35
 70
     1
102
RTVSPost2010Prop36
280
     0
102
RTVSPost2010PropOp36
 70
     1
102
RTVSPost2010Prop37
 90
       50
102
RTVSPost2010PropOp37
 70
     1
102
RTVSPost2010Prop38
140
0.0
102
RTVSPost2010PropOp38
 70
     1
102
RTVSPost2010Prop39
140
1.0
102
RTVSPost2010PropOp39
 70
     1
102
RTVSPost2010Prop40
 90
        0
102
RTVSPost2010PropOp40
 70
     1
102
RTVSPost2010Prop41ColorIndex
 90
       18
102
RTVSPost2010Prop41ColorRGB
 90
        0
102
RTVSPost2010PropOp41
 70
     1
102
RTVSPost2010Prop42
 90
       50
102
RTVSPost2010PropOp42
 70
     1
102
RTVSPost2010Prop43
 90
        3
102
RTVSPost2010PropOp43
 70
     1
102
RTVSPost2010Prop44ColorIndex
 90
        5
102
RTVSPost2010Prop44ColorRGB
 90
      255
102
RTVSPost2010PropOp44
 70
     1
102
RTVSPost2010Prop45
280
     0
102
RTVSPost2010PropOp45
 70
     1
102
RTVSPost2010Prop46
 90
       50
102
RTVSPost2010PropOp46
 70
     1
102
RTVSPost2010Prop47
 90
       50
102
RTVSPost2010PropOp47
 70
     1
102
RTVSPost2010Prop48
 90
       50
102
RTVSPost2010PropOp48
 70
     1
102
RTVSPost2010Prop49
280
     0
102
RTVSPost2010PropOp49
 70
     1
102
RTVSPost2010Prop50
 90
       50
102
RTVSPost2010PropOp50
 70
     1
102
RTVSPost2010Prop51ColorIndex
 90
      256
102
RTVSPost2010Prop51ColorRGB
 90
-16777216
102
RTVSPost2010PropOp51
 70
     0
102
RTVSPost2010Prop52
140
1.0
102
RTVSPost2010PropOp52
 70
     0
102
RTVSPost2010Prop53
 90
        2
102
RTVSPost2010PropOp53
 70
     1
102
RTVSPost2010Prop54
  1
strokes_ogs.tif
102
RTVSPost2010PropOp54
 70
     1
102
RTVSPost2010Prop55
280
     0
102
RTVSPost2010PropOp55
 70
     1
102
RTVSPost2010Prop56
140
1.0
102
RTVSPost2010PropOp56
 70
     1
102
RTVSPost2010Prop57
140
1.0
102
RTVSPost2010PropOp57
 70
     1
  0
XRECORD
  5
30A
102
{ACAD_REACTORS
330
309
102
}
330
309
100
AcDbXrecord
280
     1
102
RTVSPropertyOp0
 70
     1
102
RTVSPropertyOp1
 70
     1
102
RTVSPropertyOp2
 70
     1
102
RTVSPropertyOp3
 70
     1
102
RTVSPropertyOp4
 70
     1
102
RTVSPropertyOp5
 70
     1
102
RTVSPropertyOp6
 70
     1
102
RTVSPropertyOp7
 70
     1
102
RTVSPropertyOp8
 70
     1
102
RTVSPropertyOp9
 70
     1
102
RTVSPropertyOp10
 70
     1
102
RTVSPropertyOp11
 70
     1
102
RTVSPropertyOp12
 70
     1
102
RTVSPropertyOp13
 70
     1
102
RTVSPropertyOp14
 70
     1
102
RTVSPropertyOp15
 70
     1
102
RTVSPropertyOp16
 70
     1
102
RTVSPropertyOp17
 70
     1
102
RTVSPropertyOp18
 70
     1
102
RTVSPropertyOp19
 70
     1
102
RTVSPropertyOp20
 70
     1
102
RTVSPropertyOp21
 70
     1
102
RTVSPropertyOp22
 70
     1
102
RTVSPropertyOp23
 70
     1
102
RTVSPropertyOp24
 70
     1
102
RTVSPropertyOp25
 70
     1
102
RTVSPropertyOp26
 70
     1
102
RTVSPropertyOp27
 70
     1
102
RTVSPropertyOp28
 70
     1
102
RTVSPropertyOp29
 70
     1
102
RTVSPropertyOp30
 70
     1
102
RTVSPropertyOp31
 70
     1
102
RTVSPropertyOp32
 70
     1
102
RTVSPropertyOp33
 70
     1
102
RTVSPropertyOp34
 70
     1
102
RTVSPropertyOp35
 70
     1
102
RTVSPropertyOp36
 70
     1
102
RTVSPropertyOp37
 70
     1
102
RTVSPropertyOp38
 70
     1
102
RTVSPropertyOp39
 70
     1
102
RTVSPropertyOp40
 70
     1
102
RTVSPropertyOp41
 70
     1
102
RTVSPropertyOp42
 70
     1
102
RTVSPropertyOp43
 70
     1
102
RTVSPropertyOp44
 70
     1
102
RTVSPropertyOp45
 70
     1
102
RTVSPropertyOp46
 70
     1
102
RTVSPropertyOp47
 70
     1
102
RTVSPropertyOp48
 70
     1
102
RTVSPropertyOp49
 70
     1
102
RTVSPropertyOp50
 70
     1
102
RTVSPropertyOp51
 70
     0
102
RTVSPropertyOp52
 70
     0
102
RTVSPropertyOp53
 70
     1
102
RTVSPropertyOp54
 70
     1
102
RTVSPropertyOp55
 70
     1
102
RTVSPropertyOp56
 70
     1
102
RTVSPropertyOp57
 70
     1
102
RTVSPost2010Prop28
280
     0
102
RTVSPost2010PropOp28
 70
     1
102
RTVSPost2010Prop29
280
     1
102
RTVSPost2010PropOp29
 70
     1
102
RTVSPost2010Prop30
280
     1
102
RTVSPost2010PropOp30
 70
     1
102
RTVSPost2010Prop31
280
     0
102
RTVSPost2010PropOp31
 70
     1
102
RTVSPost2010Prop32
280
     0
102
RTVSPost2010PropOp32
 70
     1
102
RTVSPost2010Prop33
280
     0
102
RTVSPost2010PropOp33
 70
     1
102
RTVSPost2010Prop34
280
     0
102
RTVSPost2010PropOp34
 70
     1
102
RTVSPost2010Prop35
280
     0
102
RTVSPost2010PropOp35
 70
     1
102
RTVSPost2010Prop36
280
     0
102
RTVSPost2010PropOp36
 70
     1
102
RTVSPost2010Prop37
 90
       50
102
RTVSPost2010PropOp37
 70
     1
102
RTVSPost2010Prop38
140
0.0
102
RTVSPost2010PropOp38
 70
     1
102
RTVSPost2010Prop39
140
1.0
102
RTVSPost2010PropOp39
 70
     1
102
RTVSPost2010Prop40
 90
        0
102
RTVSPost2010PropOp40
 70
     1
102
RTVSPost2010Prop41ColorIndex
 90
       18
102
RTVSPost2010Prop41ColorRGB
 90
        0
102
RTVSPost2010PropOp41
 70
     1
102
RTVSPost2010Prop42
 90
       50
102
RTVSPost2010PropOp42
 70
     1
102
RTVSPost2010Prop43
 90
        3
102
RTVSPost2010PropOp43
 70
     1
102
RTVSPost2010Prop44ColorIndex
 90
        5
102
RTVSPost2010Prop44ColorRGB
 90
      255
102
RTVSPost2010PropOp44
 70
     1
102
RTVSPost2010Prop45
280
     0
102
RTVSPost2010PropOp45
 70
     1
102
RTVSPost2010Prop46
 90
       50
102
RTVSPost2010PropOp46
 70
     1
102
RTVSPost2010Prop47
 90
       50
102
RTVSPost2010PropOp47
 70
     1
102
RTVSPost2010Prop48
 90
       50
102
RTVSPost2010PropOp48
 70
     1
102
RTVSPost2010Prop49
280
     0
102
RTVSPost2010PropOp49
 70
     1
102
RTVSPost2010Prop50
 90
       50
102
RTVSPost2010PropOp50
 70
     1
102
RTVSPost2010Prop51ColorIndex
 90
      256
102
RTVSPost2010Prop51ColorRGB
 90
-16777216
102
RTVSPost2010PropOp51
 70
     0
102
RTVSPost2010Prop52
140
1.0
102
RTVSPost2010PropOp52
 70
     0
102
RTVSPost2010Prop53
 90
        2
102
RTVSPost2010PropOp53
 70
     1
102
RTVSPost2010Prop54
  1
strokes_ogs.tif
102
RTVSPost2010PropOp54
 70
     1
102
RTVSPost2010Prop55
280
     0
102
RTVSPost2010PropOp55
 70
     1
102
RTVSPost2010Prop56
140
1.0
102
RTVSPost2010PropOp56
 70
     1
102
RTVSPost2010Prop57
140
1.0
102
RTVSPost2010PropOp57
 70
     1
  0
XRECORD
  5
30C
102
{ACAD_REACTORS
330
30B
102
}
330
30B
100
AcDbXrecord
280
     1
102
RTVSPropertyOp0
 70
     1
102
RTVSPropertyOp1
 70
     1
102
RTVSPropertyOp2
 70
     1
102
RTVSPropertyOp3
 70
     1
102
RTVSPropertyOp4
 70
     1
102
RTVSPropertyOp5
 70
     1
102
RTVSPropertyOp6
 70
     1
102
RTVSPropertyOp7
 70
     1
102
RTVSPropertyOp8
 70
     1
102
RTVSPropertyOp9
 70
     1
102
RTVSPropertyOp10
 70
     1
102
RTVSPropertyOp11
 70
     1
102
RTVSPropertyOp12
 70
     1
102
RTVSPropertyOp13
 70
     1
102
RTVSPropertyOp14
 70
     1
102
RTVSPropertyOp15
 70
     1
102
RTVSPropertyOp16
 70
     1
102
RTVSPropertyOp17
 70
     1
102
RTVSPropertyOp18
 70
     1
102
RTVSPropertyOp19
 70
     1
102
RTVSPropertyOp20
 70
     1
102
RTVSPropertyOp21
 70
     1
102
RTVSPropertyOp22
 70
     1
102
RTVSPropertyOp23
 70
     1
102
RTVSPropertyOp24
 70
     1
102
RTVSPropertyOp25
 70
     1
102
RTVSPropertyOp26
 70
     1
102
RTVSPropertyOp27
 70
     1
102
RTVSPropertyOp28
 70
     1
102
RTVSPropertyOp29
 70
     1
102
RTVSPropertyOp30
 70
     1
102
RTVSPropertyOp31
 70
     1
102
RTVSPropertyOp32
 70
     1
102
RTVSPropertyOp33
 70
     1
102
RTVSPropertyOp34
 70
     1
102
RTVSPropertyOp35
 70
     1
102
RTVSPropertyOp36
 70
     1
102
RTVSPropertyOp37
 70
     1
102
RTVSPropertyOp38
 70
     1
102
RTVSPropertyOp39
 70
     1
102
RTVSPropertyOp40
 70
     1
102
RTVSPropertyOp41
 70
     1
102
RTVSPropertyOp42
 70
     1
102
RTVSPropertyOp43
 70
     1
102
RTVSPropertyOp44
 70
     1
102
RTVSPropertyOp45
 70
     1
102
RTVSPropertyOp46
 70
     1
102
RTVSPropertyOp47
 70
     1
102
RTVSPropertyOp48
 70
     1
102
RTVSPropertyOp49
 70
     1
102
RTVSPropertyOp50
 70
     1
102
RTVSPropertyOp51
 70
     0
102
RTVSPropertyOp52
 70
     0
102
RTVSPropertyOp53
 70
     1
102
RTVSPropertyOp54
 70
     1
102
RTVSPropertyOp55
 70
     1
102
RTVSPropertyOp56
 70
     1
102
RTVSPropertyOp57
 70
     1
102
RTVSPost2010Prop28
280
     0
102
RTVSPost2010PropOp28
 70
     1
102
RTVSPost2010Prop29
280
     1
102
RTVSPost2010PropOp29
 70
     1
102
RTVSPost2010Prop30
280
     1
102
RTVSPost2010PropOp30
 70
     1
102
RTVSPost2010Prop31
280
     0
102
RTVSPost2010PropOp31
 70
     1
102
RTVSPost2010Prop32
280
     0
102
RTVSPost2010PropOp32
 70
     1
102
RTVSPost2010Prop33
280
     0
102
RTVSPost2010PropOp33
 70
     1
102
RTVSPost2010Prop34
280
     0
102
RTVSPost2010PropOp34
 70
     1
102
RTVSPost2010Prop35
280
     0
102
RTVSPost2010PropOp35
 70
     1
102
RTVSPost2010Prop36
280
     0
102
RTVSPost2010PropOp36
 70
     1
102
RTVSPost2010Prop37
 90
       50
102
RTVSPost2010PropOp37
 70
     1
102
RTVSPost2010Prop38
140
0.0
102
RTVSPost2010PropOp38
 70
     1
102
RTVSPost2010Prop39
140
1.0
102
RTVSPost2010PropOp39
 70
     1
102
RTVSPost2010Prop40
 90
        0
102
RTVSPost2010PropOp40
 70
     1
102
RTVSPost2010Prop41ColorIndex
 90
       18
102
RTVSPost2010Prop41ColorRGB
 90
        0
102
RTVSPost2010PropOp41
 70
     1
102
RTVSPost2010Prop42
 90
       50
102
RTVSPost2010PropOp42
 70
     1
102
RTVSPost2010Prop43
 90
        3
102
RTVSPost2010PropOp43
 70
     1
102
RTVSPost2010Prop44ColorIndex
 90
        5
102
RTVSPost2010Prop44ColorRGB
 90
      255
102
RTVSPost2010PropOp44
 70
     1
102
RTVSPost2010Prop45
280
     0
102
RTVSPost2010PropOp45
 70
     1
102
RTVSPost2010Prop46
 90
       50
102
RTVSPost2010PropOp46
 70
     1
102
RTVSPost2010Prop47
 90
       50
102
RTVSPost2010PropOp47
 70
     1
102
RTVSPost2010Prop48
 90
       50
102
RTVSPost2010PropOp48
 70
     1
102
RTVSPost2010Prop49
280
     0
102
RTVSPost2010PropOp49
 70
     1
102
RTVSPost2010Prop50
 90
       50
102
RTVSPost2010PropOp50
 70
     1
102
RTVSPost2010Prop51ColorIndex
 90
      256
102
RTVSPost2010Prop51ColorRGB
 90
-16777216
102
RTVSPost2010PropOp51
 70
     0
102
RTVSPost2010Prop52
140
1.0
102
RTVSPost2010PropOp52
 70
     0
102
RTVSPost2010Prop53
 90
        2
102
RTVSPost2010PropOp53
 70
     1
102
RTVSPost2010Prop54
  1
strokes_ogs.tif
102
RTVSPost2010PropOp54
 70
     1
102
RTVSPost2010Prop55
280
     0
102
RTVSPost2010PropOp55
 70
     1
102
RTVSPost2010Prop56
140
1.0
102
RTVSPost2010PropOp56
 70
     1
102
RTVSPost2010Prop57
140
1.0
102
RTVSPost2010PropOp57
 70
     1
  0
XRECORD
  5
30E
102
{ACAD_REACTORS
330
30D
102
}
330
30D
100
AcDbXrecord
280
     1
102
RTVSPropertyOp0
 70
     1
102
RTVSPropertyOp1
 70
     1
102
RTVSPropertyOp2
 70
     1
102
RTVSPropertyOp3
 70
     1
102
RTVSPropertyOp4
 70
     1
102
RTVSPropertyOp5
 70
     1
102
RTVSPropertyOp6
 70
     1
102
RTVSPropertyOp7
 70
     1
102
RTVSPropertyOp8
 70
     1
102
RTVSPropertyOp9
 70
     1
102
RTVSPropertyOp10
 70
     1
102
RTVSPropertyOp11
 70
     1
102
RTVSPropertyOp12
 70
     1
102
RTVSPropertyOp13
 70
     1
102
RTVSPropertyOp14
 70
     1
102
RTVSPropertyOp15
 70
     1
102
RTVSPropertyOp16
 70
     1
102
RTVSPropertyOp17
 70
     1
102
RTVSPropertyOp18
 70
     1
102
RTVSPropertyOp19
 70
     1
102
RTVSPropertyOp20
 70
     1
102
RTVSPropertyOp21
 70
     1
102
RTVSPropertyOp22
 70
     1
102
RTVSPropertyOp23
 70
     1
102
RTVSPropertyOp24
 70
     1
102
RTVSPropertyOp25
 70
     1
102
RTVSPropertyOp26
 70
     1
102
RTVSPropertyOp27
 70
     1
102
RTVSPropertyOp28
 70
     1
102
RTVSPropertyOp29
 70
     1
102
RTVSPropertyOp30
 70
     1
102
RTVSPropertyOp31
 70
     1
102
RTVSPropertyOp32
 70
     1
102
RTVSPropertyOp33
 70
     1
102
RTVSPropertyOp34
 70
     1
102
RTVSPropertyOp35
 70
     1
102
RTVSPropertyOp36
 70
     1
102
RTVSPropertyOp37
 70
     1
102
RTVSPropertyOp38
 70
     1
102
RTVSPropertyOp39
 70
     1
102
RTVSPropertyOp40
 70
     1
102
RTVSPropertyOp41
 70
     1
102
RTVSPropertyOp42
 70
     1
102
RTVSPropertyOp43
 70
     1
102
RTVSPropertyOp44
 70
     1
102
RTVSPropertyOp45
 70
     1
102
RTVSPropertyOp46
 70
     1
102
RTVSPropertyOp47
 70
     1
102
RTVSPropertyOp48
 70
     1
102
RTVSPropertyOp49
 70
     1
102
RTVSPropertyOp50
 70
     1
102
RTVSPropertyOp51
 70
     0
102
RTVSPropertyOp52
 70
     0
102
RTVSPropertyOp53
 70
     1
102
RTVSPropertyOp54
 70
     1
102
RTVSPropertyOp55
 70
     1
102
RTVSPropertyOp56
 70
     1
102
RTVSPropertyOp57
 70
     1
102
RTVSPost2010Prop28
280
     0
102
RTVSPost2010PropOp28
 70
     1
102
RTVSPost2010Prop29
280
     1
102
RTVSPost2010PropOp29
 70
     1
102
RTVSPost2010Prop30
280
     1
102
RTVSPost2010PropOp30
 70
     1
102
RTVSPost2010Prop31
280
     0
102
RTVSPost2010PropOp31
 70
     1
102
RTVSPost2010Prop32
280
     0
102
RTVSPost2010PropOp32
 70
     1
102
RTVSPost2010Prop33
280
     0
102
RTVSPost2010PropOp33
 70
     1
102
RTVSPost2010Prop34
280
     0
102
RTVSPost2010PropOp34
 70
     1
102
RTVSPost2010Prop35
280
     0
102
RTVSPost2010PropOp35
 70
     1
102
RTVSPost2010Prop36
280
     0
102
RTVSPost2010PropOp36
 70
     1
102
RTVSPost2010Prop37
 90
       50
102
RTVSPost2010PropOp37
 70
     1
102
RTVSPost2010Prop38
140
0.0
102
RTVSPost2010PropOp38
 70
     1
102
RTVSPost2010Prop39
140
1.0
102
RTVSPost2010PropOp39
 70
     1
102
RTVSPost2010Prop40
 90
        0
102
RTVSPost2010PropOp40
 70
     1
102
RTVSPost2010Prop41ColorIndex
 90
       18
102
RTVSPost2010Prop41ColorRGB
 90
        0
102
RTVSPost2010PropOp41
 70
     1
102
RTVSPost2010Prop42
 90
       50
102
RTVSPost2010PropOp42
 70
     1
102
RTVSPost2010Prop43
 90
        3
102
RTVSPost2010PropOp43
 70
     1
102
RTVSPost2010Prop44ColorIndex
 90
        5
102
RTVSPost2010Prop44ColorRGB
 90
      255
102
RTVSPost2010PropOp44
 70
     1
102
RTVSPost2010Prop45
280
     0
102
RTVSPost2010PropOp45
 70
     1
102
RTVSPost2010Prop46
 90
       50
102
RTVSPost2010PropOp46
 70
     1
102
RTVSPost2010Prop47
 90
       50
102
RTVSPost2010PropOp47
 70
     1
102
RTVSPost2010Prop48
 90
       50
102
RTVSPost2010PropOp48
 70
     1
102
RTVSPost2010Prop49
280
     0
102
RTVSPost2010PropOp49
 70
     1
102
RTVSPost2010Prop50
 90
       50
102
RTVSPost2010PropOp50
 70
     1
102
RTVSPost2010Prop51ColorIndex
 90
      256
102
RTVSPost2010Prop51ColorRGB
 90
-16777216
102
RTVSPost2010PropOp51
 70
     0
102
RTVSPost2010Prop52
140
1.0
102
RTVSPost2010PropOp52
 70
     0
102
RTVSPost2010Prop53
 90
        2
102
RTVSPost2010PropOp53
 70
     1
102
RTVSPost2010Prop54
  1
strokes_ogs.tif
102
RTVSPost2010PropOp54
 70
     1
102
RTVSPost2010Prop55
280
     0
102
RTVSPost2010PropOp55
 70
     1
102
RTVSPost2010Prop56
140
1.0
102
RTVSPost2010PropOp56
 70
     1
102
RTVSPost2010Prop57
140
1.0
102
RTVSPost2010PropOp57
 70
     1
  0
XRECORD
  5
314
102
{ACAD_REACTORS
330
313
102
}
330
313
100
AcDbXrecord
280
     1
102
RTVSPropertyOp0
 70
     1
102
RTVSPropertyOp1
 70
     1
102
RTVSPropertyOp2
 70
     1
102
RTVSPropertyOp3
 70
     1
102
RTVSPropertyOp4
 70
     1
102
RTVSPropertyOp5
 70
     1
102
RTVSPropertyOp6
 70
     1
102
RTVSPropertyOp7
 70
     1
102
RTVSPropertyOp8
 70
     1
102
RTVSPropertyOp9
 70
     1
102
RTVSPropertyOp10
 70
     1
102
RTVSPropertyOp11
 70
     1
102
RTVSPropertyOp12
 70
     1
102
RTVSPropertyOp13
 70
     1
102
RTVSPropertyOp14
 70
     1
102
RTVSPropertyOp15
 70
     1
102
RTVSPropertyOp16
 70
     1
102
RTVSPropertyOp17
 70
     1
102
RTVSPropertyOp18
 70
     1
102
RTVSPropertyOp19
 70
     1
102
RTVSPropertyOp20
 70
     1
102
RTVSPropertyOp21
 70
     1
102
RTVSPropertyOp22
 70
     1
102
RTVSPropertyOp23
 70
     1
102
RTVSPropertyOp24
 70
     1
102
RTVSPropertyOp25
 70
     1
102
RTVSPropertyOp26
 70
     1
102
RTVSPropertyOp27
 70
     1
102
RTVSPropertyOp28
 70
     1
102
RTVSPropertyOp29
 70
     1
102
RTVSPropertyOp30
 70
     1
102
RTVSPropertyOp31
 70
     1
102
RTVSPropertyOp32
 70
     1
102
RTVSPropertyOp33
 70
     1
102
RTVSPropertyOp34
 70
     1
102
RTVSPropertyOp35
 70
     1
102
RTVSPropertyOp36
 70
     1
102
RTVSPropertyOp37
 70
     1
102
RTVSPropertyOp38
 70
     1
102
RTVSPropertyOp39
 70
     1
102
RTVSPropertyOp40
 70
     1
102
RTVSPropertyOp41
 70
     1
102
RTVSPropertyOp42
 70
     1
102
RTVSPropertyOp43
 70
     1
102
RTVSPropertyOp44
 70
     1
102
RTVSPropertyOp45
 70
     1
102
RTVSPropertyOp46
 70
     1
102
RTVSPropertyOp47
 70
     1
102
RTVSPropertyOp48
 70
     1
102
RTVSPropertyOp49
 70
     1
102
RTVSPropertyOp50
 70
     1
102
RTVSPropertyOp51
 70
     0
102
RTVSPropertyOp52
 70
     0
102
RTVSPropertyOp53
 70
     1
102
RTVSPropertyOp54
 70
     1
102
RTVSPropertyOp55
 70
     1
102
RTVSPropertyOp56
 70
     1
102
RTVSPropertyOp57
 70
     1
102
RTVSPost2010Prop28
280
     0
102
RTVSPost2010PropOp28
 70
     1
102
RTVSPost2010Prop29
280
     1
102
RTVSPost2010PropOp29
 70
     1
102
RTVSPost2010Prop30
280
     1
102
RTVSPost2010PropOp30
 70
     1
102
RTVSPost2010Prop31
280
     0
102
RTVSPost2010PropOp31
 70
     1
102
RTVSPost2010Prop32
280
     0
102
RTVSPost2010PropOp32
 70
     1
102
RTVSPost2010Prop33
280
     0
102
RTVSPost2010PropOp33
 70
     1
102
RTVSPost2010Prop34
280
     0
102
RTVSPost2010PropOp34
 70
     1
102
RTVSPost2010Prop35
280
     0
102
RTVSPost2010PropOp35
 70
     1
102
RTVSPost2010Prop36
280
     0
102
RTVSPost2010PropOp36
 70
     1
102
RTVSPost2010Prop37
 90
       50
102
RTVSPost2010PropOp37
 70
     1
102
RTVSPost2010Prop38
140
0.0
102
RTVSPost2010PropOp38
 70
     1
102
RTVSPost2010Prop39
140
1.0
102
RTVSPost2010PropOp39
 70
     1
102
RTVSPost2010Prop40
 90
        0
102
RTVSPost2010PropOp40
 70
     1
102
RTVSPost2010Prop41ColorIndex
 90
       18
102
RTVSPost2010Prop41ColorRGB
 90
        0
102
RTVSPost2010PropOp41
 70
     1
102
RTVSPost2010Prop42
 90
       50
102
RTVSPost2010PropOp42
 70
     1
102
RTVSPost2010Prop43
 90
        3
102
RTVSPost2010PropOp43
 70
     1
102
RTVSPost2010Prop44ColorIndex
 90
        5
102
RTVSPost2010Prop44ColorRGB
 90
      255
102
RTVSPost2010PropOp44
 70
     1
102
RTVSPost2010Prop45
280
     0
102
RTVSPost2010PropOp45
 70
     1
102
RTVSPost2010Prop46
 90
       50
102
RTVSPost2010PropOp46
 70
     1
102
RTVSPost2010Prop47
 90
       50
102
RTVSPost2010PropOp47
 70
     1
102
RTVSPost2010Prop48
 90
       50
102
RTVSPost2010PropOp48
 70
     1
102
RTVSPost2010Prop49
280
     0
102
RTVSPost2010PropOp49
 70
     1
102
RTVSPost2010Prop50
 90
       50
102
RTVSPost2010PropOp50
 70
     1
102
RTVSPost2010Prop51ColorIndex
 90
      256
102
RTVSPost2010Prop51ColorRGB
 90
-16777216
102
RTVSPost2010PropOp51
 70
     0
102
RTVSPost2010Prop52
140
1.0
102
RTVSPost2010PropOp52
 70
     0
102
RTVSPost2010Prop53
 90
        2
102
RTVSPost2010PropOp53
 70
     1
102
RTVSPost2010Prop54
  1
strokes_ogs.tif
102
RTVSPost2010PropOp54
 70
     1
102
RTVSPost2010Prop55
280
     0
102
RTVSPost2010PropOp55
 70
     1
102
RTVSPost2010Prop56
140
1.0
102
RTVSPost2010PropOp56
 70
     1
102
RTVSPost2010Prop57
140
1.0
102
RTVSPost2010PropOp57
 70
     1
  0
XRECORD
  5
328
102
{ACAD_REACTORS
330
327
102
}
330
327
100
AcDbXrecord
280
     1
102
RTVSPropertyOp0
 70
     0
102
RTVSPropertyOp1
 70
     0
102
RTVSPropertyOp2
 70
     0
102
RTVSPropertyOp3
 70
     0
102
RTVSPropertyOp4
 70
     0
102
RTVSPropertyOp5
 70
     0
102
RTVSPropertyOp6
 70
     0
102
RTVSPropertyOp7
 70
     0
102
RTVSPropertyOp8
 70
     0
102
RTVSPropertyOp9
 70
     0
102
RTVSPropertyOp10
 70
     0
102
RTVSPropertyOp11
 70
     0
102
RTVSPropertyOp12
 70
     0
102
RTVSPropertyOp13
 70
     0
102
RTVSPropertyOp14
 70
     2
102
RTVSPropertyOp15
 70
     0
102
RTVSPropertyOp16
 70
     0
102
RTVSPropertyOp17
 70
     0
102
RTVSPropertyOp18
 70
     0
102
RTVSPropertyOp19
 70
     0
102
RTVSPropertyOp20
 70
     0
102
RTVSPropertyOp21
 70
     0
102
RTVSPropertyOp22
 70
     0
102
RTVSPropertyOp23
 70
     0
102
RTVSPropertyOp24
 70
     0
102
RTVSPropertyOp25
 70
     0
102
RTVSPropertyOp26
 70
     0
102
RTVSPropertyOp27
 70
     0
102
RTVSPropertyOp28
 70
     0
102
RTVSPropertyOp29
 70
     0
102
RTVSPropertyOp30
 70
     0
102
RTVSPropertyOp31
 70
     0
102
RTVSPropertyOp32
 70
     0
102
RTVSPropertyOp33
 70
     0
102
RTVSPropertyOp34
 70
     0
102
RTVSPropertyOp35
 70
     0
102
RTVSPropertyOp36
 70
     0
102
RTVSPropertyOp37
 70
     0
102
RTVSPropertyOp38
 70
     0
102
RTVSPropertyOp39
 70
     0
102
RTVSPropertyOp40
 70
     0
102
RTVSPropertyOp41
 70
     0
102
RTVSPropertyOp42
 70
     0
102
RTVSPropertyOp43
 70
     0
102
RTVSPropertyOp44
 70
     0
102
RTVSPropertyOp45
 70
     0
102
RTVSPropertyOp46
 70
     0
102
RTVSPropertyOp47
 70
     0
102
RTVSPropertyOp48
 70
     0
102
RTVSPropertyOp49
 70
     0
102
RTVSPropertyOp50
 70
     0
102
RTVSPropertyOp51
 70
     0
102
RTVSPropertyOp52
 70
     0
102
RTVSPropertyOp53
 70
     0
102
RTVSPropertyOp54
 70
     0
102
RTVSPropertyOp55
 70
     0
102
RTVSPropertyOp56
 70
     0
102
RTVSPropertyOp57
 70
     0
102
RTVSPost2010Prop28
280
     0
102
RTVSPost2010PropOp28
 70
     0
102
RTVSPost2010Prop29
280
     1
102
RTVSPost2010PropOp29
 70
     0
102
RTVSPost2010Prop30
280
     1
102
RTVSPost2010PropOp30
 70
     0
102
RTVSPost2010Prop31
280
     0
102
RTVSPost2010PropOp31
 70
     0
102
RTVSPost2010Prop32
280
     0
102
RTVSPost2010PropOp32
 70
     0
102
RTVSPost2010Prop33
280
     0
102
RTVSPost2010PropOp33
 70
     0
102
RTVSPost2010Prop34
280
     0
102
RTVSPost2010PropOp34
 70
     0
102
RTVSPost2010Prop35
280
     0
102
RTVSPost2010PropOp35
 70
     0
102
RTVSPost2010Prop36
280
     0
102
RTVSPost2010PropOp36
 70
     0
102
RTVSPost2010Prop37
 90
       50
102
RTVSPost2010PropOp37
 70
     0
102
RTVSPost2010Prop38
140
0.0
102
RTVSPost2010PropOp38
 70
     0
102
RTVSPost2010Prop39
140
1.0
102
RTVSPost2010PropOp39
 70
     0
102
RTVSPost2010Prop40
 90
        0
102
RTVSPost2010PropOp40
 70
     0
102
RTVSPost2010Prop41ColorIndex
 90
       18
102
RTVSPost2010Prop41ColorRGB
 90
        0
102
RTVSPost2010PropOp41
 70
     0
102
RTVSPost2010Prop42
 90
       50
102
RTVSPost2010PropOp42
 70
     0
102
RTVSPost2010Prop43
 90
        3
102
RTVSPost2010PropOp43
 70
     0
102
RTVSPost2010Prop44ColorIndex
 90
        5
102
RTVSPost2010Prop44ColorRGB
 90
      255
102
RTVSPost2010PropOp44
 70
     0
102
RTVSPost2010Prop45
280
     0
102
RTVSPost2010PropOp45
 70
     0
102
RTVSPost2010Prop46
 90
       50
102
RTVSPost2010PropOp46
 70
     0
102
RTVSPost2010Prop47
 90
       50
102
RTVSPost2010PropOp47
 70
     0
102
RTVSPost2010Prop48
 90
       50
102
RTVSPost2010PropOp48
 70
     0
102
RTVSPost2010Prop49
280
     0
102
RTVSPost2010PropOp49
 70
     0
102
RTVSPost2010Prop50
 90
       50
102
RTVSPost2010PropOp50
 70
     0
102
RTVSPost2010Prop51ColorIndex
 90
      256
102
RTVSPost2010Prop51ColorRGB
 90
-16777216
102
RTVSPost2010PropOp51
 70
     0
102
RTVSPost2010Prop52
140
1.0
102
RTVSPost2010PropOp52
 70
     0
102
RTVSPost2010Prop53
 90
        2
102
RTVSPost2010PropOp53
 70
     0
102
RTVSPost2010Prop54
  1
strokes_ogs.tif
102
RTVSPost2010PropOp54
 70
     0
102
RTVSPost2010Prop55
280
     0
102
RTVSPost2010PropOp55
 70
     0
102
RTVSPost2010Prop56
140
1.0
102
RTVSPost2010PropOp56
 70
     0
102
RTVSPost2010Prop57
140
1.0
102
RTVSPost2010PropOp57
 70
     0
  0
XRECORD
  5
322
102
{ACAD_REACTORS
330
321
102
}
330
321
100
AcDbXrecord
280
     1
102
RTVSPropertyOp0
 70
     1
102
RTVSPropertyOp1
 70
     1
102
RTVSPropertyOp2
 70
     1
102
RTVSPropertyOp3
 70
     1
102
RTVSPropertyOp4
 70
     1
102
RTVSPropertyOp5
 70
     1
102
RTVSPropertyOp6
 70
     1
102
RTVSPropertyOp7
 70
     1
102
RTVSPropertyOp8
 70
     1
102
RTVSPropertyOp9
 70
     1
102
RTVSPropertyOp10
 70
     1
102
RTVSPropertyOp11
 70
     1
102
RTVSPropertyOp12
 70
     1
102
RTVSPropertyOp13
 70
     1
102
RTVSPropertyOp14
 70
     1
102
RTVSPropertyOp15
 70
     1
102
RTVSPropertyOp16
 70
     1
102
RTVSPropertyOp17
 70
     1
102
RTVSPropertyOp18
 70
     1
102
RTVSPropertyOp19
 70
     1
102
RTVSPropertyOp20
 70
     1
102
RTVSPropertyOp21
 70
     1
102
RTVSPropertyOp22
 70
     1
102
RTVSPropertyOp23
 70
     1
102
RTVSPropertyOp24
 70
     1
102
RTVSPropertyOp25
 70
     1
102
RTVSPropertyOp26
 70
     1
102
RTVSPropertyOp27
 70
     1
102
RTVSPropertyOp28
 70
     1
102
RTVSPropertyOp29
 70
     1
102
RTVSPropertyOp30
 70
     1
102
RTVSPropertyOp31
 70
     1
102
RTVSPropertyOp32
 70
     1
102
RTVSPropertyOp33
 70
     1
102
RTVSPropertyOp34
 70
     1
102
RTVSPropertyOp35
 70
     1
102
RTVSPropertyOp36
 70
     1
102
RTVSPropertyOp37
 70
     1
102
RTVSPropertyOp38
 70
     1
102
RTVSPropertyOp39
 70
     1
102
RTVSPropertyOp40
 70
     1
102
RTVSPropertyOp41
 70
     1
102
RTVSPropertyOp42
 70
     1
102
RTVSPropertyOp43
 70
     1
102
RTVSPropertyOp44
 70
     1
102
RTVSPropertyOp45
 70
     1
102
RTVSPropertyOp46
 70
     1
102
RTVSPropertyOp47
 70
     1
102
RTVSPropertyOp48
 70
     1
102
RTVSPropertyOp49
 70
     1
102
RTVSPropertyOp50
 70
     1
102
RTVSPropertyOp51
 70
     0
102
RTVSPropertyOp52
 70
     0
102
RTVSPropertyOp53
 70
     1
102
RTVSPropertyOp54
 70
     1
102
RTVSPropertyOp55
 70
     1
102
RTVSPropertyOp56
 70
     1
102
RTVSPropertyOp57
 70
     1
102
RTVSPost2010Prop28
280
     0
102
RTVSPost2010PropOp28
 70
     1
102
RTVSPost2010Prop29
280
     1
102
RTVSPost2010PropOp29
 70
     1
102
RTVSPost2010Prop30
280
     1
102
RTVSPost2010PropOp30
 70
     1
102
RTVSPost2010Prop31
280
     0
102
RTVSPost2010PropOp31
 70
     1
102
RTVSPost2010Prop32
280
     0
102
RTVSPost2010PropOp32
 70
     1
102
RTVSPost2010Prop33
280
     0
102
RTVSPost2010PropOp33
 70
     1
102
RTVSPost2010Prop34
280
     0
102
RTVSPost2010PropOp34
 70
     1
102
RTVSPost2010Prop35
280
     0
102
RTVSPost2010PropOp35
 70
     1
102
RTVSPost2010Prop36
280
     0
102
RTVSPost2010PropOp36
 70
     1
102
RTVSPost2010Prop37
 90
       50
102
RTVSPost2010PropOp37
 70
     1
102
RTVSPost2010Prop38
140
0.0
102
RTVSPost2010PropOp38
 70
     1
102
RTVSPost2010Prop39
140
1.0
102
RTVSPost2010PropOp39
 70
     1
102
RTVSPost2010Prop40
 90
        0
102
RTVSPost2010PropOp40
 70
     1
102
RTVSPost2010Prop41ColorIndex
 90
       18
102
RTVSPost2010Prop41ColorRGB
 90
        0
102
RTVSPost2010PropOp41
 70
     1
102
RTVSPost2010Prop42
 90
       50
102
RTVSPost2010PropOp42
 70
     1
102
RTVSPost2010Prop43
 90
        3
102
RTVSPost2010PropOp43
 70
     1
102
RTVSPost2010Prop44ColorIndex
 90
        5
102
RTVSPost2010Prop44ColorRGB
 90
      255
102
RTVSPost2010PropOp44
 70
     1
102
RTVSPost2010Prop45
280
     0
102
RTVSPost2010PropOp45
 70
     1
102
RTVSPost2010Prop46
 90
       50
102
RTVSPost2010PropOp46
 70
     1
102
RTVSPost2010Prop47
 90
       50
102
RTVSPost2010PropOp47
 70
     1
102
RTVSPost2010Prop48
 90
       50
102
RTVSPost2010PropOp48
 70
     1
102
RTVSPost2010Prop49
280
     0
102
RTVSPost2010PropOp49
 70
     1
102
RTVSPost2010Prop50
 90
       50
102
RTVSPost2010PropOp50
 70
     1
102
RTVSPost2010Prop51ColorIndex
 90
      256
102
RTVSPost2010Prop51ColorRGB
 90
-16777216
102
RTVSPost2010PropOp51
 70
     0
102
RTVSPost2010Prop52
140
1.0
102
RTVSPost2010PropOp52
 70
     0
102
RTVSPost2010Prop53
 90
        2
102
RTVSPost2010PropOp53
 70
     1
102
RTVSPost2010Prop54
  1
strokes_ogs.tif
102
RTVSPost2010PropOp54
 70
     1
102
RTVSPost2010Prop55
280
     0
102
RTVSPost2010PropOp55
 70
     1
102
RTVSPost2010Prop56
140
1.0
102
RTVSPost2010PropOp56
 70
     1
102
RTVSPost2010Prop57
140
1.0
102
RTVSPost2010PropOp57
 70
     1
  0
XRECORD
  5
32A
102
{ACAD_REACTORS
330
329
102
}
330
329
100
AcDbXrecord
280
     1
102
RTVSPropertyOp0
 70
     0
102
RTVSPropertyOp1
 70
     0
102
RTVSPropertyOp2
 70
     0
102
RTVSPropertyOp3
 70
     0
102
RTVSPropertyOp4
 70
     0
102
RTVSPropertyOp5
 70
     0
102
RTVSPropertyOp6
 70
     0
102
RTVSPropertyOp7
 70
     0
102
RTVSPropertyOp8
 70
     0
102
RTVSPropertyOp9
 70
     0
102
RTVSPropertyOp10
 70
     0
102
RTVSPropertyOp11
 70
     0
102
RTVSPropertyOp12
 70
     0
102
RTVSPropertyOp13
 70
     0
102
RTVSPropertyOp14
 70
     2
102
RTVSPropertyOp15
 70
     0
102
RTVSPropertyOp16
 70
     0
102
RTVSPropertyOp17
 70
     0
102
RTVSPropertyOp18
 70
     0
102
RTVSPropertyOp19
 70
     0
102
RTVSPropertyOp20
 70
     0
102
RTVSPropertyOp21
 70
     0
102
RTVSPropertyOp22
 70
     0
102
RTVSPropertyOp23
 70
     0
102
RTVSPropertyOp24
 70
     0
102
RTVSPropertyOp25
 70
     0
102
RTVSPropertyOp26
 70
     0
102
RTVSPropertyOp27
 70
     0
102
RTVSPropertyOp28
 70
     0
102
RTVSPropertyOp29
 70
     0
102
RTVSPropertyOp30
 70
     0
102
RTVSPropertyOp31
 70
     0
102
RTVSPropertyOp32
 70
     0
102
RTVSPropertyOp33
 70
     0
102
RTVSPropertyOp34
 70
     0
102
RTVSPropertyOp35
 70
     0
102
RTVSPropertyOp36
 70
     0
102
RTVSPropertyOp37
 70
     0
102
RTVSPropertyOp38
 70
     0
102
RTVSPropertyOp39
 70
     0
102
RTVSPropertyOp40
 70
     0
102
RTVSPropertyOp41
 70
     0
102
RTVSPropertyOp42
 70
     0
102
RTVSPropertyOp43
 70
     0
102
RTVSPropertyOp44
 70
     0
102
RTVSPropertyOp45
 70
     0
102
RTVSPropertyOp46
 70
     0
102
RTVSPropertyOp47
 70
     0
102
RTVSPropertyOp48
 70
     0
102
RTVSPropertyOp49
 70
     0
102
RTVSPropertyOp50
 70
     0
102
RTVSPropertyOp51
 70
     0
102
RTVSPropertyOp52
 70
     0
102
RTVSPropertyOp53
 70
     0
102
RTVSPropertyOp54
 70
     0
102
RTVSPropertyOp55
 70
     0
102
RTVSPropertyOp56
 70
     0
102
RTVSPropertyOp57
 70
     0
102
RTVSPost2010Prop28
280
     0
102
RTVSPost2010PropOp28
 70
     0
102
RTVSPost2010Prop29
280
     1
102
RTVSPost2010PropOp29
 70
     0
102
RTVSPost2010Prop30
280
     1
102
RTVSPost2010PropOp30
 70
     0
102
RTVSPost2010Prop31
280
     0
102
RTVSPost2010PropOp31
 70
     0
102
RTVSPost2010Prop32
280
     0
102
RTVSPost2010PropOp32
 70
     0
102
RTVSPost2010Prop33
280
     0
102
RTVSPost2010PropOp33
 70
     0
102
RTVSPost2010Prop34
280
     0
102
RTVSPost2010PropOp34
 70
     0
102
RTVSPost2010Prop35
280
     0
102
RTVSPost2010PropOp35
 70
     0
102
RTVSPost2010Prop36
280
     0
102
RTVSPost2010PropOp36
 70
     0
102
RTVSPost2010Prop37
 90
       50
102
RTVSPost2010PropOp37
 70
     0
102
RTVSPost2010Prop38
140
0.0
102
RTVSPost2010PropOp38
 70
     0
102
RTVSPost2010Prop39
140
1.0
102
RTVSPost2010PropOp39
 70
     0
102
RTVSPost2010Prop40
 90
        0
102
RTVSPost2010PropOp40
 70
     0
102
RTVSPost2010Prop41ColorIndex
 90
       18
102
RTVSPost2010Prop41ColorRGB
 90
        0
102
RTVSPost2010PropOp41
 70
     0
102
RTVSPost2010Prop42
 90
       50
102
RTVSPost2010PropOp42
 70
     0
102
RTVSPost2010Prop43
 90
        3
102
RTVSPost2010PropOp43
 70
     0
102
RTVSPost2010Prop44ColorIndex
 90
        5
102
RTVSPost2010Prop44ColorRGB
 90
      255
102
RTVSPost2010PropOp44
 70
     0
102
RTVSPost2010Prop45
280
     0
102
RTVSPost2010PropOp45
 70
     0
102
RTVSPost2010Prop46
 90
       50
102
RTVSPost2010PropOp46
 70
     0
102
RTVSPost2010Prop47
 90
       50
102
RTVSPost2010PropOp47
 70
     0
102
RTVSPost2010Prop48
 90
       50
102
RTVSPost2010PropOp48
 70
     0
102
RTVSPost2010Prop49
280
     0
102
RTVSPost2010PropOp49
 70
     0
102
RTVSPost2010Prop50
 90
       50
102
RTVSPost2010PropOp50
 70
     0
102
RTVSPost2010Prop51ColorIndex
 90
      256
102
RTVSPost2010Prop51ColorRGB
 90
-16777216
102
RTVSPost2010PropOp51
 70
     0
102
RTVSPost2010Prop52
140
1.0
102
RTVSPost2010PropOp52
 70
     0
102
RTVSPost2010Prop53
 90
        2
102
RTVSPost2010PropOp53
 70
     0
102
RTVSPost2010Prop54
  1
strokes_ogs.tif
102
RTVSPost2010PropOp54
 70
     0
102
RTVSPost2010Prop55
280
     0
102
RTVSPost2010PropOp55
 70
     0
102
RTVSPost2010Prop56
140
1.0
102
RTVSPost2010PropOp56
 70
     0
102
RTVSPost2010Prop57
140
1.0
102
RTVSPost2010PropOp57
 70
     0
  0
XRECORD
  5
318
102
{ACAD_REACTORS
330
317
102
}
330
317
100
AcDbXrecord
280
     1
102
RTVSPropertyOp0
 70
     1
102
RTVSPropertyOp1
 70
     1
102
RTVSPropertyOp2
 70
     1
102
RTVSPropertyOp3
 70
     1
102
RTVSPropertyOp4
 70
     1
102
RTVSPropertyOp5
 70
     1
102
RTVSPropertyOp6
 70
     1
102
RTVSPropertyOp7
 70
     1
102
RTVSPropertyOp8
 70
     1
102
RTVSPropertyOp9
 70
     1
102
RTVSPropertyOp10
 70
     1
102
RTVSPropertyOp11
 70
     1
102
RTVSPropertyOp12
 70
     1
102
RTVSPropertyOp13
 70
     1
102
RTVSPropertyOp14
 70
     1
102
RTVSPropertyOp15
 70
     1
102
RTVSPropertyOp16
 70
     1
102
RTVSPropertyOp17
 70
     1
102
RTVSPropertyOp18
 70
     1
102
RTVSPropertyOp19
 70
     1
102
RTVSPropertyOp20
 70
     1
102
RTVSPropertyOp21
 70
     1
102
RTVSPropertyOp22
 70
     1
102
RTVSPropertyOp23
 70
     1
102
RTVSPropertyOp24
 70
     1
102
RTVSPropertyOp25
 70
     1
102
RTVSPropertyOp26
 70
     1
102
RTVSPropertyOp27
 70
     1
102
RTVSPropertyOp28
 70
     1
102
RTVSPropertyOp29
 70
     1
102
RTVSPropertyOp30
 70
     1
102
RTVSPropertyOp31
 70
     1
102
RTVSPropertyOp32
 70
     1
102
RTVSPropertyOp33
 70
     1
102
RTVSPropertyOp34
 70
     1
102
RTVSPropertyOp35
 70
     1
102
RTVSPropertyOp36
 70
     1
102
RTVSPropertyOp37
 70
     1
102
RTVSPropertyOp38
 70
     1
102
RTVSPropertyOp39
 70
     1
102
RTVSPropertyOp40
 70
     1
102
RTVSPropertyOp41
 70
     1
102
RTVSPropertyOp42
 70
     1
102
RTVSPropertyOp43
 70
     1
102
RTVSPropertyOp44
 70
     1
102
RTVSPropertyOp45
 70
     1
102
RTVSPropertyOp46
 70
     1
102
RTVSPropertyOp47
 70
     1
102
RTVSPropertyOp48
 70
     1
102
RTVSPropertyOp49
 70
     1
102
RTVSPropertyOp50
 70
     1
102
RTVSPropertyOp51
 70
     0
102
RTVSPropertyOp52
 70
     0
102
RTVSPropertyOp53
 70
     1
102
RTVSPropertyOp54
 70
     1
102
RTVSPropertyOp55
 70
     1
102
RTVSPropertyOp56
 70
     1
102
RTVSPropertyOp57
 70
     1
102
RTVSPost2010Prop28
280
     0
102
RTVSPost2010PropOp28
 70
     1
102
RTVSPost2010Prop29
280
     1
102
RTVSPost2010PropOp29
 70
     1
102
RTVSPost2010Prop30
280
     1
102
RTVSPost2010PropOp30
 70
     1
102
RTVSPost2010Prop31
280
     0
102
RTVSPost2010PropOp31
 70
     1
102
RTVSPost2010Prop32
280
     0
102
RTVSPost2010PropOp32
 70
     1
102
RTVSPost2010Prop33
280
     0
102
RTVSPost2010PropOp33
 70
     1
102
RTVSPost2010Prop34
280
     0
102
RTVSPost2010PropOp34
 70
     1
102
RTVSPost2010Prop35
280
     0
102
RTVSPost2010PropOp35
 70
     1
102
RTVSPost2010Prop36
280
     0
102
RTVSPost2010PropOp36
 70
     1
102
RTVSPost2010Prop37
 90
       50
102
RTVSPost2010PropOp37
 70
     1
102
RTVSPost2010Prop38
140
0.0
102
RTVSPost2010PropOp38
 70
     1
102
RTVSPost2010Prop39
140
1.0
102
RTVSPost2010PropOp39
 70
     1
102
RTVSPost2010Prop40
 90
        0
102
RTVSPost2010PropOp40
 70
     1
102
RTVSPost2010Prop41ColorIndex
 90
       18
102
RTVSPost2010Prop41ColorRGB
 90
        0
102
RTVSPost2010PropOp41
 70
     1
102
RTVSPost2010Prop42
 90
       50
102
RTVSPost2010PropOp42
 70
     1
102
RTVSPost2010Prop43
 90
        3
102
RTVSPost2010PropOp43
 70
     1
102
RTVSPost2010Prop44ColorIndex
 90
        5
102
RTVSPost2010Prop44ColorRGB
 90
      255
102
RTVSPost2010PropOp44
 70
     1
102
RTVSPost2010Prop45
280
     0
102
RTVSPost2010PropOp45
 70
     1
102
RTVSPost2010Prop46
 90
       50
102
RTVSPost2010PropOp46
 70
     1
102
RTVSPost2010Prop47
 90
       50
102
RTVSPost2010PropOp47
 70
     1
102
RTVSPost2010Prop48
 90
       50
102
RTVSPost2010PropOp48
 70
     1
102
RTVSPost2010Prop49
280
     0
102
RTVSPost2010PropOp49
 70
     1
102
RTVSPost2010Prop50
 90
       50
102
RTVSPost2010PropOp50
 70
     1
102
RTVSPost2010Prop51ColorIndex
 90
      256
102
RTVSPost2010Prop51ColorRGB
 90
-16777216
102
RTVSPost2010PropOp51
 70
     0
102
RTVSPost2010Prop52
140
1.0
102
RTVSPost2010PropOp52
 70
     0
102
RTVSPost2010Prop53
 90
        2
102
RTVSPost2010PropOp53
 70
     1
102
RTVSPost2010Prop54
  1
strokes_ogs.tif
102
RTVSPost2010PropOp54
 70
     1
102
RTVSPost2010Prop55
280
     0
102
RTVSPost2010PropOp55
 70
     1
102
RTVSPost2010Prop56
140
1.0
102
RTVSPost2010PropOp56
 70
     1
102
RTVSPost2010Prop57
140
1.0
102
RTVSPost2010PropOp57
 70
     1
  0
XRECORD
  5
336
102
{ACAD_REACTORS
330
335
102
}
330
335
100
AcDbXrecord
280
     1
102
RTVSPropertyOp0
 70
     1
102
RTVSPropertyOp1
 70
     1
102
RTVSPropertyOp2
 70
     1
102
RTVSPropertyOp3
 70
     1
102
RTVSPropertyOp4
 70
     1
102
RTVSPropertyOp5
 70
     1
102
RTVSPropertyOp6
 70
     1
102
RTVSPropertyOp7
 70
     1
102
RTVSPropertyOp8
 70
     1
102
RTVSPropertyOp9
 70
     1
102
RTVSPropertyOp10
 70
     1
102
RTVSPropertyOp11
 70
     1
102
RTVSPropertyOp12
 70
     1
102
RTVSPropertyOp13
 70
     1
102
RTVSPropertyOp14
 70
     1
102
RTVSPropertyOp15
 70
     1
102
RTVSPropertyOp16
 70
     1
102
RTVSPropertyOp17
 70
     1
102
RTVSPropertyOp18
 70
     1
102
RTVSPropertyOp19
 70
     1
102
RTVSPropertyOp20
 70
     1
102
RTVSPropertyOp21
 70
     1
102
RTVSPropertyOp22
 70
     1
102
RTVSPropertyOp23
 70
     1
102
RTVSPropertyOp24
 70
     1
102
RTVSPropertyOp25
 70
     1
102
RTVSPropertyOp26
 70
     1
102
RTVSPropertyOp27
 70
     1
102
RTVSPropertyOp28
 70
     1
102
RTVSPropertyOp29
 70
     1
102
RTVSPropertyOp30
 70
     1
102
RTVSPropertyOp31
 70
     1
102
RTVSPropertyOp32
 70
     1
102
RTVSPropertyOp33
 70
     1
102
RTVSPropertyOp34
 70
     1
102
RTVSPropertyOp35
 70
     1
102
RTVSPropertyOp36
 70
     1
102
RTVSPropertyOp37
 70
     1
102
RTVSPropertyOp38
 70
     1
102
RTVSPropertyOp39
 70
     1
102
RTVSPropertyOp40
 70
     1
102
RTVSPropertyOp41
 70
     1
102
RTVSPropertyOp42
 70
     1
102
RTVSPropertyOp43
 70
     1
102
RTVSPropertyOp44
 70
     1
102
RTVSPropertyOp45
 70
     1
102
RTVSPropertyOp46
 70
     1
102
RTVSPropertyOp47
 70
     1
102
RTVSPropertyOp48
 70
     1
102
RTVSPropertyOp49
 70
     1
102
RTVSPropertyOp50
 70
     1
102
RTVSPropertyOp51
 70
     0
102
RTVSPropertyOp52
 70
     0
102
RTVSPropertyOp53
 70
     1
102
RTVSPropertyOp54
 70
     1
102
RTVSPropertyOp55
 70
     1
102
RTVSPropertyOp56
 70
     1
102
RTVSPropertyOp57
 70
     1
102
RTVSPost2010Prop28
280
     0
102
RTVSPost2010PropOp28
 70
     1
102
RTVSPost2010Prop29
280
     1
102
RTVSPost2010PropOp29
 70
     1
102
RTVSPost2010Prop30
280
     1
102
RTVSPost2010PropOp30
 70
     1
102
RTVSPost2010Prop31
280
     0
102
RTVSPost2010PropOp31
 70
     1
102
RTVSPost2010Prop32
280
     0
102
RTVSPost2010PropOp32
 70
     1
102
RTVSPost2010Prop33
280
     0
102
RTVSPost2010PropOp33
 70
     1
102
RTVSPost2010Prop34
280
     0
102
RTVSPost2010PropOp34
 70
     1
102
RTVSPost2010Prop35
280
     0
102
RTVSPost2010PropOp35
 70
     1
102
RTVSPost2010Prop36
280
     0
102
RTVSPost2010PropOp36
 70
     1
102
RTVSPost2010Prop37
 90
       50
102
RTVSPost2010PropOp37
 70
     1
102
RTVSPost2010Prop38
140
0.0
102
RTVSPost2010PropOp38
 70
     1
102
RTVSPost2010Prop39
140
1.0
102
RTVSPost2010PropOp39
 70
     1
102
RTVSPost2010Prop40
 90
        0
102
RTVSPost2010PropOp40
 70
     1
102
RTVSPost2010Prop41ColorIndex
 90
       18
102
RTVSPost2010Prop41ColorRGB
 90
        0
102
RTVSPost2010PropOp41
 70
     1
102
RTVSPost2010Prop42
 90
       50
102
RTVSPost2010PropOp42
 70
     1
102
RTVSPost2010Prop43
 90
        3
102
RTVSPost2010PropOp43
 70
     1
102
RTVSPost2010Prop44ColorIndex
 90
        5
102
RTVSPost2010Prop44ColorRGB
 90
      255
102
RTVSPost2010PropOp44
 70
     1
102
RTVSPost2010Prop45
280
     0
102
RTVSPost2010PropOp45
 70
     1
102
RTVSPost2010Prop46
 90
       50
102
RTVSPost2010PropOp46
 70
     1
102
RTVSPost2010Prop47
 90
       50
102
RTVSPost2010PropOp47
 70
     1
102
RTVSPost2010Prop48
 90
       50
102
RTVSPost2010PropOp48
 70
     1
102
RTVSPost2010Prop49
280
     0
102
RTVSPost2010PropOp49
 70
     1
102
RTVSPost2010Prop50
 90
       50
102
RTVSPost2010PropOp50
 70
     1
102
RTVSPost2010Prop51ColorIndex
 90
      256
102
RTVSPost2010Prop51ColorRGB
 90
-16777216
102
RTVSPost2010PropOp51
 70
     0
102
RTVSPost2010Prop52
140
1.0
102
RTVSPost2010PropOp52
 70
     0
102
RTVSPost2010Prop53
 90
        2
102
RTVSPost2010PropOp53
 70
     1
102
RTVSPost2010Prop54
  1
strokes_ogs.tif
102
RTVSPost2010PropOp54
 70
     1
102
RTVSPost2010Prop55
280
     0
102
RTVSPost2010PropOp55
 70
     1
102
RTVSPost2010Prop56
140
1.0
102
RTVSPost2010PropOp56
 70
     1
102
RTVSPost2010Prop57
140
1.0
102
RTVSPost2010PropOp57
 70
     1
  0
XRECORD
  5
334
102
{ACAD_REACTORS
330
333
102
}
330
333
100
AcDbXrecord
280
     1
102
RTVSPropertyOp0
 70
     1
102
RTVSPropertyOp1
 70
     1
102
RTVSPropertyOp2
 70
     1
102
RTVSPropertyOp3
 70
     1
102
RTVSPropertyOp4
 70
     1
102
RTVSPropertyOp5
 70
     1
102
RTVSPropertyOp6
 70
     1
102
RTVSPropertyOp7
 70
     1
102
RTVSPropertyOp8
 70
     1
102
RTVSPropertyOp9
 70
     1
102
RTVSPropertyOp10
 70
     1
102
RTVSPropertyOp11
 70
     1
102
RTVSPropertyOp12
 70
     1
102
RTVSPropertyOp13
 70
     1
102
RTVSPropertyOp14
 70
     1
102
RTVSPropertyOp15
 70
     1
102
RTVSPropertyOp16
 70
     1
102
RTVSPropertyOp17
 70
     1
102
RTVSPropertyOp18
 70
     1
102
RTVSPropertyOp19
 70
     1
102
RTVSPropertyOp20
 70
     1
102
RTVSPropertyOp21
 70
     1
102
RTVSPropertyOp22
 70
     1
102
RTVSPropertyOp23
 70
     1
102
RTVSPropertyOp24
 70
     1
102
RTVSPropertyOp25
 70
     1
102
RTVSPropertyOp26
 70
     1
102
RTVSPropertyOp27
 70
     1
102
RTVSPropertyOp28
 70
     1
102
RTVSPropertyOp29
 70
     1
102
RTVSPropertyOp30
 70
     1
102
RTVSPropertyOp31
 70
     1
102
RTVSPropertyOp32
 70
     1
102
RTVSPropertyOp33
 70
     1
102
RTVSPropertyOp34
 70
     1
102
RTVSPropertyOp35
 70
     1
102
RTVSPropertyOp36
 70
     1
102
RTVSPropertyOp37
 70
     1
102
RTVSPropertyOp38
 70
     1
102
RTVSPropertyOp39
 70
     1
102
RTVSPropertyOp40
 70
     1
102
RTVSPropertyOp41
 70
     1
102
RTVSPropertyOp42
 70
     1
102
RTVSPropertyOp43
 70
     1
102
RTVSPropertyOp44
 70
     1
102
RTVSPropertyOp45
 70
     1
102
RTVSPropertyOp46
 70
     1
102
RTVSPropertyOp47
 70
     1
102
RTVSPropertyOp48
 70
     1
102
RTVSPropertyOp49
 70
     1
102
RTVSPropertyOp50
 70
     1
102
RTVSPropertyOp51
 70
     0
102
RTVSPropertyOp52
 70
     0
102
RTVSPropertyOp53
 70
     1
102
RTVSPropertyOp54
 70
     1
102
RTVSPropertyOp55
 70
     1
102
RTVSPropertyOp56
 70
     1
102
RTVSPropertyOp57
 70
     1
102
RTVSPost2010Prop28
280
     0
102
RTVSPost2010PropOp28
 70
     1
102
RTVSPost2010Prop29
280
     1
102
RTVSPost2010PropOp29
 70
     1
102
RTVSPost2010Prop30
280
     1
102
RTVSPost2010PropOp30
 70
     1
102
RTVSPost2010Prop31
280
     0
102
RTVSPost2010PropOp31
 70
     1
102
RTVSPost2010Prop32
280
     0
102
RTVSPost2010PropOp32
 70
     1
102
RTVSPost2010Prop33
280
     0
102
RTVSPost2010PropOp33
 70
     1
102
RTVSPost2010Prop34
280
     0
102
RTVSPost2010PropOp34
 70
     1
102
RTVSPost2010Prop35
280
     0
102
RTVSPost2010PropOp35
 70
     1
102
RTVSPost2010Prop36
280
     0
102
RTVSPost2010PropOp36
 70
     1
102
RTVSPost2010Prop37
 90
       50
102
RTVSPost2010PropOp37
 70
     1
102
RTVSPost2010Prop38
140
0.0
102
RTVSPost2010PropOp38
 70
     1
102
RTVSPost2010Prop39
140
1.0
102
RTVSPost2010PropOp39
 70
     1
102
RTVSPost2010Prop40
 90
        0
102
RTVSPost2010PropOp40
 70
     1
102
RTVSPost2010Prop41ColorIndex
 90
       18
102
RTVSPost2010Prop41ColorRGB
 90
        0
102
RTVSPost2010PropOp41
 70
     1
102
RTVSPost2010Prop42
 90
       50
102
RTVSPost2010PropOp42
 70
     1
102
RTVSPost2010Prop43
 90
        3
102
RTVSPost2010PropOp43
 70
     1
102
RTVSPost2010Prop44ColorIndex
 90
        5
102
RTVSPost2010Prop44ColorRGB
 90
      255
102
RTVSPost2010PropOp44
 70
     1
102
RTVSPost2010Prop45
280
     0
102
RTVSPost2010PropOp45
 70
     1
102
RTVSPost2010Prop46
 90
       50
102
RTVSPost2010PropOp46
 70
     1
102
RTVSPost2010Prop47
 90
       50
102
RTVSPost2010PropOp47
 70
     1
102
RTVSPost2010Prop48
 90
       50
102
RTVSPost2010PropOp48
 70
     1
102
RTVSPost2010Prop49
280
     0
102
RTVSPost2010PropOp49
 70
     1
102
RTVSPost2010Prop50
 90
       50
102
RTVSPost2010PropOp50
 70
     1
102
RTVSPost2010Prop51ColorIndex
 90
      256
102
RTVSPost2010Prop51ColorRGB
 90
-16777216
102
RTVSPost2010PropOp51
 70
     0
102
RTVSPost2010Prop52
140
1.0
102
RTVSPost2010PropOp52
 70
     0
102
RTVSPost2010Prop53
 90
        2
102
RTVSPost2010PropOp53
 70
     1
102
RTVSPost2010Prop54
  1
strokes_ogs.tif
102
RTVSPost2010PropOp54
 70
     1
102
RTVSPost2010Prop55
280
     0
102
RTVSPost2010PropOp55
 70
     1
102
RTVSPost2010Prop56
140
1.0
102
RTVSPost2010PropOp56
 70
     1
102
RTVSPost2010Prop57
140
1.0
102
RTVSPost2010PropOp57
 70
     1
  0
XRECORD
  5
32E
102
{ACAD_REACTORS
330
32D
102
}
330
32D
100
AcDbXrecord
280
     1
102
RTVSPropertyOp0
 70
     1
102
RTVSPropertyOp1
 70
     1
102
RTVSPropertyOp2
 70
     1
102
RTVSPropertyOp3
 70
     1
102
RTVSPropertyOp4
 70
     1
102
RTVSPropertyOp5
 70
     1
102
RTVSPropertyOp6
 70
     1
102
RTVSPropertyOp7
 70
     1
102
RTVSPropertyOp8
 70
     1
102
RTVSPropertyOp9
 70
     1
102
RTVSPropertyOp10
 70
     1
102
RTVSPropertyOp11
 70
     1
102
RTVSPropertyOp12
 70
     1
102
RTVSPropertyOp13
 70
     1
102
RTVSPropertyOp14
 70
     1
102
RTVSPropertyOp15
 70
     1
102
RTVSPropertyOp16
 70
     1
102
RTVSPropertyOp17
 70
     1
102
RTVSPropertyOp18
 70
     1
102
RTVSPropertyOp19
 70
     1
102
RTVSPropertyOp20
 70
     1
102
RTVSPropertyOp21
 70
     1
102
RTVSPropertyOp22
 70
     1
102
RTVSPropertyOp23
 70
     1
102
RTVSPropertyOp24
 70
     1
102
RTVSPropertyOp25
 70
     1
102
RTVSPropertyOp26
 70
     1
102
RTVSPropertyOp27
 70
     1
102
RTVSPropertyOp28
 70
     1
102
RTVSPropertyOp29
 70
     1
102
RTVSPropertyOp30
 70
     1
102
RTVSPropertyOp31
 70
     1
102
RTVSPropertyOp32
 70
     1
102
RTVSPropertyOp33
 70
     1
102
RTVSPropertyOp34
 70
     1
102
RTVSPropertyOp35
 70
     1
102
RTVSPropertyOp36
 70
     1
102
RTVSPropertyOp37
 70
     1
102
RTVSPropertyOp38
 70
     1
102
RTVSPropertyOp39
 70
     1
102
RTVSPropertyOp40
 70
     1
102
RTVSPropertyOp41
 70
     1
102
RTVSPropertyOp42
 70
     1
102
RTVSPropertyOp43
 70
     1
102
RTVSPropertyOp44
 70
     1
102
RTVSPropertyOp45
 70
     1
102
RTVSPropertyOp46
 70
     1
102
RTVSPropertyOp47
 70
     1
102
RTVSPropertyOp48
 70
     1
102
RTVSPropertyOp49
 70
     1
102
RTVSPropertyOp50
 70
     1
102
RTVSPropertyOp51
 70
     0
102
RTVSPropertyOp52
 70
     0
102
RTVSPropertyOp53
 70
     1
102
RTVSPropertyOp54
 70
     1
102
RTVSPropertyOp55
 70
     1
102
RTVSPropertyOp56
 70
     1
102
RTVSPropertyOp57
 70
     1
102
RTVSPost2010Prop28
280
     0
102
RTVSPost2010PropOp28
 70
     1
102
RTVSPost2010Prop29
280
     1
102
RTVSPost2010PropOp29
 70
     1
102
RTVSPost2010Prop30
280
     1
102
RTVSPost2010PropOp30
 70
     1
102
RTVSPost2010Prop31
280
     0
102
RTVSPost2010PropOp31
 70
     1
102
RTVSPost2010Prop32
280
     0
102
RTVSPost2010PropOp32
 70
     1
102
RTVSPost2010Prop33
280
     0
102
RTVSPost2010PropOp33
 70
     1
102
RTVSPost2010Prop34
280
     0
102
RTVSPost2010PropOp34
 70
     1
102
RTVSPost2010Prop35
280
     0
102
RTVSPost2010PropOp35
 70
     1
102
RTVSPost2010Prop36
280
     0
102
RTVSPost2010PropOp36
 70
     1
102
RTVSPost2010Prop37
 90
       50
102
RTVSPost2010PropOp37
 70
     1
102
RTVSPost2010Prop38
140
0.0
102
RTVSPost2010PropOp38
 70
     1
102
RTVSPost2010Prop39
140
1.0
102
RTVSPost2010PropOp39
 70
     1
102
RTVSPost2010Prop40
 90
        0
102
RTVSPost2010PropOp40
 70
     1
102
RTVSPost2010Prop41ColorIndex
 90
       18
102
RTVSPost2010Prop41ColorRGB
 90
        0
102
RTVSPost2010PropOp41
 70
     1
102
RTVSPost2010Prop42
 90
       50
102
RTVSPost2010PropOp42
 70
     1
102
RTVSPost2010Prop43
 90
        3
102
RTVSPost2010PropOp43
 70
     1
102
RTVSPost2010Prop44ColorIndex
 90
        5
102
RTVSPost2010Prop44ColorRGB
 90
      255
102
RTVSPost2010PropOp44
 70
     1
102
RTVSPost2010Prop45
280
     0
102
RTVSPost2010PropOp45
 70
     1
102
RTVSPost2010Prop46
 90
       50
102
RTVSPost2010PropOp46
 70
     1
102
RTVSPost2010Prop47
 90
       50
102
RTVSPost2010PropOp47
 70
     1
102
RTVSPost2010Prop48
 90
       50
102
RTVSPost2010PropOp48
 70
     1
102
RTVSPost2010Prop49
280
     0
102
RTVSPost2010PropOp49
 70
     1
102
RTVSPost2010Prop50
 90
       50
102
RTVSPost2010PropOp50
 70
     1
102
RTVSPost2010Prop51ColorIndex
 90
      256
102
RTVSPost2010Prop51ColorRGB
 90
-16777216
102
RTVSPost2010PropOp51
 70
     0
102
RTVSPost2010Prop52
140
1.0
102
RTVSPost2010PropOp52
 70
     0
102
RTVSPost2010Prop53
 90
        2
102
RTVSPost2010PropOp53
 70
     1
102
RTVSPost2010Prop54
  1
strokes_ogs.tif
102
RTVSPost2010PropOp54
 70
     1
102
RTVSPost2010Prop55
280
     0
102
RTVSPost2010PropOp55
 70
     1
102
RTVSPost2010Prop56
140
1.0
102
RTVSPost2010PropOp56
 70
     1
102
RTVSPost2010Prop57
140
1.0
102
RTVSPost2010PropOp57
 70
     1
  0
XRECORD
  5
330
102
{ACAD_REACTORS
330
32F
102
}
330
32F
100
AcDbXrecord
280
     1
102
RTVSPropertyOp0
 70
     1
102
RTVSPropertyOp1
 70
     1
102
RTVSPropertyOp2
 70
     1
102
RTVSPropertyOp3
 70
     1
102
RTVSPropertyOp4
 70
     1
102
RTVSPropertyOp5
 70
     1
102
RTVSPropertyOp6
 70
     1
102
RTVSPropertyOp7
 70
     1
102
RTVSPropertyOp8
 70
     1
102
RTVSPropertyOp9
 70
     1
102
RTVSPropertyOp10
 70
     1
102
RTVSPropertyOp11
 70
     1
102
RTVSPropertyOp12
 70
     1
102
RTVSPropertyOp13
 70
     1
102
RTVSPropertyOp14
 70
     1
102
RTVSPropertyOp15
 70
     1
102
RTVSPropertyOp16
 70
     1
102
RTVSPropertyOp17
 70
     1
102
RTVSPropertyOp18
 70
     1
102
RTVSPropertyOp19
 70
     1
102
RTVSPropertyOp20
 70
     1
102
RTVSPropertyOp21
 70
     1
102
RTVSPropertyOp22
 70
     1
102
RTVSPropertyOp23
 70
     1
102
RTVSPropertyOp24
 70
     1
102
RTVSPropertyOp25
 70
     1
102
RTVSPropertyOp26
 70
     1
102
RTVSPropertyOp27
 70
     1
102
RTVSPropertyOp28
 70
     1
102
RTVSPropertyOp29
 70
     1
102
RTVSPropertyOp30
 70
     1
102
RTVSPropertyOp31
 70
     1
102
RTVSPropertyOp32
 70
     1
102
RTVSPropertyOp33
 70
     1
102
RTVSPropertyOp34
 70
     1
102
RTVSPropertyOp35
 70
     1
102
RTVSPropertyOp36
 70
     1
102
RTVSPropertyOp37
 70
     1
102
RTVSPropertyOp38
 70
     1
102
RTVSPropertyOp39
 70
     1
102
RTVSPropertyOp40
 70
     1
102
RTVSPropertyOp41
 70
     1
102
RTVSPropertyOp42
 70
     1
102
RTVSPropertyOp43
 70
     1
102
RTVSPropertyOp44
 70
     1
102
RTVSPropertyOp45
 70
     1
102
RTVSPropertyOp46
 70
     1
102
RTVSPropertyOp47
 70
     1
102
RTVSPropertyOp48
 70
     1
102
RTVSPropertyOp49
 70
     1
102
RTVSPropertyOp50
 70
     1
102
RTVSPropertyOp51
 70
     0
102
RTVSPropertyOp52
 70
     0
102
RTVSPropertyOp53
 70
     1
102
RTVSPropertyOp54
 70
     1
102
RTVSPropertyOp55
 70
     1
102
RTVSPropertyOp56
 70
     1
102
RTVSPropertyOp57
 70
     1
102
RTVSPost2010Prop28
280
     0
102
RTVSPost2010PropOp28
 70
     1
102
RTVSPost2010Prop29
280
     1
102
RTVSPost2010PropOp29
 70
     1
102
RTVSPost2010Prop30
280
     1
102
RTVSPost2010PropOp30
 70
     1
102
RTVSPost2010Prop31
280
     0
102
RTVSPost2010PropOp31
 70
     1
102
RTVSPost2010Prop32
280
     0
102
RTVSPost2010PropOp32
 70
     1
102
RTVSPost2010Prop33
280
     0
102
RTVSPost2010PropOp33
 70
     1
102
RTVSPost2010Prop34
280
     0
102
RTVSPost2010PropOp34
 70
     1
102
RTVSPost2010Prop35
280
     0
102
RTVSPost2010PropOp35
 70
     1
102
RTVSPost2010Prop36
280
     0
102
RTVSPost2010PropOp36
 70
     1
102
RTVSPost2010Prop37
 90
       50
102
RTVSPost2010PropOp37
 70
     1
102
RTVSPost2010Prop38
140
0.0
102
RTVSPost2010PropOp38
 70
     1
102
RTVSPost2010Prop39
140
1.0
102
RTVSPost2010PropOp39
 70
     1
102
RTVSPost2010Prop40
 90
        0
102
RTVSPost2010PropOp40
 70
     1
102
RTVSPost2010Prop41ColorIndex
 90
       18
102
RTVSPost2010Prop41ColorRGB
 90
        0
102
RTVSPost2010PropOp41
 70
     1
102
RTVSPost2010Prop42
 90
       50
102
RTVSPost2010PropOp42
 70
     1
102
RTVSPost2010Prop43
 90
        3
102
RTVSPost2010PropOp43
 70
     1
102
RTVSPost2010Prop44ColorIndex
 90
        5
102
RTVSPost2010Prop44ColorRGB
 90
      255
102
RTVSPost2010PropOp44
 70
     1
102
RTVSPost2010Prop45
280
     0
102
RTVSPost2010PropOp45
 70
     1
102
RTVSPost2010Prop46
 90
       50
102
RTVSPost2010PropOp46
 70
     1
102
RTVSPost2010Prop47
 90
       50
102
RTVSPost2010PropOp47
 70
     1
102
RTVSPost2010Prop48
 90
       50
102
RTVSPost2010PropOp48
 70
     1
102
RTVSPost2010Prop49
280
     0
102
RTVSPost2010PropOp49
 70
     1
102
RTVSPost2010Prop50
 90
       50
102
RTVSPost2010PropOp50
 70
     1
102
RTVSPost2010Prop51ColorIndex
 90
      256
102
RTVSPost2010Prop51ColorRGB
 90
-16777216
102
RTVSPost2010PropOp51
 70
     0
102
RTVSPost2010Prop52
140
1.0
102
RTVSPost2010PropOp52
 70
     0
102
RTVSPost2010Prop53
 90
        2
102
RTVSPost2010PropOp53
 70
     1
102
RTVSPost2010Prop54
  1
strokes_ogs.tif
102
RTVSPost2010PropOp54
 70
     1
102
RTVSPost2010Prop55
280
     0
102
RTVSPost2010PropOp55
 70
     1
102
RTVSPost2010Prop56
140
1.0
102
RTVSPost2010PropOp56
 70
     1
102
RTVSPost2010Prop57
140
1.0
102
RTVSPost2010PropOp57
 70
     1
  0
XRECORD
  5
320
102
{ACAD_REACTORS
330
31F
102
}
330
31F
100
AcDbXrecord
280
     1
102
RTVSPropertyOp0
 70
     1
102
RTVSPropertyOp1
 70
     1
102
RTVSPropertyOp2
 70
     1
102
RTVSPropertyOp3
 70
     1
102
RTVSPropertyOp4
 70
     1
102
RTVSPropertyOp5
 70
     1
102
RTVSPropertyOp6
 70
     1
102
RTVSPropertyOp7
 70
     1
102
RTVSPropertyOp8
 70
     1
102
RTVSPropertyOp9
 70
     1
102
RTVSPropertyOp10
 70
     1
102
RTVSPropertyOp11
 70
     1
102
RTVSPropertyOp12
 70
     1
102
RTVSPropertyOp13
 70
     1
102
RTVSPropertyOp14
 70
     1
102
RTVSPropertyOp15
 70
     1
102
RTVSPropertyOp16
 70
     1
102
RTVSPropertyOp17
 70
     1
102
RTVSPropertyOp18
 70
     1
102
RTVSPropertyOp19
 70
     1
102
RTVSPropertyOp20
 70
     1
102
RTVSPropertyOp21
 70
     1
102
RTVSPropertyOp22
 70
     1
102
RTVSPropertyOp23
 70
     1
102
RTVSPropertyOp24
 70
     1
102
RTVSPropertyOp25
 70
     1
102
RTVSPropertyOp26
 70
     1
102
RTVSPropertyOp27
 70
     1
102
RTVSPropertyOp28
 70
     1
102
RTVSPropertyOp29
 70
     1
102
RTVSPropertyOp30
 70
     1
102
RTVSPropertyOp31
 70
     1
102
RTVSPropertyOp32
 70
     1
102
RTVSPropertyOp33
 70
     1
102
RTVSPropertyOp34
 70
     1
102
RTVSPropertyOp35
 70
     1
102
RTVSPropertyOp36
 70
     1
102
RTVSPropertyOp37
 70
     1
102
RTVSPropertyOp38
 70
     1
102
RTVSPropertyOp39
 70
     1
102
RTVSPropertyOp40
 70
     1
102
RTVSPropertyOp41
 70
     1
102
RTVSPropertyOp42
 70
     1
102
RTVSPropertyOp43
 70
     1
102
RTVSPropertyOp44
 70
     1
102
RTVSPropertyOp45
 70
     1
102
RTVSPropertyOp46
 70
     1
102
RTVSPropertyOp47
 70
     1
102
RTVSPropertyOp48
 70
     1
102
RTVSPropertyOp49
 70
     1
102
RTVSPropertyOp50
 70
     1
102
RTVSPropertyOp51
 70
     0
102
RTVSPropertyOp52
 70
     0
102
RTVSPropertyOp53
 70
     1
102
RTVSPropertyOp54
 70
     1
102
RTVSPropertyOp55
 70
     1
102
RTVSPropertyOp56
 70
     1
102
RTVSPropertyOp57
 70
     1
102
RTVSPost2010Prop28
280
     0
102
RTVSPost2010PropOp28
 70
     1
102
RTVSPost2010Prop29
280
     1
102
RTVSPost2010PropOp29
 70
     1
102
RTVSPost2010Prop30
280
     1
102
RTVSPost2010PropOp30
 70
     1
102
RTVSPost2010Prop31
280
     0
102
RTVSPost2010PropOp31
 70
     1
102
RTVSPost2010Prop32
280
     0
102
RTVSPost2010PropOp32
 70
     1
102
RTVSPost2010Prop33
280
     0
102
RTVSPost2010PropOp33
 70
     1
102
RTVSPost2010Prop34
280
     0
102
RTVSPost2010PropOp34
 70
     1
102
RTVSPost2010Prop35
280
     0
102
RTVSPost2010PropOp35
 70
     1
102
RTVSPost2010Prop36
280
     0
102
RTVSPost2010PropOp36
 70
     1
102
RTVSPost2010Prop37
 90
       50
102
RTVSPost2010PropOp37
 70
     1
102
RTVSPost2010Prop38
140
0.0
102
RTVSPost2010PropOp38
 70
     1
102
RTVSPost2010Prop39
140
1.0
102
RTVSPost2010PropOp39
 70
     1
102
RTVSPost2010Prop40
 90
        0
102
RTVSPost2010PropOp40
 70
     1
102
RTVSPost2010Prop41ColorIndex
 90
       18
102
RTVSPost2010Prop41ColorRGB
 90
        0
102
RTVSPost2010PropOp41
 70
     1
102
RTVSPost2010Prop42
 90
       50
102
RTVSPost2010PropOp42
 70
     1
102
RTVSPost2010Prop43
 90
        3
102
RTVSPost2010PropOp43
 70
     1
102
RTVSPost2010Prop44ColorIndex
 90
        5
102
RTVSPost2010Prop44ColorRGB
 90
      255
102
RTVSPost2010PropOp44
 70
     1
102
RTVSPost2010Prop45
280
     0
102
RTVSPost2010PropOp45
 70
     1
102
RTVSPost2010Prop46
 90
       50
102
RTVSPost2010PropOp46
 70
     1
102
RTVSPost2010Prop47
 90
       50
102
RTVSPost2010PropOp47
 70
     1
102
RTVSPost2010Prop48
 90
       50
102
RTVSPost2010PropOp48
 70
     1
102
RTVSPost2010Prop49
280
     0
102
RTVSPost2010PropOp49
 70
     1
102
RTVSPost2010Prop50
 90
       50
102
RTVSPost2010PropOp50
 70
     1
102
RTVSPost2010Prop51ColorIndex
 90
      256
102
RTVSPost2010Prop51ColorRGB
 90
-16777216
102
RTVSPost2010PropOp51
 70
     0
102
RTVSPost2010Prop52
140
1.0
102
RTVSPost2010PropOp52
 70
     0
102
RTVSPost2010Prop53
 90
        2
102
RTVSPost2010PropOp53
 70
     1
102
RTVSPost2010Prop54
  1
strokes_ogs.tif
102
RTVSPost2010PropOp54
 70
     1
102
RTVSPost2010Prop55
280
     0
102
RTVSPost2010PropOp55
 70
     1
102
RTVSPost2010Prop56
140
1.0
102
RTVSPost2010PropOp56
 70
     1
102
RTVSPost2010Prop57
140
1.0
102
RTVSPost2010PropOp57
 70
     1
  0
XRECORD
  5
312
102
{ACAD_REACTORS
330
311
102
}
330
311
100
AcDbXrecord
280
     1
102
RTVSPropertyOp0
 70
     1
102
RTVSPropertyOp1
 70
     1
102
RTVSPropertyOp2
 70
     1
102
RTVSPropertyOp3
 70
     1
102
RTVSPropertyOp4
 70
     1
102
RTVSPropertyOp5
 70
     1
102
RTVSPropertyOp6
 70
     1
102
RTVSPropertyOp7
 70
     1
102
RTVSPropertyOp8
 70
     1
102
RTVSPropertyOp9
 70
     1
102
RTVSPropertyOp10
 70
     1
102
RTVSPropertyOp11
 70
     1
102
RTVSPropertyOp12
 70
     1
102
RTVSPropertyOp13
 70
     1
102
RTVSPropertyOp14
 70
     1
102
RTVSPropertyOp15
 70
     1
102
RTVSPropertyOp16
 70
     1
102
RTVSPropertyOp17
 70
     1
102
RTVSPropertyOp18
 70
     1
102
RTVSPropertyOp19
 70
     1
102
RTVSPropertyOp20
 70
     1
102
RTVSPropertyOp21
 70
     1
102
RTVSPropertyOp22
 70
     1
102
RTVSPropertyOp23
 70
     1
102
RTVSPropertyOp24
 70
     1
102
RTVSPropertyOp25
 70
     1
102
RTVSPropertyOp26
 70
     1
102
RTVSPropertyOp27
 70
     1
102
RTVSPropertyOp28
 70
     1
102
RTVSPropertyOp29
 70
     1
102
RTVSPropertyOp30
 70
     1
102
RTVSPropertyOp31
 70
     1
102
RTVSPropertyOp32
 70
     1
102
RTVSPropertyOp33
 70
     1
102
RTVSPropertyOp34
 70
     1
102
RTVSPropertyOp35
 70
     1
102
RTVSPropertyOp36
 70
     1
102
RTVSPropertyOp37
 70
     1
102
RTVSPropertyOp38
 70
     1
102
RTVSPropertyOp39
 70
     1
102
RTVSPropertyOp40
 70
     1
102
RTVSPropertyOp41
 70
     1
102
RTVSPropertyOp42
 70
     1
102
RTVSPropertyOp43
 70
     1
102
RTVSPropertyOp44
 70
     1
102
RTVSPropertyOp45
 70
     1
102
RTVSPropertyOp46
 70
     1
102
RTVSPropertyOp47
 70
     1
102
RTVSPropertyOp48
 70
     1
102
RTVSPropertyOp49
 70
     1
102
RTVSPropertyOp50
 70
     1
102
RTVSPropertyOp51
 70
     0
102
RTVSPropertyOp52
 70
     0
102
RTVSPropertyOp53
 70
     1
102
RTVSPropertyOp54
 70
     1
102
RTVSPropertyOp55
 70
     1
102
RTVSPropertyOp56
 70
     1
102
RTVSPropertyOp57
 70
     1
102
RTVSPost2010Prop28
280
     0
102
RTVSPost2010PropOp28
 70
     1
102
RTVSPost2010Prop29
280
     1
102
RTVSPost2010PropOp29
 70
     1
102
RTVSPost2010Prop30
280
     1
102
RTVSPost2010PropOp30
 70
     1
102
RTVSPost2010Prop31
280
     0
102
RTVSPost2010PropOp31
 70
     1
102
RTVSPost2010Prop32
280
     0
102
RTVSPost2010PropOp32
 70
     1
102
RTVSPost2010Prop33
280
     0
102
RTVSPost2010PropOp33
 70
     1
102
RTVSPost2010Prop34
280
     0
102
RTVSPost2010PropOp34
 70
     1
102
RTVSPost2010Prop35
280
     0
102
RTVSPost2010PropOp35
 70
     1
102
RTVSPost2010Prop36
280
     0
102
RTVSPost2010PropOp36
 70
     1
102
RTVSPost2010Prop37
 90
       50
102
RTVSPost2010PropOp37
 70
     1
102
RTVSPost2010Prop38
140
0.0
102
RTVSPost2010PropOp38
 70
     1
102
RTVSPost2010Prop39
140
1.0
102
RTVSPost2010PropOp39
 70
     1
102
RTVSPost2010Prop40
 90
        0
102
RTVSPost2010PropOp40
 70
     1
102
RTVSPost2010Prop41ColorIndex
 90
       18
102
RTVSPost2010Prop41ColorRGB
 90
        0
102
RTVSPost2010PropOp41
 70
     1
102
RTVSPost2010Prop42
 90
       50
102
RTVSPost2010PropOp42
 70
     1
102
RTVSPost2010Prop43
 90
        3
102
RTVSPost2010PropOp43
 70
     1
102
RTVSPost2010Prop44ColorIndex
 90
        5
102
RTVSPost2010Prop44ColorRGB
 90
      255
102
RTVSPost2010PropOp44
 70
     1
102
RTVSPost2010Prop45
280
     0
102
RTVSPost2010PropOp45
 70
     1
102
RTVSPost2010Prop46
 90
       50
102
RTVSPost2010PropOp46
 70
     1
102
RTVSPost2010Prop47
 90
       50
102
RTVSPost2010PropOp47
 70
     1
102
RTVSPost2010Prop48
 90
       50
102
RTVSPost2010PropOp48
 70
     1
102
RTVSPost2010Prop49
280
     0
102
RTVSPost2010PropOp49
 70
     1
102
RTVSPost2010Prop50
 90
       50
102
RTVSPost2010PropOp50
 70
     1
102
RTVSPost2010Prop51ColorIndex
 90
      256
102
RTVSPost2010Prop51ColorRGB
 90
-16777216
102
RTVSPost2010PropOp51
 70
     0
102
RTVSPost2010Prop52
140
1.0
102
RTVSPost2010PropOp52
 70
     0
102
RTVSPost2010Prop53
 90
        2
102
RTVSPost2010PropOp53
 70
     1
102
RTVSPost2010Prop54
  1
strokes_ogs.tif
102
RTVSPost2010PropOp54
 70
     1
102
RTVSPost2010Prop55
280
     0
102
RTVSPost2010PropOp55
 70
     1
102
RTVSPost2010Prop56
140
1.0
102
RTVSPost2010PropOp56
 70
     1
102
RTVSPost2010Prop57
140
1.0
102
RTVSPost2010PropOp57
 70
     1
  0
XRECORD
  5
332
102
{ACAD_REACTORS
330
331
102
}
330
331
100
AcDbXrecord
280
     1
102
RTVSPropertyOp0
 70
     1
102
RTVSPropertyOp1
 70
     1
102
RTVSPropertyOp2
 70
     1
102
RTVSPropertyOp3
 70
     1
102
RTVSPropertyOp4
 70
     1
102
RTVSPropertyOp5
 70
     1
102
RTVSPropertyOp6
 70
     1
102
RTVSPropertyOp7
 70
     1
102
RTVSPropertyOp8
 70
     1
102
RTVSPropertyOp9
 70
     1
102
RTVSPropertyOp10
 70
     1
102
RTVSPropertyOp11
 70
     1
102
RTVSPropertyOp12
 70
     1
102
RTVSPropertyOp13
 70
     1
102
RTVSPropertyOp14
 70
     1
102
RTVSPropertyOp15
 70
     1
102
RTVSPropertyOp16
 70
     1
102
RTVSPropertyOp17
 70
     1
102
RTVSPropertyOp18
 70
     1
102
RTVSPropertyOp19
 70
     1
102
RTVSPropertyOp20
 70
     1
102
RTVSPropertyOp21
 70
     1
102
RTVSPropertyOp22
 70
     1
102
RTVSPropertyOp23
 70
     1
102
RTVSPropertyOp24
 70
     1
102
RTVSPropertyOp25
 70
     1
102
RTVSPropertyOp26
 70
     1
102
RTVSPropertyOp27
 70
     1
102
RTVSPropertyOp28
 70
     1
102
RTVSPropertyOp29
 70
     1
102
RTVSPropertyOp30
 70
     1
102
RTVSPropertyOp31
 70
     1
102
RTVSPropertyOp32
 70
     1
102
RTVSPropertyOp33
 70
     1
102
RTVSPropertyOp34
 70
     1
102
RTVSPropertyOp35
 70
     1
102
RTVSPropertyOp36
 70
     1
102
RTVSPropertyOp37
 70
     1
102
RTVSPropertyOp38
 70
     1
102
RTVSPropertyOp39
 70
     1
102
RTVSPropertyOp40
 70
     1
102
RTVSPropertyOp41
 70
     1
102
RTVSPropertyOp42
 70
     1
102
RTVSPropertyOp43
 70
     1
102
RTVSPropertyOp44
 70
     1
102
RTVSPropertyOp45
 70
     1
102
RTVSPropertyOp46
 70
     1
102
RTVSPropertyOp47
 70
     1
102
RTVSPropertyOp48
 70
     1
102
RTVSPropertyOp49
 70
     1
102
RTVSPropertyOp50
 70
     1
102
RTVSPropertyOp51
 70
     0
102
RTVSPropertyOp52
 70
     0
102
RTVSPropertyOp53
 70
     1
102
RTVSPropertyOp54
 70
     1
102
RTVSPropertyOp55
 70
     1
102
RTVSPropertyOp56
 70
     1
102
RTVSPropertyOp57
 70
     1
102
RTVSPost2010Prop28
280
     0
102
RTVSPost2010PropOp28
 70
     1
102
RTVSPost2010Prop29
280
     1
102
RTVSPost2010PropOp29
 70
     1
102
RTVSPost2010Prop30
280
     1
102
RTVSPost2010PropOp30
 70
     1
102
RTVSPost2010Prop31
280
     0
102
RTVSPost2010PropOp31
 70
     1
102
RTVSPost2010Prop32
280
     0
102
RTVSPost2010PropOp32
 70
     1
102
RTVSPost2010Prop33
280
     0
102
RTVSPost2010PropOp33
 70
     1
102
RTVSPost2010Prop34
280
     0
102
RTVSPost2010PropOp34
 70
     1
102
RTVSPost2010Prop35
280
     0
102
RTVSPost2010PropOp35
 70
     1
102
RTVSPost2010Prop36
280
     0
102
RTVSPost2010PropOp36
 70
     1
102
RTVSPost2010Prop37
 90
       50
102
RTVSPost2010PropOp37
 70
     1
102
RTVSPost2010Prop38
140
0.0
102
RTVSPost2010PropOp38
 70
     1
102
RTVSPost2010Prop39
140
1.0
102
RTVSPost2010PropOp39
 70
     1
102
RTVSPost2010Prop40
 90
        0
102
RTVSPost2010PropOp40
 70
     1
102
RTVSPost2010Prop41ColorIndex
 90
       18
102
RTVSPost2010Prop41ColorRGB
 90
        0
102
RTVSPost2010PropOp41
 70
     1
102
RTVSPost2010Prop42
 90
       50
102
RTVSPost2010PropOp42
 70
     1
102
RTVSPost2010Prop43
 90
        3
102
RTVSPost2010PropOp43
 70
     1
102
RTVSPost2010Prop44ColorIndex
 90
        5
102
RTVSPost2010Prop44ColorRGB
 90
      255
102
RTVSPost2010PropOp44
 70
     1
102
RTVSPost2010Prop45
280
     0
102
RTVSPost2010PropOp45
 70
     1
102
RTVSPost2010Prop46
 90
       50
102
RTVSPost2010PropOp46
 70
     1
102
RTVSPost2010Prop47
 90
       50
102
RTVSPost2010PropOp47
 70
     1
102
RTVSPost2010Prop48
 90
       50
102
RTVSPost2010PropOp48
 70
     1
102
RTVSPost2010Prop49
280
     0
102
RTVSPost2010PropOp49
 70
     1
102
RTVSPost2010Prop50
 90
       50
102
RTVSPost2010PropOp50
 70
     1
102
RTVSPost2010Prop51ColorIndex
 90
      256
102
RTVSPost2010Prop51ColorRGB
 90
-16777216
102
RTVSPost2010PropOp51
 70
     0
102
RTVSPost2010Prop52
140
1.0
102
RTVSPost2010PropOp52
 70
     0
102
RTVSPost2010Prop53
 90
        2
102
RTVSPost2010PropOp53
 70
     1
102
RTVSPost2010Prop54
  1
strokes_ogs.tif
102
RTVSPost2010PropOp54
 70
     1
102
RTVSPost2010Prop55
280
     0
102
RTVSPost2010PropOp55
 70
     1
102
RTVSPost2010Prop56
140
1.0
102
RTVSPost2010PropOp56
 70
     1
102
RTVSPost2010Prop57
140
1.0
102
RTVSPost2010PropOp57
 70
     1
  0
ENDSEC
  0
EOF
