  0
SECTION
  2
HEADER
  9
$ACADVER
  1
AC1018
  9
$ACADMAINTVER
 70
     0
  9
$DWGCODEPAGE
  3
ANSI_1252
  9
$INSBASE
 10
0.0
 20
0.0
 30
0.0
  9
$EXTMIN
 10
0.0705506666839267
 20
-1.145477002250478
 30
0.0038
  9
$EXTMAX
 10
3.896978555060871
 20
1.56007807033928
 30
-0.0038
  9
$LIMMIN
 10
0.0
 20
0.0
  9
$LIMMAX
 10
12.0
 20
9.0
  9
$ORTHOMODE
 70
     0
  9
$REGENMODE
 70
     1
  9
$FILLMODE
 70
     1
  9
$QTEXTMODE
 70
     0
  9
$MIRRTEXT
 70
     1
  9
$LTSCALE
 40
1.0
  9
$ATTMODE
 70
     1
  9
$TEXTSIZE
 40
0.2
  9
$TRACEWID
 40
0.05
  9
$TEXTSTYLE
  7
Simplex
  9
$CLAYER
  8
0
  9
$CELTYPE
  6
ByLayer
  9
$CECOLOR
 62
   256
  9
$CELTSCALE
 40
1.0
  9
$DISPSILH
 70
     0
  9
$DIMSCALE
 40
1.0
  9
$DIMASZ
 40
0.18
  9
$DIMEXO
 40
0.0625
  9
$DIMDLI
 40
0.38
  9
$DIMRND
 40
0.0
  9
$DIMDLE
 40
0.0
  9
$DIMEXE
 40
0.18
  9
$DIMTP
 40
0.0
  9
$DIMTM
 40
0.0
  9
$DIMTXT
 40
0.18
  9
$DIMCEN
 40
0.09
  9
$DIMTSZ
 40
0.0
  9
$DIMTOL
 70
     0
  9
$DIMLIM
 70
     0
  9
$DIMTIH
 70
     1
  9
$DIMTOH
 70
     1
  9
$DIMSE1
 70
     0
  9
$DIMSE2
 70
     0
  9
$DIMTAD
 70
     0
  9
$DIMZIN
 70
     0
  9
$DIMBLK
  1

  9
$DIMASO
 70
     1
  9
$DIMSHO
 70
     1
  9
$DIMPOST
  1

  9
$DIMAPOST
  1

  9
$DIMALT
 70
     0
  9
$DIMALTD
 70
     2
  9
$DIMALTF
 40
25.4
  9
$DIMLFAC
 40
1.0
  9
$DIMTOFL
 70
     0
  9
$DIMTVP
 40
0.0
  9
$DIMTIX
 70
     0
  9
$DIMSOXD
 70
     0
  9
$DIMSAH
 70
     0
  9
$DIMBLK1
  1

  9
$DIMBLK2
  1

  9
$DIMSTYLE
  2
Standard
  9
$DIMCLRD
 70
     0
  9
$DIMCLRE
 70
     0
  9
$DIMCLRT
 70
     0
  9
$DIMTFAC
 40
1.0
  9
$DIMGAP
 40
0.09
  9
$DIMJUST
 70
     0
  9
$DIMSD1
 70
     0
  9
$DIMSD2
 70
     0
  9
$DIMTOLJ
 70
     1
  9
$DIMTZIN
 70
     0
  9
$DIMALTZ
 70
     0
  9
$DIMALTTZ
 70
     0
  9
$DIMUPT
 70
     0
  9
$DIMDEC
 70
     4
  9
$DIMTDEC
 70
     4
  9
$DIMALTU
 70
     2
  9
$DIMALTTD
 70
     2
  9
$DIMTXSTY
  7
Standard
  9
$DIMAUNIT
 70
     0
  9
$DIMADEC
 70
     0
  9
$DIMALTRND
 40
0.0
  9
$DIMAZIN
 70
     0
  9
$DIMDSEP
 70
    46
  9
$DIMATFIT
 70
     3
  9
$DIMFRAC
 70
     0
  9
$DIMLDRBLK
  1

  9
$DIMLUNIT
 70
     2
  9
$DIMLWD
 70
    -2
  9
$DIMLWE
 70
    -2
  9
$DIMTMOVE
 70
     0
  9
$LUNITS
 70
     2
  9
$LUPREC
 70
     4
  9
$SKETCHINC
 40
0.1
  9
$FILLETRAD
 40
0.5
  9
$AUNITS
 70
     0
  9
$AUPREC
 70
     0
  9
$MENU
  1
.
  9
$ELEVATION
 40
0.0
  9
$PELEVATION
 40
0.0
  9
$THICKNESS
 40
0.0
  9
$LIMCHECK
 70
     0
  9
$CHAMFERA
 40
0.5
  9
$CHAMFERB
 40
0.5
  9
$CHAMFERC
 40
1.0
  9
$CHAMFERD
 40
0.0
  9
$SKPOLY
 70
     0
  9
$TDCREATE
 40
2452381.314152083
  9
$TDUCREATE
 40
2452380.897485417
  9
$TDUPDATE
 40
2457966.341366296
  9
$TDUUPDATE
 40
2457965.92469963
  9
$TDINDWG
 40
0.0040921296
  9
$TDUSRTIMER
 40
0.0040921296
  9
$USRTIMER
 70
     1
  9
$ANGBASE
 50
0.0
  9
$ANGDIR
 70
     0
  9
$PDMODE
 70
     0
  9
$PDSIZE
 40
0.0
  9
$PLINEWID
 40
0.0
  9
$SPLFRAME
 70
     0
  9
$SPLINETYPE
 70
     6
  9
$SPLINESEGS
 70
     8
  9
$HANDSEED
  5
46C
  9
$SURFTAB1
 70
     6
  9
$SURFTAB2
 70
     6
  9
$SURFTYPE
 70
     6
  9
$SURFU
 70
     6
  9
$SURFV
 70
     6
  9
$UCSBASE
  2

  9
$UCSNAME
  2

  9
$UCSORG
 10
0.0
 20
0.0
 30
0.0
  9
$UCSXDIR
 10
1.0
 20
0.0
 30
0.0
  9
$UCSYDIR
 10
0.0
 20
1.0
 30
0.0
  9
$UCSORTHOREF
  2

  9
$UCSORTHOVIEW
 70
     0
  9
$UCSORGTOP
 10
0.0
 20
0.0
 30
0.0
  9
$UCSORGBOTTOM
 10
0.0
 20
0.0
 30
0.0
  9
$UCSORGLEFT
 10
0.0
 20
0.0
 30
0.0
  9
$UCSORGRIGHT
 10
0.0
 20
0.0
 30
0.0
  9
$UCSORGFRONT
 10
0.0
 20
0.0
 30
0.0
  9
$UCSORGBACK
 10
0.0
 20
0.0
 30
0.0
  9
$PUCSBASE
  2

  9
$PUCSNAME
  2

  9
$PUCSORG
 10
0.0
 20
0.0
 30
0.0
  9
$PUCSXDIR
 10
1.0
 20
0.0
 30
0.0
  9
$PUCSYDIR
 10
0.0
 20
1.0
 30
0.0
  9
$PUCSORTHOREF
  2

  9
$PUCSORTHOVIEW
 70
     0
  9
$PUCSORGTOP
 10
0.0
 20
0.0
 30
0.0
  9
$PUCSORGBOTTOM
 10
0.0
 20
0.0
 30
0.0
  9
$PUCSORGLEFT
 10
0.0
 20
0.0
 30
0.0
  9
$PUCSORGRIGHT
 10
0.0
 20
0.0
 30
0.0
  9
$PUCSORGFRONT
 10
0.0
 20
0.0
 30
0.0
  9
$PUCSORGBACK
 10
0.0
 20
0.0
 30
0.0
  9
$USERI1
 70
     0
  9
$USERI2
 70
     0
  9
$USERI3
 70
     0
  9
$USERI4
 70
     0
  9
$USERI5
 70
     0
  9
$USERR1
 40
0.0
  9
$USERR2
 40
0.0
  9
$USERR3
 40
0.0
  9
$USERR4
 40
0.0
  9
$USERR5
 40
0.0
  9
$WORLDVIEW
 70
     1
  9
$SHADEDGE
 70
     3
  9
$SHADEDIF
 70
    70
  9
$TILEMODE
 70
     1
  9
$MAXACTVP
 70
    64
  9
$PINSBASE
 10
0.0
 20
0.0
 30
0.0
  9
$PLIMCHECK
 70
     0
  9
$PEXTMIN
 10
1.000000000000000E+20
 20
1.000000000000000E+20
 30
1.000000000000000E+20
  9
$PEXTMAX
 10
-1.000000000000000E+20
 20
-1.000000000000000E+20
 30
-1.000000000000000E+20
  9
$PLIMMIN
 10
0.0
 20
0.0
  9
$PLIMMAX
 10
12.0
 20
9.0
  9
$UNITMODE
 70
     0
  9
$VISRETAIN
 70
     1
  9
$PLINEGEN
 70
     0
  9
$PSLTSCALE
 70
     1
  9
$TREEDEPTH
 70
  3020
  9
$CMLSTYLE
  2
Standard
  9
$CMLJUST
 70
     0
  9
$CMLSCALE
 40
1.0
  9
$PROXYGRAPHICS
 70
     1
  9
$MEASUREMENT
 70
     0
  9
$CELWEIGHT
370
    -1
  9
$ENDCAPS
280
     0
  9
$JOINSTYLE
280
     0
  9
$LWDISPLAY
290
     1
  9
$INSUNITS
 70
     0
  9
$HYPERLINKBASE
  1

  9
$STYLESHEET
  1

  9
$XEDIT
290
     1
  9
$CEPSNTYPE
380
     0
  9
$PSTYLEMODE
290
     1
  9
$FINGERPRINTGUID
  2
{2DA8D5D2-0A6F-4433-BE9F-7C818D36D6ED}
  9
$VERSIONGUID
  2
{A098EE71-2063-4C44-BF23-3920F6FD3DB3}
  9
$EXTNAMES
290
     1
  9
$PSVPSCALE
 40
0.0
  9
$OLESTARTUP
290
     0
  9
$SORTENTS
280
   127
  9
$INDEXCTL
280
     0
  9
$HIDETEXT
280
     1
  9
$XCLIPFRAME
290
     0
  9
$HALOGAP
280
     0
  9
$OBSCOLOR
 70
   257
  9
$OBSLTYPE
280
     0
  9
$INTERSECTIONDISPLAY
280
     0
  9
$INTERSECTIONCOLOR
 70
   257
  9
$DIMASSOC
280
     1
  9
$PROJECTNAME
  1

  0
ENDSEC
  0
SECTION
  2
CLASSES
  0
CLASS
  1
ACDBDICTIONARYWDFLT
  2
AcDbDictionaryWithDefault
  3
ObjectDBX Classes
 90
        0
 91
        4
280
     0
281
     0
  0
CLASS
  1
ACDBPLACEHOLDER
  2
AcDbPlaceHolder
  3
ObjectDBX Classes
 90
        0
 91
        1
280
     0
281
     0
  0
CLASS
  1
LAYOUT
  2
AcDbLayout
  3
ObjectDBX Classes
 90
        0
 91
        1
280
     0
281
     0
  0
CLASS
  1
DICTIONARYVAR
  2
AcDbDictionaryVar
  3
ObjectDBX Classes
 90
        0
 91
        4
280
     0
281
     0
  0
CLASS
  1
VISUALSTYLE
  2
AcDbVisualStyle
  3
ObjectDBX Classes
 90
     4095
 91
        4
280
     0
281
     0
  0
CLASS
  1
SCALE
  2
AcDbScale
  3
ObjectDBX Classes
 90
     1153
 91
        4
280
     0
281
     0
  0
CLASS
  1
MATERIAL
  2
AcDbMaterial
  3
ObjectDBX Classes
 90
     1153
 91
        4
280
     0
281
     0
  0
CLASS
  1
TABLESTYLE
  2
AcDbTableStyle
  3
ObjectDBX Classes
 90
     4095
 91
        4
280
     0
281
     0
  0
CLASS
  1
MLEADERSTYLE
  2
AcDbMLeaderStyle
  3
ACDB_MLEADERSTYLE_CLASS
 90
     4095
 91
        4
280
     0
281
     0
  0
CLASS
  1
RASTERVARIABLES
  2
AcDbRasterVariables
  3
ISM
 90
        0
 91
        4
280
     0
281
     0
  0
CLASS
  1
SUN
  2
AcDbSun
  3
SCENEOE
 90
     1153
 91
        4
280
     0
281
     0
  0
CLASS
  1
CELLSTYLEMAP
  2
AcDbCellStyleMap
  3
ObjectDBX Classes
 90
     1152
 91
        4
280
     0
281
     0
  0
ENDSEC
  0
SECTION
  2
TABLES
  0
TABLE
  2
VPORT
  5
8
102
{ACAD_XDICTIONARY
360
426
102
}
330
0
100
AcDbSymbolTable
 70
     2
  0
VPORT
  5
55
330
8
100
AcDbSymbolTableRecord
100
AcDbViewportTableRecord
  2
*Active
 70
     0
 10
0.0
 20
0.0
 11
1.0
 21
1.0
 12
0.0
 22
0.0
 13
0.0
 23
0.0
 14
0.5
 24
0.5
 15
0.5
 25
0.5
 16
0.0
 26
0.0
 36
1.0
 17
1.983764610872399
 27
0.2073005340444008
 37
0.0
 40
2.976110579848732
 41
1.414285714285715
 42
50.0
 43
0.0
 44
0.0
 50
0.0
 51
0.0
 71
     8
 72
   100
 73
     1
 74
     3
 75
     0
 76
     0
 77
     0
 78
     0
281
     0
 65
     1
110
0.0
120
0.0
130
0.0
111
1.0
121
0.0
131
0.0
112
0.0
122
1.0
132
0.0
 79
     0
146
0.0
  0
ENDTAB
  0
TABLE
  2
LTYPE
  5
5
330
0
100
AcDbSymbolTable
 70
    25
  0
LTYPE
  5
14
330
5
100
AcDbSymbolTableRecord
100
AcDbLinetypeTableRecord
  2
ByBlock
 70
     0
  3

 72
    65
 73
     0
 40
0.0
  0
LTYPE
  5
15
330
5
100
AcDbSymbolTableRecord
100
AcDbLinetypeTableRecord
  2
ByLayer
 70
     0
  3

 72
    65
 73
     0
 40
0.0
  0
LTYPE
  5
16
330
5
100
AcDbSymbolTableRecord
100
AcDbLinetypeTableRecord
  2
Continuous
 70
     0
  3
Solid line
 72
    65
 73
     0
 40
0.0
  0
LTYPE
  5
2D
330
5
100
AcDbSymbolTableRecord
100
AcDbLinetypeTableRecord
  2
BORDER
 70
     0
  3
Border __ __ . __ __ . __ __ . __ __ . __ __ .
 72
    65
 73
     6
 40
1.75
 49
0.5
 74
     0
 49
-0.25
 74
     0
 49
0.5
 74
     0
 49
-0.25
 74
     0
 49
0.0
 74
     0
 49
-0.25
 74
     0
  0
LTYPE
  5
2E
330
5
100
AcDbSymbolTableRecord
100
AcDbLinetypeTableRecord
  2
BORDER2
 70
     0
  3
Border (.5x) __.__.__.__.__.__.__.__.__.__.__.
 72
    65
 73
     6
 40
0.875
 49
0.25
 74
     0
 49
-0.125
 74
     0
 49
0.25
 74
     0
 49
-0.125
 74
     0
 49
0.0
 74
     0
 49
-0.125
 74
     0
  0
LTYPE
  5
2F
330
5
100
AcDbSymbolTableRecord
100
AcDbLinetypeTableRecord
  2
BORDERX2
 70
     0
  3
Border (2x) ____  ____  .  ____  ____  .  ___
 72
    65
 73
     6
 40
3.5
 49
1.0
 74
     0
 49
-0.5
 74
     0
 49
1.0
 74
     0
 49
-0.5
 74
     0
 49
0.0
 74
     0
 49
-0.5
 74
     0
  0
LTYPE
  5
30
330
5
100
AcDbSymbolTableRecord
100
AcDbLinetypeTableRecord
  2
CENTER
 70
     0
  3
Center ____ _ ____ _ ____ _ ____ _ ____ _ ____
 72
    65
 73
     4
 40
2.0
 49
1.25
 74
     0
 49
-0.25
 74
     0
 49
0.25
 74
     0
 49
-0.25
 74
     0
  0
LTYPE
  5
31
330
5
100
AcDbSymbolTableRecord
100
AcDbLinetypeTableRecord
  2
CENTER2
 70
     0
  3
Center (.5x) ___ _ ___ _ ___ _ ___ _ ___ _ ___
 72
    65
 73
     4
 40
1.125
 49
0.75
 74
     0
 49
-0.125
 74
     0
 49
0.125
 74
     0
 49
-0.125
 74
     0
  0
LTYPE
  5
32
330
5
100
AcDbSymbolTableRecord
100
AcDbLinetypeTableRecord
  2
CENTERX2
 70
     0
  3
Center (2x) ________  __  ________  __  _____
 72
    65
 73
     4
 40
4.0
 49
2.5
 74
     0
 49
-0.5
 74
     0
 49
0.5
 74
     0
 49
-0.5
 74
     0
  0
LTYPE
  5
33
330
5
100
AcDbSymbolTableRecord
100
AcDbLinetypeTableRecord
  2
DASHDOT
 70
     0
  3
Dash dot __ . __ . __ . __ . __ . __ . __ . __
 72
    65
 73
     4
 40
1.0
 49
0.5
 74
     0
 49
-0.25
 74
     0
 49
0.0
 74
     0
 49
-0.25
 74
     0
  0
LTYPE
  5
34
330
5
100
AcDbSymbolTableRecord
100
AcDbLinetypeTableRecord
  2
DASHDOT2
 70
     0
  3
Dash dot (.5x) _._._._._._._._._._._._._._._.
 72
    65
 73
     4
 40
0.5
 49
0.25
 74
     0
 49
-0.125
 74
     0
 49
0.0
 74
     0
 49
-0.125
 74
     0
  0
LTYPE
  5
35
330
5
100
AcDbSymbolTableRecord
100
AcDbLinetypeTableRecord
  2
DASHDOTX2
 70
     0
  3
Dash dot (2x) ____  .  ____  .  ____  .  ___
 72
    65
 73
     4
 40
2.0
 49
1.0
 74
     0
 49
-0.5
 74
     0
 49
0.0
 74
     0
 49
-0.5
 74
     0
  0
LTYPE
  5
36
330
5
100
AcDbSymbolTableRecord
100
AcDbLinetypeTableRecord
  2
DASHED
 70
     0
  3
Dashed __ __ __ __ __ __ __ __ __ __ __ __ __ _
 72
    65
 73
     2
 40
0.75
 49
0.5
 74
     0
 49
-0.25
 74
     0
  0
LTYPE
  5
37
330
5
100
AcDbSymbolTableRecord
100
AcDbLinetypeTableRecord
  2
DASHED2
 70
     0
  3
Dashed (.5x) _ _ _ _ _ _ _ _ _ _ _ _ _ _ _ _ _
 72
    65
 73
     2
 40
0.375
 49
0.25
 74
     0
 49
-0.125
 74
     0
  0
LTYPE
  5
38
330
5
100
AcDbSymbolTableRecord
100
AcDbLinetypeTableRecord
  2
DASHEDX2
 70
     0
  3
Dashed (2x) ____  ____  ____  ____  ____  ___
 72
    65
 73
     2
 40
1.5
 49
1.0
 74
     0
 49
-0.5
 74
     0
  0
LTYPE
  5
39
330
5
100
AcDbSymbolTableRecord
100
AcDbLinetypeTableRecord
  2
DIVIDE
 70
     0
  3
Divide ____ . . ____ . . ____ . . ____ . . ____
 72
    65
 73
     6
 40
1.25
 49
0.5
 74
     0
 49
-0.25
 74
     0
 49
0.0
 74
     0
 49
-0.25
 74
     0
 49
0.0
 74
     0
 49
-0.25
 74
     0
  0
LTYPE
  5
3A
330
5
100
AcDbSymbolTableRecord
100
AcDbLinetypeTableRecord
  2
DIVIDE2
 70
     0
  3
Divide (.5x) __..__..__..__..__..__..__..__.._
 72
    65
 73
     6
 40
0.625
 49
0.25
 74
     0
 49
-0.125
 74
     0
 49
0.0
 74
     0
 49
-0.125
 74
     0
 49
0.0
 74
     0
 49
-0.125
 74
     0
  0
LTYPE
  5
3B
330
5
100
AcDbSymbolTableRecord
100
AcDbLinetypeTableRecord
  2
DIVIDEX2
 70
     0
  3
Divide (2x) ________  .  .  ________  .  .  _
 72
    65
 73
     6
 40
2.5
 49
1.0
 74
     0
 49
-0.5
 74
     0
 49
0.0
 74
     0
 49
-0.5
 74
     0
 49
0.0
 74
     0
 49
-0.5
 74
     0
  0
LTYPE
  5
3C
330
5
100
AcDbSymbolTableRecord
100
AcDbLinetypeTableRecord
  2
DOT
 70
     0
  3
Dot . . . . . . . . . . . . . . . . . . . . . .
 72
    65
 73
     2
 40
0.25
 49
0.0
 74
     0
 49
-0.25
 74
     0
  0
LTYPE
  5
3D
330
5
100
AcDbSymbolTableRecord
100
AcDbLinetypeTableRecord
  2
DOT2
 70
     0
  3
Dot (.5x) .....................................
 72
    65
 73
     2
 40
0.125
 49
0.0
 74
     0
 49
-0.125
 74
     0
  0
LTYPE
  5
3E
330
5
100
AcDbSymbolTableRecord
100
AcDbLinetypeTableRecord
  2
DOTX2
 70
     0
  3
Dot (2x) .  .  .  .  .  .  .  .  .  .  .  .  . 
 72
    65
 73
     2
 40
0.5
 49
0.0
 74
     0
 49
-0.5
 74
     0
  0
LTYPE
  5
3F
330
5
100
AcDbSymbolTableRecord
100
AcDbLinetypeTableRecord
  2
HIDDEN
 70
     0
  3
Hidden __ __ __ __ __ __ __ __ __ __ __ __ __ _
 72
    65
 73
     2
 40
0.375
 49
0.25
 74
     0
 49
-0.125
 74
     0
  0
LTYPE
  5
40
330
5
100
AcDbSymbolTableRecord
100
AcDbLinetypeTableRecord
  2
HIDDEN2
 70
     0
  3
Hidden (.5x) _ _ _ _ _ _ _ _ _ _ _ _ _ _ _ _ _
 72
    65
 73
     2
 40
0.1875
 49
0.125
 74
     0
 49
-0.0625
 74
     0
  0
LTYPE
  5
41
330
5
100
AcDbSymbolTableRecord
100
AcDbLinetypeTableRecord
  2
HIDDENX2
 70
     0
  3
Hidden (2x) ____ ____ ____ ____ ____ ____ ____
 72
    65
 73
     2
 40
0.75
 49
0.5
 74
     0
 49
-0.25
 74
     0
  0
LTYPE
  5
42
330
5
100
AcDbSymbolTableRecord
100
AcDbLinetypeTableRecord
  2
PHANTOM
 70
     0
  3
Phantom ______  __  __  ______  __  __  ______
 72
    65
 73
     6
 40
2.5
 49
1.25
 74
     0
 49
-0.25
 74
     0
 49
0.25
 74
     0
 49
-0.25
 74
     0
 49
0.25
 74
     0
 49
-0.25
 74
     0
  0
LTYPE
  5
43
330
5
100
AcDbSymbolTableRecord
100
AcDbLinetypeTableRecord
  2
PHANTOM2
 70
     0
  3
Phantom (.5x) ___ _ _ ___ _ _ ___ _ _ ___ _ _
 72
    65
 73
     6
 40
1.25
 49
0.625
 74
     0
 49
-0.125
 74
     0
 49
0.125
 74
     0
 49
-0.125
 74
     0
 49
0.125
 74
     0
 49
-0.125
 74
     0
  0
LTYPE
  5
44
330
5
100
AcDbSymbolTableRecord
100
AcDbLinetypeTableRecord
  2
PHANTOMX2
 70
     0
  3
Phantom (2x) ____________    ____    ____   _
 72
    65
 73
     6
 40
5.0
 49
2.5
 74
     0
 49
-0.5
 74
     0
 49
0.5
 74
     0
 49
-0.5
 74
     0
 49
0.5
 74
     0
 49
-0.5
 74
     0
  0
ENDTAB
  0
TABLE
  2
LAYER
  5
2
330
0
100
AcDbSymbolTable
 70
     3
  0
LAYER
  5
10
330
2
100
AcDbSymbolTableRecord
100
AcDbLayerTableRecord
  2
0
 70
     0
 62
     7
  6
Continuous
370
    -3
390
F
  0
LAYER
  5
9B
330
2
100
AcDbSymbolTableRecord
100
AcDbLayerTableRecord
  2
1
 70
     0
 62
     7
  6
Continuous
370
     0
390
F
  0
LAYER
  5
40A
330
2
100
AcDbSymbolTableRecord
100
AcDbLayerTableRecord
  2
Defpoints
 70
     0
 62
     7
  6
Continuous
290
     0
370
    -3
390
F
  0
ENDTAB
  0
TABLE
  2
STYLE
  5
3
330
0
100
AcDbSymbolTable
 70
     8
  0
STYLE
  5
11
330
3
100
AcDbSymbolTableRecord
100
AcDbTextStyleTableRecord
  2
Standard
 70
     0
 40
0.0
 41
1.0
 50
0.0
 71
     0
 42
0.2
  3
txt
  4

  0
STYLE
  5
2C
330
3
100
AcDbSymbolTableRecord
100
AcDbTextStyleTableRecord
  2

 70
     1
 40
0.0
 41
1.0
 50
0.0
 71
     0
 42
0.2
  3
ltypeshp.shx
  4

  0
STYLE
  5
4A
330
3
100
AcDbSymbolTableRecord
100
AcDbTextStyleTableRecord
  2
Simplex
 70
     0
 40
0.0
 41
1.0
 50
0.0
 71
     0
 42
0.2
  3
simplex.shx
  4

  0
STYLE
  5
4B
330
3
100
AcDbSymbolTableRecord
100
AcDbTextStyleTableRecord
  2
BigFont
 70
     0
 40
0.0
 41
1.0
 50
0.0
 71
     0
 42
0.2
  3
simplex.shx
  4
bigfont.shx
  0
STYLE
  5
DF
330
3
100
AcDbSymbolTableRecord
100
AcDbTextStyleTableRecord
  2
DC_TEXTSTYLE4
 70
     0
 40
0.2
 41
1.0
 50
0.0
 71
     0
 42
0.2
  3
arialbi.ttf
  4

1001
ACAD
1000
Arial
1071
 50331682
  0
STYLE
  5
E4
330
3
100
AcDbSymbolTableRecord
100
AcDbTextStyleTableRecord
  2
DC_TEXTSTYLE5
 70
     0
 40
0.2
 41
1.0
 50
0.0
 71
     0
 42
0.2
  3
arial.ttf
  4

1001
ACAD
1000
Arial
1071
       34
  0
STYLE
  5
105
330
3
100
AcDbSymbolTableRecord
100
AcDbTextStyleTableRecord
  2
DC_TEXTSTYLE6
 70
     0
 40
0.2
 41
1.0
 50
0.0
 71
     0
 42
0.2
  3
timesbd.ttf
  4

1001
ACAD
1000
Times New Roman
1071
 33554450
  0
STYLE
  5
409
330
3
100
AcDbSymbolTableRecord
100
AcDbTextStyleTableRecord
  2
DC_TEXTSTYLE7
 70
     0
 40
0.034
 41
1.0
 50
0.0
 71
     0
 42
0.2
  3
arial.ttf
  4

1001
ACAD
1000
Arial
1071
        4
  0
ENDTAB
  0
TABLE
  2
VIEW
  5
6
330
0
100
AcDbSymbolTable
 70
     0
  0
ENDTAB
  0
TABLE
  2
UCS
  5
7
330
0
100
AcDbSymbolTable
 70
     0
  0
ENDTAB
  0
TABLE
  2
APPID
  5
9
330
0
100
AcDbSymbolTable
 70
     2
  0
APPID
  5
12
330
9
100
AcDbSymbolTableRecord
100
AcDbRegAppTableRecord
  2
ACAD
 70
     0
  0
APPID
  5
463
330
9
100
AcDbSymbolTableRecord
100
AcDbRegAppTableRecord
  2
ACAD_MLEADERVER
 70
     0
  0
ENDTAB
  0
TABLE
  2
DIMSTYLE
  5
A
330
0
100
AcDbSymbolTable
 70
     1
100
AcDbDimStyleTable
  0
DIMSTYLE
105
27
102
{ACAD_REACTORS
330
408
330
417
102
}
330
A
100
AcDbSymbolTableRecord
100
AcDbDimStyleTableRecord
  2
Standard
 70
     0
178
     0
340
11
  0
ENDTAB
  0
TABLE
  2
BLOCK_RECORD
  5
1
330
0
100
AcDbSymbolTable
 70
     4
  0
BLOCK_RECORD
  5
1F
330
1
100
AcDbSymbolTableRecord
100
AcDbBlockTableRecord
  2
*Model_Space
340
22
  0
BLOCK_RECORD
  5
1B
330
1
100
AcDbSymbolTableRecord
100
AcDbBlockTableRecord
  2
*Paper_Space
340
1E
  0
BLOCK_RECORD
  5
9C
330
1
100
AcDbSymbolTableRecord
100
AcDbBlockTableRecord
  2
1
340
0
  0
BLOCK_RECORD
  5
40B
330
1
100
AcDbSymbolTableRecord
100
AcDbBlockTableRecord
  2
*D2
340
0
  0
BLOCK_RECORD
  5
418
330
1
100
AcDbSymbolTableRecord
100
AcDbBlockTableRecord
  2
*D3
340
0
  0
ENDTAB
  0
ENDSEC
  0
SECTION
  2
BLOCKS
  0
BLOCK
  5
20
330
1F
100
AcDbEntity
  8
0
100
AcDbBlockBegin
  2
*Model_Space
 70
     0
 10
0.0
 20
0.0
 30
0.0
  3
*Model_Space
  1

  0
ENDBLK
  5
21
330
1F
100
AcDbEntity
  8
0
100
AcDbBlockEnd
  0
BLOCK
  5
1C
330
1B
100
AcDbEntity
 67
     1
  8
0
100
AcDbBlockBegin
  2
*Paper_Space
 70
     0
 10
0.0
 20
0.0
 30
0.0
  3
*Paper_Space
  1

  0
ENDBLK
  5
1D
330
1B
100
AcDbEntity
 67
     1
  8
0
100
AcDbBlockEnd
  0
BLOCK
  5
D2
330
9C
100
AcDbEntity
  8
0
100
AcDbBlockBegin
  2
1
 70
     0
 10
2.247992535563303
 20
0.0314213065423341
 30
0.0
  3
1
  1

  0
POLYLINE
  5
9D
330
9C
100
AcDbEntity
  8
1
  6
Continuous
 62
     7
 48
0.0008445189643036
370
     0
100
AcDb2dPolyline
 66
     1
 10
0.0
 20
0.0
 30
0.0
  0
VERTEX
  5
9E
330
9D
100
AcDbEntity
  8
1
  6
Continuous
 62
     7
 48
0.0008445189643036
100
AcDbVertex
100
AcDb2dVertex
 10
2.123354017606521
 20
-0.0382363157619798
 30
0.0
 40
16.23423842763099
 41
16.23423842763099
  0
VERTEX
  5
9F
330
9D
100
AcDbEntity
  8
1
  6
Continuous
 62
     7
 48
0.0008445189643036
100
AcDbVertex
100
AcDb2dVertex
 10
2.123354017606521
 20
-0.0382363157619798
 30
0.0
 40
16.23423842763099
 41
16.23423842763099
  0
SEQEND
  5
A0
330
9D
100
AcDbEntity
  8
1
  6
Continuous
 62
     7
 48
0.0008445189643036
370
     0
  0
POLYLINE
  5
A1
330
9C
100
AcDbEntity
  8
1
  6
Continuous
 62
     7
 48
0.0008445189643036
370
     0
100
AcDb2dPolyline
 66
     1
 10
0.0
 20
0.0
 30
0.0
  0
VERTEX
  5
A2
330
A1
100
AcDbEntity
  8
1
  6
Continuous
 62
     7
 48
0.0008445189643036
100
AcDbVertex
100
AcDb2dVertex
 10
2.343544350342626
 20
-0.053527311090876
 30
0.0
 40
16.23423842763099
 41
16.23423842763099
  0
VERTEX
  5
A3
330
A1
100
AcDbEntity
  8
1
  6
Continuous
 62
     7
 48
0.0008445189643036
100
AcDbVertex
100
AcDb2dVertex
 10
2.323252514173993
 20
-0.0382363157619799
 30
0.0
 40
16.23423842763099
 41
16.23423842763099
  0
SEQEND
  5
A4
330
A1
100
AcDbEntity
  8
1
  6
Continuous
 62
     7
 48
0.0008445189643036
370
     0
  0
POLYLINE
  5
A5
330
9C
100
AcDbEntity
  8
1
  6
Continuous
 62
     7
 48
0.0008445189643036
370
     0
100
AcDb2dPolyline
 66
     1
 10
0.0
 20
0.0
 30
0.0
  0
VERTEX
  5
A6
330
A5
100
AcDbEntity
  8
1
  6
Continuous
 62
     7
 48
0.0008445189643036
100
AcDbVertex
100
AcDb2dVertex
 10
2.12947041573808
 20
-0.0382363157619798
 30
0.0
 40
16.23423842763099
 41
16.23423842763099
  0
VERTEX
  5
A7
330
A5
100
AcDbEntity
  8
1
  6
Continuous
 62
     7
 48
0.0008445189643036
100
AcDbVertex
100
AcDb2dVertex
 10
2.123354017606521
 20
-0.0321199176304217
 30
0.0
 40
16.23423842763099
 41
16.23423842763099
  0
SEQEND
  5
A8
330
A5
100
AcDbEntity
  8
1
  6
Continuous
 62
     7
 48
0.0008445189643036
370
     0
  0
POLYLINE
  5
A9
330
9C
100
AcDbEntity
  8
1
  6
Continuous
 62
     7
 48
0.0008445189643036
370
     0
100
AcDb2dPolyline
 66
     1
 10
0.0
 20
0.0
 30
0.0
  0
VERTEX
  5
AA
330
A9
100
AcDbEntity
  8
1
  6
Continuous
 62
     7
 48
0.0008445189643036
100
AcDbVertex
100
AcDb2dVertex
 10
2.343544350342626
 20
0.0596260543429557
 30
0.0
 40
16.23423842763099
 41
16.23423842763099
  0
VERTEX
  5
AB
330
A9
100
AcDbEntity
  8
1
  6
Continuous
 62
     7
 48
0.0008445189643036
100
AcDbVertex
100
AcDb2dVertex
 10
2.123354017606521
 20
0.0596260543429557
 30
0.0
 40
16.23423842763099
 41
16.23423842763099
  0
SEQEND
  5
AC
330
A9
100
AcDbEntity
  8
1
  6
Continuous
 62
     7
 48
0.0008445189643036
370
     0
  0
POLYLINE
  5
AD
330
9C
100
AcDbEntity
  8
1
  6
Continuous
 62
     7
 48
0.0008445189643036
370
     0
100
AcDb2dPolyline
 66
     1
 10
0.0
 20
0.0
 30
0.0
  0
VERTEX
  5
AE
330
AD
100
AcDbEntity
  8
1
  6
Continuous
 62
     7
 48
0.0008445189643036
100
AcDbVertex
100
AcDb2dVertex
 10
2.343544350342626
 20
0.1238482347243196
 30
0.0
 40
16.23423842763099
 41
16.23423842763099
  0
VERTEX
  5
AF
330
AD
100
AcDbEntity
  8
1
  6
Continuous
 62
     7
 48
0.0008445189643036
100
AcDbVertex
100
AcDb2dVertex
 10
2.323252514173993
 20
0.1085572393954233
 30
0.0
 40
16.23423842763099
 41
16.23423842763099
  0
SEQEND
  5
B0
330
AD
100
AcDbEntity
  8
1
  6
Continuous
 62
     7
 48
0.0008445189643036
370
     0
  0
POLYLINE
  5
B1
330
9C
100
AcDbEntity
  8
1
  6
Continuous
 62
     7
 48
0.0008445189643036
370
     0
100
AcDb2dPolyline
 66
     1
 10
0.0
 20
0.0
 30
0.0
  0
VERTEX
  5
B2
330
B1
100
AcDbEntity
  8
1
  6
Continuous
 62
     7
 48
0.0008445189643036
100
AcDbVertex
100
AcDb2dVertex
 10
2.12947041573808
 20
0.1085572393954233
 30
0.0
 40
16.23423842763099
 41
16.23423842763099
  0
VERTEX
  5
B3
330
B1
100
AcDbEntity
  8
1
  6
Continuous
 62
     7
 48
0.0008445189643036
100
AcDbVertex
100
AcDb2dVertex
 10
2.123354017606521
 20
0.1024408412638654
 30
0.0
 40
16.23423842763099
 41
16.23423842763099
  0
SEQEND
  5
B4
330
B1
100
AcDbEntity
  8
1
  6
Continuous
 62
     7
 48
0.0008445189643036
370
     0
  0
POLYLINE
  5
B5
330
9C
100
AcDbEntity
  8
1
  6
Continuous
 62
     7
 48
0.0008445189643036
370
     0
100
AcDb2dPolyline
 66
     1
 10
0.0
 20
0.0
 30
0.0
  0
VERTEX
  5
B6
330
B5
100
AcDbEntity
  8
1
  6
Continuous
 62
     7
 48
0.0008445189643036
100
AcDbVertex
100
AcDb2dVertex
 10
2.343544350342626
 20
0.0106948692904878
 30
0.0
 40
16.23423842763099
 41
16.23423842763099
  0
VERTEX
  5
B7
330
B5
100
AcDbEntity
  8
1
  6
Continuous
 62
     7
 48
0.0008445189643036
100
AcDbVertex
100
AcDb2dVertex
 10
2.123354017606521
 20
0.0106948692904878
 30
0.0
 40
16.23423842763099
 41
16.23423842763099
  0
SEQEND
  5
B8
330
B5
100
AcDbEntity
  8
1
  6
Continuous
 62
     7
 48
0.0008445189643036
370
     0
  0
POLYLINE
  5
B9
330
9C
100
AcDbEntity
  8
1
  6
Continuous
 62
     7
 48
0.0008445189643036
370
     0
100
AcDb2dPolyline
 66
     1
 10
0.0
 20
0.0
 30
0.0
  0
VERTEX
  5
BA
330
B9
100
AcDbEntity
  8
1
  6
Continuous
 62
     7
 48
0.0008445189643036
100
AcDbVertex
100
AcDb2dVertex
 10
2.337427952211068
 20
0.0596260543429557
 30
0.0
 40
16.23423842763099
 41
16.23423842763099
  0
VERTEX
  5
BB
330
B9
100
AcDbEntity
  8
1
  6
Continuous
 62
     7
 48
0.0008445189643036
100
AcDbVertex
100
AcDb2dVertex
 10
2.12947041573808
 20
0.0596260543429556
 30
0.0
 40
16.23423842763099
 41
16.23423842763099
  0
SEQEND
  5
BC
330
B9
100
AcDbEntity
  8
1
  6
Continuous
 62
     7
 48
0.0008445189643036
370
     0
  0
POLYLINE
  5
BD
330
9C
100
AcDbEntity
  8
1
  6
Continuous
 62
     7
 48
0.0008445189643036
370
     0
100
AcDb2dPolyline
 66
     1
 10
0.0
 20
0.0
 30
0.0
  0
VERTEX
  5
BE
330
BD
100
AcDbEntity
  8
1
  6
Continuous
 62
     7
 48
0.0008445189643036
100
AcDbVertex
100
AcDb2dVertex
 10
2.343544350342626
 20
-0.053527311090876
 30
0.0
 40
16.23423842763099
 41
16.23423842763099
  0
VERTEX
  5
BF
330
BD
100
AcDbEntity
  8
1
  6
Continuous
 62
     7
 48
0.0008445189643036
100
AcDbVertex
100
AcDb2dVertex
 10
2.343544350342626
 20
0.1238482347243201
 30
0.0
 40
16.23423842763099
 41
16.23423842763099
  0
SEQEND
  5
C0
330
BD
100
AcDbEntity
  8
1
  6
Continuous
 62
     7
 48
0.0008445189643036
370
     0
  0
POLYLINE
  5
C1
330
9C
100
AcDbEntity
  8
1
  6
Continuous
 62
     7
 48
0.0008445189643036
370
     0
100
AcDb2dPolyline
 66
     1
 10
0.0
 20
0.0
 30
0.0
 70
   128
  0
VERTEX
  5
C2
330
C1
100
AcDbEntity
  8
1
  6
Continuous
 62
     7
 48
0.0008445189643036
100
AcDbVertex
100
AcDb2dVertex
 10
2.323252514173993
 20
0.1085572393954233
 30
0.0
 40
16.23423842763099
 41
16.23423842763099
  0
VERTEX
  5
C3
330
C1
100
AcDbEntity
  8
1
  6
Continuous
 62
     7
 48
0.0008445189643036
100
AcDbVertex
100
AcDb2dVertex
 10
2.12947041573808
 20
0.1085572393954233
 30
0.0
 40
16.23423842763099
 41
16.23423842763099
  0
VERTEX
  5
C4
330
C1
100
AcDbEntity
  8
1
  6
Continuous
 62
     7
 48
0.0008445189643036
100
AcDbVertex
100
AcDb2dVertex
 10
2.123354017606521
 20
0.1024408412638653
 30
0.0
 40
16.23423842763099
 41
16.23423842763099
  0
SEQEND
  5
C5
330
C1
100
AcDbEntity
  8
1
  6
Continuous
 62
     7
 48
0.0008445189643036
370
     0
  0
POLYLINE
  5
C6
330
9C
100
AcDbEntity
  8
1
  6
Continuous
 62
     7
 48
0.0008445189643036
370
     0
100
AcDb2dPolyline
 66
     1
 10
0.0
 20
0.0
 30
0.0
 70
   128
  0
VERTEX
  5
C7
330
C6
100
AcDbEntity
  8
1
  6
Continuous
 62
     7
 48
0.0008445189643036
100
AcDbVertex
100
AcDb2dVertex
 10
2.323252514173993
 20
-0.0382363157619799
 30
0.0
 40
16.23423842763099
 41
16.23423842763099
  0
VERTEX
  5
C8
330
C6
100
AcDbEntity
  8
1
  6
Continuous
 62
     7
 48
0.0008445189643036
100
AcDbVertex
100
AcDb2dVertex
 10
2.12947041573808
 20
-0.0382363157619798
 30
0.0
 40
16.23423842763099
 41
16.23423842763099
  0
VERTEX
  5
C9
330
C6
100
AcDbEntity
  8
1
  6
Continuous
 62
     7
 48
0.0008445189643036
100
AcDbVertex
100
AcDb2dVertex
 10
2.123354017606521
 20
-0.0321199176304217
 30
0.0
 40
16.23423842763099
 41
16.23423842763099
  0
SEQEND
  5
CA
330
C6
100
AcDbEntity
  8
1
  6
Continuous
 62
     7
 48
0.0008445189643036
370
     0
  0
POLYLINE
  5
CB
330
9C
100
AcDbEntity
  8
1
  6
Continuous
 62
     7
 48
0.0008445189643036
370
     0
100
AcDb2dPolyline
 66
     1
 10
0.0
 20
0.0
 30
0.0
  0
VERTEX
  5
CC
330
CB
100
AcDbEntity
  8
1
  6
Continuous
 62
     7
 48
0.0008445189643036
100
AcDbVertex
100
AcDb2dVertex
 10
2.123354017606521
 20
-0.0321199176304217
 30
0.0
 40
16.23423842763099
 41
16.23423842763099
  0
VERTEX
  5
CD
330
CB
100
AcDbEntity
  8
1
  6
Continuous
 62
     7
 48
0.0008445189643036
100
AcDbVertex
100
AcDb2dVertex
 10
2.123354017606521
 20
0.1024408412638652
 30
0.0
 40
16.23423842763099
 41
16.23423842763099
  0
SEQEND
  5
CE
330
CB
100
AcDbEntity
  8
1
  6
Continuous
 62
     7
 48
0.0008445189643036
370
     0
  0
HATCH
  5
CF
330
9C
100
AcDbEntity
  8
1
  6
Continuous
 62
     7
 48
0.0023044090593162
370
     0
100
AcDbHatch
 10
0.0
 20
0.0
 30
0.0
210
0.0
220
0.0
230
1.0
  2
DC_ANSI31
 70
     0
 71
     0
 91
        1
 92
        3
 72
     0
 73
     1
 93
        6
 10
2.343544350342626
 20
0.0596260543429557
 10
2.123354017606521
 20
0.0596260543429558
 10
2.123354017606521
 20
0.1024408412638639
 10
2.12947041573808
 20
0.1085572393954233
 10
2.323252514173996
 20
0.1085572393954234
 10
2.343544350342626
 20
0.1238482347243203
 97
        0
 75
     0
 76
     2
 52
0.0
 41
50.0
 77
     0
 78
     1
 53
45.0
 43
0.0
 44
0.0
 45
-0.0162946327247019
 46
0.0162946327247019
 79
     1
 49
4.608818118632387
 98
        1
 10
0.0
 20
0.0
  0
HATCH
  5
D0
330
9C
100
AcDbEntity
  8
1
  6
Continuous
 62
     7
 48
0.0023044090593162
370
     0
100
AcDbHatch
 10
0.0
 20
0.0
 30
0.0
210
0.0
220
0.0
230
1.0
  2
DC_ANSI31
 70
     0
 71
     0
 91
        1
 92
        3
 72
     0
 73
     1
 93
        6
 10
2.343544350342626
 20
-0.0535273110908758
 10
2.323252514173994
 20
-0.0382363157619798
 10
2.12947041573808
 20
-0.0382363157619799
 10
2.123354017606521
 20
-0.0321199176304208
 10
2.123354017606521
 20
0.0106948692904878
 10
2.343544350342626
 20
0.0106948692904878
 97
        0
 75
     0
 76
     2
 52
0.0
 41
50.0
 77
     0
 78
     1
 53
45.0
 43
0.0
 44
0.0
 45
-0.0162946327247019
 46
0.0162946327247019
 79
     1
 49
4.608818118632387
 98
        1
 10
0.0
 20
0.0
  0
LINE
  5
D1
330
9C
100
AcDbEntity
  8
1
  6
Continuous
 62
     7
 48
0.0007374108989812
370
     0
100
AcDbLine
 10
2.123354017606521
 20
0.0351604618167217
 30
0.0
 11
2.343544350342627
 21
0.035160461816722
 31
0.0
  0
ENDBLK
  5
D3
330
9C
100
AcDbEntity
  8
0
100
AcDbBlockEnd
  0
BLOCK
  5
40C
330
40B
100
AcDbEntity
  8
0
100
AcDbBlockBegin
  2
*D2
 70
     1
 10
0.0
 20
0.0
 30
0.0
  3
*D2
  1

  0
LINE
  5
40E
330
40B
100
AcDbEntity
  8
1
  6
Continuous
 62
     0
 48
0.0000460881811863
370
    -2
100
AcDbLine
 10
1.311430755569468
 20
0.4693769922947469
 30
0.0
 11
1.311430755569468
 21
0.8892612688904917
 31
0.0
  0
LINE
  5
40F
330
40B
100
AcDbEntity
  8
1
  6
Continuous
 62
     0
 48
0.0000460881811863
370
    -2
100
AcDbLine
 10
2.577430755569468
 20
0.4693769922947469
 30
0.0
 11
2.577430755569468
 21
0.8892612688904917
 31
0.0
  0
LINE
  5
410
330
40B
100
AcDbEntity
  8
1
  6
Continuous
 62
     0
 48
0.0000460881811863
370
    -2
100
AcDbLine
 10
1.345430755569468
 20
0.8791444603798534
 30
0.0
 11
2.543430755569469
 21
0.8791444603798534
 31
0.0
  0
SOLID
  5
411
330
40B
100
AcDbEntity
  8
1
 62
     0
100
AcDbTrace
 10
1.345430755569468
 20
0.8848111270465201
 30
0.0
 11
1.345430755569468
 21
0.8734777937131867
 31
0.0
 12
1.311430755569468
 22
0.8791444603798534
 32
0.0
 13
1.311430755569468
 23
0.8791444603798534
 33
0.0
  0
SOLID
  5
412
330
40B
100
AcDbEntity
  8
1
 62
     0
100
AcDbTrace
 10
2.543430755569469
 20
0.8734777937131867
 30
0.0
 11
2.543430755569469
 21
0.8848111270465201
 31
0.0
 12
2.577430755569468
 22
0.8791444603798534
 32
0.0
 13
2.577430755569468
 23
0.8791444603798534
 33
0.0
  0
MTEXT
  5
413
330
40B
100
AcDbEntity
  8
1
 62
     0
370
     0
100
AcDbMText
 10
1.944430755569468
 20
0.9105803539968746
 30
0.0
 40
0.034
 41
0.0
 71
     5
 72
     1
  1
\A1;1.266
  7
DC_TEXTSTYLE7
 73
     1
 44
1.0
  0
POINT
  5
414
330
40B
100
AcDbEntity
  8
Defpoints
 62
     0
100
AcDbPoint
 10
1.311430755569468
 20
0.4491444603798533
 30
0.0
  0
POINT
  5
415
330
40B
100
AcDbEntity
  8
Defpoints
 62
     0
100
AcDbPoint
 10
2.577430755569468
 20
0.4491444603798533
 30
0.0
  0
POINT
  5
416
330
40B
100
AcDbEntity
  8
Defpoints
 62
     0
100
AcDbPoint
 10
2.577430755569468
 20
0.8791444603798534
 30
0.0
  0
ENDBLK
  5
40D
330
40B
100
AcDbEntity
  8
0
100
AcDbBlockEnd
  0
BLOCK
  5
419
330
418
100
AcDbEntity
  8
0
100
AcDbBlockBegin
  2
*D3
 70
     1
 10
0.0
 20
0.0
 30
0.0
  3
*D3
  1

  0
LINE
  5
41B
330
418
100
AcDbEntity
  8
1
  6
Continuous
 62
     0
 48
0.0000460881811863
370
    -2
100
AcDbLine
 10
2.030736835302518
 20
-0.0968555396201465
 30
0.0
 11
2.723547564080107
 21
-0.0968555396201465
 31
0.0
  0
LINE
  5
41C
330
418
100
AcDbEntity
  8
1
  6
Continuous
 62
     0
 48
0.0000460881811863
370
    -2
100
AcDbLine
 10
2.030736835302518
 20
0.6751444603798534
 30
0.0
 11
2.723547564080107
 21
0.6751444603798534
 31
0.0
  0
LINE
  5
41D
330
418
100
AcDbEntity
  8
1
  6
Continuous
 62
     0
 48
0.0000460881811863
370
    -2
100
AcDbLine
 10
2.713430755569468
 20
-0.0628555396201465
 30
0.0
 11
2.713430755569468
 21
0.6411444603798534
 31
0.0
  0
SOLID
  5
41E
330
418
100
AcDbEntity
  8
1
 62
     0
100
AcDbTrace
 10
2.707764088902802
 20
-0.0628555396201465
 30
0.0
 11
2.719097422236135
 21
-0.0628555396201465
 31
0.0
 12
2.713430755569468
 22
-0.0968555396201465
 32
0.0
 13
2.713430755569468
 23
-0.0968555396201465
 33
0.0
  0
SOLID
  5
41F
330
418
100
AcDbEntity
  8
1
 62
     0
100
AcDbTrace
 10
2.719097422236135
 20
0.6411444603798534
 30
0.0
 11
2.707764088902802
 21
0.6411444603798534
 31
0.0
 12
2.713430755569468
 22
0.6751444603798534
 32
0.0
 13
2.713430755569468
 23
0.6751444603798534
 33
0.0
  0
MTEXT
  5
420
330
418
100
AcDbEntity
  8
1
 62
     0
370
     0
100
AcDbMText
 10
2.681059861952447
 20
0.2891444603798535
 30
0.0
 40
0.034
 41
0.0
 71
     5
 72
     1
  1
\A1;HEX TIP Ø0.772
  7
DC_TEXTSTYLE7
 11
0.0
 21
1.0
 31
0.0
 73
     1
 44
1.0
  0
POINT
  5
421
330
418
100
AcDbEntity
  8
Defpoints
 62
     0
100
AcDbPoint
 10
2.010504303387624
 20
-0.0968555396201465
 30
0.0
  0
POINT
  5
422
330
418
100
AcDbEntity
  8
Defpoints
 62
     0
100
AcDbPoint
 10
2.010504303387625
 20
0.6751444603798534
 30
0.0
  0
POINT
  5
423
330
418
100
AcDbEntity
  8
Defpoints
 62
     0
100
AcDbPoint
 10
2.713430755569468
 20
0.6751444603798534
 30
0.0
  0
ENDBLK
  5
41A
330
418
100
AcDbEntity
  8
0
100
AcDbBlockEnd
  0
ENDSEC
  0
SECTION
  2
ENTITIES
  0
LINE
  5
D4
330
1F
100
AcDbEntity
  8
1
  6
Continuous
 62
     7
 48
0.0007374108989812
370
     0
100
AcDbLine
 10
0.0705506666839267
 20
-1.145477002250478
 30
0.0
 11
3.896978555060871
 21
-1.145477002250478
 31
0.0
  0
LINE
  5
D5
330
1F
100
AcDbEntity
  8
1
  6
Continuous
 62
     7
 48
0.0007374108989812
370
     0
100
AcDbLine
 10
0.0705506666839267
 20
-1.145477002250478
 30
0.0
 11
0.0705506666839267
 21
1.56007807033928
 31
0.0
  0
LINE
  5
D6
330
1F
100
AcDbEntity
  8
1
  6
Continuous
 62
     7
 48
0.0007374108989812
370
     0
100
AcDbLine
 10
3.896978555060871
 20
-1.145477002250478
 30
0.0
 11
3.896978555060871
 21
1.56007807033928
 31
0.0
  0
LINE
  5
D7
330
1F
100
AcDbEntity
  8
1
  6
Continuous
 62
     7
 48
0.0007374108989812
370
     0
100
AcDbLine
 10
3.896978555060871
 20
1.56007807033928
 30
0.0
 11
0.0705506666839267
 21
1.56007807033928
 31
0.0
  0
POLYLINE
  5
D8
330
1F
100
AcDbEntity
  8
1
  6
Continuous
 62
     7
 48
0.0007374108989812
370
     0
100
AcDb2dPolyline
 66
     1
 10
0.0
 20
0.0
 30
0.0
 70
   128
  0
VERTEX
  5
D9
330
D8
100
AcDbEntity
  8
1
  6
Continuous
 62
     7
 48
0.0007374108989812
100
AcDbVertex
100
AcDb2dVertex
 10
3.059544842116422
 20
-1.119049113873533
 30
0.0
  0
VERTEX
  5
DA
330
D8
100
AcDbEntity
  8
1
  6
Continuous
 62
     7
 48
0.0007374108989812
100
AcDbVertex
100
AcDb2dVertex
 10
3.059544842116422
 20
-1.015980349203447
 30
0.0
  0
VERTEX
  5
DB
330
D8
100
AcDbEntity
  8
1
  6
Continuous
 62
     7
 48
0.0007374108989812
100
AcDbVertex
100
AcDb2dVertex
 10
0.0969785550608715
 20
-1.015980349203447
 30
0.0
  0
SEQEND
  5
DC
330
D8
100
AcDbEntity
  8
1
  6
Continuous
 62
     7
 48
0.0007374108989812
370
     0
  0
LINE
  5
DD
330
1F
100
AcDbEntity
  8
1
  6
Continuous
 62
     7
 48
0.0007374108989812
370
     0
100
AcDbLine
 10
2.293401592253134
 20
-0.912911584533361
 30
0.0
 11
2.293401592253134
 21
-1.119049113873533
 31
0.0
  0
LINE
  5
DE
330
1F
100
AcDbEntity
  8
1
  6
Continuous
 62
     7
 48
0.0007374108989812
370
     0
100
AcDbLine
 10
1.597256743359576
 20
-0.9129115845333616
 30
0.0
 11
1.597256743359576
 21
-1.119049113873534
 31
0.0
  0
TEXT
  5
E0
330
1F
100
AcDbEntity
  8
1
  6
Continuous
 62
     1
420
 16711680
370
     0
100
AcDbText
 10
0.1474674480892718
 20
-0.9980746258571006
 30
0.0
 40
0.051534382335043
  1
SPEED
  7
DC_TEXTSTYLE4
100
AcDbText
  0
TEXT
  5
E1
330
1F
100
AcDbEntity
  8
1
  6
Continuous
 62
     5
420
      255
370
     0
100
AcDbText
 10
0.3944527395687585
 20
-0.9985640142615598
 30
0.0
 40
0.051534382335043
  1
FLOW
  7
DC_TEXTSTYLE4
100
AcDbText
  0
TEXT
  5
E2
330
1F
100
AcDbEntity
  8
1
  6
Continuous
 62
     7
370
     0
100
AcDbText
 10
0.6251500713519166
 20
-0.9988145832264753
 30
0.0
 40
0.051534382335043
  1
PRODUCTS PTY LTD
  7
DC_TEXTSTYLE4
100
AcDbText
  0
LINE
  5
E3
330
1F
100
AcDbEntity
  8
1
  6
Continuous
 62
     7
 48
0.0007374108989812
370
     0
100
AcDbLine
 10
1.403321547420439
 20
-0.9129115845333616
 30
0.0
 11
1.403321547420439
 21
-1.015980349203447
 31
0.0
  0
TEXT
  5
E5
330
1F
100
AcDbEntity
  8
1
  6
Continuous
 62
     7
370
     0
100
AcDbText
 10
1.43686896921768
 20
-0.960251437231449
 30
0.0
 40
0.0257671911675216
  1
MAX 3D
  7
DC_TEXTSTYLE5
100
AcDbText
  0
TEXT
  5
E6
330
1F
100
AcDbEntity
  8
1
  6
Continuous
 62
     7
370
     0
100
AcDbText
 10
1.467813851108215
 20
-1.005165487391776
 30
0.0
 40
0.0257671911675216
  1
V14
  7
DC_TEXTSTYLE5
100
AcDbText
  0
LINE
  5
E7
330
1F
100
AcDbEntity
  8
1
  6
Continuous
 62
     7
 48
0.0007374108989812
370
     0
100
AcDbLine
 10
1.597256743359576
 20
-1.015980349203447
 30
0.0
 11
1.597256743359576
 21
-1.015980349203447
 31
0.0
  0
LINE
  5
E8
330
1F
100
AcDbEntity
  8
1
  6
Continuous
 62
     7
 48
0.0007374108989812
370
     0
100
AcDbLine
 10
2.293401592253134
 20
-1.015980349203447
 30
0.0
 11
2.293401592253134
 21
-1.015980349203447
 31
0.0
  0
TEXT
  5
E9
330
1F
100
AcDbEntity
  8
1
  6
Continuous
 62
     7
370
     0
100
AcDbText
 10
1.623023934527097
 20
-0.9902131580359257
 30
0.0
 40
0.0450925845431626
  1
Drg No: 815-06
  7
DC_TEXTSTYLE5
100
AcDbText
  0
ARC
  5
EA
330
1F
100
AcDbEntity
  8
1
  6
Continuous
 62
     7
 48
0.0007374108989812
370
     0
100
AcDbCircle
 10
0.0969798119970263
 20
1.533648925026181
 30
0.0
 40
0.0000012569361545
100
AcDbArc
 50
90.0
 51
180.0
  0
LINE
  5
EB
330
1F
100
AcDbEntity
  8
1
  6
Continuous
 62
     7
 48
0.0007374108989812
370
     0
100
AcDbLine
 10
0.0969798119970263
 20
1.533650181962335
 30
0.0
 11
3.870549409747772
 21
1.533650181962335
 31
0.0
  0
LINE
  5
EC
330
1F
100
AcDbEntity
  8
1
  6
Continuous
 62
     7
 48
0.0007374108989812
370
     0
100
AcDbLine
 10
3.870550666683926
 20
1.533648925026181
 30
0.0
 11
3.870550666683926
 21
-1.119047856937379
 31
0.0
  0
LINE
  5
ED
330
1F
100
AcDbEntity
  8
1
  6
Continuous
 62
     7
 48
0.0007374108989812
370
     0
100
AcDbLine
 10
3.870549409747772
 20
-1.119049113873533
 30
0.0
 11
0.0969798119970258
 21
-1.119049113873533
 31
0.0
  0
ARC
  5
EE
330
1F
100
AcDbEntity
  8
1
  6
Continuous
 62
     7
 48
0.0007374108989812
370
     0
100
AcDbCircle
 10
0.0969798119970263
 20
-1.119047856937379
 30
0.0
 40
0.0000012569361545
100
AcDbArc
 50
180.0
 51
269.999999977859
  0
LINE
  5
EF
330
1F
100
AcDbEntity
  8
1
  6
Continuous
 62
     7
 48
0.0007374108989812
370
     0
100
AcDbLine
 10
0.0969785550608718
 20
-1.119047856937379
 30
0.0
 11
0.0969785550608718
 21
1.533648925026181
 31
0.0
  0
LINE
  5
F0
330
1F
100
AcDbEntity
  8
1
  6
Continuous
 62
     7
 48
0.0007374108989812
370
     0
100
AcDbLine
 10
1.983764610872399
 20
1.533650181962335
 30
0.0
 11
1.9837646108724
 21
1.56007807033928
 31
0.0
  0
LINE
  5
F1
330
1F
100
AcDbEntity
  8
1
  6
Continuous
 62
     7
 48
0.0007374108989812
370
     0
100
AcDbLine
 10
3.870550666683926
 20
0.3103692987144863
 30
0.0
 11
3.896978555060871
 21
0.310369298714486
 31
0.0
  0
LINE
  5
F2
330
1F
100
AcDbEntity
  8
1
  6
Continuous
 62
     7
 48
0.0007374108989812
370
     0
100
AcDbLine
 10
0.0969785550608715
 20
0.310369298714486
 30
0.0
 11
0.0705506666839267
 21
0.310369298714486
 31
0.0
  0
POLYLINE
  5
F3
330
1F
100
AcDbEntity
  8
1
  6
Continuous
 62
     7
 48
0.0007374108989812
370
     0
100
AcDb2dPolyline
 66
     1
 10
0.0
 20
0.0
 30
0.0
 70
   128
  0
VERTEX
  5
F4
330
F3
100
AcDbEntity
  8
1
  6
Continuous
 62
     7
 48
0.0007374108989812
100
AcDbVertex
100
AcDb2dVertex
 10
3.059544842116422
 20
-1.015980349203447
 30
0.0
  0
VERTEX
  5
F5
330
F3
100
AcDbEntity
  8
1
  6
Continuous
 62
     7
 48
0.0007374108989812
100
AcDbVertex
100
AcDb2dVertex
 10
3.059544842116422
 20
-0.9129115845333612
 30
0.0
  0
VERTEX
  5
F6
330
F3
100
AcDbEntity
  8
1
  6
Continuous
 62
     7
 48
0.0007374108989812
100
AcDbVertex
100
AcDb2dVertex
 10
0.0969785550608715
 20
-0.9129115845333615
 30
0.0
  0
SEQEND
  5
F7
330
F3
100
AcDbEntity
  8
1
  6
Continuous
 62
     7
 48
0.0007374108989812
370
     0
  0
POLYLINE
  5
F8
330
1F
100
AcDbEntity
  8
1
  6
Continuous
 62
     7
 48
0.0003687054494906
370
     0
100
AcDb2dPolyline
 66
     1
 10
0.0
 20
0.0
 30
0.0
 70
   128
  0
VERTEX
  5
F9
330
F8
100
AcDbEntity
  8
1
  6
Continuous
 62
     7
 48
0.0003687054494906
100
AcDbVertex
100
AcDb2dVertex
 10
0.0969785550608721
 20
1.459282881360445
 30
0.0
  0
VERTEX
  5
FA
330
F8
100
AcDbEntity
  8
1
  6
Continuous
 62
     7
 48
0.0003687054494906
100
AcDbVertex
100
AcDb2dVertex
 10
0.7211722436638446
 20
1.459282881360444
 30
0.0
  0
VERTEX
  5
FB
330
F8
100
AcDbEntity
  8
1
  6
Continuous
 62
     7
 48
0.0003687054494906
100
AcDbVertex
100
AcDb2dVertex
 10
0.7211722436638446
 20
1.533650181962335
 30
0.0
  0
SEQEND
  5
FC
330
F8
100
AcDbEntity
  8
1
  6
Continuous
 62
     7
 48
0.0003687054494906
370
     0
  0
POLYLINE
  5
FD
330
1F
100
AcDbEntity
  8
1
  6
Continuous
 62
     7
 48
0.0036870544949059
370
     0
100
AcDb2dPolyline
 66
     1
 10
0.0
 20
0.0
 30
0.0
 70
   128
  0
VERTEX
  5
FE
330
FD
100
AcDbEntity
  8
1
  6
Continuous
 62
     7
 48
0.0036870544949059
100
AcDbVertex
100
AcDb2dVertex
 10
3.735288139182949
 20
1.533649176413412
 30
0.0
  0
VERTEX
  5
FF
330
FD
100
AcDbEntity
  8
1
  6
Continuous
 62
     7
 48
0.0036870544949059
100
AcDbVertex
100
AcDb2dVertex
 10
3.735288139182949
 20
1.4514447432922
 30
0.0
  0
VERTEX
  5
100
330
FD
100
AcDbEntity
  8
1
  6
Continuous
 62
     7
 48
0.0036870544949059
100
AcDbVertex
100
AcDb2dVertex
 10
3.870549409747771
 20
1.4514447432922
 30
0.0
  0
SEQEND
  5
101
330
FD
100
AcDbEntity
  8
1
  6
Continuous
 62
     7
 48
0.0036870544949059
370
     0
  0
LINE
  5
102
330
1F
100
AcDbEntity
  8
1
  6
Continuous
 62
     7
 48
0.0007374108989812
370
     0
100
AcDbLine
 10
3.059544842116422
 20
-0.9129115845333612
 30
0.0
 11
3.870550666683926
 21
-0.9129115845333612
 31
0.0
  0
TEXT
  5
103
330
1F
100
AcDbEntity
  8
1
  6
Continuous
 62
     7
370
     0
100
AcDbText
 10
2.319168783420655
 20
-0.9902131580359256
 30
0.0
 40
0.0450925845431626
  1
Drg Date: 27/07/2017
  7
DC_TEXTSTYLE5
100
AcDbText
  0
TEXT
  5
104
330
1F
100
AcDbEntity
  8
1
  6
Continuous
 62
     5
420
      255
370
     0
100
AcDbText
 10
0.1147635371882863
 20
1.475427676214897
 30
0.0
 40
0.0335528470833698
  1
-6 AN MALE FLARE UNION
  7
DC_TEXTSTYLE5
100
AcDbText
  0
TEXT
  5
106
330
1F
100
AcDbEntity
  8
1
  6
DASHED
 62
     1
420
 16711680
370
     0
100
AcDbText
 10
3.77027947837365
 20
1.467885629916439
 30
0.0
 40
0.036069310614622
  1
A4
 41
1.000000000000003
  7
DC_TEXTSTYLE6
 72
     1
 11
3.80291877446536
 21
1.467885629916439
 31
0.0
100
AcDbText
  0
LINE
  5
107
330
1F
100
AcDbEntity
  8
1
  6
Continuous
 62
     7
 48
0.0022019092430147
370
     0
100
AcDbLine
 10
3.735288139182949
 20
1.4514447432922
 30
0.0
 11
3.50590632100113
 21
1.4514447432922
 31
0.0
  0
LINE
  5
108
330
1F
100
AcDbEntity
  8
1
  6
CENTER
 62
    94
420
    37376
 48
0.0552727272727273
370
     0
100
AcDbLine
 10
3.583842884379207
 20
1.492546959852806
 30
0.0
 11
3.523144698715815
 21
1.492546959852806
 31
0.0
  0
POLYLINE
  5
109
330
1F
100
AcDbEntity
  8
1
  6
Continuous
 62
     7
 48
0.0022019092430147
370
     0
100
AcDb2dPolyline
 66
     1
 10
0.0
 20
0.0
 30
0.0
  0
VERTEX
  5
10A
330
109
100
AcDbEntity
  8
1
  6
Continuous
 62
     7
 48
0.0022019092430147
100
AcDbVertex
100
AcDb2dVertex
 10
3.707651775546587
 20
1.514656050761897
 30
0.0
 40
0.003496
 41
0.003496
  0
VERTEX
  5
10B
330
109
100
AcDbEntity
  8
1
  6
Continuous
 62
     7
 48
0.0022019092430147
100
AcDbVertex
100
AcDb2dVertex
 10
3.707651775546587
 20
1.470437868943715
 30
0.0
 40
0.003496
 41
0.003496
  0
SEQEND
  5
10C
330
109
100
AcDbEntity
  8
1
  6
Continuous
 62
     7
 48
0.0022019092430147
370
     0
  0
POLYLINE
  5
10D
330
1F
100
AcDbEntity
  8
1
  6
Continuous
 62
     7
 48
0.0022019092430147
370
     0
100
AcDb2dPolyline
 66
     1
 10
0.0
 20
0.0
 30
0.0
  0
VERTEX
  5
10E
330
10D
100
AcDbEntity
  8
1
  6
Continuous
 62
     7
 48
0.0022019092430147
100
AcDbVertex
100
AcDb2dVertex
 10
3.624742684637495
 20
1.506365141670988
 30
0.0
 40
0.003496
 41
0.003496
  0
VERTEX
  5
10F
330
10D
100
AcDbEntity
  8
1
  6
Continuous
 62
     7
 48
0.0022019092430147
100
AcDbVertex
100
AcDb2dVertex
 10
3.624742684637495
 20
1.478728778034624
 30
0.0
 40
0.003496
 41
0.003496
  0
SEQEND
  5
110
330
10D
100
AcDbEntity
  8
1
  6
Continuous
 62
     7
 48
0.0022019092430147
370
     0
  0
POLYLINE
  5
111
330
1F
100
AcDbEntity
  8
1
  6
Continuous
 62
     7
 48
0.0022019092430147
370
     0
100
AcDb2dPolyline
 66
     1
 10
0.0
 20
0.0
 30
0.0
  0
VERTEX
  5
112
330
111
100
AcDbEntity
  8
1
  6
Continuous
 62
     7
 48
0.0022019092430147
100
AcDbVertex
100
AcDb2dVertex
 10
3.624742684637495
 20
1.506365141670988
 30
0.0
 40
0.003496
 41
0.003496
  0
VERTEX
  5
113
330
111
100
AcDbEntity
  8
1
  6
Continuous
 62
     7
 48
0.0022019092430147
100
AcDbVertex
100
AcDb2dVertex
 10
3.707651775546587
 20
1.514656050761897
 30
0.0
 40
0.003496
 41
0.003496
  0
SEQEND
  5
114
330
111
100
AcDbEntity
  8
1
  6
Continuous
 62
     7
 48
0.0022019092430147
370
     0
  0
POLYLINE
  5
115
330
1F
100
AcDbEntity
  8
1
  6
Continuous
 62
     7
 48
0.0022019092430147
370
     0
100
AcDb2dPolyline
 66
     1
 10
0.0
 20
0.0
 30
0.0
  0
VERTEX
  5
116
330
115
100
AcDbEntity
  8
1
  6
Continuous
 62
     7
 48
0.0022019092430147
100
AcDbVertex
100
AcDb2dVertex
 10
3.624742684637495
 20
1.478728778034624
 30
0.0
 40
0.003496
 41
0.003496
  0
VERTEX
  5
117
330
115
100
AcDbEntity
  8
1
  6
Continuous
 62
     7
 48
0.0022019092430147
100
AcDbVertex
100
AcDb2dVertex
 10
3.707651775546587
 20
1.470437868943715
 30
0.0
 40
0.003496
 41
0.003496
  0
SEQEND
  5
118
330
115
100
AcDbEntity
  8
1
  6
Continuous
 62
     7
 48
0.0022019092430147
370
     0
  0
LINE
  5
119
330
1F
100
AcDbEntity
  8
1
  6
CENTER
 62
    94
420
    37376
 48
0.0552727272727273
370
     0
100
AcDbLine
 10
3.555651775546587
 20
1.52018332348917
 30
0.0
 11
3.555651775546587
 21
1.464910596216443
 31
0.0
  0
LINE
  5
11A
330
1F
100
AcDbEntity
  8
1
  6
Continuous
 62
     7
 48
0.0022019092430147
370
     0
100
AcDbLine
 10
3.50590632100113
 20
1.4514447432922
 30
0.0
 11
3.505906321001129
 21
1.533650181962334
 31
0.0
  0
LINE
  5
11B
330
1F
100
AcDbEntity
  8
1
  6
Continuous
 62
     7
 48
0.0022019092430147
370
     0
100
AcDbLine
 10
3.50590632100113
 20
1.407226561474019
 30
0.0
 11
3.870550415296696
 21
1.407226561474019
 31
0.0
  0
TEXT
  5
11C
330
1F
100
AcDbEntity
  8
1
  6
DASHED
 62
     7
370
     0
100
AcDbText
 10
3.516138439919907
 20
1.413859288080053
 30
0.0
 40
0.0198981818181815
  1
3RD ANGLE PROJECTION
 41
1.000000000000007
  7
DC_TEXTSTYLE5
 72
     1
 11
3.688227865374451
 21
1.413859288080053
 31
0.0
100
AcDbText
  0
LINE
  5
11D
330
1F
100
AcDbEntity
  8
1
  6
Continuous
 62
     7
 48
0.0022019092430147
370
     0
100
AcDbLine
 10
3.50590632100113
 20
1.4514447432922
 30
0.0
 11
3.50590632100113
 21
1.407226561474019
 31
0.0
  0
TEXT
  5
11E
330
1F
100
AcDbEntity
  8
1
  6
Continuous
 62
     7
370
     0
100
AcDbText
 10
2.080255194888595
 20
-0.8988808153177915
 30
0.0
 40
0.0280615384311384
  1
MK #
 41
1.0
  7
DC_TEXTSTYLE4
100
AcDbText
  0
TEXT
  5
11F
330
1F
100
AcDbEntity
  8
1
  6
Continuous
 62
     7
370
     0
100
AcDbText
 10
2.199791079409276
 20
-0.8988808153177915
 30
0.0
 40
0.0280615384311384
  1
QTY
 41
1.000000000000001
  7
DC_TEXTSTYLE4
100
AcDbText
  0
TEXT
  5
120
330
1F
100
AcDbEntity
  8
1
  6
Continuous
 62
     7
370
     0
100
AcDbText
 10
2.308431561953568
 20
-0.8988808153177915
 30
0.0
 40
0.0280615384311384
  1
PART #
 41
0.9999999999999999
  7
DC_TEXTSTYLE4
100
AcDbText
  0
TEXT
  5
121
330
1F
100
AcDbEntity
  8
1
  6
Continuous
 62
     7
370
     0
100
AcDbText
 10
2.554916972312326
 20
-0.8988808153177912
 30
0.0
 40
0.0280615384311384
  1
DESCRIPTION
 41
0.9999999999999996
  7
DC_TEXTSTYLE4
100
AcDbText
  0
TEXT
  5
122
330
1F
100
AcDbEntity
  8
1
  6
Continuous
 62
     7
370
     0
100
AcDbText
 10
3.073575611331991
 20
-0.8988808153177915
 30
0.0
 40
0.0280615384311384
  1
MATERIAL
 41
0.9999999999999993
  7
DC_TEXTSTYLE4
100
AcDbText
  0
TEXT
  5
123
330
1F
100
AcDbEntity
  8
1
  6
Continuous
 62
     7
370
     0
100
AcDbText
 10
2.114255194888595
 20
-0.8427577384555146
 30
0.0
 40
0.0280615384311385
  1
1
 41
1.000000000000003
  7
DC_TEXTSTYLE5
100
AcDbText
  0
TEXT
  5
124
330
1F
100
AcDbEntity
  8
1
  6
Continuous
 62
     7
370
     0
100
AcDbText
 10
2.233791079409276
 20
-0.8427577384555146
 30
0.0
 40
0.0280615384311385
  1
1
 41
1.000000000000004
  7
DC_TEXTSTYLE5
100
AcDbText
  0
TEXT
  5
125
330
1F
100
AcDbEntity
  8
1
  6
Continuous
 62
     7
370
     0
100
AcDbText
 10
2.308431561953568
 20
-0.8427577384555146
 30
0.0
 40
0.0280615384311385
  1
815-06
 41
1.000000000000003
  7
DC_TEXTSTYLE5
100
AcDbText
  0
TEXT
  5
126
330
1F
100
AcDbEntity
  8
1
  6
Continuous
 62
     7
370
     0
100
AcDbText
 10
2.554916972312326
 20
-0.8427577384555145
 30
0.0
 40
0.0280615384311385
  1
-6 AN MALE FLARE UNION
 41
0.9999999999999996
  7
DC_TEXTSTYLE5
100
AcDbText
  0
TEXT
  5
127
330
1F
100
AcDbEntity
  8
1
  6
Continuous
 62
     7
370
     0
100
AcDbText
 10
3.07148269964719
 20
-0.8433595014540569
 30
0.0
 40
0.0280615384311385
  1
ALLOY
 41
0.9999999999999993
  7
DC_TEXTSTYLE5
100
AcDbText
  0
LINE
  5
128
330
1F
100
AcDbEntity
  8
1
  6
Continuous
 62
     7
 48
0.0022019092430147
370
     0
100
AcDbLine
 10
3.870550666683926
 20
-0.8006654308088071
 30
0.0
 11
2.066224425673026
 21
-0.8006654308088075
 31
0.0
  0
LINE
  5
129
330
1F
100
AcDbEntity
  8
1
  6
CENTER
 62
    94
420
    37376
 48
0.0552727272727273
370
     0
100
AcDbLine
 10
3.714931615319118
 20
1.492546959852806
 30
0.0
 11
3.616608416246118
 21
1.492546959852806
 31
0.0
  0
LINE
  5
12A
330
1F
100
AcDbEntity
  8
1
  6
Continuous
 62
     7
 48
0.0022019092430147
370
     0
100
AcDbLine
 10
2.066224425673026
 20
-0.9129115845333609
 30
0.0
 11
2.066224425673026
 21
-0.856788507671084
 31
0.0
  0
LINE
  5
12B
330
1F
100
AcDbEntity
  8
1
  6
Continuous
 62
     7
 48
0.0022019092430147
370
     0
100
AcDbLine
 10
3.870550666683926
 20
-0.9129115845333612
 30
0.0
 11
3.870550666683926
 21
-0.8567885076710843
 31
0.0
  0
LINE
  5
12C
330
1F
100
AcDbEntity
  8
1
  6
Continuous
 62
     7
 48
0.0022019092430147
370
     0
100
AcDbLine
 10
2.329399993222864
 20
-0.9129115845333613
 30
0.0
 11
3.870550666683926
 21
-0.9129115845333613
 31
0.0
  0
LINE
  5
12D
330
1F
100
AcDbEntity
  8
1
  6
Continuous
 62
     7
 48
0.0022019092430147
370
     0
100
AcDbLine
 10
3.870550666683926
 20
-0.8567885076710843
 30
0.0
 11
2.066224425673026
 21
-0.8567885076710846
 31
0.0
  0
LINE
  5
12E
330
1F
100
AcDbEntity
  8
1
  6
Continuous
 62
     7
 48
0.0022019092430147
370
     0
100
AcDbLine
 10
2.066224425673026
 20
-0.856788507671084
 30
0.0
 11
2.066224425673026
 21
-0.800665430808807
 31
0.0
  0
LINE
  5
12F
330
1F
100
AcDbEntity
  8
1
  6
Continuous
 62
     7
 48
0.0022019092430147
370
     0
100
AcDbLine
 10
3.870550666683926
 20
-0.8006654308088071
 30
0.0
 11
3.870550666683926
 21
-0.8567885076710843
 31
0.0
  0
LINE
  5
130
330
1F
100
AcDbEntity
  8
1
  6
Continuous
 62
     7
 48
0.0022019092430147
370
     0
100
AcDbLine
 10
2.185760310193707
 20
-0.9129115845333612
 30
0.0
 11
2.185760310193707
 21
-0.856788507671084
 31
0.0
  0
LINE
  5
131
330
1F
100
AcDbEntity
  8
1
  6
Continuous
 62
     7
 48
0.0022019092430147
370
     0
100
AcDbLine
 10
2.294400792737999
 20
-0.9129115845333612
 30
0.0
 11
2.294400792737999
 21
-0.856788507671084
 31
0.0
  0
LINE
  5
132
330
1F
100
AcDbEntity
  8
1
  6
Continuous
 62
     7
 48
0.0022019092430147
370
     0
100
AcDbLine
 10
2.540886203096756
 20
-0.9129115845333609
 30
0.0
 11
2.540886203096756
 21
-0.8567885076710839
 31
0.0
  0
LINE
  5
133
330
1F
100
AcDbEntity
  8
1
  6
Continuous
 62
     7
 48
0.0022019092430147
370
     0
100
AcDbLine
 10
3.059544842116422
 20
-0.9129115845333612
 30
0.0
 11
3.059544842116422
 21
-0.8567885076710836
 31
0.0
  0
LINE
  5
134
330
1F
100
AcDbEntity
  8
1
  6
Continuous
 62
     7
 48
0.0022019092430147
370
     0
100
AcDbLine
 10
2.185760310193707
 20
-0.856788507671084
 30
0.0
 11
2.185760310193707
 21
-0.8006654308088074
 31
0.0
  0
LINE
  5
135
330
1F
100
AcDbEntity
  8
1
  6
Continuous
 62
     7
 48
0.0022019092430147
370
     0
100
AcDbLine
 10
2.294400792737999
 20
-0.856788507671084
 30
0.0
 11
2.294400792737999
 21
-0.8006654308088074
 31
0.0
  0
LINE
  5
136
330
1F
100
AcDbEntity
  8
1
  6
Continuous
 62
     7
 48
0.0022019092430147
370
     0
100
AcDbLine
 10
2.540886203096756
 20
-0.8567885076710839
 30
0.0
 11
2.540886203096756
 21
-0.8006654308088075
 31
0.0
  0
LINE
  5
137
330
1F
100
AcDbEntity
  8
1
  6
Continuous
 62
     7
 48
0.0022019092430147
370
     0
100
AcDbLine
 10
3.059544842116422
 20
-0.8567885076710836
 30
0.0
 11
3.059544842116422
 21
-0.8006654308088071
 31
0.0
  0
TEXT
  5
138
330
1F
100
AcDbEntity
  8
1
  6
Continuous
 62
     7
370
     0
100
AcDbText
 10
3.326446844339437
 20
-0.8988808153177921
 30
0.0
 40
0.0280615384311384
  1
SURFACE CONDITION
 41
1.000000000000001
  7
DC_TEXTSTYLE4
100
AcDbText
  0
TEXT
  5
139
330
1F
100
AcDbEntity
  8
1
  6
Continuous
 62
     7
370
     0
100
AcDbText
 10
3.326446844339437
 20
-0.8427577384555152
 30
0.0
 40
0.0280615384311385
  1
HARD COAT ANODIZED
 41
1.000000000000004
  7
DC_TEXTSTYLE5
100
AcDbText
  0
LINE
  5
13A
330
1F
100
AcDbEntity
  8
1
  6
Continuous
 62
     7
 48
0.0022019092430147
370
     0
100
AcDbLine
 10
3.312416075123868
 20
-0.9129115845333616
 30
0.0
 11
3.312416075123868
 21
-0.8567885076710846
 31
0.0
  0
LINE
  5
13B
330
1F
100
AcDbEntity
  8
1
  6
Continuous
 62
     7
 48
0.0022019092430147
370
     0
100
AcDbLine
 10
3.312416075123868
 20
-0.8567885076710846
 30
0.0
 11
3.312416075123868
 21
-0.8006654308088078
 31
0.0
  0
LINE
  5
13C
330
1F
100
AcDbEntity
  8
1
  6
Continuous
 62
     7
 48
0.0022019092430147
370
     0
100
AcDbLine
 10
3.870550666683926
 20
-0.8006654308088071
 30
0.0
 11
2.100224425673026
 21
-0.8006654308088075
 31
0.0
  0
LINE
  5
13D
330
1F
100
AcDbEntity
  8
1
  6
Continuous
 62
     7
 48
0.0022019092430147
370
     0
100
AcDbLine
 10
3.870550666683926
 20
-0.7445423539465301
 30
0.0
 11
3.870550666683926
 21
-0.8006654308088071
 31
0.0
  0
LINE
  5
13E
330
1F
100
AcDbEntity
  8
1
  6
Continuous
 62
     7
 48
0.0007374108989812
370
     0
100
AcDbLine
 10
0.8085667918868247
 20
-1.119049113873534
 30
0.0
 11
0.8085667918868247
 21
-1.015980349203447
 31
0.0
  0
TEXT
  5
13F
330
1F
100
AcDbEntity
  8
1
  6
Continuous
 62
     7
370
     0
100
AcDbText
 10
2.319168783420655
 20
-1.093281922706011
 30
0.0
 40
0.0450925845431626
  1
.
  7
DC_TEXTSTYLE5
100
AcDbText
  0
TEXT
  5
140
330
1F
100
AcDbEntity
  8
1
  6
Continuous
 62
    94
420
    37376
370
     0
100
AcDbText
 10
1.623023934527097
 20
-1.093281922706012
 30
0.0
 40
0.0450925845431626
  1
.
  7
DC_TEXTSTYLE5
100
AcDbText
  0
TEXT
  5
141
330
1F
100
AcDbEntity
  8
1
  6
Continuous
 62
    94
420
    37376
370
     0
100
AcDbText
 10
0.8343339830543463
 20
-1.093281922706012
 30
0.0
 40
0.0450925845431626
  1
.
  7
DC_TEXTSTYLE5
100
AcDbText
  0
TEXT
  5
142
330
1F
100
AcDbEntity
  8
1
  6
Continuous
 62
    94
420
    37376
370
     0
100
AcDbText
 10
0.1478522401864912
 20
-1.093281922706012
 30
0.0
 40
0.0450925845431626
  1
.
  7
DC_TEXTSTYLE5
100
AcDbText
  0
ARC
  5
143
330
1F
100
AcDbEntity
  8
1
  6
Continuous
 62
     7
 48
0.0007374108989812
370
     0
100
AcDbCircle
 10
3.870549409747771
 20
1.533649176413412
 30
0.0
 40
0.0000010055489232
100
AcDbArc
 50
0.0
 51
89.99999997469598
  0
POLYLINE
  5
144
330
1F
100
AcDbEntity
  8
1
  6
Continuous
 62
     7
 48
0.0022019092430147
370
     0
100
AcDb2dPolyline
 66
     1
 10
0.0
 20
0.0
 30
0.0
 70
   129
  0
VERTEX
  5
145
330
144
100
AcDbEntity
  8
1
  6
Continuous
 62
     7
 48
0.0022019092430147
100
AcDbVertex
100
AcDb2dVertex
 10
3.577760866455679
 20
1.492546959852806
 30
0.0
 40
0.003496
 41
0.003496
  0
VERTEX
  5
146
330
144
100
AcDbEntity
  8
1
  6
Continuous
 62
     7
 48
0.0022019092430147
100
AcDbVertex
100
AcDb2dVertex
 10
3.577424979685913
 20
1.496386163199042
 30
0.0
 40
0.003496
 41
0.003496
  0
VERTEX
  5
147
330
144
100
AcDbEntity
  8
1
  6
Continuous
 62
     7
 48
0.0022019092430147
100
AcDbVertex
100
AcDb2dVertex
 10
3.576427525126146
 20
1.500108714294334
 30
0.0
 40
0.003496
 41
0.003496
  0
VERTEX
  5
148
330
144
100
AcDbEntity
  8
1
  6
Continuous
 62
     7
 48
0.0022019092430147
100
AcDbVertex
100
AcDb2dVertex
 10
3.57479880992844
 20
1.503601505307352
 30
0.0
 40
0.003496
 41
0.003496
  0
VERTEX
  5
149
330
144
100
AcDbEntity
  8
1
  6
Continuous
 62
     7
 48
0.0022019092430147
100
AcDbVertex
100
AcDb2dVertex
 10
3.572588321779909
 20
1.506758409550603
 30
0.0
 40
0.003496
 41
0.003496
  0
VERTEX
  5
14A
330
144
100
AcDbEntity
  8
1
  6
Continuous
 62
     7
 48
0.0022019092430147
100
AcDbVertex
100
AcDb2dVertex
 10
3.569863225244385
 20
1.509483506086128
 30
0.0
 40
0.003496
 41
0.003496
  0
VERTEX
  5
14B
330
144
100
AcDbEntity
  8
1
  6
Continuous
 62
     7
 48
0.0022019092430147
100
AcDbVertex
100
AcDb2dVertex
 10
3.566706321001133
 20
1.511693994234659
 30
0.0
 40
0.003496
 41
0.003496
  0
VERTEX
  5
14C
330
144
100
AcDbEntity
  8
1
  6
Continuous
 62
     7
 48
0.0022019092430147
100
AcDbVertex
100
AcDb2dVertex
 10
3.563213529988115
 20
1.513322709432364
 30
0.0
 40
0.003496
 41
0.003496
  0
VERTEX
  5
14D
330
144
100
AcDbEntity
  8
1
  6
Continuous
 62
     7
 48
0.0022019092430147
100
AcDbVertex
100
AcDb2dVertex
 10
3.559490978892823
 20
1.514320163992131
 30
0.0
 40
0.003496
 41
0.003496
  0
VERTEX
  5
14E
330
144
100
AcDbEntity
  8
1
  6
Continuous
 62
     7
 48
0.0022019092430147
100
AcDbVertex
100
AcDb2dVertex
 10
3.555651775546587
 20
1.514656050761898
 30
0.0
 40
0.003496
 41
0.003496
  0
VERTEX
  5
14F
330
144
100
AcDbEntity
  8
1
  6
Continuous
 62
     7
 48
0.0022019092430147
100
AcDbVertex
100
AcDb2dVertex
 10
3.551812572200351
 20
1.514320163992131
 30
0.0
 40
0.003496
 41
0.003496
  0
VERTEX
  5
150
330
144
100
AcDbEntity
  8
1
  6
Continuous
 62
     7
 48
0.0022019092430147
100
AcDbVertex
100
AcDb2dVertex
 10
3.548090021105059
 20
1.513322709432364
 30
0.0
 40
0.003496
 41
0.003496
  0
VERTEX
  5
151
330
144
100
AcDbEntity
  8
1
  6
Continuous
 62
     7
 48
0.0022019092430147
100
AcDbVertex
100
AcDb2dVertex
 10
3.544597230092041
 20
1.511693994234659
 30
0.0
 40
0.003496
 41
0.003496
  0
VERTEX
  5
152
330
144
100
AcDbEntity
  8
1
  6
Continuous
 62
     7
 48
0.0022019092430147
100
AcDbVertex
100
AcDb2dVertex
 10
3.541440325848789
 20
1.509483506086128
 30
0.0
 40
0.003496
 41
0.003496
  0
VERTEX
  5
153
330
144
100
AcDbEntity
  8
1
  6
Continuous
 62
     7
 48
0.0022019092430147
100
AcDbVertex
100
AcDb2dVertex
 10
3.538715229313265
 20
1.506758409550603
 30
0.0
 40
0.003496
 41
0.003496
  0
VERTEX
  5
154
330
144
100
AcDbEntity
  8
1
  6
Continuous
 62
     7
 48
0.0022019092430147
100
AcDbVertex
100
AcDb2dVertex
 10
3.536504741164734
 20
1.503601505307352
 30
0.0
 40
0.003496
 41
0.003496
  0
VERTEX
  5
155
330
144
100
AcDbEntity
  8
1
  6
Continuous
 62
     7
 48
0.0022019092430147
100
AcDbVertex
100
AcDb2dVertex
 10
3.534876025967028
 20
1.500108714294334
 30
0.0
 40
0.003496
 41
0.003496
  0
VERTEX
  5
156
330
144
100
AcDbEntity
  8
1
  6
Continuous
 62
     7
 48
0.0022019092430147
100
AcDbVertex
100
AcDb2dVertex
 10
3.533878571407261
 20
1.496386163199042
 30
0.0
 40
0.003496
 41
0.003496
  0
VERTEX
  5
157
330
144
100
AcDbEntity
  8
1
  6
Continuous
 62
     7
 48
0.0022019092430147
100
AcDbVertex
100
AcDb2dVertex
 10
3.533542684637495
 20
1.492546959852806
 30
0.0
 40
0.003496
 41
0.003496
  0
VERTEX
  5
158
330
144
100
AcDbEntity
  8
1
  6
Continuous
 62
     7
 48
0.0022019092430147
100
AcDbVertex
100
AcDb2dVertex
 10
3.533878571407261
 20
1.48870775650657
 30
0.0
 40
0.003496
 41
0.003496
  0
VERTEX
  5
159
330
144
100
AcDbEntity
  8
1
  6
Continuous
 62
     7
 48
0.0022019092430147
100
AcDbVertex
100
AcDb2dVertex
 10
3.534876025967028
 20
1.484985205411278
 30
0.0
 40
0.003496
 41
0.003496
  0
VERTEX
  5
15A
330
144
100
AcDbEntity
  8
1
  6
Continuous
 62
     7
 48
0.0022019092430147
100
AcDbVertex
100
AcDb2dVertex
 10
3.536504741164734
 20
1.48149241439826
 30
0.0
 40
0.003496
 41
0.003496
  0
VERTEX
  5
15B
330
144
100
AcDbEntity
  8
1
  6
Continuous
 62
     7
 48
0.0022019092430147
100
AcDbVertex
100
AcDb2dVertex
 10
3.538715229313265
 20
1.478335510155009
 30
0.0
 40
0.003496
 41
0.003496
  0
VERTEX
  5
15C
330
144
100
AcDbEntity
  8
1
  6
Continuous
 62
     7
 48
0.0022019092430147
100
AcDbVertex
100
AcDb2dVertex
 10
3.541440325848789
 20
1.475610413619484
 30
0.0
 40
0.003496
 41
0.003496
  0
VERTEX
  5
15D
330
144
100
AcDbEntity
  8
1
  6
Continuous
 62
     7
 48
0.0022019092430147
100
AcDbVertex
100
AcDb2dVertex
 10
3.544597230092041
 20
1.473399925470953
 30
0.0
 40
0.003496
 41
0.003496
  0
VERTEX
  5
15E
330
144
100
AcDbEntity
  8
1
  6
Continuous
 62
     7
 48
0.0022019092430147
100
AcDbVertex
100
AcDb2dVertex
 10
3.548090021105059
 20
1.471771210273248
 30
0.0
 40
0.003496
 41
0.003496
  0
VERTEX
  5
15F
330
144
100
AcDbEntity
  8
1
  6
Continuous
 62
     7
 48
0.0022019092430147
100
AcDbVertex
100
AcDb2dVertex
 10
3.551812572200351
 20
1.470773755713481
 30
0.0
 40
0.003496
 41
0.003496
  0
VERTEX
  5
160
330
144
100
AcDbEntity
  8
1
  6
Continuous
 62
     7
 48
0.0022019092430147
100
AcDbVertex
100
AcDb2dVertex
 10
3.555651775546587
 20
1.470437868943715
 30
0.0
 40
0.003496
 41
0.003496
  0
VERTEX
  5
161
330
144
100
AcDbEntity
  8
1
  6
Continuous
 62
     7
 48
0.0022019092430147
100
AcDbVertex
100
AcDb2dVertex
 10
3.559490978892823
 20
1.470773755713481
 30
0.0
 40
0.003496
 41
0.003496
  0
VERTEX
  5
162
330
144
100
AcDbEntity
  8
1
  6
Continuous
 62
     7
 48
0.0022019092430147
100
AcDbVertex
100
AcDb2dVertex
 10
3.563213529988115
 20
1.471771210273248
 30
0.0
 40
0.003496
 41
0.003496
  0
VERTEX
  5
163
330
144
100
AcDbEntity
  8
1
  6
Continuous
 62
     7
 48
0.0022019092430147
100
AcDbVertex
100
AcDb2dVertex
 10
3.566706321001133
 20
1.473399925470953
 30
0.0
 40
0.003496
 41
0.003496
  0
VERTEX
  5
164
330
144
100
AcDbEntity
  8
1
  6
Continuous
 62
     7
 48
0.0022019092430147
100
AcDbVertex
100
AcDb2dVertex
 10
3.569863225244385
 20
1.475610413619484
 30
0.0
 40
0.003496
 41
0.003496
  0
VERTEX
  5
165
330
144
100
AcDbEntity
  8
1
  6
Continuous
 62
     7
 48
0.0022019092430147
100
AcDbVertex
100
AcDb2dVertex
 10
3.572588321779909
 20
1.478335510155009
 30
0.0
 40
0.003496
 41
0.003496
  0
VERTEX
  5
166
330
144
100
AcDbEntity
  8
1
  6
Continuous
 62
     7
 48
0.0022019092430147
100
AcDbVertex
100
AcDb2dVertex
 10
3.57479880992844
 20
1.48149241439826
 30
0.0
 40
0.003496
 41
0.003496
  0
VERTEX
  5
167
330
144
100
AcDbEntity
  8
1
  6
Continuous
 62
     7
 48
0.0022019092430147
100
AcDbVertex
100
AcDb2dVertex
 10
3.576427525126146
 20
1.484985205411278
 30
0.0
 40
0.003496
 41
0.003496
  0
VERTEX
  5
168
330
144
100
AcDbEntity
  8
1
  6
Continuous
 62
     7
 48
0.0022019092430147
100
AcDbVertex
100
AcDb2dVertex
 10
3.577424979685913
 20
1.48870775650657
 30
0.0
 40
0.003496
 41
0.003496
  0
VERTEX
  5
169
330
144
100
AcDbEntity
  8
1
  6
Continuous
 62
     7
 48
0.0022019092430147
100
AcDbVertex
100
AcDb2dVertex
 10
3.577760866455679
 20
1.492546959852806
 30
0.0
 40
0.003496
 41
0.003496
  0
SEQEND
  5
16A
330
144
100
AcDbEntity
  8
1
  6
Continuous
 62
     7
 48
0.0022019092430147
370
     0
  0
POLYLINE
  5
16B
330
1F
100
AcDbEntity
  8
1
  6
Continuous
 62
     7
 48
0.0022019092430147
370
     0
100
AcDb2dPolyline
 66
     1
 10
0.0
 20
0.0
 30
0.0
 70
   129
  0
VERTEX
  5
16C
330
16B
100
AcDbEntity
  8
1
  6
Continuous
 62
     7
 48
0.0022019092430147
100
AcDbVertex
100
AcDb2dVertex
 10
3.569469957364769
 20
1.492546959852806
 30
0.0
 40
0.003496
 41
0.003496
  0
VERTEX
  5
16D
330
16B
100
AcDbEntity
  8
1
  6
Continuous
 62
     7
 48
0.0022019092430147
100
AcDbVertex
100
AcDb2dVertex
 10
3.569260028133665
 20
1.494946461944204
 30
0.0
 40
0.003496
 41
0.003496
  0
VERTEX
  5
16E
330
16B
100
AcDbEntity
  8
1
  6
Continuous
 62
     7
 48
0.0022019092430147
100
AcDbVertex
100
AcDb2dVertex
 10
3.568636619033811
 20
1.497273056378761
 30
0.0
 40
0.003496
 41
0.003496
  0
VERTEX
  5
16F
330
16B
100
AcDbEntity
  8
1
  6
Continuous
 62
     7
 48
0.0022019092430147
100
AcDbVertex
100
AcDb2dVertex
 10
3.567618672035245
 20
1.499456050761897
 30
0.0
 40
0.003496
 41
0.003496
  0
VERTEX
  5
170
330
16B
100
AcDbEntity
  8
1
  6
Continuous
 62
     7
 48
0.0022019092430147
100
AcDbVertex
100
AcDb2dVertex
 10
3.566237116942413
 20
1.501429115913929
 30
0.0
 40
0.003496
 41
0.003496
  0
VERTEX
  5
171
330
16B
100
AcDbEntity
  8
1
  6
Continuous
 62
     7
 48
0.0022019092430147
100
AcDbVertex
100
AcDb2dVertex
 10
3.56453393160771
 20
1.503132301248632
 30
0.0
 40
0.003496
 41
0.003496
  0
VERTEX
  5
172
330
16B
100
AcDbEntity
  8
1
  6
Continuous
 62
     7
 48
0.0022019092430147
100
AcDbVertex
100
AcDb2dVertex
 10
3.562560866455678
 20
1.504513856341464
 30
0.0
 40
0.003496
 41
0.003496
  0
VERTEX
  5
173
330
16B
100
AcDbEntity
  8
1
  6
Continuous
 62
     7
 48
0.0022019092430147
100
AcDbVertex
100
AcDb2dVertex
 10
3.560377872072542
 20
1.50553180334003
 30
0.0
 40
0.003496
 41
0.003496
  0
VERTEX
  5
174
330
16B
100
AcDbEntity
  8
1
  6
Continuous
 62
     7
 48
0.0022019092430147
100
AcDbVertex
100
AcDb2dVertex
 10
3.558051277637984
 20
1.506155212439884
 30
0.0
 40
0.003496
 41
0.003496
  0
VERTEX
  5
175
330
16B
100
AcDbEntity
  8
1
  6
Continuous
 62
     7
 48
0.0022019092430147
100
AcDbVertex
100
AcDb2dVertex
 10
3.555651775546587
 20
1.506365141670988
 30
0.0
 40
0.003496
 41
0.003496
  0
VERTEX
  5
176
330
16B
100
AcDbEntity
  8
1
  6
Continuous
 62
     7
 48
0.0022019092430147
100
AcDbVertex
100
AcDb2dVertex
 10
3.55325227345519
 20
1.506155212439884
 30
0.0
 40
0.003496
 41
0.003496
  0
VERTEX
  5
177
330
16B
100
AcDbEntity
  8
1
  6
Continuous
 62
     7
 48
0.0022019092430147
100
AcDbVertex
100
AcDb2dVertex
 10
3.550925679020632
 20
1.50553180334003
 30
0.0
 40
0.003496
 41
0.003496
  0
VERTEX
  5
178
330
16B
100
AcDbEntity
  8
1
  6
Continuous
 62
     7
 48
0.0022019092430147
100
AcDbVertex
100
AcDb2dVertex
 10
3.548742684637496
 20
1.504513856341464
 30
0.0
 40
0.003496
 41
0.003496
  0
VERTEX
  5
179
330
16B
100
AcDbEntity
  8
1
  6
Continuous
 62
     7
 48
0.0022019092430147
100
AcDbVertex
100
AcDb2dVertex
 10
3.546769619485464
 20
1.503132301248632
 30
0.0
 40
0.003496
 41
0.003496
  0
VERTEX
  5
17A
330
16B
100
AcDbEntity
  8
1
  6
Continuous
 62
     7
 48
0.0022019092430147
100
AcDbVertex
100
AcDb2dVertex
 10
3.545066434150761
 20
1.501429115913929
 30
0.0
 40
0.003496
 41
0.003496
  0
VERTEX
  5
17B
330
16B
100
AcDbEntity
  8
1
  6
Continuous
 62
     7
 48
0.0022019092430147
100
AcDbVertex
100
AcDb2dVertex
 10
3.543684879057929
 20
1.499456050761897
 30
0.0
 40
0.003496
 41
0.003496
  0
VERTEX
  5
17C
330
16B
100
AcDbEntity
  8
1
  6
Continuous
 62
     7
 48
0.0022019092430147
100
AcDbVertex
100
AcDb2dVertex
 10
3.542666932059363
 20
1.497273056378761
 30
0.0
 40
0.003496
 41
0.003496
  0
VERTEX
  5
17D
330
16B
100
AcDbEntity
  8
1
  6
Continuous
 62
     7
 48
0.0022019092430147
100
AcDbVertex
100
AcDb2dVertex
 10
3.542043522959509
 20
1.494946461944204
 30
0.0
 40
0.003496
 41
0.003496
  0
VERTEX
  5
17E
330
16B
100
AcDbEntity
  8
1
  6
Continuous
 62
     7
 48
0.0022019092430147
100
AcDbVertex
100
AcDb2dVertex
 10
3.541833593728405
 20
1.492546959852806
 30
0.0
 40
0.003496
 41
0.003496
  0
VERTEX
  5
17F
330
16B
100
AcDbEntity
  8
1
  6
Continuous
 62
     7
 48
0.0022019092430147
100
AcDbVertex
100
AcDb2dVertex
 10
3.542043522959509
 20
1.490147457761409
 30
0.0
 40
0.003496
 41
0.003496
  0
VERTEX
  5
180
330
16B
100
AcDbEntity
  8
1
  6
Continuous
 62
     7
 48
0.0022019092430147
100
AcDbVertex
100
AcDb2dVertex
 10
3.542666932059363
 20
1.487820863326851
 30
0.0
 40
0.003496
 41
0.003496
  0
VERTEX
  5
181
330
16B
100
AcDbEntity
  8
1
  6
Continuous
 62
     7
 48
0.0022019092430147
100
AcDbVertex
100
AcDb2dVertex
 10
3.543684879057929
 20
1.485637868943715
 30
0.0
 40
0.003496
 41
0.003496
  0
VERTEX
  5
182
330
16B
100
AcDbEntity
  8
1
  6
Continuous
 62
     7
 48
0.0022019092430147
100
AcDbVertex
100
AcDb2dVertex
 10
3.545066434150761
 20
1.483664803791683
 30
0.0
 40
0.003496
 41
0.003496
  0
VERTEX
  5
183
330
16B
100
AcDbEntity
  8
1
  6
Continuous
 62
     7
 48
0.0022019092430147
100
AcDbVertex
100
AcDb2dVertex
 10
3.546769619485464
 20
1.48196161845698
 30
0.0
 40
0.003496
 41
0.003496
  0
VERTEX
  5
184
330
16B
100
AcDbEntity
  8
1
  6
Continuous
 62
     7
 48
0.0022019092430147
100
AcDbVertex
100
AcDb2dVertex
 10
3.548742684637495
 20
1.480580063364148
 30
0.0
 40
0.003496
 41
0.003496
  0
VERTEX
  5
185
330
16B
100
AcDbEntity
  8
1
  6
Continuous
 62
     7
 48
0.0022019092430147
100
AcDbVertex
100
AcDb2dVertex
 10
3.550925679020632
 20
1.479562116365583
 30
0.0
 40
0.003496
 41
0.003496
  0
VERTEX
  5
186
330
16B
100
AcDbEntity
  8
1
  6
Continuous
 62
     7
 48
0.0022019092430147
100
AcDbVertex
100
AcDb2dVertex
 10
3.553252273455189
 20
1.478938707265728
 30
0.0
 40
0.003496
 41
0.003496
  0
VERTEX
  5
187
330
16B
100
AcDbEntity
  8
1
  6
Continuous
 62
     7
 48
0.0022019092430147
100
AcDbVertex
100
AcDb2dVertex
 10
3.555651775546587
 20
1.478728778034624
 30
0.0
 40
0.003496
 41
0.003496
  0
VERTEX
  5
188
330
16B
100
AcDbEntity
  8
1
  6
Continuous
 62
     7
 48
0.0022019092430147
100
AcDbVertex
100
AcDb2dVertex
 10
3.558051277637984
 20
1.478938707265728
 30
0.0
 40
0.003496
 41
0.003496
  0
VERTEX
  5
189
330
16B
100
AcDbEntity
  8
1
  6
Continuous
 62
     7
 48
0.0022019092430147
100
AcDbVertex
100
AcDb2dVertex
 10
3.560377872072542
 20
1.479562116365583
 30
0.0
 40
0.003496
 41
0.003496
  0
VERTEX
  5
18A
330
16B
100
AcDbEntity
  8
1
  6
Continuous
 62
     7
 48
0.0022019092430147
100
AcDbVertex
100
AcDb2dVertex
 10
3.562560866455678
 20
1.480580063364148
 30
0.0
 40
0.003496
 41
0.003496
  0
VERTEX
  5
18B
330
16B
100
AcDbEntity
  8
1
  6
Continuous
 62
     7
 48
0.0022019092430147
100
AcDbVertex
100
AcDb2dVertex
 10
3.56453393160771
 20
1.48196161845698
 30
0.0
 40
0.003496
 41
0.003496
  0
VERTEX
  5
18C
330
16B
100
AcDbEntity
  8
1
  6
Continuous
 62
     7
 48
0.0022019092430147
100
AcDbVertex
100
AcDb2dVertex
 10
3.566237116942413
 20
1.483664803791683
 30
0.0
 40
0.003496
 41
0.003496
  0
VERTEX
  5
18D
330
16B
100
AcDbEntity
  8
1
  6
Continuous
 62
     7
 48
0.0022019092430147
100
AcDbVertex
100
AcDb2dVertex
 10
3.567618672035245
 20
1.485637868943715
 30
0.0
 40
0.003496
 41
0.003496
  0
VERTEX
  5
18E
330
16B
100
AcDbEntity
  8
1
  6
Continuous
 62
     7
 48
0.0022019092430147
100
AcDbVertex
100
AcDb2dVertex
 10
3.568636619033811
 20
1.487820863326851
 30
0.0
 40
0.003496
 41
0.003496
  0
VERTEX
  5
18F
330
16B
100
AcDbEntity
  8
1
  6
Continuous
 62
     7
 48
0.0022019092430147
100
AcDbVertex
100
AcDb2dVertex
 10
3.569260028133665
 20
1.490147457761408
 30
0.0
 40
0.003496
 41
0.003496
  0
VERTEX
  5
190
330
16B
100
AcDbEntity
  8
1
  6
Continuous
 62
     7
 48
0.0022019092430147
100
AcDbVertex
100
AcDb2dVertex
 10
3.569469957364769
 20
1.492546959852806
 30
0.0
 40
0.003496
 41
0.003496
  0
SEQEND
  5
191
330
16B
100
AcDbEntity
  8
1
  6
Continuous
 62
     7
 48
0.0022019092430147
370
     0
  0
TEXT
  5
192
330
1F
100
AcDbEntity
  8
1
  6
DASHED
 62
     7
370
     0
100
AcDbText
 10
3.223397824544064
 20
-0.9968395624019755
 30
0.0
 40
0.055
  1
-6 AN MALE
 41
1.000000000000001
  7
DC_TEXTSTYLE5
 72
     1
 11
3.436715324544064
 21
-0.9968395624019755
 31
0.0
100
AcDbText
  0
TEXT
  5
193
330
1F
100
AcDbEntity
  8
1
  6
DASHED
 62
     7
370
     0
100
AcDbText
 10
3.207805379248464
 20
-1.081719722227693
 30
0.000000000000016
 40
0.055
  1
FLARE UNION
 41
1.000000000000002
  7
DC_TEXTSTYLE5
 72
     1
 11
3.465892879248465
 21
-1.081719722227693
 31
0.000000000000016
100
AcDbText
  0
LINE
  5
194
330
1F
100
AcDbEntity
  8
1
  6
Continuous
 62
     7
 48
0.0007374108989812
370
     0
100
AcDbLine
 10
2.019967529478546
 20
0.6491444603798538
 30
0.0
 11
2.122567529478547
 21
0.751744460379854
 31
0.0
  0
TEXT
  5
195
330
1F
100
AcDbEntity
  8
1
  6
DASHED
 62
     7
370
     0
100
AcDbText
 10
2.133480981395128
 20
0.7588275122964356
 30
0.0
 40
0.0341999999999998
  1
1
  7
DC_TEXTSTYLE5
 72
     1
 11
2.146750581395128
 21
0.7588275122964356
 31
0.0
100
AcDbText
  0
CIRCLE
  5
196
330
1F
100
AcDbEntity
  8
1
  6
Continuous
 62
     7
 48
0.0007374108989812
370
     0
100
AcDbCircle
 10
2.146750581395127
 20
0.7759275122964339
 30
0.0
 40
0.0342000000000002
  0
LINE
  5
197
330
1F
100
AcDbEntity
  8
1
  6
CENTER
 62
    94
420
    43520
 48
0.1066666666666667
370
     0
100
AcDbLine
 10
1.252596022766351
 20
0.2891444603798536
 30
0.0
 11
2.609346249272954
 21
0.2891444603798536
 31
0.0
  0
POLYLINE
  5
198
330
1F
100
AcDbEntity
  8
1
  6
Continuous
 62
     7
 48
0.0095971233455876
370
     0
100
AcDb2dPolyline
 66
     1
 10
0.0
 20
0.0
 30
0.0
  0
VERTEX
  5
199
330
198
100
AcDbEntity
  8
1
  6
Continuous
 62
     7
 48
0.0095971233455876
100
AcDbVertex
100
AcDb2dVertex
 10
1.859430755569469
 20
0.2891444603798536
 30
0.0
 40
0.0038
 41
0.0038
  0
VERTEX
  5
19A
330
198
100
AcDbEntity
  8
1
  6
Continuous
 62
     7
 48
0.0095971233455876
100
AcDbVertex
100
AcDb2dVertex
 10
1.859430755569469
 20
0.2891444603798536
 30
0.0
 40
0.0038
 41
0.0038
  0
SEQEND
  5
19B
330
198
100
AcDbEntity
  8
1
  6
Continuous
 62
     7
 48
0.0095971233455876
370
     0
  0
POLYLINE
  5
19C
330
1F
100
AcDbEntity
  8
1
  6
Continuous
 62
     7
 48
0.0095971233455876
370
     0
100
AcDb2dPolyline
 66
     1
 10
0.0
 20
0.0
 30
0.0
  0
VERTEX
  5
19D
330
19C
100
AcDbEntity
  8
1
  6
Continuous
 62
     7
 48
0.0095971233455876
100
AcDbVertex
100
AcDb2dVertex
 10
1.311430755569468
 20
0.4491444603798533
 30
0.0
 40
0.0038
 41
0.0038
  0
VERTEX
  5
19E
330
19C
100
AcDbEntity
  8
1
  6
Continuous
 62
     7
 48
0.0095971233455876
100
AcDbVertex
100
AcDb2dVertex
 10
1.311430755569468
 20
0.4425444603798535
 30
0.0
 40
0.0038
 41
0.0038
  0
SEQEND
  5
19F
330
19C
100
AcDbEntity
  8
1
  6
Continuous
 62
     7
 48
0.0095971233455876
370
     0
  0
POLYLINE
  5
1A0
330
1F
100
AcDbEntity
  8
1
  6
Continuous
 62
     7
 48
0.0095971233455876
370
     0
100
AcDb2dPolyline
 66
     1
 10
0.0
 20
0.0
 30
0.0
  0
VERTEX
  5
1A1
330
1A0
100
AcDbEntity
  8
1
  6
Continuous
 62
     7
 48
0.0095971233455876
100
AcDbVertex
100
AcDb2dVertex
 10
1.41494025165586
 20
0.5271444603798533
 30
0.0
 40
0.0038
 41
0.0038
  0
VERTEX
  5
1A2
330
1A0
100
AcDbEntity
  8
1
  6
Continuous
 62
     7
 48
0.0095971233455876
100
AcDbVertex
100
AcDb2dVertex
 10
1.509430755569468
 20
0.5271444603798533
 30
0.0
 40
0.0038
 41
0.0038
  0
SEQEND
  5
1A3
330
1A0
100
AcDbEntity
  8
1
  6
Continuous
 62
     7
 48
0.0095971233455876
370
     0
  0
POLYLINE
  5
1A4
330
1F
100
AcDbEntity
  8
1
  6
Continuous
 62
     7
 48
0.0095971233455876
370
     0
100
AcDb2dPolyline
 66
     1
 10
0.0
 20
0.0
 30
0.0
  0
VERTEX
  5
1A5
330
1A4
100
AcDbEntity
  8
1
  6
Continuous
 62
     7
 48
0.0095971233455876
100
AcDbVertex
100
AcDb2dVertex
 10
1.311430755569468
 20
0.4491444603798533
 30
0.0
 40
0.0038
 41
0.0038
  0
VERTEX
  5
1A6
330
1A4
100
AcDbEntity
  8
1
  6
Continuous
 62
     7
 48
0.0095971233455876
100
AcDbVertex
100
AcDb2dVertex
 10
1.41494025165586
 20
0.5271444603798533
 30
0.0
 40
0.0038
 41
0.0038
  0
SEQEND
  5
1A7
330
1A4
100
AcDbEntity
  8
1
  6
Continuous
 62
     7
 48
0.0095971233455876
370
     0
  0
POLYLINE
  5
1A8
330
1F
100
AcDbEntity
  8
1
  6
Continuous
 62
     7
 48
0.0095971233455876
370
     0
100
AcDb2dPolyline
 66
     1
 10
0.0
 20
0.0
 30
0.0
  0
VERTEX
  5
1A9
330
1A8
100
AcDbEntity
  8
1
  6
Continuous
 62
     7
 48
0.0095971233455876
100
AcDbVertex
100
AcDb2dVertex
 10
1.311430755569468
 20
0.1291444603798534
 30
0.0
 40
0.0038
 41
0.0038
  0
VERTEX
  5
1AA
330
1A8
100
AcDbEntity
  8
1
  6
Continuous
 62
     7
 48
0.0095971233455876
100
AcDbVertex
100
AcDb2dVertex
 10
1.311430755569468
 20
0.1401444603798532
 30
0.0
 40
0.0038
 41
0.0038
  0
SEQEND
  5
1AB
330
1A8
100
AcDbEntity
  8
1
  6
Continuous
 62
     7
 48
0.0095971233455876
370
     0
  0
POLYLINE
  5
1AC
330
1F
100
AcDbEntity
  8
1
  6
Continuous
 62
     7
 48
0.0095971233455876
370
     0
100
AcDb2dPolyline
 66
     1
 10
0.0
 20
0.0
 30
0.0
  0
VERTEX
  5
1AD
330
1AC
100
AcDbEntity
  8
1
  6
Continuous
 62
     7
 48
0.0095971233455876
100
AcDbVertex
100
AcDb2dVertex
 10
1.41494025165586
 20
0.0511444603798537
 30
0.0
 40
0.0038
 41
0.0038
  0
VERTEX
  5
1AE
330
1AC
100
AcDbEntity
  8
1
  6
Continuous
 62
     7
 48
0.0095971233455876
100
AcDbVertex
100
AcDb2dVertex
 10
1.509430755569468
 20
0.0511444603798537
 30
0.0
 40
0.0038
 41
0.0038
  0
SEQEND
  5
1AF
330
1AC
100
AcDbEntity
  8
1
  6
Continuous
 62
     7
 48
0.0095971233455876
370
     0
  0
POLYLINE
  5
1B0
330
1F
100
AcDbEntity
  8
1
  6
Continuous
 62
     7
 48
0.0095971233455876
370
     0
100
AcDb2dPolyline
 66
     1
 10
0.0
 20
0.0
 30
0.0
  0
VERTEX
  5
1B1
330
1B0
100
AcDbEntity
  8
1
  6
Continuous
 62
     7
 48
0.0095971233455876
100
AcDbVertex
100
AcDb2dVertex
 10
1.311430755569468
 20
0.1291444603798534
 30
0.0
 40
0.0038
 41
0.0038
  0
VERTEX
  5
1B2
330
1B0
100
AcDbEntity
  8
1
  6
Continuous
 62
     7
 48
0.0095971233455876
100
AcDbVertex
100
AcDb2dVertex
 10
1.41494025165586
 20
0.0511444603798537
 30
0.0
 40
0.0038
 41
0.0038
  0
SEQEND
  5
1B3
330
1B0
100
AcDbEntity
  8
1
  6
Continuous
 62
     7
 48
0.0095971233455876
370
     0
  0
POLYLINE
  5
1B4
330
1F
100
AcDbEntity
  8
1
  6
Continuous
 62
     7
 48
0.0095971233455876
370
     0
100
AcDb2dPolyline
 66
     1
 10
0.0
 20
0.0
 30
0.0
  0
VERTEX
  5
1B5
330
1B4
100
AcDbEntity
  8
1
  6
Continuous
 62
     7
 48
0.0095971233455876
100
AcDbVertex
100
AcDb2dVertex
 10
1.859430755569469
 20
0.2891444603798536
 30
0.0
 40
0.0038
 41
0.0038
  0
VERTEX
  5
1B6
330
1B4
100
AcDbEntity
  8
1
  6
Continuous
 62
     7
 48
0.0095971233455876
100
AcDbVertex
100
AcDb2dVertex
 10
1.859430755569469
 20
0.2891444603798536
 30
0.0
 40
0.0038
 41
0.0038
  0
SEQEND
  5
1B7
330
1B4
100
AcDbEntity
  8
1
  6
Continuous
 62
     7
 48
0.0095971233455876
370
     0
  0
POLYLINE
  5
1B8
330
1F
100
AcDbEntity
  8
1
  6
Continuous
 62
     7
 48
0.0095971233455876
370
     0
100
AcDb2dPolyline
 66
     1
 10
0.0
 20
0.0
 30
0.0
  0
VERTEX
  5
1B9
330
1B8
100
AcDbEntity
  8
1
  6
Continuous
 62
     7
 48
0.0095971233455876
100
AcDbVertex
100
AcDb2dVertex
 10
1.316430755569468
 20
0.4375444603798535
 30
0.0
 40
0.0038
 41
0.0038
  0
VERTEX
  5
1BA
330
1B8
100
AcDbEntity
  8
1
  6
Continuous
 62
     7
 48
0.0095971233455876
100
AcDbVertex
100
AcDb2dVertex
 10
2.577430755569468
 20
0.4375444603798535
 30
0.0
 40
0.0038
 41
0.0038
  0
SEQEND
  5
1BB
330
1B8
100
AcDbEntity
  8
1
  6
Continuous
 62
     7
 48
0.0095971233455876
370
     0
  0
POLYLINE
  5
1BC
330
1F
100
AcDbEntity
  8
1
  6
Continuous
 62
     7
 48
0.0095971233455876
370
     0
100
AcDb2dPolyline
 66
     1
 10
0.0
 20
0.0
 30
0.0
  0
VERTEX
  5
1BD
330
1BC
100
AcDbEntity
  8
1
  6
Continuous
 62
     7
 48
0.0095971233455876
100
AcDbVertex
100
AcDb2dVertex
 10
1.316430755569468
 20
0.1407444603798531
 30
0.0
 40
0.0038
 41
0.0038
  0
VERTEX
  5
1BE
330
1BC
100
AcDbEntity
  8
1
  6
Continuous
 62
     7
 48
0.0095971233455876
100
AcDbVertex
100
AcDb2dVertex
 10
2.572430755569468
 20
0.1407444603798531
 30
0.0
 40
0.0038
 41
0.0038
  0
SEQEND
  5
1BF
330
1BC
100
AcDbEntity
  8
1
  6
Continuous
 62
     7
 48
0.0095971233455876
370
     0
  0
POLYLINE
  5
1C0
330
1F
100
AcDbEntity
  8
1
  6
Continuous
 62
     7
 48
0.0095971233455876
370
     0
100
AcDb2dPolyline
 66
     1
 10
0.0
 20
0.0
 30
0.0
  0
VERTEX
  5
1C1
330
1C0
100
AcDbEntity
  8
1
  6
Continuous
 62
     7
 48
0.0095971233455876
100
AcDbVertex
100
AcDb2dVertex
 10
1.844430755569468
 20
0.5291444603798535
 30
0.0
 40
0.0038
 41
0.0038
  0
VERTEX
  5
1C2
330
1C0
100
AcDbEntity
  8
1
  6
Continuous
 62
     7
 48
0.0095971233455876
100
AcDbVertex
100
AcDb2dVertex
 10
1.766430755569469
 20
0.5291444603798535
 30
0.0
 40
0.0038
 41
0.0038
  0
SEQEND
  5
1C3
330
1C0
100
AcDbEntity
  8
1
  6
Continuous
 62
     7
 48
0.0095971233455876
370
     0
  0
POLYLINE
  5
1C4
330
1F
100
AcDbEntity
  8
1
  6
Continuous
 62
     7
 48
0.0095971233455876
370
     0
100
AcDb2dPolyline
 66
     1
 10
0.0
 20
0.0
 30
0.0
  0
VERTEX
  5
1C5
330
1C4
100
AcDbEntity
  8
1
  6
Continuous
 62
     7
 48
0.0095971233455876
100
AcDbVertex
100
AcDb2dVertex
 10
1.844430755569468
 20
0.0491444603798531
 30
0.0
 40
0.0038
 41
0.0038
  0
VERTEX
  5
1C6
330
1C4
100
AcDbEntity
  8
1
  6
Continuous
 62
     7
 48
0.0095971233455876
100
AcDbVertex
100
AcDb2dVertex
 10
1.766430755569469
 20
0.0491444603798531
 30
0.0
 40
0.0038
 41
0.0038
  0
SEQEND
  5
1C7
330
1C4
100
AcDbEntity
  8
1
  6
Continuous
 62
     7
 48
0.0095971233455876
370
     0
  0
POLYLINE
  5
1C8
330
1F
100
AcDbEntity
  8
1
  6
Continuous
 62
     7
 48
0.0095971233455876
370
     0
100
AcDb2dPolyline
 66
     1
 10
0.0
 20
0.0
 30
0.0
  0
VERTEX
  5
1C9
330
1C8
100
AcDbEntity
  8
1
  6
Continuous
 62
     7
 48
0.0095971233455876
100
AcDbVertex
100
AcDb2dVertex
 10
1.859430755569469
 20
0.6231444603798528
 30
0.0
 40
0.0038
 41
0.0038
  0
VERTEX
  5
1CA
330
1C8
100
AcDbEntity
  8
1
  6
Continuous
 62
     7
 48
0.0095971233455876
100
AcDbVertex
100
AcDb2dVertex
 10
1.859430755569469
 20
0.5441444603798534
 30
0.0
 40
0.0038
 41
0.0038
  0
SEQEND
  5
1CB
330
1C8
100
AcDbEntity
  8
1
  6
Continuous
 62
     7
 48
0.0095971233455876
370
     0
  0
POLYLINE
  5
1CC
330
1F
100
AcDbEntity
  8
1
  6
Continuous
 62
     7
 48
0.0095971233455876
370
     0
100
AcDb2dPolyline
 66
     1
 10
0.0
 20
0.0
 30
0.0
  0
VERTEX
  5
1CD
330
1CC
100
AcDbEntity
  8
1
  6
Continuous
 62
     7
 48
0.0095971233455876
100
AcDbVertex
100
AcDb2dVertex
 10
1.859430755569469
 20
0.2891444603798528
 30
0.0
 40
0.0038
 41
0.0038
  0
VERTEX
  5
1CE
330
1CC
100
AcDbEntity
  8
1
  6
Continuous
 62
     7
 48
0.0095971233455876
100
AcDbVertex
100
AcDb2dVertex
 10
1.859430755569469
 20
0.2891444603798528
 30
0.0
 40
0.0038
 41
0.0038
  0
SEQEND
  5
1CF
330
1CC
100
AcDbEntity
  8
1
  6
Continuous
 62
     7
 48
0.0095971233455876
370
     0
  0
POLYLINE
  5
1D0
330
1F
100
AcDbEntity
  8
1
  6
Continuous
 62
     7
 48
0.0095971233455876
370
     0
100
AcDb2dPolyline
 66
     1
 10
0.0
 20
0.0
 30
0.0
  0
VERTEX
  5
1D1
330
1D0
100
AcDbEntity
  8
1
  6
Continuous
 62
     7
 48
0.0095971233455876
100
AcDbVertex
100
AcDb2dVertex
 10
1.859430755569469
 20
0.2891444603798528
 30
0.0
 40
0.0038
 41
0.0038
  0
VERTEX
  5
1D2
330
1D0
100
AcDbEntity
  8
1
  6
Continuous
 62
     7
 48
0.0095971233455876
100
AcDbVertex
100
AcDb2dVertex
 10
1.859430755569469
 20
0.2891444603798528
 30
0.0
 40
0.0038
 41
0.0038
  0
SEQEND
  5
1D3
330
1D0
100
AcDbEntity
  8
1
  6
Continuous
 62
     7
 48
0.0095971233455876
370
     0
  0
POLYLINE
  5
1D4
330
1F
100
AcDbEntity
  8
1
  6
Continuous
 62
     7
 48
0.0095971233455876
370
     0
100
AcDb2dPolyline
 66
     1
 10
0.0
 20
0.0
 30
0.0
  0
VERTEX
  5
1D5
330
1D4
100
AcDbEntity
  8
1
  6
Continuous
 62
     7
 48
0.0095971233455876
100
AcDbVertex
100
AcDb2dVertex
 10
1.859430755569469
 20
-0.0448555396201452
 30
0.0
 40
0.0038
 41
0.0038
  0
VERTEX
  5
1D6
330
1D4
100
AcDbEntity
  8
1
  6
Continuous
 62
     7
 48
0.0095971233455876
100
AcDbVertex
100
AcDb2dVertex
 10
1.859430755569469
 20
0.0341444603798535
 30
0.0
 40
0.0038
 41
0.0038
  0
SEQEND
  5
1D7
330
1D4
100
AcDbEntity
  8
1
  6
Continuous
 62
     7
 48
0.0095971233455876
370
     0
  0
POLYLINE
  5
1D8
330
1F
100
AcDbEntity
  8
1
  6
Continuous
 62
     7
 48
0.0095971233455876
370
     0
100
AcDb2dPolyline
 66
     1
 10
0.0
 20
0.0
 30
0.0
 70
   128
  0
VERTEX
  5
1D9
330
1D8
100
AcDbEntity
  8
1
  6
Continuous
 62
     7
 48
0.0095971233455876
100
AcDbVertex
100
AcDb2dVertex
 10
1.844430755569468
 20
0.5291444603798529
 30
0.0
 40
0.0038
 41
0.0038
  0
VERTEX
  5
1DA
330
1D8
100
AcDbEntity
  8
1
  6
Continuous
 62
     7
 48
0.0095971233455876
100
AcDbVertex
100
AcDb2dVertex
 10
1.847035478234472
 20
0.5293723440846697
 30
0.0
 40
0.0038
 41
0.0038
  0
VERTEX
  5
1DB
330
1D8
100
AcDbEntity
  8
1
  6
Continuous
 62
     7
 48
0.0095971233455876
100
AcDbVertex
100
AcDb2dVertex
 10
1.849561057719354
 20
0.5300490710680643
 30
0.0
 40
0.0038
 41
0.0038
  0
VERTEX
  5
1DC
330
1D8
100
AcDbEntity
  8
1
  6
Continuous
 62
     7
 48
0.0095971233455876
100
AcDbVertex
100
AcDb2dVertex
 10
1.851930755569469
 20
0.5311540793230863
 30
0.0
 40
0.0038
 41
0.0038
  0
VERTEX
  5
1DD
330
1D8
100
AcDbEntity
  8
1
  6
Continuous
 62
     7
 48
0.0095971233455876
100
AcDbVertex
100
AcDb2dVertex
 10
1.854072569714767
 20
0.5326537937330683
 30
0.0
 40
0.0038
 41
0.0038
  0
VERTEX
  5
1DE
330
1D8
100
AcDbEntity
  8
1
  6
Continuous
 62
     7
 48
0.0095971233455876
100
AcDbVertex
100
AcDb2dVertex
 10
1.855921422216253
 20
0.5345026462345549
 30
0.0
 40
0.0038
 41
0.0038
  0
VERTEX
  5
1DF
330
1D8
100
AcDbEntity
  8
1
  6
Continuous
 62
     7
 48
0.0095971233455876
100
AcDbVertex
100
AcDb2dVertex
 10
1.857421136626235
 20
0.5366444603798531
 30
0.0
 40
0.0038
 41
0.0038
  0
VERTEX
  5
1E0
330
1D8
100
AcDbEntity
  8
1
  6
Continuous
 62
     7
 48
0.0095971233455876
100
AcDbVertex
100
AcDb2dVertex
 10
1.858526144881258
 20
0.5390141582299681
 30
0.0
 40
0.0038
 41
0.0038
  0
VERTEX
  5
1E1
330
1D8
100
AcDbEntity
  8
1
  6
Continuous
 62
     7
 48
0.0095971233455876
100
AcDbVertex
100
AcDb2dVertex
 10
1.859202871864652
 20
0.5415397377148493
 30
0.0
 40
0.0038
 41
0.0038
  0
VERTEX
  5
1E2
330
1D8
100
AcDbEntity
  8
1
  6
Continuous
 62
     7
 48
0.0095971233455876
100
AcDbVertex
100
AcDb2dVertex
 10
1.859430755569469
 20
0.5441444603798534
 30
0.0
 40
0.0038
 41
0.0038
  0
SEQEND
  5
1E3
330
1D8
100
AcDbEntity
  8
1
  6
Continuous
 62
     7
 48
0.0095971233455876
370
     0
  0
POLYLINE
  5
1E4
330
1F
100
AcDbEntity
  8
1
  6
Continuous
 62
     7
 48
0.0095971233455876
370
     0
100
AcDb2dPolyline
 66
     1
 10
0.0
 20
0.0
 30
0.0
 70
   128
  0
VERTEX
  5
1E5
330
1E4
100
AcDbEntity
  8
1
  6
Continuous
 62
     7
 48
0.0095971233455876
100
AcDbVertex
100
AcDb2dVertex
 10
1.859430755569469
 20
0.0341444603798535
 30
0.0
 40
0.0038
 41
0.0038
  0
VERTEX
  5
1E6
330
1E4
100
AcDbEntity
  8
1
  6
Continuous
 62
     7
 48
0.0095971233455876
100
AcDbVertex
100
AcDb2dVertex
 10
1.859202871864652
 20
0.0367491830448575
 30
0.0
 40
0.0038
 41
0.0038
  0
VERTEX
  5
1E7
330
1E4
100
AcDbEntity
  8
1
  6
Continuous
 62
     7
 48
0.0095971233455876
100
AcDbVertex
100
AcDb2dVertex
 10
1.858526144881258
 20
0.0392747625297386
 30
0.0
 40
0.0038
 41
0.0038
  0
VERTEX
  5
1E8
330
1E4
100
AcDbEntity
  8
1
  6
Continuous
 62
     7
 48
0.0095971233455876
100
AcDbVertex
100
AcDb2dVertex
 10
1.857421136626235
 20
0.0416444603798536
 30
0.0
 40
0.0038
 41
0.0038
  0
VERTEX
  5
1E9
330
1E4
100
AcDbEntity
  8
1
  6
Continuous
 62
     7
 48
0.0095971233455876
100
AcDbVertex
100
AcDb2dVertex
 10
1.855921422216253
 20
0.0437862745251518
 30
0.0
 40
0.0038
 41
0.0038
  0
VERTEX
  5
1EA
330
1E4
100
AcDbEntity
  8
1
  6
Continuous
 62
     7
 48
0.0095971233455876
100
AcDbVertex
100
AcDb2dVertex
 10
1.854072569714767
 20
0.0456351270266384
 30
0.0
 40
0.0038
 41
0.0038
  0
VERTEX
  5
1EB
330
1E4
100
AcDbEntity
  8
1
  6
Continuous
 62
     7
 48
0.0095971233455876
100
AcDbVertex
100
AcDb2dVertex
 10
1.851930755569469
 20
0.0471348414366203
 30
0.0
 40
0.0038
 41
0.0038
  0
VERTEX
  5
1EC
330
1E4
100
AcDbEntity
  8
1
  6
Continuous
 62
     7
 48
0.0095971233455876
100
AcDbVertex
100
AcDb2dVertex
 10
1.849561057719354
 20
0.0482398496916424
 30
0.0
 40
0.0038
 41
0.0038
  0
VERTEX
  5
1ED
330
1E4
100
AcDbEntity
  8
1
  6
Continuous
 62
     7
 48
0.0095971233455876
100
AcDbVertex
100
AcDb2dVertex
 10
1.847035478234472
 20
0.0489165766750369
 30
0.0
 40
0.0038
 41
0.0038
  0
VERTEX
  5
1EE
330
1E4
100
AcDbEntity
  8
1
  6
Continuous
 62
     7
 48
0.0095971233455876
100
AcDbVertex
100
AcDb2dVertex
 10
1.844430755569468
 20
0.0491444603798538
 30
0.0
 40
0.0038
 41
0.0038
  0
SEQEND
  5
1EF
330
1E4
100
AcDbEntity
  8
1
  6
Continuous
 62
     7
 48
0.0095971233455876
370
     0
  0
POLYLINE
  5
1F0
330
1F
100
AcDbEntity
  8
1
  6
Continuous
 62
     7
 48
0.0095971233455876
370
     0
100
AcDb2dPolyline
 66
     1
 10
0.0
 20
0.0
 30
0.0
 70
   128
  0
VERTEX
  5
1F1
330
1F0
100
AcDbEntity
  8
1
  6
Continuous
 62
     7
 48
0.0095971233455876
100
AcDbVertex
100
AcDb2dVertex
 10
1.859430755569469
 20
0.0341444603798535
 30
0.0
 40
0.0038
 41
0.0038
  0
VERTEX
  5
1F2
330
1F0
100
AcDbEntity
  8
1
  6
Continuous
 62
     7
 48
0.0095971233455876
100
AcDbVertex
100
AcDb2dVertex
 10
1.859202871864652
 20
0.0367491830448574
 30
0.0
 40
0.0038
 41
0.0038
  0
VERTEX
  5
1F3
330
1F0
100
AcDbEntity
  8
1
  6
Continuous
 62
     7
 48
0.0095971233455876
100
AcDbVertex
100
AcDb2dVertex
 10
1.858526144881258
 20
0.0392747625297385
 30
0.0
 40
0.0038
 41
0.0038
  0
VERTEX
  5
1F4
330
1F0
100
AcDbEntity
  8
1
  6
Continuous
 62
     7
 48
0.0095971233455876
100
AcDbVertex
100
AcDb2dVertex
 10
1.857421136626235
 20
0.0416444603798535
 30
0.0
 40
0.0038
 41
0.0038
  0
VERTEX
  5
1F5
330
1F0
100
AcDbEntity
  8
1
  6
Continuous
 62
     7
 48
0.0095971233455876
100
AcDbVertex
100
AcDb2dVertex
 10
1.855921422216253
 20
0.0437862745251515
 30
0.0
 40
0.0038
 41
0.0038
  0
VERTEX
  5
1F6
330
1F0
100
AcDbEntity
  8
1
  6
Continuous
 62
     7
 48
0.0095971233455876
100
AcDbVertex
100
AcDb2dVertex
 10
1.854072569714767
 20
0.0456351270266381
 30
0.0
 40
0.0038
 41
0.0038
  0
VERTEX
  5
1F7
330
1F0
100
AcDbEntity
  8
1
  6
Continuous
 62
     7
 48
0.0095971233455876
100
AcDbVertex
100
AcDb2dVertex
 10
1.851930755569469
 20
0.04713484143662
 30
0.0
 40
0.0038
 41
0.0038
  0
VERTEX
  5
1F8
330
1F0
100
AcDbEntity
  8
1
  6
Continuous
 62
     7
 48
0.0095971233455876
100
AcDbVertex
100
AcDb2dVertex
 10
1.849561057719354
 20
0.048239849691642
 30
0.0
 40
0.0038
 41
0.0038
  0
VERTEX
  5
1F9
330
1F0
100
AcDbEntity
  8
1
  6
Continuous
 62
     7
 48
0.0095971233455876
100
AcDbVertex
100
AcDb2dVertex
 10
1.847035478234472
 20
0.0489165766750365
 30
0.0
 40
0.0038
 41
0.0038
  0
VERTEX
  5
1FA
330
1F0
100
AcDbEntity
  8
1
  6
Continuous
 62
     7
 48
0.0095971233455876
100
AcDbVertex
100
AcDb2dVertex
 10
1.844430755569468
 20
0.0491444603798534
 30
0.0
 40
0.0038
 41
0.0038
  0
SEQEND
  5
1FB
330
1F0
100
AcDbEntity
  8
1
  6
Continuous
 62
     7
 48
0.0095971233455876
370
     0
  0
POLYLINE
  5
1FC
330
1F
100
AcDbEntity
  8
1
  6
Continuous
 62
     7
 48
0.0095971233455876
370
     0
100
AcDb2dPolyline
 66
     1
 10
0.0
 20
0.0
 30
0.0
  0
VERTEX
  5
1FD
330
1FC
100
AcDbEntity
  8
1
  6
Continuous
 62
     7
 48
0.0095971233455876
100
AcDbVertex
100
AcDb2dVertex
 10
1.316430755569468
 20
0.1407444603798531
 30
0.0
 40
0.0038
 41
0.0038
  0
VERTEX
  5
1FE
330
1FC
100
AcDbEntity
  8
1
  6
Continuous
 62
     7
 48
0.0095971233455876
100
AcDbVertex
100
AcDb2dVertex
 10
1.316430755569468
 20
0.4375444603798535
 30
0.0
 40
0.0038
 41
0.0038
  0
SEQEND
  5
1FF
330
1FC
100
AcDbEntity
  8
1
  6
Continuous
 62
     7
 48
0.0095971233455876
370
     0
  0
POLYLINE
  5
200
330
1F
100
AcDbEntity
  8
1
  6
Continuous
 62
     7
 48
0.0095971233455876
370
     0
100
AcDb2dPolyline
 66
     1
 10
0.0
 20
0.0
 30
0.0
  0
VERTEX
  5
201
330
200
100
AcDbEntity
  8
1
  6
Continuous
 62
     7
 48
0.0095971233455876
100
AcDbVertex
100
AcDb2dVertex
 10
1.316430755569468
 20
0.4375444603798535
 30
0.0
 40
0.0038
 41
0.0038
  0
VERTEX
  5
202
330
200
100
AcDbEntity
  8
1
  6
Continuous
 62
     7
 48
0.0095971233455876
100
AcDbVertex
100
AcDb2dVertex
 10
1.311430755569468
 20
0.4425444603798535
 30
0.0
 40
0.0038
 41
0.0038
  0
SEQEND
  5
203
330
200
100
AcDbEntity
  8
1
  6
Continuous
 62
     7
 48
0.0095971233455876
370
     0
  0
POLYLINE
  5
204
330
1F
100
AcDbEntity
  8
1
  6
Continuous
 62
     7
 48
0.0095971233455876
370
     0
100
AcDb2dPolyline
 66
     1
 10
0.0
 20
0.0
 30
0.0
  0
VERTEX
  5
205
330
204
100
AcDbEntity
  8
1
  6
Continuous
 62
     7
 48
0.0095971233455876
100
AcDbVertex
100
AcDb2dVertex
 10
1.316430755569468
 20
0.1407444603798531
 30
0.0
 40
0.0038
 41
0.0038
  0
VERTEX
  5
206
330
204
100
AcDbEntity
  8
1
  6
Continuous
 62
     7
 48
0.0095971233455876
100
AcDbVertex
100
AcDb2dVertex
 10
1.311430755569468
 20
0.1357444603798535
 30
0.0
 40
0.0038
 41
0.0038
  0
SEQEND
  5
207
330
204
100
AcDbEntity
  8
1
  6
Continuous
 62
     7
 48
0.0095971233455876
370
     0
  0
POLYLINE
  5
208
330
1F
100
AcDbEntity
  8
1
  6
Continuous
 62
     7
 48
0.0095971233455876
370
     0
100
AcDb2dPolyline
 66
     1
 10
0.0
 20
0.0
 30
0.0
  0
VERTEX
  5
209
330
208
100
AcDbEntity
  8
1
  6
Continuous
 62
     7
 48
0.0095971233455876
100
AcDbVertex
100
AcDb2dVertex
 10
1.311430755569468
 20
0.1401444603798532
 30
0.0
 40
0.0038
 41
0.0038
  0
VERTEX
  5
20A
330
208
100
AcDbEntity
  8
1
  6
Continuous
 62
     7
 48
0.0095971233455876
100
AcDbVertex
100
AcDb2dVertex
 10
1.311430755569468
 20
0.1401444603798532
 30
0.0
 40
0.0038
 41
0.0038
  0
SEQEND
  5
20B
330
208
100
AcDbEntity
  8
1
  6
Continuous
 62
     7
 48
0.0095971233455876
370
     0
  0
POLYLINE
  5
20C
330
1F
100
AcDbEntity
  8
1
  6
Continuous
 62
     7
 48
0.0095971233455876
370
     0
100
AcDb2dPolyline
 66
     1
 10
0.0
 20
0.0
 30
0.0
  0
VERTEX
  5
20D
330
20C
100
AcDbEntity
  8
1
  6
Continuous
 62
     7
 48
0.0095971233455876
100
AcDbVertex
100
AcDb2dVertex
 10
1.311430755569468
 20
0.4491444603798533
 30
0.0
 40
0.0038
 41
0.0038
  0
VERTEX
  5
20E
330
20C
100
AcDbEntity
  8
1
  6
Continuous
 62
     7
 48
0.0095971233455876
100
AcDbVertex
100
AcDb2dVertex
 10
1.311430755569468
 20
0.1401444603798532
 30
0.0
 40
0.0038
 41
0.0038
  0
SEQEND
  5
20F
330
20C
100
AcDbEntity
  8
1
  6
Continuous
 62
     7
 48
0.0095971233455876
370
     0
  0
POLYLINE
  5
210
330
1F
100
AcDbEntity
  8
1
  6
Continuous
 62
     7
 48
0.0095971233455876
370
     0
100
AcDb2dPolyline
 66
     1
 10
0.0
 20
0.0
 30
0.0
  0
VERTEX
  5
211
330
210
100
AcDbEntity
  8
1
  6
Continuous
 62
     7
 48
0.0095971233455876
100
AcDbVertex
100
AcDb2dVertex
 10
2.029430755569468
 20
0.2891444603798536
 30
0.0
 40
0.0038
 41
0.0038
  0
VERTEX
  5
212
330
210
100
AcDbEntity
  8
1
  6
Continuous
 62
     7
 48
0.0095971233455876
100
AcDbVertex
100
AcDb2dVertex
 10
2.029430755569468
 20
0.2891444603798536
 30
0.0
 40
0.0038
 41
0.0038
  0
SEQEND
  5
213
330
210
100
AcDbEntity
  8
1
  6
Continuous
 62
     7
 48
0.0095971233455876
370
     0
  0
POLYLINE
  5
214
330
1F
100
AcDbEntity
  8
1
  6
Continuous
 62
     7
 48
0.0095971233455876
370
     0
100
AcDb2dPolyline
 66
     1
 10
0.0
 20
0.0
 30
0.0
  0
VERTEX
  5
215
330
214
100
AcDbEntity
  8
1
  6
Continuous
 62
     7
 48
0.0095971233455876
100
AcDbVertex
100
AcDb2dVertex
 10
2.577430755569468
 20
0.4491444603798533
 30
0.0
 40
0.0038
 41
0.0038
  0
VERTEX
  5
216
330
214
100
AcDbEntity
  8
1
  6
Continuous
 62
     7
 48
0.0095971233455876
100
AcDbVertex
100
AcDb2dVertex
 10
2.577430755569468
 20
0.4425444603798535
 30
0.0
 40
0.0038
 41
0.0038
  0
SEQEND
  5
217
330
214
100
AcDbEntity
  8
1
  6
Continuous
 62
     7
 48
0.0095971233455876
370
     0
  0
POLYLINE
  5
218
330
1F
100
AcDbEntity
  8
1
  6
Continuous
 62
     7
 48
0.0095971233455876
370
     0
100
AcDb2dPolyline
 66
     1
 10
0.0
 20
0.0
 30
0.0
  0
VERTEX
  5
219
330
218
100
AcDbEntity
  8
1
  6
Continuous
 62
     7
 48
0.0095971233455876
100
AcDbVertex
100
AcDb2dVertex
 10
2.473921259483076
 20
0.5271444603798533
 30
0.0
 40
0.0038
 41
0.0038
  0
VERTEX
  5
21A
330
218
100
AcDbEntity
  8
1
  6
Continuous
 62
     7
 48
0.0095971233455876
100
AcDbVertex
100
AcDb2dVertex
 10
2.379430755569468
 20
0.5271444603798533
 30
0.0
 40
0.0038
 41
0.0038
  0
SEQEND
  5
21B
330
218
100
AcDbEntity
  8
1
  6
Continuous
 62
     7
 48
0.0095971233455876
370
     0
  0
POLYLINE
  5
21C
330
1F
100
AcDbEntity
  8
1
  6
Continuous
 62
     7
 48
0.0095971233455876
370
     0
100
AcDb2dPolyline
 66
     1
 10
0.0
 20
0.0
 30
0.0
  0
VERTEX
  5
21D
330
21C
100
AcDbEntity
  8
1
  6
Continuous
 62
     7
 48
0.0095971233455876
100
AcDbVertex
100
AcDb2dVertex
 10
2.577430755569468
 20
0.4491444603798533
 30
0.0
 40
0.0038
 41
0.0038
  0
VERTEX
  5
21E
330
21C
100
AcDbEntity
  8
1
  6
Continuous
 62
     7
 48
0.0095971233455876
100
AcDbVertex
100
AcDb2dVertex
 10
2.473921259483076
 20
0.5271444603798533
 30
0.0
 40
0.0038
 41
0.0038
  0
SEQEND
  5
21F
330
21C
100
AcDbEntity
  8
1
  6
Continuous
 62
     7
 48
0.0095971233455876
370
     0
  0
POLYLINE
  5
220
330
1F
100
AcDbEntity
  8
1
  6
Continuous
 62
     7
 48
0.0095971233455876
370
     0
100
AcDb2dPolyline
 66
     1
 10
0.0
 20
0.0
 30
0.0
  0
VERTEX
  5
221
330
220
100
AcDbEntity
  8
1
  6
Continuous
 62
     7
 48
0.0095971233455876
100
AcDbVertex
100
AcDb2dVertex
 10
2.577430755569468
 20
0.1291444603798534
 30
0.0
 40
0.0038
 41
0.0038
  0
VERTEX
  5
222
330
220
100
AcDbEntity
  8
1
  6
Continuous
 62
     7
 48
0.0095971233455876
100
AcDbVertex
100
AcDb2dVertex
 10
2.577430755569468
 20
0.1401444603798532
 30
0.0
 40
0.0038
 41
0.0038
  0
SEQEND
  5
223
330
220
100
AcDbEntity
  8
1
  6
Continuous
 62
     7
 48
0.0095971233455876
370
     0
  0
POLYLINE
  5
224
330
1F
100
AcDbEntity
  8
1
  6
Continuous
 62
     7
 48
0.0095971233455876
370
     0
100
AcDb2dPolyline
 66
     1
 10
0.0
 20
0.0
 30
0.0
  0
VERTEX
  5
225
330
224
100
AcDbEntity
  8
1
  6
Continuous
 62
     7
 48
0.0095971233455876
100
AcDbVertex
100
AcDb2dVertex
 10
2.473921259483076
 20
0.0511444603798537
 30
0.0
 40
0.0038
 41
0.0038
  0
VERTEX
  5
226
330
224
100
AcDbEntity
  8
1
  6
Continuous
 62
     7
 48
0.0095971233455876
100
AcDbVertex
100
AcDb2dVertex
 10
2.379430755569468
 20
0.0511444603798537
 30
0.0
 40
0.0038
 41
0.0038
  0
SEQEND
  5
227
330
224
100
AcDbEntity
  8
1
  6
Continuous
 62
     7
 48
0.0095971233455876
370
     0
  0
POLYLINE
  5
228
330
1F
100
AcDbEntity
  8
1
  6
Continuous
 62
     7
 48
0.0095971233455876
370
     0
100
AcDb2dPolyline
 66
     1
 10
0.0
 20
0.0
 30
0.0
  0
VERTEX
  5
229
330
228
100
AcDbEntity
  8
1
  6
Continuous
 62
     7
 48
0.0095971233455876
100
AcDbVertex
100
AcDb2dVertex
 10
2.577430755569468
 20
0.1291444603798534
 30
0.0
 40
0.0038
 41
0.0038
  0
VERTEX
  5
22A
330
228
100
AcDbEntity
  8
1
  6
Continuous
 62
     7
 48
0.0095971233455876
100
AcDbVertex
100
AcDb2dVertex
 10
2.473921259483076
 20
0.0511444603798537
 30
0.0
 40
0.0038
 41
0.0038
  0
SEQEND
  5
22B
330
228
100
AcDbEntity
  8
1
  6
Continuous
 62
     7
 48
0.0095971233455876
370
     0
  0
POLYLINE
  5
22C
330
1F
100
AcDbEntity
  8
1
  6
Continuous
 62
     7
 48
0.0095971233455876
370
     0
100
AcDb2dPolyline
 66
     1
 10
0.0
 20
0.0
 30
0.0
  0
VERTEX
  5
22D
330
22C
100
AcDbEntity
  8
1
  6
Continuous
 62
     7
 48
0.0095971233455876
100
AcDbVertex
100
AcDb2dVertex
 10
2.029430755569468
 20
0.2891444603798536
 30
0.0
 40
0.0038
 41
0.0038
  0
VERTEX
  5
22E
330
22C
100
AcDbEntity
  8
1
  6
Continuous
 62
     7
 48
0.0095971233455876
100
AcDbVertex
100
AcDb2dVertex
 10
2.029430755569468
 20
0.2891444603798536
 30
0.0
 40
0.0038
 41
0.0038
  0
SEQEND
  5
22F
330
22C
100
AcDbEntity
  8
1
  6
Continuous
 62
     7
 48
0.0095971233455876
370
     0
  0
POLYLINE
  5
230
330
1F
100
AcDbEntity
  8
1
  6
Continuous
 62
     7
 48
0.0095971233455876
370
     0
100
AcDb2dPolyline
 66
     1
 10
0.0
 20
0.0
 30
0.0
  0
VERTEX
  5
231
330
230
100
AcDbEntity
  8
1
  6
Continuous
 62
     7
 48
0.0095971233455876
100
AcDbVertex
100
AcDb2dVertex
 10
2.044430755569468
 20
0.5291444603798535
 30
0.0
 40
0.0038
 41
0.0038
  0
VERTEX
  5
232
330
230
100
AcDbEntity
  8
1
  6
Continuous
 62
     7
 48
0.0095971233455876
100
AcDbVertex
100
AcDb2dVertex
 10
2.122430755569468
 20
0.5291444603798535
 30
0.0
 40
0.0038
 41
0.0038
  0
SEQEND
  5
233
330
230
100
AcDbEntity
  8
1
  6
Continuous
 62
     7
 48
0.0095971233455876
370
     0
  0
POLYLINE
  5
234
330
1F
100
AcDbEntity
  8
1
  6
Continuous
 62
     7
 48
0.0095971233455876
370
     0
100
AcDb2dPolyline
 66
     1
 10
0.0
 20
0.0
 30
0.0
  0
VERTEX
  5
235
330
234
100
AcDbEntity
  8
1
  6
Continuous
 62
     7
 48
0.0095971233455876
100
AcDbVertex
100
AcDb2dVertex
 10
2.044430755569468
 20
0.0491444603798531
 30
0.0
 40
0.0038
 41
0.0038
  0
VERTEX
  5
236
330
234
100
AcDbEntity
  8
1
  6
Continuous
 62
     7
 48
0.0095971233455876
100
AcDbVertex
100
AcDb2dVertex
 10
2.122430755569468
 20
0.0491444603798531
 30
0.0
 40
0.0038
 41
0.0038
  0
SEQEND
  5
237
330
234
100
AcDbEntity
  8
1
  6
Continuous
 62
     7
 48
0.0095971233455876
370
     0
  0
POLYLINE
  5
238
330
1F
100
AcDbEntity
  8
1
  6
Continuous
 62
     7
 48
0.0095971233455876
370
     0
100
AcDb2dPolyline
 66
     1
 10
0.0
 20
0.0
 30
0.0
  0
VERTEX
  5
239
330
238
100
AcDbEntity
  8
1
  6
Continuous
 62
     7
 48
0.0095971233455876
100
AcDbVertex
100
AcDb2dVertex
 10
2.029430755569468
 20
0.6231444603798535
 30
0.0
 40
0.0038
 41
0.0038
  0
VERTEX
  5
23A
330
238
100
AcDbEntity
  8
1
  6
Continuous
 62
     7
 48
0.0095971233455876
100
AcDbVertex
100
AcDb2dVertex
 10
2.029430755569468
 20
0.5441444603798534
 30
0.0
 40
0.0038
 41
0.0038
  0
SEQEND
  5
23B
330
238
100
AcDbEntity
  8
1
  6
Continuous
 62
     7
 48
0.0095971233455876
370
     0
  0
POLYLINE
  5
23C
330
1F
100
AcDbEntity
  8
1
  6
Continuous
 62
     7
 48
0.0095971233455876
370
     0
100
AcDb2dPolyline
 66
     1
 10
0.0
 20
0.0
 30
0.0
  0
VERTEX
  5
23D
330
23C
100
AcDbEntity
  8
1
  6
Continuous
 62
     7
 48
0.0095971233455876
100
AcDbVertex
100
AcDb2dVertex
 10
2.029430755569468
 20
0.2891444603798528
 30
0.0
 40
0.0038
 41
0.0038
  0
VERTEX
  5
23E
330
23C
100
AcDbEntity
  8
1
  6
Continuous
 62
     7
 48
0.0095971233455876
100
AcDbVertex
100
AcDb2dVertex
 10
2.029430755569468
 20
0.2891444603798528
 30
0.0
 40
0.0038
 41
0.0038
  0
SEQEND
  5
23F
330
23C
100
AcDbEntity
  8
1
  6
Continuous
 62
     7
 48
0.0095971233455876
370
     0
  0
POLYLINE
  5
240
330
1F
100
AcDbEntity
  8
1
  6
Continuous
 62
     7
 48
0.0095971233455876
370
     0
100
AcDb2dPolyline
 66
     1
 10
0.0
 20
0.0
 30
0.0
  0
VERTEX
  5
241
330
240
100
AcDbEntity
  8
1
  6
Continuous
 62
     7
 48
0.0095971233455876
100
AcDbVertex
100
AcDb2dVertex
 10
2.029430755569468
 20
0.2891444603798528
 30
0.0
 40
0.0038
 41
0.0038
  0
VERTEX
  5
242
330
240
100
AcDbEntity
  8
1
  6
Continuous
 62
     7
 48
0.0095971233455876
100
AcDbVertex
100
AcDb2dVertex
 10
2.029430755569468
 20
0.2891444603798528
 30
0.0
 40
0.0038
 41
0.0038
  0
SEQEND
  5
243
330
240
100
AcDbEntity
  8
1
  6
Continuous
 62
     7
 48
0.0095971233455876
370
     0
  0
POLYLINE
  5
244
330
1F
100
AcDbEntity
  8
1
  6
Continuous
 62
     7
 48
0.0095971233455876
370
     0
100
AcDb2dPolyline
 66
     1
 10
0.0
 20
0.0
 30
0.0
  0
VERTEX
  5
245
330
244
100
AcDbEntity
  8
1
  6
Continuous
 62
     7
 48
0.0095971233455876
100
AcDbVertex
100
AcDb2dVertex
 10
2.029430755569468
 20
-0.0448555396201464
 30
0.0
 40
0.0038
 41
0.0038
  0
VERTEX
  5
246
330
244
100
AcDbEntity
  8
1
  6
Continuous
 62
     7
 48
0.0095971233455876
100
AcDbVertex
100
AcDb2dVertex
 10
2.029430755569468
 20
0.0341444603798535
 30
0.0
 40
0.0038
 41
0.0038
  0
SEQEND
  5
247
330
244
100
AcDbEntity
  8
1
  6
Continuous
 62
     7
 48
0.0095971233455876
370
     0
  0
POLYLINE
  5
248
330
1F
100
AcDbEntity
  8
1
  6
Continuous
 62
     7
 48
0.0095971233455876
370
     0
100
AcDb2dPolyline
 66
     1
 10
0.0
 20
0.0
 30
0.0
 70
   128
  0
VERTEX
  5
249
330
248
100
AcDbEntity
  8
1
  6
Continuous
 62
     7
 48
0.0095971233455876
100
AcDbVertex
100
AcDb2dVertex
 10
2.044430755569468
 20
0.5291444603798529
 30
0.0
 40
0.0038
 41
0.0038
  0
VERTEX
  5
24A
330
248
100
AcDbEntity
  8
1
  6
Continuous
 62
     7
 48
0.0095971233455876
100
AcDbVertex
100
AcDb2dVertex
 10
2.041826032904464
 20
0.5293723440846697
 30
0.0
 40
0.0038
 41
0.0038
  0
VERTEX
  5
24B
330
248
100
AcDbEntity
  8
1
  6
Continuous
 62
     7
 48
0.0095971233455876
100
AcDbVertex
100
AcDb2dVertex
 10
2.039300453419583
 20
0.5300490710680643
 30
0.0
 40
0.0038
 41
0.0038
  0
VERTEX
  5
24C
330
248
100
AcDbEntity
  8
1
  6
Continuous
 62
     7
 48
0.0095971233455876
100
AcDbVertex
100
AcDb2dVertex
 10
2.036930755569468
 20
0.5311540793230863
 30
0.0
 40
0.0038
 41
0.0038
  0
VERTEX
  5
24D
330
248
100
AcDbEntity
  8
1
  6
Continuous
 62
     7
 48
0.0095971233455876
100
AcDbVertex
100
AcDb2dVertex
 10
2.03478894142417
 20
0.5326537937330683
 30
0.0
 40
0.0038
 41
0.0038
  0
VERTEX
  5
24E
330
248
100
AcDbEntity
  8
1
  6
Continuous
 62
     7
 48
0.0095971233455876
100
AcDbVertex
100
AcDb2dVertex
 10
2.032940088922683
 20
0.5345026462345549
 30
0.0
 40
0.0038
 41
0.0038
  0
VERTEX
  5
24F
330
248
100
AcDbEntity
  8
1
  6
Continuous
 62
     7
 48
0.0095971233455876
100
AcDbVertex
100
AcDb2dVertex
 10
2.031440374512701
 20
0.5366444603798531
 30
0.0
 40
0.0038
 41
0.0038
  0
VERTEX
  5
250
330
248
100
AcDbEntity
  8
1
  6
Continuous
 62
     7
 48
0.0095971233455876
100
AcDbVertex
100
AcDb2dVertex
 10
2.030335366257679
 20
0.5390141582299681
 30
0.0
 40
0.0038
 41
0.0038
  0
VERTEX
  5
251
330
248
100
AcDbEntity
  8
1
  6
Continuous
 62
     7
 48
0.0095971233455876
100
AcDbVertex
100
AcDb2dVertex
 10
2.029658639274285
 20
0.5415397377148493
 30
0.0
 40
0.0038
 41
0.0038
  0
VERTEX
  5
252
330
248
100
AcDbEntity
  8
1
  6
Continuous
 62
     7
 48
0.0095971233455876
100
AcDbVertex
100
AcDb2dVertex
 10
2.029430755569468
 20
0.5441444603798534
 30
0.0
 40
0.0038
 41
0.0038
  0
SEQEND
  5
253
330
248
100
AcDbEntity
  8
1
  6
Continuous
 62
     7
 48
0.0095971233455876
370
     0
  0
POLYLINE
  5
254
330
1F
100
AcDbEntity
  8
1
  6
Continuous
 62
     7
 48
0.0095971233455876
370
     0
100
AcDb2dPolyline
 66
     1
 10
0.0
 20
0.0
 30
0.0
 70
   128
  0
VERTEX
  5
255
330
254
100
AcDbEntity
  8
1
  6
Continuous
 62
     7
 48
0.0095971233455876
100
AcDbVertex
100
AcDb2dVertex
 10
2.029430755569468
 20
0.0341444603798535
 30
0.0
 40
0.0038
 41
0.0038
  0
VERTEX
  5
256
330
254
100
AcDbEntity
  8
1
  6
Continuous
 62
     7
 48
0.0095971233455876
100
AcDbVertex
100
AcDb2dVertex
 10
2.029658639274285
 20
0.0367491830448575
 30
0.0
 40
0.0038
 41
0.0038
  0
VERTEX
  5
257
330
254
100
AcDbEntity
  8
1
  6
Continuous
 62
     7
 48
0.0095971233455876
100
AcDbVertex
100
AcDb2dVertex
 10
2.030335366257679
 20
0.0392747625297386
 30
0.0
 40
0.0038
 41
0.0038
  0
VERTEX
  5
258
330
254
100
AcDbEntity
  8
1
  6
Continuous
 62
     7
 48
0.0095971233455876
100
AcDbVertex
100
AcDb2dVertex
 10
2.031440374512701
 20
0.0416444603798536
 30
0.0
 40
0.0038
 41
0.0038
  0
VERTEX
  5
259
330
254
100
AcDbEntity
  8
1
  6
Continuous
 62
     7
 48
0.0095971233455876
100
AcDbVertex
100
AcDb2dVertex
 10
2.032940088922683
 20
0.0437862745251518
 30
0.0
 40
0.0038
 41
0.0038
  0
VERTEX
  5
25A
330
254
100
AcDbEntity
  8
1
  6
Continuous
 62
     7
 48
0.0095971233455876
100
AcDbVertex
100
AcDb2dVertex
 10
2.03478894142417
 20
0.0456351270266384
 30
0.0
 40
0.0038
 41
0.0038
  0
VERTEX
  5
25B
330
254
100
AcDbEntity
  8
1
  6
Continuous
 62
     7
 48
0.0095971233455876
100
AcDbVertex
100
AcDb2dVertex
 10
2.036930755569467
 20
0.0471348414366203
 30
0.0
 40
0.0038
 41
0.0038
  0
VERTEX
  5
25C
330
254
100
AcDbEntity
  8
1
  6
Continuous
 62
     7
 48
0.0095971233455876
100
AcDbVertex
100
AcDb2dVertex
 10
2.039300453419583
 20
0.0482398496916424
 30
0.0
 40
0.0038
 41
0.0038
  0
VERTEX
  5
25D
330
254
100
AcDbEntity
  8
1
  6
Continuous
 62
     7
 48
0.0095971233455876
100
AcDbVertex
100
AcDb2dVertex
 10
2.041826032904464
 20
0.0489165766750369
 30
0.0
 40
0.0038
 41
0.0038
  0
VERTEX
  5
25E
330
254
100
AcDbEntity
  8
1
  6
Continuous
 62
     7
 48
0.0095971233455876
100
AcDbVertex
100
AcDb2dVertex
 10
2.044430755569468
 20
0.0491444603798538
 30
0.0
 40
0.0038
 41
0.0038
  0
SEQEND
  5
25F
330
254
100
AcDbEntity
  8
1
  6
Continuous
 62
     7
 48
0.0095971233455876
370
     0
  0
POLYLINE
  5
260
330
1F
100
AcDbEntity
  8
1
  6
Continuous
 62
     7
 48
0.0095971233455876
370
     0
100
AcDb2dPolyline
 66
     1
 10
0.0
 20
0.0
 30
0.0
 70
   128
  0
VERTEX
  5
261
330
260
100
AcDbEntity
  8
1
  6
Continuous
 62
     7
 48
0.0095971233455876
100
AcDbVertex
100
AcDb2dVertex
 10
2.029430755569468
 20
0.0341444603798535
 30
0.0
 40
0.0038
 41
0.0038
  0
VERTEX
  5
262
330
260
100
AcDbEntity
  8
1
  6
Continuous
 62
     7
 48
0.0095971233455876
100
AcDbVertex
100
AcDb2dVertex
 10
2.029658639274285
 20
0.0367491830448574
 30
0.0
 40
0.0038
 41
0.0038
  0
VERTEX
  5
263
330
260
100
AcDbEntity
  8
1
  6
Continuous
 62
     7
 48
0.0095971233455876
100
AcDbVertex
100
AcDb2dVertex
 10
2.030335366257679
 20
0.0392747625297385
 30
0.0
 40
0.0038
 41
0.0038
  0
VERTEX
  5
264
330
260
100
AcDbEntity
  8
1
  6
Continuous
 62
     7
 48
0.0095971233455876
100
AcDbVertex
100
AcDb2dVertex
 10
2.031440374512701
 20
0.0416444603798535
 30
0.0
 40
0.0038
 41
0.0038
  0
VERTEX
  5
265
330
260
100
AcDbEntity
  8
1
  6
Continuous
 62
     7
 48
0.0095971233455876
100
AcDbVertex
100
AcDb2dVertex
 10
2.032940088922683
 20
0.0437862745251515
 30
0.0
 40
0.0038
 41
0.0038
  0
VERTEX
  5
266
330
260
100
AcDbEntity
  8
1
  6
Continuous
 62
     7
 48
0.0095971233455876
100
AcDbVertex
100
AcDb2dVertex
 10
2.03478894142417
 20
0.0456351270266381
 30
0.0
 40
0.0038
 41
0.0038
  0
VERTEX
  5
267
330
260
100
AcDbEntity
  8
1
  6
Continuous
 62
     7
 48
0.0095971233455876
100
AcDbVertex
100
AcDb2dVertex
 10
2.036930755569467
 20
0.04713484143662
 30
0.0
 40
0.0038
 41
0.0038
  0
VERTEX
  5
268
330
260
100
AcDbEntity
  8
1
  6
Continuous
 62
     7
 48
0.0095971233455876
100
AcDbVertex
100
AcDb2dVertex
 10
2.039300453419583
 20
0.0482398496916421
 30
0.0
 40
0.0038
 41
0.0038
  0
VERTEX
  5
269
330
260
100
AcDbEntity
  8
1
  6
Continuous
 62
     7
 48
0.0095971233455876
100
AcDbVertex
100
AcDb2dVertex
 10
2.041826032904464
 20
0.0489165766750365
 30
0.0
 40
0.0038
 41
0.0038
  0
VERTEX
  5
26A
330
260
100
AcDbEntity
  8
1
  6
Continuous
 62
     7
 48
0.0095971233455876
100
AcDbVertex
100
AcDb2dVertex
 10
2.044430755569468
 20
0.0491444603798534
 30
0.0
 40
0.0038
 41
0.0038
  0
SEQEND
  5
26B
330
260
100
AcDbEntity
  8
1
  6
Continuous
 62
     7
 48
0.0095971233455876
370
     0
  0
POLYLINE
  5
26C
330
1F
100
AcDbEntity
  8
1
  6
Continuous
 62
     7
 48
0.0095971233455876
370
     0
100
AcDb2dPolyline
 66
     1
 10
0.0
 20
0.0
 30
0.0
  0
VERTEX
  5
26D
330
26C
100
AcDbEntity
  8
1
  6
Continuous
 62
     7
 48
0.0095971233455876
100
AcDbVertex
100
AcDb2dVertex
 10
2.572430755569468
 20
0.1407444603798531
 30
0.0
 40
0.0038
 41
0.0038
  0
VERTEX
  5
26E
330
26C
100
AcDbEntity
  8
1
  6
Continuous
 62
     7
 48
0.0095971233455876
100
AcDbVertex
100
AcDb2dVertex
 10
2.572430755569469
 20
0.4375444603798535
 30
0.0
 40
0.0038
 41
0.0038
  0
SEQEND
  5
26F
330
26C
100
AcDbEntity
  8
1
  6
Continuous
 62
     7
 48
0.0095971233455876
370
     0
  0
POLYLINE
  5
270
330
1F
100
AcDbEntity
  8
1
  6
Continuous
 62
     7
 48
0.0095971233455876
370
     0
100
AcDb2dPolyline
 66
     1
 10
0.0
 20
0.0
 30
0.0
  0
VERTEX
  5
271
330
270
100
AcDbEntity
  8
1
  6
Continuous
 62
     7
 48
0.0095971233455876
100
AcDbVertex
100
AcDb2dVertex
 10
2.572430755569468
 20
0.4375444603798535
 30
0.0
 40
0.0038
 41
0.0038
  0
VERTEX
  5
272
330
270
100
AcDbEntity
  8
1
  6
Continuous
 62
     7
 48
0.0095971233455876
100
AcDbVertex
100
AcDb2dVertex
 10
2.577430755569468
 20
0.4425444603798535
 30
0.0
 40
0.0038
 41
0.0038
  0
SEQEND
  5
273
330
270
100
AcDbEntity
  8
1
  6
Continuous
 62
     7
 48
0.0095971233455876
370
     0
  0
POLYLINE
  5
274
330
1F
100
AcDbEntity
  8
1
  6
Continuous
 62
     7
 48
0.0095971233455876
370
     0
100
AcDb2dPolyline
 66
     1
 10
0.0
 20
0.0
 30
0.0
  0
VERTEX
  5
275
330
274
100
AcDbEntity
  8
1
  6
Continuous
 62
     7
 48
0.0095971233455876
100
AcDbVertex
100
AcDb2dVertex
 10
2.572430755569468
 20
0.1407444603798531
 30
0.0
 40
0.0038
 41
0.0038
  0
VERTEX
  5
276
330
274
100
AcDbEntity
  8
1
  6
Continuous
 62
     7
 48
0.0095971233455876
100
AcDbVertex
100
AcDb2dVertex
 10
2.577430755569468
 20
0.1357444603798535
 30
0.0
 40
0.0038
 41
0.0038
  0
SEQEND
  5
277
330
274
100
AcDbEntity
  8
1
  6
Continuous
 62
     7
 48
0.0095971233455876
370
     0
  0
POLYLINE
  5
278
330
1F
100
AcDbEntity
  8
1
  6
Continuous
 62
     7
 48
0.0095971233455876
370
     0
100
AcDb2dPolyline
 66
     1
 10
0.0
 20
0.0
 30
0.0
  0
VERTEX
  5
279
330
278
100
AcDbEntity
  8
1
  6
Continuous
 62
     7
 48
0.0095971233455876
100
AcDbVertex
100
AcDb2dVertex
 10
2.577430755569468
 20
0.1401444603798532
 30
0.0
 40
0.0038
 41
0.0038
  0
VERTEX
  5
27A
330
278
100
AcDbEntity
  8
1
  6
Continuous
 62
     7
 48
0.0095971233455876
100
AcDbVertex
100
AcDb2dVertex
 10
2.577430755569468
 20
0.1401444603798532
 30
0.0
 40
0.0038
 41
0.0038
  0
SEQEND
  5
27B
330
278
100
AcDbEntity
  8
1
  6
Continuous
 62
     7
 48
0.0095971233455876
370
     0
  0
POLYLINE
  5
27C
330
1F
100
AcDbEntity
  8
1
  6
Continuous
 62
     7
 48
0.0095971233455876
370
     0
100
AcDb2dPolyline
 66
     1
 10
0.0
 20
0.0
 30
0.0
  0
VERTEX
  5
27D
330
27C
100
AcDbEntity
  8
1
  6
Continuous
 62
     7
 48
0.0095971233455876
100
AcDbVertex
100
AcDb2dVertex
 10
2.577430755569468
 20
0.4375444603798535
 30
0.0
 40
0.0038
 41
0.0038
  0
VERTEX
  5
27E
330
27C
100
AcDbEntity
  8
1
  6
Continuous
 62
     7
 48
0.0095971233455876
100
AcDbVertex
100
AcDb2dVertex
 10
2.577430755569468
 20
0.1401444603798532
 30
0.0
 40
0.0038
 41
0.0038
  0
SEQEND
  5
27F
330
27C
100
AcDbEntity
  8
1
  6
Continuous
 62
     7
 48
0.0095971233455876
370
     0
  0
POLYLINE
  5
280
330
1F
100
AcDbEntity
  8
1
  6
Continuous
 62
     7
 48
0.0095971233455876
370
     0
100
AcDb2dPolyline
 66
     1
 10
0.0
 20
0.0
 30
0.0
  0
VERTEX
  5
281
330
280
100
AcDbEntity
  8
1
  6
Continuous
 62
     7
 48
0.0095971233455876
100
AcDbVertex
100
AcDb2dVertex
 10
1.878357207751312
 20
0.6751444603798534
 30
0.0
 40
0.0038
 41
0.0038
  0
VERTEX
  5
282
330
280
100
AcDbEntity
  8
1
  6
Continuous
 62
     7
 48
0.0095971233455876
100
AcDbVertex
100
AcDb2dVertex
 10
2.010504303387625
 20
0.6751444603798534
 30
0.0
 40
0.0038
 41
0.0038
  0
SEQEND
  5
283
330
280
100
AcDbEntity
  8
1
  6
Continuous
 62
     7
 48
0.0095971233455876
370
     0
  0
POLYLINE
  5
284
330
1F
100
AcDbEntity
  8
1
  6
Continuous
 62
     7
 48
0.0095971233455876
370
     0
100
AcDb2dPolyline
 66
     1
 10
0.0
 20
0.0
 30
0.0
  0
VERTEX
  5
285
330
284
100
AcDbEntity
  8
1
  6
Continuous
 62
     7
 48
0.0095971233455876
100
AcDbVertex
100
AcDb2dVertex
 10
2.010504303387624
 20
-0.0968555396201465
 30
0.0
 40
0.0038
 41
0.0038
  0
VERTEX
  5
286
330
284
100
AcDbEntity
  8
1
  6
Continuous
 62
     7
 48
0.0095971233455876
100
AcDbVertex
100
AcDb2dVertex
 10
1.878357207751312
 20
-0.0968555396201465
 30
0.0
 40
0.0038
 41
0.0038
  0
SEQEND
  5
287
330
284
100
AcDbEntity
  8
1
  6
Continuous
 62
     7
 48
0.0095971233455876
370
     0
  0
POLYLINE
  5
288
330
1F
100
AcDbEntity
  8
1
  6
Continuous
 62
     7
 48
0.0095971233455876
370
     0
100
AcDb2dPolyline
 66
     1
 10
0.0
 20
0.0
 30
0.0
  0
VERTEX
  5
289
330
288
100
AcDbEntity
  8
1
  6
Continuous
 62
     7
 48
0.0095971233455876
100
AcDbVertex
100
AcDb2dVertex
 10
1.859430755569469
 20
0.6231444603798542
 30
0.0
 40
0.0038
 41
0.0038
  0
VERTEX
  5
28A
330
288
100
AcDbEntity
  8
1
  6
Continuous
 62
     7
 48
0.0095971233455876
100
AcDbVertex
100
AcDb2dVertex
 10
1.878357207751312
 20
0.6751444603798534
 30
0.0
 40
0.0038
 41
0.0038
  0
SEQEND
  5
28B
330
288
100
AcDbEntity
  8
1
  6
Continuous
 62
     7
 48
0.0095971233455876
370
     0
  0
POLYLINE
  5
28C
330
1F
100
AcDbEntity
  8
1
  6
Continuous
 62
     7
 48
0.0095971233455876
370
     0
100
AcDb2dPolyline
 66
     1
 10
0.0
 20
0.0
 30
0.0
  0
VERTEX
  5
28D
330
28C
100
AcDbEntity
  8
1
  6
Continuous
 62
     7
 48
0.0095971233455876
100
AcDbVertex
100
AcDb2dVertex
 10
2.029430755569468
 20
0.6231444603798542
 30
0.0
 40
0.0038
 41
0.0038
  0
VERTEX
  5
28E
330
28C
100
AcDbEntity
  8
1
  6
Continuous
 62
     7
 48
0.0095971233455876
100
AcDbVertex
100
AcDb2dVertex
 10
2.010504303387625
 20
0.6751444603798534
 30
0.0
 40
0.0038
 41
0.0038
  0
SEQEND
  5
28F
330
28C
100
AcDbEntity
  8
1
  6
Continuous
 62
     7
 48
0.0095971233455876
370
     0
  0
POLYLINE
  5
290
330
1F
100
AcDbEntity
  8
1
  6
Continuous
 62
     7
 48
0.0095971233455876
370
     0
100
AcDb2dPolyline
 66
     1
 10
0.0
 20
0.0
 30
0.0
  0
VERTEX
  5
291
330
290
100
AcDbEntity
  8
1
  6
Continuous
 62
     7
 48
0.0095971233455876
100
AcDbVertex
100
AcDb2dVertex
 10
2.029430755569468
 20
-0.044855539620146
 30
0.0
 40
0.0038
 41
0.0038
  0
VERTEX
  5
292
330
290
100
AcDbEntity
  8
1
  6
Continuous
 62
     7
 48
0.0095971233455876
100
AcDbVertex
100
AcDb2dVertex
 10
2.010504303387624
 20
-0.0968555396201465
 30
0.0
 40
0.0038
 41
0.0038
  0
SEQEND
  5
293
330
290
100
AcDbEntity
  8
1
  6
Continuous
 62
     7
 48
0.0095971233455876
370
     0
  0
POLYLINE
  5
294
330
1F
100
AcDbEntity
  8
1
  6
Continuous
 62
     7
 48
0.0095971233455876
370
     0
100
AcDb2dPolyline
 66
     1
 10
0.0
 20
0.0
 30
0.0
  0
VERTEX
  5
295
330
294
100
AcDbEntity
  8
1
  6
Continuous
 62
     7
 48
0.0095971233455876
100
AcDbVertex
100
AcDb2dVertex
 10
1.859430755569469
 20
-0.044855539620146
 30
0.0
 40
0.0038
 41
0.0038
  0
VERTEX
  5
296
330
294
100
AcDbEntity
  8
1
  6
Continuous
 62
     7
 48
0.0095971233455876
100
AcDbVertex
100
AcDb2dVertex
 10
1.878357207751312
 20
-0.0968555396201465
 30
0.0
 40
0.0038
 41
0.0038
  0
SEQEND
  5
297
330
294
100
AcDbEntity
  8
1
  6
Continuous
 62
     7
 48
0.0095971233455876
370
     0
  0
POLYLINE
  5
298
330
1F
100
AcDbEntity
  8
1
  6
Continuous
 62
     7
 48
0.0095971233455876
370
     0
100
AcDb2dPolyline
 66
     1
 10
0.0
 20
0.0
 30
0.0
  0
VERTEX
  5
299
330
298
100
AcDbEntity
  8
1
  6
Continuous
 62
     7
 48
0.0095971233455876
100
AcDbVertex
100
AcDb2dVertex
 10
1.590858958799744
 20
0.5379787617757824
 30
0.0
 40
0.0038
 41
0.0038
  0
VERTEX
  5
29A
330
298
100
AcDbEntity
  8
1
  6
Continuous
 62
     7
 48
0.0095971233455876
100
AcDbVertex
100
AcDb2dVertex
 10
1.597680755569468
 20
0.5497944603798546
 30
0.0
 40
0.0038
 41
0.0038
  0
SEQEND
  5
29B
330
298
100
AcDbEntity
  8
1
  6
Continuous
 62
     7
 48
0.0095971233455876
370
     0
  0
POLYLINE
  5
29C
330
1F
100
AcDbEntity
  8
1
  6
Continuous
 62
     7
 48
0.0095971233455876
370
     0
100
AcDb2dPolyline
 66
     1
 10
0.0
 20
0.0
 30
0.0
  0
VERTEX
  5
29D
330
29C
100
AcDbEntity
  8
1
  6
Continuous
 62
     7
 48
0.0095971233455876
100
AcDbVertex
100
AcDb2dVertex
 10
1.577002552339193
 20
0.5379787617757824
 30
0.0
 40
0.0038
 41
0.0038
  0
VERTEX
  5
29E
330
29C
100
AcDbEntity
  8
1
  6
Continuous
 62
     7
 48
0.0095971233455876
100
AcDbVertex
100
AcDb2dVertex
 10
1.560115056965397
 20
0.567228761775782
 30
0.0
 40
0.0038
 41
0.0038
  0
SEQEND
  5
29F
330
29C
100
AcDbEntity
  8
1
  6
Continuous
 62
     7
 48
0.0095971233455876
370
     0
  0
POLYLINE
  5
2A0
330
1F
100
AcDbEntity
  8
1
  6
Continuous
 62
     7
 48
0.0095971233455876
370
     0
100
AcDb2dPolyline
 66
     1
 10
0.0
 20
0.0
 30
0.0
  0
VERTEX
  5
2A1
330
2A0
100
AcDbEntity
  8
1
  6
Continuous
 62
     7
 48
0.0095971233455876
100
AcDbVertex
100
AcDb2dVertex
 10
1.577002552339193
 20
0.5379787617757824
 30
0.0
 40
0.0038
 41
0.0038
  0
VERTEX
  5
2A2
330
2A0
100
AcDbEntity
  8
1
  6
Continuous
 62
     7
 48
0.0095971233455876
100
AcDbVertex
100
AcDb2dVertex
 10
1.590858958799744
 20
0.5379787617757824
 30
0.0
 40
0.0038
 41
0.0038
  0
SEQEND
  5
2A3
330
2A0
100
AcDbEntity
  8
1
  6
Continuous
 62
     7
 48
0.0095971233455876
370
     0
  0
POLYLINE
  5
2A4
330
1F
100
AcDbEntity
  8
1
  6
Continuous
 62
     7
 48
0.0095971233455876
370
     0
100
AcDb2dPolyline
 66
     1
 10
0.0
 20
0.0
 30
0.0
  0
VERTEX
  5
2A5
330
2A4
100
AcDbEntity
  8
1
  6
Continuous
 62
     7
 48
0.0095971233455876
100
AcDbVertex
100
AcDb2dVertex
 10
1.597680755569468
 20
0.5497944603798546
 30
0.0
 40
0.0038
 41
0.0038
  0
VERTEX
  5
2A6
330
2A4
100
AcDbEntity
  8
1
  6
Continuous
 62
     7
 48
0.0095971233455876
100
AcDbVertex
100
AcDb2dVertex
 10
1.607966653954331
 20
0.567610158983926
 30
0.0
 40
0.0038
 41
0.0038
  0
SEQEND
  5
2A7
330
2A4
100
AcDbEntity
  8
1
  6
Continuous
 62
     7
 48
0.0095971233455876
370
     0
  0
POLYLINE
  5
2A8
330
1F
100
AcDbEntity
  8
1
  6
Continuous
 62
     7
 48
0.0095971233455876
370
     0
100
AcDb2dPolyline
 66
     1
 10
0.0
 20
0.0
 30
0.0
  0
VERTEX
  5
2A9
330
2A8
100
AcDbEntity
  8
1
  6
Continuous
 62
     7
 48
0.0095971233455876
100
AcDbVertex
100
AcDb2dVertex
 10
1.645858958799743
 20
0.5379787617757824
 30
0.0
 40
0.0038
 41
0.0038
  0
VERTEX
  5
2AA
330
2A8
100
AcDbEntity
  8
1
  6
Continuous
 62
     7
 48
0.0095971233455876
100
AcDbVertex
100
AcDb2dVertex
 10
1.652680755569469
 20
0.5497944603798546
 30
0.0
 40
0.0038
 41
0.0038
  0
SEQEND
  5
2AB
330
2A8
100
AcDbEntity
  8
1
  6
Continuous
 62
     7
 48
0.0095971233455876
370
     0
  0
POLYLINE
  5
2AC
330
1F
100
AcDbEntity
  8
1
  6
Continuous
 62
     7
 48
0.0095971233455876
370
     0
100
AcDb2dPolyline
 66
     1
 10
0.0
 20
0.0
 30
0.0
  0
VERTEX
  5
2AD
330
2AC
100
AcDbEntity
  8
1
  6
Continuous
 62
     7
 48
0.0095971233455876
100
AcDbVertex
100
AcDb2dVertex
 10
1.632002552339193
 20
0.5379787617757824
 30
0.0
 40
0.0038
 41
0.0038
  0
VERTEX
  5
2AE
330
2AC
100
AcDbEntity
  8
1
  6
Continuous
 62
     7
 48
0.0095971233455876
100
AcDbVertex
100
AcDb2dVertex
 10
1.614894857184606
 20
0.567610158983926
 30
0.0
 40
0.0038
 41
0.0038
  0
SEQEND
  5
2AF
330
2AC
100
AcDbEntity
  8
1
  6
Continuous
 62
     7
 48
0.0095971233455876
370
     0
  0
POLYLINE
  5
2B0
330
1F
100
AcDbEntity
  8
1
  6
Continuous
 62
     7
 48
0.0095971233455876
370
     0
100
AcDb2dPolyline
 66
     1
 10
0.0
 20
0.0
 30
0.0
  0
VERTEX
  5
2B1
330
2B0
100
AcDbEntity
  8
1
  6
Continuous
 62
     7
 48
0.0095971233455876
100
AcDbVertex
100
AcDb2dVertex
 10
1.607966653954331
 20
0.567610158983926
 30
0.0
 40
0.0038
 41
0.0038
  0
VERTEX
  5
2B2
330
2B0
100
AcDbEntity
  8
1
  6
Continuous
 62
     7
 48
0.0095971233455876
100
AcDbVertex
100
AcDb2dVertex
 10
1.614894857184606
 20
0.567610158983926
 30
0.0
 40
0.0038
 41
0.0038
  0
SEQEND
  5
2B3
330
2B0
100
AcDbEntity
  8
1
  6
Continuous
 62
     7
 48
0.0095971233455876
370
     0
  0
POLYLINE
  5
2B4
330
1F
100
AcDbEntity
  8
1
  6
Continuous
 62
     7
 48
0.0095971233455876
370
     0
100
AcDb2dPolyline
 66
     1
 10
0.0
 20
0.0
 30
0.0
  0
VERTEX
  5
2B5
330
2B4
100
AcDbEntity
  8
1
  6
Continuous
 62
     7
 48
0.0095971233455876
100
AcDbVertex
100
AcDb2dVertex
 10
1.632002552339193
 20
0.5379787617757824
 30
0.0
 40
0.0038
 41
0.0038
  0
VERTEX
  5
2B6
330
2B4
100
AcDbEntity
  8
1
  6
Continuous
 62
     7
 48
0.0095971233455876
100
AcDbVertex
100
AcDb2dVertex
 10
1.645858958799743
 20
0.5379787617757824
 30
0.0
 40
0.0038
 41
0.0038
  0
SEQEND
  5
2B7
330
2B4
100
AcDbEntity
  8
1
  6
Continuous
 62
     7
 48
0.0095971233455876
370
     0
  0
POLYLINE
  5
2B8
330
1F
100
AcDbEntity
  8
1
  6
Continuous
 62
     7
 48
0.0095971233455876
370
     0
100
AcDb2dPolyline
 66
     1
 10
0.0
 20
0.0
 30
0.0
  0
VERTEX
  5
2B9
330
2B8
100
AcDbEntity
  8
1
  6
Continuous
 62
     7
 48
0.0095971233455876
100
AcDbVertex
100
AcDb2dVertex
 10
1.652680755569469
 20
0.5497944603798546
 30
0.0
 40
0.0038
 41
0.0038
  0
VERTEX
  5
2BA
330
2B8
100
AcDbEntity
  8
1
  6
Continuous
 62
     7
 48
0.0095971233455876
100
AcDbVertex
100
AcDb2dVertex
 10
1.662966653954331
 20
0.5676101589839253
 30
0.0
 40
0.0038
 41
0.0038
  0
SEQEND
  5
2BB
330
2B8
100
AcDbEntity
  8
1
  6
Continuous
 62
     7
 48
0.0095971233455876
370
     0
  0
POLYLINE
  5
2BC
330
1F
100
AcDbEntity
  8
1
  6
Continuous
 62
     7
 48
0.0095971233455876
370
     0
100
AcDb2dPolyline
 66
     1
 10
0.0
 20
0.0
 30
0.0
  0
VERTEX
  5
2BD
330
2BC
100
AcDbEntity
  8
1
  6
Continuous
 62
     7
 48
0.0095971233455876
100
AcDbVertex
100
AcDb2dVertex
 10
1.700858958799744
 20
0.5379787617757824
 30
0.0
 40
0.0038
 41
0.0038
  0
VERTEX
  5
2BE
330
2BC
100
AcDbEntity
  8
1
  6
Continuous
 62
     7
 48
0.0095971233455876
100
AcDbVertex
100
AcDb2dVertex
 10
1.707680755569468
 20
0.5497944603798546
 30
0.0
 40
0.0038
 41
0.0038
  0
SEQEND
  5
2BF
330
2BC
100
AcDbEntity
  8
1
  6
Continuous
 62
     7
 48
0.0095971233455876
370
     0
  0
POLYLINE
  5
2C0
330
1F
100
AcDbEntity
  8
1
  6
Continuous
 62
     7
 48
0.0095971233455876
370
     0
100
AcDb2dPolyline
 66
     1
 10
0.0
 20
0.0
 30
0.0
  0
VERTEX
  5
2C1
330
2C0
100
AcDbEntity
  8
1
  6
Continuous
 62
     7
 48
0.0095971233455876
100
AcDbVertex
100
AcDb2dVertex
 10
1.687002552339192
 20
0.5379787617757824
 30
0.0
 40
0.0038
 41
0.0038
  0
VERTEX
  5
2C2
330
2C0
100
AcDbEntity
  8
1
  6
Continuous
 62
     7
 48
0.0095971233455876
100
AcDbVertex
100
AcDb2dVertex
 10
1.669894857184607
 20
0.567610158983926
 30
0.0
 40
0.0038
 41
0.0038
  0
SEQEND
  5
2C3
330
2C0
100
AcDbEntity
  8
1
  6
Continuous
 62
     7
 48
0.0095971233455876
370
     0
  0
POLYLINE
  5
2C4
330
1F
100
AcDbEntity
  8
1
  6
Continuous
 62
     7
 48
0.0095971233455876
370
     0
100
AcDb2dPolyline
 66
     1
 10
0.0
 20
0.0
 30
0.0
  0
VERTEX
  5
2C5
330
2C4
100
AcDbEntity
  8
1
  6
Continuous
 62
     7
 48
0.0095971233455876
100
AcDbVertex
100
AcDb2dVertex
 10
1.662966653954331
 20
0.5676101589839253
 30
0.0
 40
0.0038
 41
0.0038
  0
VERTEX
  5
2C6
330
2C4
100
AcDbEntity
  8
1
  6
Continuous
 62
     7
 48
0.0095971233455876
100
AcDbVertex
100
AcDb2dVertex
 10
1.669894857184607
 20
0.567610158983926
 30
0.0
 40
0.0038
 41
0.0038
  0
SEQEND
  5
2C7
330
2C4
100
AcDbEntity
  8
1
  6
Continuous
 62
     7
 48
0.0095971233455876
370
     0
  0
POLYLINE
  5
2C8
330
1F
100
AcDbEntity
  8
1
  6
Continuous
 62
     7
 48
0.0095971233455876
370
     0
100
AcDb2dPolyline
 66
     1
 10
0.0
 20
0.0
 30
0.0
  0
VERTEX
  5
2C9
330
2C8
100
AcDbEntity
  8
1
  6
Continuous
 62
     7
 48
0.0095971233455876
100
AcDbVertex
100
AcDb2dVertex
 10
1.687002552339192
 20
0.5379787617757824
 30
0.0
 40
0.0038
 41
0.0038
  0
VERTEX
  5
2CA
330
2C8
100
AcDbEntity
  8
1
  6
Continuous
 62
     7
 48
0.0095971233455876
100
AcDbVertex
100
AcDb2dVertex
 10
1.700858958799744
 20
0.5379787617757824
 30
0.0
 40
0.0038
 41
0.0038
  0
SEQEND
  5
2CB
330
2C8
100
AcDbEntity
  8
1
  6
Continuous
 62
     7
 48
0.0095971233455876
370
     0
  0
POLYLINE
  5
2CC
330
1F
100
AcDbEntity
  8
1
  6
Continuous
 62
     7
 48
0.0095971233455876
370
     0
100
AcDb2dPolyline
 66
     1
 10
0.0
 20
0.0
 30
0.0
  0
VERTEX
  5
2CD
330
2CC
100
AcDbEntity
  8
1
  6
Continuous
 62
     7
 48
0.0095971233455876
100
AcDbVertex
100
AcDb2dVertex
 10
1.707680755569468
 20
0.5497944603798546
 30
0.0
 40
0.0038
 41
0.0038
  0
VERTEX
  5
2CE
330
2CC
100
AcDbEntity
  8
1
  6
Continuous
 62
     7
 48
0.0095971233455876
100
AcDbVertex
100
AcDb2dVertex
 10
1.717966653954331
 20
0.567610158983926
 30
0.0
 40
0.0038
 41
0.0038
  0
SEQEND
  5
2CF
330
2CC
100
AcDbEntity
  8
1
  6
Continuous
 62
     7
 48
0.0095971233455876
370
     0
  0
POLYLINE
  5
2D0
330
1F
100
AcDbEntity
  8
1
  6
Continuous
 62
     7
 48
0.0095971233455876
370
     0
100
AcDb2dPolyline
 66
     1
 10
0.0
 20
0.0
 30
0.0
  0
VERTEX
  5
2D1
330
2D0
100
AcDbEntity
  8
1
  6
Continuous
 62
     7
 48
0.0095971233455876
100
AcDbVertex
100
AcDb2dVertex
 10
1.742002552339192
 20
0.5379787617757824
 30
0.0
 40
0.0038
 41
0.0038
  0
VERTEX
  5
2D2
330
2D0
100
AcDbEntity
  8
1
  6
Continuous
 62
     7
 48
0.0095971233455876
100
AcDbVertex
100
AcDb2dVertex
 10
1.724894857184606
 20
0.567610158983926
 30
0.0
 40
0.0038
 41
0.0038
  0
SEQEND
  5
2D3
330
2D0
100
AcDbEntity
  8
1
  6
Continuous
 62
     7
 48
0.0095971233455876
370
     0
  0
POLYLINE
  5
2D4
330
1F
100
AcDbEntity
  8
1
  6
Continuous
 62
     7
 48
0.0095971233455876
370
     0
100
AcDb2dPolyline
 66
     1
 10
0.0
 20
0.0
 30
0.0
  0
VERTEX
  5
2D5
330
2D4
100
AcDbEntity
  8
1
  6
Continuous
 62
     7
 48
0.0095971233455876
100
AcDbVertex
100
AcDb2dVertex
 10
1.717966653954331
 20
0.567610158983926
 30
0.0
 40
0.0038
 41
0.0038
  0
VERTEX
  5
2D6
330
2D4
100
AcDbEntity
  8
1
  6
Continuous
 62
     7
 48
0.0095971233455876
100
AcDbVertex
100
AcDb2dVertex
 10
1.724894857184606
 20
0.567610158983926
 30
0.0
 40
0.0038
 41
0.0038
  0
SEQEND
  5
2D7
330
2D4
100
AcDbEntity
  8
1
  6
Continuous
 62
     7
 48
0.0095971233455876
370
     0
  0
POLYLINE
  5
2D8
330
1F
100
AcDbEntity
  8
1
  6
Continuous
 62
     7
 48
0.0095971233455876
370
     0
100
AcDb2dPolyline
 66
     1
 10
0.0
 20
0.0
 30
0.0
  0
VERTEX
  5
2D9
330
2D8
100
AcDbEntity
  8
1
  6
Continuous
 62
     7
 48
0.0095971233455876
100
AcDbVertex
100
AcDb2dVertex
 10
1.742002552339192
 20
0.5379787617757824
 30
0.0
 40
0.0038
 41
0.0038
  0
VERTEX
  5
2DA
330
2D8
100
AcDbEntity
  8
1
  6
Continuous
 62
     7
 48
0.0095971233455876
100
AcDbVertex
100
AcDb2dVertex
 10
1.755858958799744
 20
0.5379787617757824
 30
0.0
 40
0.0038
 41
0.0038
  0
SEQEND
  5
2DB
330
2D8
100
AcDbEntity
  8
1
  6
Continuous
 62
     7
 48
0.0095971233455876
370
     0
  0
POLYLINE
  5
2DC
330
1F
100
AcDbEntity
  8
1
  6
Continuous
 62
     7
 48
0.0095971233455876
370
     0
100
AcDb2dPolyline
 66
     1
 10
0.0
 20
0.0
 30
0.0
  0
VERTEX
  5
2DD
330
2DC
100
AcDbEntity
  8
1
  6
Continuous
 62
     7
 48
0.0095971233455876
100
AcDbVertex
100
AcDb2dVertex
 10
1.536079158580535
 20
0.5375973645676387
 30
0.0
 40
0.0038
 41
0.0038
  0
VERTEX
  5
2DE
330
2DC
100
AcDbEntity
  8
1
  6
Continuous
 62
     7
 48
0.0095971233455876
100
AcDbVertex
100
AcDb2dVertex
 10
1.542900955350259
 20
0.5494130631717106
 30
0.0
 40
0.0038
 41
0.0038
  0
SEQEND
  5
2DF
330
2DC
100
AcDbEntity
  8
1
  6
Continuous
 62
     7
 48
0.0095971233455876
370
     0
  0
POLYLINE
  5
2E0
330
1F
100
AcDbEntity
  8
1
  6
Continuous
 62
     7
 48
0.0095971233455876
370
     0
100
AcDb2dPolyline
 66
     1
 10
0.0
 20
0.0
 30
0.0
  0
VERTEX
  5
2E1
330
2E0
100
AcDbEntity
  8
1
  6
Continuous
 62
     7
 48
0.0095971233455876
100
AcDbVertex
100
AcDb2dVertex
 10
1.522222752119983
 20
0.5375973645676387
 30
0.0
 40
0.0038
 41
0.0038
  0
VERTEX
  5
2E2
330
2E0
100
AcDbEntity
  8
1
  6
Continuous
 62
     7
 48
0.0095971233455876
100
AcDbVertex
100
AcDb2dVertex
 10
1.536079158580535
 20
0.5375973645676387
 30
0.0
 40
0.0038
 41
0.0038
  0
SEQEND
  5
2E3
330
2E0
100
AcDbEntity
  8
1
  6
Continuous
 62
     7
 48
0.0095971233455876
370
     0
  0
POLYLINE
  5
2E4
330
1F
100
AcDbEntity
  8
1
  6
Continuous
 62
     7
 48
0.0095971233455876
370
     0
100
AcDb2dPolyline
 66
     1
 10
0.0
 20
0.0
 30
0.0
  0
VERTEX
  5
2E5
330
2E4
100
AcDbEntity
  8
1
  6
Continuous
 62
     7
 48
0.0095971233455876
100
AcDbVertex
100
AcDb2dVertex
 10
1.542900955350259
 20
0.5494130631717106
 30
0.0
 40
0.0038
 41
0.0038
  0
VERTEX
  5
2E6
330
2E4
100
AcDbEntity
  8
1
  6
Continuous
 62
     7
 48
0.0095971233455876
100
AcDbVertex
100
AcDb2dVertex
 10
1.553186853735122
 20
0.567228761775782
 30
0.0
 40
0.0038
 41
0.0038
  0
SEQEND
  5
2E7
330
2E4
100
AcDbEntity
  8
1
  6
Continuous
 62
     7
 48
0.0095971233455876
370
     0
  0
POLYLINE
  5
2E8
330
1F
100
AcDbEntity
  8
1
  6
Continuous
 62
     7
 48
0.0095971233455876
370
     0
100
AcDb2dPolyline
 66
     1
 10
0.0
 20
0.0
 30
0.0
  0
VERTEX
  5
2E9
330
2E8
100
AcDbEntity
  8
1
  6
Continuous
 62
     7
 48
0.0095971233455876
100
AcDbVertex
100
AcDb2dVertex
 10
1.553186853735122
 20
0.567228761775782
 30
0.0
 40
0.0038
 41
0.0038
  0
VERTEX
  5
2EA
330
2E8
100
AcDbEntity
  8
1
  6
Continuous
 62
     7
 48
0.0095971233455876
100
AcDbVertex
100
AcDb2dVertex
 10
1.560115056965397
 20
0.567228761775782
 30
0.0
 40
0.0038
 41
0.0038
  0
SEQEND
  5
2EB
330
2E8
100
AcDbEntity
  8
1
  6
Continuous
 62
     7
 48
0.0095971233455876
370
     0
  0
POLYLINE
  5
2EC
330
1F
100
AcDbEntity
  8
1
  6
Continuous
 62
     7
 48
0.0095971233455876
370
     0
100
AcDb2dPolyline
 66
     1
 10
0.0
 20
0.0
 30
0.0
  0
VERTEX
  5
2ED
330
2EC
100
AcDbEntity
  8
1
  6
Continuous
 62
     7
 48
0.0095971233455876
100
AcDbVertex
100
AcDb2dVertex
 10
1.522222752119983
 20
0.5375973645676387
 30
0.0
 40
0.0038
 41
0.0038
  0
VERTEX
  5
2EE
330
2EC
100
AcDbEntity
  8
1
  6
Continuous
 62
     7
 48
0.0095971233455876
100
AcDbVertex
100
AcDb2dVertex
 10
1.521366584893425
 20
0.5390802897038123
 30
0.0
 40
0.0038
 41
0.0038
  0
SEQEND
  5
2EF
330
2EC
100
AcDbEntity
  8
1
  6
Continuous
 62
     7
 48
0.0095971233455876
370
     0
  0
POLYLINE
  5
2F0
330
1F
100
AcDbEntity
  8
1
  6
Continuous
 62
     7
 48
0.0095971233455876
370
     0
100
AcDb2dPolyline
 66
     1
 10
0.0
 20
0.0
 30
0.0
  0
VERTEX
  5
2F1
330
2F0
100
AcDbEntity
  8
1
  6
Continuous
 62
     7
 48
0.0095971233455876
100
AcDbVertex
100
AcDb2dVertex
 10
1.509430755569468
 20
0.5271444603798533
 30
0.0
 40
0.0038
 41
0.0038
  0
VERTEX
  5
2F2
330
2F0
100
AcDbEntity
  8
1
  6
Continuous
 62
     7
 48
0.0095971233455876
100
AcDbVertex
100
AcDb2dVertex
 10
1.521366584893425
 20
0.5390802897038123
 30
0.0
 40
0.0038
 41
0.0038
  0
SEQEND
  5
2F3
330
2F0
100
AcDbEntity
  8
1
  6
Continuous
 62
     7
 48
0.0095971233455876
370
     0
  0
POLYLINE
  5
2F4
330
1F
100
AcDbEntity
  8
1
  6
Continuous
 62
     7
 48
0.0095971233455876
370
     0
100
AcDb2dPolyline
 66
     1
 10
0.0
 20
0.0
 30
0.0
  0
VERTEX
  5
2F5
330
2F4
100
AcDbEntity
  8
1
  6
Continuous
 62
     7
 48
0.0095971233455876
100
AcDbVertex
100
AcDb2dVertex
 10
1.755858958799744
 20
0.5379787617757824
 30
0.0
 40
0.0038
 41
0.0038
  0
VERTEX
  5
2F6
330
2F4
100
AcDbEntity
  8
1
  6
Continuous
 62
     7
 48
0.0095971233455876
100
AcDbVertex
100
AcDb2dVertex
 10
1.756494926245511
 20
0.5390802897038116
 30
0.0
 40
0.0038
 41
0.0038
  0
SEQEND
  5
2F7
330
2F4
100
AcDbEntity
  8
1
  6
Continuous
 62
     7
 48
0.0095971233455876
370
     0
  0
POLYLINE
  5
2F8
330
1F
100
AcDbEntity
  8
1
  6
Continuous
 62
     7
 48
0.0095971233455876
370
     0
100
AcDb2dPolyline
 66
     1
 10
0.0
 20
0.0
 30
0.0
  0
VERTEX
  5
2F9
330
2F8
100
AcDbEntity
  8
1
  6
Continuous
 62
     7
 48
0.0095971233455876
100
AcDbVertex
100
AcDb2dVertex
 10
1.766430755569467
 20
0.5291444603798555
 30
0.0
 40
0.0038
 41
0.0038
  0
VERTEX
  5
2FA
330
2F8
100
AcDbEntity
  8
1
  6
Continuous
 62
     7
 48
0.0095971233455876
100
AcDbVertex
100
AcDb2dVertex
 10
1.756494926245511
 20
0.5390802897038116
 30
0.0
 40
0.0038
 41
0.0038
  0
SEQEND
  5
2FB
330
2F8
100
AcDbEntity
  8
1
  6
Continuous
 62
     7
 48
0.0095971233455876
370
     0
  0
POLYLINE
  5
2FC
330
1F
100
AcDbEntity
  8
1
  6
Continuous
 62
     7
 48
0.0095971233455876
370
     0
100
AcDb2dPolyline
 66
     1
 10
0.0
 20
0.0
 30
0.0
  0
VERTEX
  5
2FD
330
2FC
100
AcDbEntity
  8
1
  6
Continuous
 62
     7
 48
0.0095971233455876
100
AcDbVertex
100
AcDb2dVertex
 10
1.563158958799744
 20
0.0403101589839249
 30
0.0
 40
0.0038
 41
0.0038
  0
VERTEX
  5
2FE
330
2FC
100
AcDbEntity
  8
1
  6
Continuous
 62
     7
 48
0.0095971233455876
100
AcDbVertex
100
AcDb2dVertex
 10
1.569980755569468
 20
0.028494460379853
 30
0.0
 40
0.0038
 41
0.0038
  0
SEQEND
  5
2FF
330
2FC
100
AcDbEntity
  8
1
  6
Continuous
 62
     7
 48
0.0095971233455876
370
     0
  0
POLYLINE
  5
300
330
1F
100
AcDbEntity
  8
1
  6
Continuous
 62
     7
 48
0.0095971233455876
370
     0
100
AcDb2dPolyline
 66
     1
 10
0.0
 20
0.0
 30
0.0
  0
VERTEX
  5
301
330
300
100
AcDbEntity
  8
1
  6
Continuous
 62
     7
 48
0.0095971233455876
100
AcDbVertex
100
AcDb2dVertex
 10
1.549302552339193
 20
0.0403101589839249
 30
0.0
 40
0.0038
 41
0.0038
  0
VERTEX
  5
302
330
300
100
AcDbEntity
  8
1
  6
Continuous
 62
     7
 48
0.0095971233455876
100
AcDbVertex
100
AcDb2dVertex
 10
1.563158958799744
 20
0.0403101589839249
 30
0.0
 40
0.0038
 41
0.0038
  0
SEQEND
  5
303
330
300
100
AcDbEntity
  8
1
  6
Continuous
 62
     7
 48
0.0095971233455876
370
     0
  0
POLYLINE
  5
304
330
1F
100
AcDbEntity
  8
1
  6
Continuous
 62
     7
 48
0.0095971233455876
370
     0
100
AcDb2dPolyline
 66
     1
 10
0.0
 20
0.0
 30
0.0
  0
VERTEX
  5
305
330
304
100
AcDbEntity
  8
1
  6
Continuous
 62
     7
 48
0.0095971233455876
100
AcDbVertex
100
AcDb2dVertex
 10
1.569980755569468
 20
0.028494460379853
 30
0.0
 40
0.0038
 41
0.0038
  0
VERTEX
  5
306
330
304
100
AcDbEntity
  8
1
  6
Continuous
 62
     7
 48
0.0095971233455876
100
AcDbVertex
100
AcDb2dVertex
 10
1.580266653954331
 20
0.0106787617757817
 30
0.0
 40
0.0038
 41
0.0038
  0
SEQEND
  5
307
330
304
100
AcDbEntity
  8
1
  6
Continuous
 62
     7
 48
0.0095971233455876
370
     0
  0
POLYLINE
  5
308
330
1F
100
AcDbEntity
  8
1
  6
Continuous
 62
     7
 48
0.0095971233455876
370
     0
100
AcDb2dPolyline
 66
     1
 10
0.0
 20
0.0
 30
0.0
  0
VERTEX
  5
309
330
308
100
AcDbEntity
  8
1
  6
Continuous
 62
     7
 48
0.0095971233455876
100
AcDbVertex
100
AcDb2dVertex
 10
1.618158958799744
 20
0.0403101589839249
 30
0.0
 40
0.0038
 41
0.0038
  0
VERTEX
  5
30A
330
308
100
AcDbEntity
  8
1
  6
Continuous
 62
     7
 48
0.0095971233455876
100
AcDbVertex
100
AcDb2dVertex
 10
1.624980755569468
 20
0.028494460379853
 30
0.0
 40
0.0038
 41
0.0038
  0
SEQEND
  5
30B
330
308
100
AcDbEntity
  8
1
  6
Continuous
 62
     7
 48
0.0095971233455876
370
     0
  0
POLYLINE
  5
30C
330
1F
100
AcDbEntity
  8
1
  6
Continuous
 62
     7
 48
0.0095971233455876
370
     0
100
AcDb2dPolyline
 66
     1
 10
0.0
 20
0.0
 30
0.0
  0
VERTEX
  5
30D
330
30C
100
AcDbEntity
  8
1
  6
Continuous
 62
     7
 48
0.0095971233455876
100
AcDbVertex
100
AcDb2dVertex
 10
1.604302552339193
 20
0.0403101589839249
 30
0.0
 40
0.0038
 41
0.0038
  0
VERTEX
  5
30E
330
30C
100
AcDbEntity
  8
1
  6
Continuous
 62
     7
 48
0.0095971233455876
100
AcDbVertex
100
AcDb2dVertex
 10
1.587194857184606
 20
0.0106787617757817
 30
0.0
 40
0.0038
 41
0.0038
  0
SEQEND
  5
30F
330
30C
100
AcDbEntity
  8
1
  6
Continuous
 62
     7
 48
0.0095971233455876
370
     0
  0
POLYLINE
  5
310
330
1F
100
AcDbEntity
  8
1
  6
Continuous
 62
     7
 48
0.0095971233455876
370
     0
100
AcDb2dPolyline
 66
     1
 10
0.0
 20
0.0
 30
0.0
  0
VERTEX
  5
311
330
310
100
AcDbEntity
  8
1
  6
Continuous
 62
     7
 48
0.0095971233455876
100
AcDbVertex
100
AcDb2dVertex
 10
1.580266653954331
 20
0.0106787617757817
 30
0.0
 40
0.0038
 41
0.0038
  0
VERTEX
  5
312
330
310
100
AcDbEntity
  8
1
  6
Continuous
 62
     7
 48
0.0095971233455876
100
AcDbVertex
100
AcDb2dVertex
 10
1.587194857184606
 20
0.0106787617757817
 30
0.0
 40
0.0038
 41
0.0038
  0
SEQEND
  5
313
330
310
100
AcDbEntity
  8
1
  6
Continuous
 62
     7
 48
0.0095971233455876
370
     0
  0
POLYLINE
  5
314
330
1F
100
AcDbEntity
  8
1
  6
Continuous
 62
     7
 48
0.0095971233455876
370
     0
100
AcDb2dPolyline
 66
     1
 10
0.0
 20
0.0
 30
0.0
  0
VERTEX
  5
315
330
314
100
AcDbEntity
  8
1
  6
Continuous
 62
     7
 48
0.0095971233455876
100
AcDbVertex
100
AcDb2dVertex
 10
1.604302552339193
 20
0.0403101589839249
 30
0.0
 40
0.0038
 41
0.0038
  0
VERTEX
  5
316
330
314
100
AcDbEntity
  8
1
  6
Continuous
 62
     7
 48
0.0095971233455876
100
AcDbVertex
100
AcDb2dVertex
 10
1.618158958799744
 20
0.0403101589839249
 30
0.0
 40
0.0038
 41
0.0038
  0
SEQEND
  5
317
330
314
100
AcDbEntity
  8
1
  6
Continuous
 62
     7
 48
0.0095971233455876
370
     0
  0
POLYLINE
  5
318
330
1F
100
AcDbEntity
  8
1
  6
Continuous
 62
     7
 48
0.0095971233455876
370
     0
100
AcDb2dPolyline
 66
     1
 10
0.0
 20
0.0
 30
0.0
  0
VERTEX
  5
319
330
318
100
AcDbEntity
  8
1
  6
Continuous
 62
     7
 48
0.0095971233455876
100
AcDbVertex
100
AcDb2dVertex
 10
1.624980755569468
 20
0.028494460379853
 30
0.0
 40
0.0038
 41
0.0038
  0
VERTEX
  5
31A
330
318
100
AcDbEntity
  8
1
  6
Continuous
 62
     7
 48
0.0095971233455876
100
AcDbVertex
100
AcDb2dVertex
 10
1.63526665395433
 20
0.010678761775782
 30
0.0
 40
0.0038
 41
0.0038
  0
SEQEND
  5
31B
330
318
100
AcDbEntity
  8
1
  6
Continuous
 62
     7
 48
0.0095971233455876
370
     0
  0
POLYLINE
  5
31C
330
1F
100
AcDbEntity
  8
1
  6
Continuous
 62
     7
 48
0.0095971233455876
370
     0
100
AcDb2dPolyline
 66
     1
 10
0.0
 20
0.0
 30
0.0
  0
VERTEX
  5
31D
330
31C
100
AcDbEntity
  8
1
  6
Continuous
 62
     7
 48
0.0095971233455876
100
AcDbVertex
100
AcDb2dVertex
 10
1.673158958799743
 20
0.0403101589839249
 30
0.0
 40
0.0038
 41
0.0038
  0
VERTEX
  5
31E
330
31C
100
AcDbEntity
  8
1
  6
Continuous
 62
     7
 48
0.0095971233455876
100
AcDbVertex
100
AcDb2dVertex
 10
1.679980755569467
 20
0.028494460379853
 30
0.0
 40
0.0038
 41
0.0038
  0
SEQEND
  5
31F
330
31C
100
AcDbEntity
  8
1
  6
Continuous
 62
     7
 48
0.0095971233455876
370
     0
  0
POLYLINE
  5
320
330
1F
100
AcDbEntity
  8
1
  6
Continuous
 62
     7
 48
0.0095971233455876
370
     0
100
AcDb2dPolyline
 66
     1
 10
0.0
 20
0.0
 30
0.0
  0
VERTEX
  5
321
330
320
100
AcDbEntity
  8
1
  6
Continuous
 62
     7
 48
0.0095971233455876
100
AcDbVertex
100
AcDb2dVertex
 10
1.659302552339192
 20
0.0403101589839249
 30
0.0
 40
0.0038
 41
0.0038
  0
VERTEX
  5
322
330
320
100
AcDbEntity
  8
1
  6
Continuous
 62
     7
 48
0.0095971233455876
100
AcDbVertex
100
AcDb2dVertex
 10
1.642194857184606
 20
0.0106787617757817
 30
0.0
 40
0.0038
 41
0.0038
  0
SEQEND
  5
323
330
320
100
AcDbEntity
  8
1
  6
Continuous
 62
     7
 48
0.0095971233455876
370
     0
  0
POLYLINE
  5
324
330
1F
100
AcDbEntity
  8
1
  6
Continuous
 62
     7
 48
0.0095971233455876
370
     0
100
AcDb2dPolyline
 66
     1
 10
0.0
 20
0.0
 30
0.0
  0
VERTEX
  5
325
330
324
100
AcDbEntity
  8
1
  6
Continuous
 62
     7
 48
0.0095971233455876
100
AcDbVertex
100
AcDb2dVertex
 10
1.63526665395433
 20
0.010678761775782
 30
0.0
 40
0.0038
 41
0.0038
  0
VERTEX
  5
326
330
324
100
AcDbEntity
  8
1
  6
Continuous
 62
     7
 48
0.0095971233455876
100
AcDbVertex
100
AcDb2dVertex
 10
1.642194857184606
 20
0.0106787617757817
 30
0.0
 40
0.0038
 41
0.0038
  0
SEQEND
  5
327
330
324
100
AcDbEntity
  8
1
  6
Continuous
 62
     7
 48
0.0095971233455876
370
     0
  0
POLYLINE
  5
328
330
1F
100
AcDbEntity
  8
1
  6
Continuous
 62
     7
 48
0.0095971233455876
370
     0
100
AcDb2dPolyline
 66
     1
 10
0.0
 20
0.0
 30
0.0
  0
VERTEX
  5
329
330
328
100
AcDbEntity
  8
1
  6
Continuous
 62
     7
 48
0.0095971233455876
100
AcDbVertex
100
AcDb2dVertex
 10
1.659302552339192
 20
0.0403101589839249
 30
0.0
 40
0.0038
 41
0.0038
  0
VERTEX
  5
32A
330
328
100
AcDbEntity
  8
1
  6
Continuous
 62
     7
 48
0.0095971233455876
100
AcDbVertex
100
AcDb2dVertex
 10
1.673158958799743
 20
0.0403101589839249
 30
0.0
 40
0.0038
 41
0.0038
  0
SEQEND
  5
32B
330
328
100
AcDbEntity
  8
1
  6
Continuous
 62
     7
 48
0.0095971233455876
370
     0
  0
POLYLINE
  5
32C
330
1F
100
AcDbEntity
  8
1
  6
Continuous
 62
     7
 48
0.0095971233455876
370
     0
100
AcDb2dPolyline
 66
     1
 10
0.0
 20
0.0
 30
0.0
  0
VERTEX
  5
32D
330
32C
100
AcDbEntity
  8
1
  6
Continuous
 62
     7
 48
0.0095971233455876
100
AcDbVertex
100
AcDb2dVertex
 10
1.679980755569467
 20
0.028494460379853
 30
0.0
 40
0.0038
 41
0.0038
  0
VERTEX
  5
32E
330
32C
100
AcDbEntity
  8
1
  6
Continuous
 62
     7
 48
0.0095971233455876
100
AcDbVertex
100
AcDb2dVertex
 10
1.690266653954331
 20
0.0106787617757817
 30
0.0
 40
0.0038
 41
0.0038
  0
SEQEND
  5
32F
330
32C
100
AcDbEntity
  8
1
  6
Continuous
 62
     7
 48
0.0095971233455876
370
     0
  0
POLYLINE
  5
330
330
1F
100
AcDbEntity
  8
1
  6
Continuous
 62
     7
 48
0.0095971233455876
370
     0
100
AcDb2dPolyline
 66
     1
 10
0.0
 20
0.0
 30
0.0
  0
VERTEX
  5
331
330
330
100
AcDbEntity
  8
1
  6
Continuous
 62
     7
 48
0.0095971233455876
100
AcDbVertex
100
AcDb2dVertex
 10
1.714302552339192
 20
0.0403101589839249
 30
0.0
 40
0.0038
 41
0.0038
  0
VERTEX
  5
332
330
330
100
AcDbEntity
  8
1
  6
Continuous
 62
     7
 48
0.0095971233455876
100
AcDbVertex
100
AcDb2dVertex
 10
1.697194857184606
 20
0.0106787617757817
 30
0.0
 40
0.0038
 41
0.0038
  0
SEQEND
  5
333
330
330
100
AcDbEntity
  8
1
  6
Continuous
 62
     7
 48
0.0095971233455876
370
     0
  0
POLYLINE
  5
334
330
1F
100
AcDbEntity
  8
1
  6
Continuous
 62
     7
 48
0.0095971233455876
370
     0
100
AcDb2dPolyline
 66
     1
 10
0.0
 20
0.0
 30
0.0
  0
VERTEX
  5
335
330
334
100
AcDbEntity
  8
1
  6
Continuous
 62
     7
 48
0.0095971233455876
100
AcDbVertex
100
AcDb2dVertex
 10
1.690266653954331
 20
0.0106787617757817
 30
0.0
 40
0.0038
 41
0.0038
  0
VERTEX
  5
336
330
334
100
AcDbEntity
  8
1
  6
Continuous
 62
     7
 48
0.0095971233455876
100
AcDbVertex
100
AcDb2dVertex
 10
1.697194857184606
 20
0.0106787617757817
 30
0.0
 40
0.0038
 41
0.0038
  0
SEQEND
  5
337
330
334
100
AcDbEntity
  8
1
  6
Continuous
 62
     7
 48
0.0095971233455876
370
     0
  0
POLYLINE
  5
338
330
1F
100
AcDbEntity
  8
1
  6
Continuous
 62
     7
 48
0.0095971233455876
370
     0
100
AcDb2dPolyline
 66
     1
 10
0.0
 20
0.0
 30
0.0
  0
VERTEX
  5
339
330
338
100
AcDbEntity
  8
1
  6
Continuous
 62
     7
 48
0.0095971233455876
100
AcDbVertex
100
AcDb2dVertex
 10
1.714302552339192
 20
0.0403101589839249
 30
0.0
 40
0.0038
 41
0.0038
  0
VERTEX
  5
33A
330
338
100
AcDbEntity
  8
1
  6
Continuous
 62
     7
 48
0.0095971233455876
100
AcDbVertex
100
AcDb2dVertex
 10
1.728158958799744
 20
0.0403101589839249
 30
0.0
 40
0.0038
 41
0.0038
  0
SEQEND
  5
33B
330
338
100
AcDbEntity
  8
1
  6
Continuous
 62
     7
 48
0.0095971233455876
370
     0
  0
POLYLINE
  5
33C
330
1F
100
AcDbEntity
  8
1
  6
Continuous
 62
     7
 48
0.0095971233455876
370
     0
100
AcDb2dPolyline
 66
     1
 10
0.0
 20
0.0
 30
0.0
  0
VERTEX
  5
33D
330
33C
100
AcDbEntity
  8
1
  6
Continuous
 62
     7
 48
0.0095971233455876
100
AcDbVertex
100
AcDb2dVertex
 10
1.509430755569468
 20
0.0511444603798543
 30
0.0
 40
0.0038
 41
0.0038
  0
VERTEX
  5
33E
330
33C
100
AcDbEntity
  8
1
  6
Continuous
 62
     7
 48
0.0095971233455876
100
AcDbVertex
100
AcDb2dVertex
 10
1.53867409137011
 20
0.0219011245792115
 30
0.0
 40
0.0038
 41
0.0038
  0
SEQEND
  5
33F
330
33C
100
AcDbEntity
  8
1
  6
Continuous
 62
     7
 48
0.0095971233455876
370
     0
  0
POLYLINE
  5
340
330
1F
100
AcDbEntity
  8
1
  6
Continuous
 62
     7
 48
0.0095971233455876
370
     0
100
AcDb2dPolyline
 66
     1
 10
0.0
 20
0.0
 30
0.0
  0
VERTEX
  5
341
330
340
100
AcDbEntity
  8
1
  6
Continuous
 62
     7
 48
0.0095971233455876
100
AcDbVertex
100
AcDb2dVertex
 10
1.549302552339193
 20
0.0403101589839249
 30
0.0
 40
0.0038
 41
0.0038
  0
VERTEX
  5
342
330
340
100
AcDbEntity
  8
1
  6
Continuous
 62
     7
 48
0.0095971233455876
100
AcDbVertex
100
AcDb2dVertex
 10
1.53867409137011
 20
0.0219011245792115
 30
0.0
 40
0.0038
 41
0.0038
  0
SEQEND
  5
343
330
340
100
AcDbEntity
  8
1
  6
Continuous
 62
     7
 48
0.0095971233455876
370
     0
  0
POLYLINE
  5
344
330
1F
100
AcDbEntity
  8
1
  6
Continuous
 62
     7
 48
0.0095971233455876
370
     0
100
AcDb2dPolyline
 66
     1
 10
0.0
 20
0.0
 30
0.0
  0
VERTEX
  5
345
330
344
100
AcDbEntity
  8
1
  6
Continuous
 62
     7
 48
0.0095971233455876
100
AcDbVertex
100
AcDb2dVertex
 10
1.728158958799744
 20
0.0403101589839249
 30
0.0
 40
0.0038
 41
0.0038
  0
VERTEX
  5
346
330
344
100
AcDbEntity
  8
1
  6
Continuous
 62
     7
 48
0.0095971233455876
100
AcDbVertex
100
AcDb2dVertex
 10
1.734980755569467
 20
0.028494460379853
 30
0.0
 40
0.0038
 41
0.0038
  0
SEQEND
  5
347
330
344
100
AcDbEntity
  8
1
  6
Continuous
 62
     7
 48
0.0095971233455876
370
     0
  0
POLYLINE
  5
348
330
1F
100
AcDbEntity
  8
1
  6
Continuous
 62
     7
 48
0.0095971233455876
370
     0
100
AcDb2dPolyline
 66
     1
 10
0.0
 20
0.0
 30
0.0
  0
VERTEX
  5
349
330
348
100
AcDbEntity
  8
1
  6
Continuous
 62
     7
 48
0.0095971233455876
100
AcDbVertex
100
AcDb2dVertex
 10
1.734980755569467
 20
0.028494460379853
 30
0.0
 40
0.0038
 41
0.0038
  0
VERTEX
  5
34A
330
348
100
AcDbEntity
  8
1
  6
Continuous
 62
     7
 48
0.0095971233455876
100
AcDbVertex
100
AcDb2dVertex
 10
1.738933829930339
 20
0.0216475347407261
 30
0.0
 40
0.0038
 41
0.0038
  0
SEQEND
  5
34B
330
348
100
AcDbEntity
  8
1
  6
Continuous
 62
     7
 48
0.0095971233455876
370
     0
  0
POLYLINE
  5
34C
330
1F
100
AcDbEntity
  8
1
  6
Continuous
 62
     7
 48
0.0095971233455876
370
     0
100
AcDb2dPolyline
 66
     1
 10
0.0
 20
0.0
 30
0.0
  0
VERTEX
  5
34D
330
34C
100
AcDbEntity
  8
1
  6
Continuous
 62
     7
 48
0.0095971233455876
100
AcDbVertex
100
AcDb2dVertex
 10
1.766430755569467
 20
0.0491444603798551
 30
0.0
 40
0.0038
 41
0.0038
  0
VERTEX
  5
34E
330
34C
100
AcDbEntity
  8
1
  6
Continuous
 62
     7
 48
0.0095971233455876
100
AcDbVertex
100
AcDb2dVertex
 10
1.738933829930339
 20
0.0216475347407261
 30
0.0
 40
0.0038
 41
0.0038
  0
SEQEND
  5
34F
330
34C
100
AcDbEntity
  8
1
  6
Continuous
 62
     7
 48
0.0095971233455876
370
     0
  0
POLYLINE
  5
350
330
1F
100
AcDbEntity
  8
1
  6
Continuous
 62
     7
 48
0.0095971233455876
370
     0
100
AcDb2dPolyline
 66
     1
 10
0.0
 20
0.0
 30
0.0
  0
VERTEX
  5
351
330
350
100
AcDbEntity
  8
1
  6
Continuous
 62
     7
 48
0.0095971233455876
100
AcDbVertex
100
AcDb2dVertex
 10
2.298002552339192
 20
0.5379787617757824
 30
0.0
 40
0.0038
 41
0.0038
  0
VERTEX
  5
352
330
350
100
AcDbEntity
  8
1
  6
Continuous
 62
     7
 48
0.0095971233455876
100
AcDbVertex
100
AcDb2dVertex
 10
2.291180755569468
 20
0.5497944603798546
 30
0.0
 40
0.0038
 41
0.0038
  0
SEQEND
  5
353
330
350
100
AcDbEntity
  8
1
  6
Continuous
 62
     7
 48
0.0095971233455876
370
     0
  0
POLYLINE
  5
354
330
1F
100
AcDbEntity
  8
1
  6
Continuous
 62
     7
 48
0.0095971233455876
370
     0
100
AcDb2dPolyline
 66
     1
 10
0.0
 20
0.0
 30
0.0
  0
VERTEX
  5
355
330
354
100
AcDbEntity
  8
1
  6
Continuous
 62
     7
 48
0.0095971233455876
100
AcDbVertex
100
AcDb2dVertex
 10
2.311858958799743
 20
0.5379787617757824
 30
0.0
 40
0.0038
 41
0.0038
  0
VERTEX
  5
356
330
354
100
AcDbEntity
  8
1
  6
Continuous
 62
     7
 48
0.0095971233455876
100
AcDbVertex
100
AcDb2dVertex
 10
2.328746454173539
 20
0.567228761775782
 30
0.0
 40
0.0038
 41
0.0038
  0
SEQEND
  5
357
330
354
100
AcDbEntity
  8
1
  6
Continuous
 62
     7
 48
0.0095971233455876
370
     0
  0
POLYLINE
  5
358
330
1F
100
AcDbEntity
  8
1
  6
Continuous
 62
     7
 48
0.0095971233455876
370
     0
100
AcDb2dPolyline
 66
     1
 10
0.0
 20
0.0
 30
0.0
  0
VERTEX
  5
359
330
358
100
AcDbEntity
  8
1
  6
Continuous
 62
     7
 48
0.0095971233455876
100
AcDbVertex
100
AcDb2dVertex
 10
2.311858958799743
 20
0.5379787617757824
 30
0.0
 40
0.0038
 41
0.0038
  0
VERTEX
  5
35A
330
358
100
AcDbEntity
  8
1
  6
Continuous
 62
     7
 48
0.0095971233455876
100
AcDbVertex
100
AcDb2dVertex
 10
2.298002552339192
 20
0.5379787617757824
 30
0.0
 40
0.0038
 41
0.0038
  0
SEQEND
  5
35B
330
358
100
AcDbEntity
  8
1
  6
Continuous
 62
     7
 48
0.0095971233455876
370
     0
  0
POLYLINE
  5
35C
330
1F
100
AcDbEntity
  8
1
  6
Continuous
 62
     7
 48
0.0095971233455876
370
     0
100
AcDb2dPolyline
 66
     1
 10
0.0
 20
0.0
 30
0.0
  0
VERTEX
  5
35D
330
35C
100
AcDbEntity
  8
1
  6
Continuous
 62
     7
 48
0.0095971233455876
100
AcDbVertex
100
AcDb2dVertex
 10
2.291180755569468
 20
0.5497944603798546
 30
0.0
 40
0.0038
 41
0.0038
  0
VERTEX
  5
35E
330
35C
100
AcDbEntity
  8
1
  6
Continuous
 62
     7
 48
0.0095971233455876
100
AcDbVertex
100
AcDb2dVertex
 10
2.280894857184605
 20
0.567610158983926
 30
0.0
 40
0.0038
 41
0.0038
  0
SEQEND
  5
35F
330
35C
100
AcDbEntity
  8
1
  6
Continuous
 62
     7
 48
0.0095971233455876
370
     0
  0
POLYLINE
  5
360
330
1F
100
AcDbEntity
  8
1
  6
Continuous
 62
     7
 48
0.0095971233455876
370
     0
100
AcDb2dPolyline
 66
     1
 10
0.0
 20
0.0
 30
0.0
  0
VERTEX
  5
361
330
360
100
AcDbEntity
  8
1
  6
Continuous
 62
     7
 48
0.0095971233455876
100
AcDbVertex
100
AcDb2dVertex
 10
2.243002552339193
 20
0.5379787617757824
 30
0.0
 40
0.0038
 41
0.0038
  0
VERTEX
  5
362
330
360
100
AcDbEntity
  8
1
  6
Continuous
 62
     7
 48
0.0095971233455876
100
AcDbVertex
100
AcDb2dVertex
 10
2.236180755569467
 20
0.5497944603798546
 30
0.0
 40
0.0038
 41
0.0038
  0
SEQEND
  5
363
330
360
100
AcDbEntity
  8
1
  6
Continuous
 62
     7
 48
0.0095971233455876
370
     0
  0
POLYLINE
  5
364
330
1F
100
AcDbEntity
  8
1
  6
Continuous
 62
     7
 48
0.0095971233455876
370
     0
100
AcDb2dPolyline
 66
     1
 10
0.0
 20
0.0
 30
0.0
  0
VERTEX
  5
365
330
364
100
AcDbEntity
  8
1
  6
Continuous
 62
     7
 48
0.0095971233455876
100
AcDbVertex
100
AcDb2dVertex
 10
2.256858958799743
 20
0.5379787617757824
 30
0.0
 40
0.0038
 41
0.0038
  0
VERTEX
  5
366
330
364
100
AcDbEntity
  8
1
  6
Continuous
 62
     7
 48
0.0095971233455876
100
AcDbVertex
100
AcDb2dVertex
 10
2.27396665395433
 20
0.567610158983926
 30
0.0
 40
0.0038
 41
0.0038
  0
SEQEND
  5
367
330
364
100
AcDbEntity
  8
1
  6
Continuous
 62
     7
 48
0.0095971233455876
370
     0
  0
POLYLINE
  5
368
330
1F
100
AcDbEntity
  8
1
  6
Continuous
 62
     7
 48
0.0095971233455876
370
     0
100
AcDb2dPolyline
 66
     1
 10
0.0
 20
0.0
 30
0.0
  0
VERTEX
  5
369
330
368
100
AcDbEntity
  8
1
  6
Continuous
 62
     7
 48
0.0095971233455876
100
AcDbVertex
100
AcDb2dVertex
 10
2.280894857184605
 20
0.567610158983926
 30
0.0
 40
0.0038
 41
0.0038
  0
VERTEX
  5
36A
330
368
100
AcDbEntity
  8
1
  6
Continuous
 62
     7
 48
0.0095971233455876
100
AcDbVertex
100
AcDb2dVertex
 10
2.27396665395433
 20
0.567610158983926
 30
0.0
 40
0.0038
 41
0.0038
  0
SEQEND
  5
36B
330
368
100
AcDbEntity
  8
1
  6
Continuous
 62
     7
 48
0.0095971233455876
370
     0
  0
POLYLINE
  5
36C
330
1F
100
AcDbEntity
  8
1
  6
Continuous
 62
     7
 48
0.0095971233455876
370
     0
100
AcDb2dPolyline
 66
     1
 10
0.0
 20
0.0
 30
0.0
  0
VERTEX
  5
36D
330
36C
100
AcDbEntity
  8
1
  6
Continuous
 62
     7
 48
0.0095971233455876
100
AcDbVertex
100
AcDb2dVertex
 10
2.256858958799743
 20
0.5379787617757824
 30
0.0
 40
0.0038
 41
0.0038
  0
VERTEX
  5
36E
330
36C
100
AcDbEntity
  8
1
  6
Continuous
 62
     7
 48
0.0095971233455876
100
AcDbVertex
100
AcDb2dVertex
 10
2.243002552339193
 20
0.5379787617757824
 30
0.0
 40
0.0038
 41
0.0038
  0
SEQEND
  5
36F
330
36C
100
AcDbEntity
  8
1
  6
Continuous
 62
     7
 48
0.0095971233455876
370
     0
  0
POLYLINE
  5
370
330
1F
100
AcDbEntity
  8
1
  6
Continuous
 62
     7
 48
0.0095971233455876
370
     0
100
AcDb2dPolyline
 66
     1
 10
0.0
 20
0.0
 30
0.0
  0
VERTEX
  5
371
330
370
100
AcDbEntity
  8
1
  6
Continuous
 62
     7
 48
0.0095971233455876
100
AcDbVertex
100
AcDb2dVertex
 10
2.236180755569467
 20
0.5497944603798546
 30
0.0
 40
0.0038
 41
0.0038
  0
VERTEX
  5
372
330
370
100
AcDbEntity
  8
1
  6
Continuous
 62
     7
 48
0.0095971233455876
100
AcDbVertex
100
AcDb2dVertex
 10
2.225894857184605
 20
0.5676101589839253
 30
0.0
 40
0.0038
 41
0.0038
  0
SEQEND
  5
373
330
370
100
AcDbEntity
  8
1
  6
Continuous
 62
     7
 48
0.0095971233455876
370
     0
  0
POLYLINE
  5
374
330
1F
100
AcDbEntity
  8
1
  6
Continuous
 62
     7
 48
0.0095971233455876
370
     0
100
AcDb2dPolyline
 66
     1
 10
0.0
 20
0.0
 30
0.0
  0
VERTEX
  5
375
330
374
100
AcDbEntity
  8
1
  6
Continuous
 62
     7
 48
0.0095971233455876
100
AcDbVertex
100
AcDb2dVertex
 10
2.188002552339193
 20
0.5379787617757824
 30
0.0
 40
0.0038
 41
0.0038
  0
VERTEX
  5
376
330
374
100
AcDbEntity
  8
1
  6
Continuous
 62
     7
 48
0.0095971233455876
100
AcDbVertex
100
AcDb2dVertex
 10
2.181180755569468
 20
0.5497944603798546
 30
0.0
 40
0.0038
 41
0.0038
  0
SEQEND
  5
377
330
374
100
AcDbEntity
  8
1
  6
Continuous
 62
     7
 48
0.0095971233455876
370
     0
  0
POLYLINE
  5
378
330
1F
100
AcDbEntity
  8
1
  6
Continuous
 62
     7
 48
0.0095971233455876
370
     0
100
AcDb2dPolyline
 66
     1
 10
0.0
 20
0.0
 30
0.0
  0
VERTEX
  5
379
330
378
100
AcDbEntity
  8
1
  6
Continuous
 62
     7
 48
0.0095971233455876
100
AcDbVertex
100
AcDb2dVertex
 10
2.201858958799744
 20
0.5379787617757824
 30
0.0
 40
0.0038
 41
0.0038
  0
VERTEX
  5
37A
330
378
100
AcDbEntity
  8
1
  6
Continuous
 62
     7
 48
0.0095971233455876
100
AcDbVertex
100
AcDb2dVertex
 10
2.218966653954329
 20
0.567610158983926
 30
0.0
 40
0.0038
 41
0.0038
  0
SEQEND
  5
37B
330
378
100
AcDbEntity
  8
1
  6
Continuous
 62
     7
 48
0.0095971233455876
370
     0
  0
POLYLINE
  5
37C
330
1F
100
AcDbEntity
  8
1
  6
Continuous
 62
     7
 48
0.0095971233455876
370
     0
100
AcDb2dPolyline
 66
     1
 10
0.0
 20
0.0
 30
0.0
  0
VERTEX
  5
37D
330
37C
100
AcDbEntity
  8
1
  6
Continuous
 62
     7
 48
0.0095971233455876
100
AcDbVertex
100
AcDb2dVertex
 10
2.225894857184605
 20
0.5676101589839253
 30
0.0
 40
0.0038
 41
0.0038
  0
VERTEX
  5
37E
330
37C
100
AcDbEntity
  8
1
  6
Continuous
 62
     7
 48
0.0095971233455876
100
AcDbVertex
100
AcDb2dVertex
 10
2.218966653954329
 20
0.567610158983926
 30
0.0
 40
0.0038
 41
0.0038
  0
SEQEND
  5
37F
330
37C
100
AcDbEntity
  8
1
  6
Continuous
 62
     7
 48
0.0095971233455876
370
     0
  0
POLYLINE
  5
380
330
1F
100
AcDbEntity
  8
1
  6
Continuous
 62
     7
 48
0.0095971233455876
370
     0
100
AcDb2dPolyline
 66
     1
 10
0.0
 20
0.0
 30
0.0
  0
VERTEX
  5
381
330
380
100
AcDbEntity
  8
1
  6
Continuous
 62
     7
 48
0.0095971233455876
100
AcDbVertex
100
AcDb2dVertex
 10
2.201858958799744
 20
0.5379787617757824
 30
0.0
 40
0.0038
 41
0.0038
  0
VERTEX
  5
382
330
380
100
AcDbEntity
  8
1
  6
Continuous
 62
     7
 48
0.0095971233455876
100
AcDbVertex
100
AcDb2dVertex
 10
2.188002552339193
 20
0.5379787617757824
 30
0.0
 40
0.0038
 41
0.0038
  0
SEQEND
  5
383
330
380
100
AcDbEntity
  8
1
  6
Continuous
 62
     7
 48
0.0095971233455876
370
     0
  0
POLYLINE
  5
384
330
1F
100
AcDbEntity
  8
1
  6
Continuous
 62
     7
 48
0.0095971233455876
370
     0
100
AcDb2dPolyline
 66
     1
 10
0.0
 20
0.0
 30
0.0
  0
VERTEX
  5
385
330
384
100
AcDbEntity
  8
1
  6
Continuous
 62
     7
 48
0.0095971233455876
100
AcDbVertex
100
AcDb2dVertex
 10
2.181180755569468
 20
0.5497944603798546
 30
0.0
 40
0.0038
 41
0.0038
  0
VERTEX
  5
386
330
384
100
AcDbEntity
  8
1
  6
Continuous
 62
     7
 48
0.0095971233455876
100
AcDbVertex
100
AcDb2dVertex
 10
2.170894857184606
 20
0.567610158983926
 30
0.0
 40
0.0038
 41
0.0038
  0
SEQEND
  5
387
330
384
100
AcDbEntity
  8
1
  6
Continuous
 62
     7
 48
0.0095971233455876
370
     0
  0
POLYLINE
  5
388
330
1F
100
AcDbEntity
  8
1
  6
Continuous
 62
     7
 48
0.0095971233455876
370
     0
100
AcDb2dPolyline
 66
     1
 10
0.0
 20
0.0
 30
0.0
  0
VERTEX
  5
389
330
388
100
AcDbEntity
  8
1
  6
Continuous
 62
     7
 48
0.0095971233455876
100
AcDbVertex
100
AcDb2dVertex
 10
2.146858958799744
 20
0.5379787617757824
 30
0.0
 40
0.0038
 41
0.0038
  0
VERTEX
  5
38A
330
388
100
AcDbEntity
  8
1
  6
Continuous
 62
     7
 48
0.0095971233455876
100
AcDbVertex
100
AcDb2dVertex
 10
2.163966653954331
 20
0.567610158983926
 30
0.0
 40
0.0038
 41
0.0038
  0
SEQEND
  5
38B
330
388
100
AcDbEntity
  8
1
  6
Continuous
 62
     7
 48
0.0095971233455876
370
     0
  0
POLYLINE
  5
38C
330
1F
100
AcDbEntity
  8
1
  6
Continuous
 62
     7
 48
0.0095971233455876
370
     0
100
AcDb2dPolyline
 66
     1
 10
0.0
 20
0.0
 30
0.0
  0
VERTEX
  5
38D
330
38C
100
AcDbEntity
  8
1
  6
Continuous
 62
     7
 48
0.0095971233455876
100
AcDbVertex
100
AcDb2dVertex
 10
2.170894857184606
 20
0.567610158983926
 30
0.0
 40
0.0038
 41
0.0038
  0
VERTEX
  5
38E
330
38C
100
AcDbEntity
  8
1
  6
Continuous
 62
     7
 48
0.0095971233455876
100
AcDbVertex
100
AcDb2dVertex
 10
2.163966653954331
 20
0.567610158983926
 30
0.0
 40
0.0038
 41
0.0038
  0
SEQEND
  5
38F
330
38C
100
AcDbEntity
  8
1
  6
Continuous
 62
     7
 48
0.0095971233455876
370
     0
  0
POLYLINE
  5
390
330
1F
100
AcDbEntity
  8
1
  6
Continuous
 62
     7
 48
0.0095971233455876
370
     0
100
AcDb2dPolyline
 66
     1
 10
0.0
 20
0.0
 30
0.0
  0
VERTEX
  5
391
330
390
100
AcDbEntity
  8
1
  6
Continuous
 62
     7
 48
0.0095971233455876
100
AcDbVertex
100
AcDb2dVertex
 10
2.146858958799744
 20
0.5379787617757824
 30
0.0
 40
0.0038
 41
0.0038
  0
VERTEX
  5
392
330
390
100
AcDbEntity
  8
1
  6
Continuous
 62
     7
 48
0.0095971233455876
100
AcDbVertex
100
AcDb2dVertex
 10
2.133002552339192
 20
0.5379787617757824
 30
0.0
 40
0.0038
 41
0.0038
  0
SEQEND
  5
393
330
390
100
AcDbEntity
  8
1
  6
Continuous
 62
     7
 48
0.0095971233455876
370
     0
  0
POLYLINE
  5
394
330
1F
100
AcDbEntity
  8
1
  6
Continuous
 62
     7
 48
0.0095971233455876
370
     0
100
AcDb2dPolyline
 66
     1
 10
0.0
 20
0.0
 30
0.0
  0
VERTEX
  5
395
330
394
100
AcDbEntity
  8
1
  6
Continuous
 62
     7
 48
0.0095971233455876
100
AcDbVertex
100
AcDb2dVertex
 10
2.352782352558402
 20
0.5375973645676387
 30
0.0
 40
0.0038
 41
0.0038
  0
VERTEX
  5
396
330
394
100
AcDbEntity
  8
1
  6
Continuous
 62
     7
 48
0.0095971233455876
100
AcDbVertex
100
AcDb2dVertex
 10
2.345960555788677
 20
0.5494130631717106
 30
0.0
 40
0.0038
 41
0.0038
  0
SEQEND
  5
397
330
394
100
AcDbEntity
  8
1
  6
Continuous
 62
     7
 48
0.0095971233455876
370
     0
  0
POLYLINE
  5
398
330
1F
100
AcDbEntity
  8
1
  6
Continuous
 62
     7
 48
0.0095971233455876
370
     0
100
AcDb2dPolyline
 66
     1
 10
0.0
 20
0.0
 30
0.0
  0
VERTEX
  5
399
330
398
100
AcDbEntity
  8
1
  6
Continuous
 62
     7
 48
0.0095971233455876
100
AcDbVertex
100
AcDb2dVertex
 10
2.366638759018953
 20
0.5375973645676387
 30
0.0
 40
0.0038
 41
0.0038
  0
VERTEX
  5
39A
330
398
100
AcDbEntity
  8
1
  6
Continuous
 62
     7
 48
0.0095971233455876
100
AcDbVertex
100
AcDb2dVertex
 10
2.352782352558402
 20
0.5375973645676387
 30
0.0
 40
0.0038
 41
0.0038
  0
SEQEND
  5
39B
330
398
100
AcDbEntity
  8
1
  6
Continuous
 62
     7
 48
0.0095971233455876
370
     0
  0
POLYLINE
  5
39C
330
1F
100
AcDbEntity
  8
1
  6
Continuous
 62
     7
 48
0.0095971233455876
370
     0
100
AcDb2dPolyline
 66
     1
 10
0.0
 20
0.0
 30
0.0
  0
VERTEX
  5
39D
330
39C
100
AcDbEntity
  8
1
  6
Continuous
 62
     7
 48
0.0095971233455876
100
AcDbVertex
100
AcDb2dVertex
 10
2.345960555788677
 20
0.5494130631717106
 30
0.0
 40
0.0038
 41
0.0038
  0
VERTEX
  5
39E
330
39C
100
AcDbEntity
  8
1
  6
Continuous
 62
     7
 48
0.0095971233455876
100
AcDbVertex
100
AcDb2dVertex
 10
2.335674657403815
 20
0.567228761775782
 30
0.0
 40
0.0038
 41
0.0038
  0
SEQEND
  5
39F
330
39C
100
AcDbEntity
  8
1
  6
Continuous
 62
     7
 48
0.0095971233455876
370
     0
  0
POLYLINE
  5
3A0
330
1F
100
AcDbEntity
  8
1
  6
Continuous
 62
     7
 48
0.0095971233455876
370
     0
100
AcDb2dPolyline
 66
     1
 10
0.0
 20
0.0
 30
0.0
  0
VERTEX
  5
3A1
330
3A0
100
AcDbEntity
  8
1
  6
Continuous
 62
     7
 48
0.0095971233455876
100
AcDbVertex
100
AcDb2dVertex
 10
2.335674657403815
 20
0.567228761775782
 30
0.0
 40
0.0038
 41
0.0038
  0
VERTEX
  5
3A2
330
3A0
100
AcDbEntity
  8
1
  6
Continuous
 62
     7
 48
0.0095971233455876
100
AcDbVertex
100
AcDb2dVertex
 10
2.328746454173539
 20
0.567228761775782
 30
0.0
 40
0.0038
 41
0.0038
  0
SEQEND
  5
3A3
330
3A0
100
AcDbEntity
  8
1
  6
Continuous
 62
     7
 48
0.0095971233455876
370
     0
  0
POLYLINE
  5
3A4
330
1F
100
AcDbEntity
  8
1
  6
Continuous
 62
     7
 48
0.0095971233455876
370
     0
100
AcDb2dPolyline
 66
     1
 10
0.0
 20
0.0
 30
0.0
  0
VERTEX
  5
3A5
330
3A4
100
AcDbEntity
  8
1
  6
Continuous
 62
     7
 48
0.0095971233455876
100
AcDbVertex
100
AcDb2dVertex
 10
2.366638759018953
 20
0.5375973645676387
 30
0.0
 40
0.0038
 41
0.0038
  0
VERTEX
  5
3A6
330
3A4
100
AcDbEntity
  8
1
  6
Continuous
 62
     7
 48
0.0095971233455876
100
AcDbVertex
100
AcDb2dVertex
 10
2.367494926245511
 20
0.5390802897038123
 30
0.0
 40
0.0038
 41
0.0038
  0
SEQEND
  5
3A7
330
3A4
100
AcDbEntity
  8
1
  6
Continuous
 62
     7
 48
0.0095971233455876
370
     0
  0
POLYLINE
  5
3A8
330
1F
100
AcDbEntity
  8
1
  6
Continuous
 62
     7
 48
0.0095971233455876
370
     0
100
AcDb2dPolyline
 66
     1
 10
0.0
 20
0.0
 30
0.0
  0
VERTEX
  5
3A9
330
3A8
100
AcDbEntity
  8
1
  6
Continuous
 62
     7
 48
0.0095971233455876
100
AcDbVertex
100
AcDb2dVertex
 10
2.379430755569468
 20
0.5271444603798533
 30
0.0
 40
0.0038
 41
0.0038
  0
VERTEX
  5
3AA
330
3A8
100
AcDbEntity
  8
1
  6
Continuous
 62
     7
 48
0.0095971233455876
100
AcDbVertex
100
AcDb2dVertex
 10
2.367494926245511
 20
0.5390802897038123
 30
0.0
 40
0.0038
 41
0.0038
  0
SEQEND
  5
3AB
330
3A8
100
AcDbEntity
  8
1
  6
Continuous
 62
     7
 48
0.0095971233455876
370
     0
  0
POLYLINE
  5
3AC
330
1F
100
AcDbEntity
  8
1
  6
Continuous
 62
     7
 48
0.0095971233455876
370
     0
100
AcDb2dPolyline
 66
     1
 10
0.0
 20
0.0
 30
0.0
  0
VERTEX
  5
3AD
330
3AC
100
AcDbEntity
  8
1
  6
Continuous
 62
     7
 48
0.0095971233455876
100
AcDbVertex
100
AcDb2dVertex
 10
2.133002552339192
 20
0.5379787617757824
 30
0.0
 40
0.0038
 41
0.0038
  0
VERTEX
  5
3AE
330
3AC
100
AcDbEntity
  8
1
  6
Continuous
 62
     7
 48
0.0095971233455876
100
AcDbVertex
100
AcDb2dVertex
 10
2.132366584893425
 20
0.5390802897038116
 30
0.0
 40
0.0038
 41
0.0038
  0
SEQEND
  5
3AF
330
3AC
100
AcDbEntity
  8
1
  6
Continuous
 62
     7
 48
0.0095971233455876
370
     0
  0
POLYLINE
  5
3B0
330
1F
100
AcDbEntity
  8
1
  6
Continuous
 62
     7
 48
0.0095971233455876
370
     0
100
AcDb2dPolyline
 66
     1
 10
0.0
 20
0.0
 30
0.0
  0
VERTEX
  5
3B1
330
3B0
100
AcDbEntity
  8
1
  6
Continuous
 62
     7
 48
0.0095971233455876
100
AcDbVertex
100
AcDb2dVertex
 10
2.122430755569469
 20
0.5291444603798555
 30
0.0
 40
0.0038
 41
0.0038
  0
VERTEX
  5
3B2
330
3B0
100
AcDbEntity
  8
1
  6
Continuous
 62
     7
 48
0.0095971233455876
100
AcDbVertex
100
AcDb2dVertex
 10
2.132366584893425
 20
0.5390802897038116
 30
0.0
 40
0.0038
 41
0.0038
  0
SEQEND
  5
3B3
330
3B0
100
AcDbEntity
  8
1
  6
Continuous
 62
     7
 48
0.0095971233455876
370
     0
  0
POLYLINE
  5
3B4
330
1F
100
AcDbEntity
  8
1
  6
Continuous
 62
     7
 48
0.0095971233455876
370
     0
100
AcDb2dPolyline
 66
     1
 10
0.0
 20
0.0
 30
0.0
  0
VERTEX
  5
3B5
330
3B4
100
AcDbEntity
  8
1
  6
Continuous
 62
     7
 48
0.0095971233455876
100
AcDbVertex
100
AcDb2dVertex
 10
2.325702552339192
 20
0.0403101589839249
 30
0.0
 40
0.0038
 41
0.0038
  0
VERTEX
  5
3B6
330
3B4
100
AcDbEntity
  8
1
  6
Continuous
 62
     7
 48
0.0095971233455876
100
AcDbVertex
100
AcDb2dVertex
 10
2.318880755569467
 20
0.028494460379853
 30
0.0
 40
0.0038
 41
0.0038
  0
SEQEND
  5
3B7
330
3B4
100
AcDbEntity
  8
1
  6
Continuous
 62
     7
 48
0.0095971233455876
370
     0
  0
POLYLINE
  5
3B8
330
1F
100
AcDbEntity
  8
1
  6
Continuous
 62
     7
 48
0.0095971233455876
370
     0
100
AcDb2dPolyline
 66
     1
 10
0.0
 20
0.0
 30
0.0
  0
VERTEX
  5
3B9
330
3B8
100
AcDbEntity
  8
1
  6
Continuous
 62
     7
 48
0.0095971233455876
100
AcDbVertex
100
AcDb2dVertex
 10
2.339558958799743
 20
0.0403101589839249
 30
0.0
 40
0.0038
 41
0.0038
  0
VERTEX
  5
3BA
330
3B8
100
AcDbEntity
  8
1
  6
Continuous
 62
     7
 48
0.0095971233455876
100
AcDbVertex
100
AcDb2dVertex
 10
2.325702552339192
 20
0.0403101589839249
 30
0.0
 40
0.0038
 41
0.0038
  0
SEQEND
  5
3BB
330
3B8
100
AcDbEntity
  8
1
  6
Continuous
 62
     7
 48
0.0095971233455876
370
     0
  0
POLYLINE
  5
3BC
330
1F
100
AcDbEntity
  8
1
  6
Continuous
 62
     7
 48
0.0095971233455876
370
     0
100
AcDb2dPolyline
 66
     1
 10
0.0
 20
0.0
 30
0.0
  0
VERTEX
  5
3BD
330
3BC
100
AcDbEntity
  8
1
  6
Continuous
 62
     7
 48
0.0095971233455876
100
AcDbVertex
100
AcDb2dVertex
 10
2.318880755569467
 20
0.028494460379853
 30
0.0
 40
0.0038
 41
0.0038
  0
VERTEX
  5
3BE
330
3BC
100
AcDbEntity
  8
1
  6
Continuous
 62
     7
 48
0.0095971233455876
100
AcDbVertex
100
AcDb2dVertex
 10
2.308594857184605
 20
0.0106787617757817
 30
0.0
 40
0.0038
 41
0.0038
  0
SEQEND
  5
3BF
330
3BC
100
AcDbEntity
  8
1
  6
Continuous
 62
     7
 48
0.0095971233455876
370
     0
  0
POLYLINE
  5
3C0
330
1F
100
AcDbEntity
  8
1
  6
Continuous
 62
     7
 48
0.0095971233455876
370
     0
100
AcDb2dPolyline
 66
     1
 10
0.0
 20
0.0
 30
0.0
  0
VERTEX
  5
3C1
330
3C0
100
AcDbEntity
  8
1
  6
Continuous
 62
     7
 48
0.0095971233455876
100
AcDbVertex
100
AcDb2dVertex
 10
2.270702552339193
 20
0.0403101589839249
 30
0.0
 40
0.0038
 41
0.0038
  0
VERTEX
  5
3C2
330
3C0
100
AcDbEntity
  8
1
  6
Continuous
 62
     7
 48
0.0095971233455876
100
AcDbVertex
100
AcDb2dVertex
 10
2.263880755569468
 20
0.028494460379853
 30
0.0
 40
0.0038
 41
0.0038
  0
SEQEND
  5
3C3
330
3C0
100
AcDbEntity
  8
1
  6
Continuous
 62
     7
 48
0.0095971233455876
370
     0
  0
POLYLINE
  5
3C4
330
1F
100
AcDbEntity
  8
1
  6
Continuous
 62
     7
 48
0.0095971233455876
370
     0
100
AcDb2dPolyline
 66
     1
 10
0.0
 20
0.0
 30
0.0
  0
VERTEX
  5
3C5
330
3C4
100
AcDbEntity
  8
1
  6
Continuous
 62
     7
 48
0.0095971233455876
100
AcDbVertex
100
AcDb2dVertex
 10
2.284558958799743
 20
0.0403101589839249
 30
0.0
 40
0.0038
 41
0.0038
  0
VERTEX
  5
3C6
330
3C4
100
AcDbEntity
  8
1
  6
Continuous
 62
     7
 48
0.0095971233455876
100
AcDbVertex
100
AcDb2dVertex
 10
2.30166665395433
 20
0.0106787617757817
 30
0.0
 40
0.0038
 41
0.0038
  0
SEQEND
  5
3C7
330
3C4
100
AcDbEntity
  8
1
  6
Continuous
 62
     7
 48
0.0095971233455876
370
     0
  0
POLYLINE
  5
3C8
330
1F
100
AcDbEntity
  8
1
  6
Continuous
 62
     7
 48
0.0095971233455876
370
     0
100
AcDb2dPolyline
 66
     1
 10
0.0
 20
0.0
 30
0.0
  0
VERTEX
  5
3C9
330
3C8
100
AcDbEntity
  8
1
  6
Continuous
 62
     7
 48
0.0095971233455876
100
AcDbVertex
100
AcDb2dVertex
 10
2.308594857184605
 20
0.0106787617757817
 30
0.0
 40
0.0038
 41
0.0038
  0
VERTEX
  5
3CA
330
3C8
100
AcDbEntity
  8
1
  6
Continuous
 62
     7
 48
0.0095971233455876
100
AcDbVertex
100
AcDb2dVertex
 10
2.30166665395433
 20
0.0106787617757817
 30
0.0
 40
0.0038
 41
0.0038
  0
SEQEND
  5
3CB
330
3C8
100
AcDbEntity
  8
1
  6
Continuous
 62
     7
 48
0.0095971233455876
370
     0
  0
POLYLINE
  5
3CC
330
1F
100
AcDbEntity
  8
1
  6
Continuous
 62
     7
 48
0.0095971233455876
370
     0
100
AcDb2dPolyline
 66
     1
 10
0.0
 20
0.0
 30
0.0
  0
VERTEX
  5
3CD
330
3CC
100
AcDbEntity
  8
1
  6
Continuous
 62
     7
 48
0.0095971233455876
100
AcDbVertex
100
AcDb2dVertex
 10
2.284558958799743
 20
0.0403101589839249
 30
0.0
 40
0.0038
 41
0.0038
  0
VERTEX
  5
3CE
330
3CC
100
AcDbEntity
  8
1
  6
Continuous
 62
     7
 48
0.0095971233455876
100
AcDbVertex
100
AcDb2dVertex
 10
2.270702552339193
 20
0.0403101589839249
 30
0.0
 40
0.0038
 41
0.0038
  0
SEQEND
  5
3CF
330
3CC
100
AcDbEntity
  8
1
  6
Continuous
 62
     7
 48
0.0095971233455876
370
     0
  0
POLYLINE
  5
3D0
330
1F
100
AcDbEntity
  8
1
  6
Continuous
 62
     7
 48
0.0095971233455876
370
     0
100
AcDb2dPolyline
 66
     1
 10
0.0
 20
0.0
 30
0.0
  0
VERTEX
  5
3D1
330
3D0
100
AcDbEntity
  8
1
  6
Continuous
 62
     7
 48
0.0095971233455876
100
AcDbVertex
100
AcDb2dVertex
 10
2.263880755569468
 20
0.028494460379853
 30
0.0
 40
0.0038
 41
0.0038
  0
VERTEX
  5
3D2
330
3D0
100
AcDbEntity
  8
1
  6
Continuous
 62
     7
 48
0.0095971233455876
100
AcDbVertex
100
AcDb2dVertex
 10
2.253594857184606
 20
0.010678761775782
 30
0.0
 40
0.0038
 41
0.0038
  0
SEQEND
  5
3D3
330
3D0
100
AcDbEntity
  8
1
  6
Continuous
 62
     7
 48
0.0095971233455876
370
     0
  0
POLYLINE
  5
3D4
330
1F
100
AcDbEntity
  8
1
  6
Continuous
 62
     7
 48
0.0095971233455876
370
     0
100
AcDb2dPolyline
 66
     1
 10
0.0
 20
0.0
 30
0.0
  0
VERTEX
  5
3D5
330
3D4
100
AcDbEntity
  8
1
  6
Continuous
 62
     7
 48
0.0095971233455876
100
AcDbVertex
100
AcDb2dVertex
 10
2.215702552339193
 20
0.0403101589839249
 30
0.0
 40
0.0038
 41
0.0038
  0
VERTEX
  5
3D6
330
3D4
100
AcDbEntity
  8
1
  6
Continuous
 62
     7
 48
0.0095971233455876
100
AcDbVertex
100
AcDb2dVertex
 10
2.208880755569469
 20
0.028494460379853
 30
0.0
 40
0.0038
 41
0.0038
  0
SEQEND
  5
3D7
330
3D4
100
AcDbEntity
  8
1
  6
Continuous
 62
     7
 48
0.0095971233455876
370
     0
  0
POLYLINE
  5
3D8
330
1F
100
AcDbEntity
  8
1
  6
Continuous
 62
     7
 48
0.0095971233455876
370
     0
100
AcDb2dPolyline
 66
     1
 10
0.0
 20
0.0
 30
0.0
  0
VERTEX
  5
3D9
330
3D8
100
AcDbEntity
  8
1
  6
Continuous
 62
     7
 48
0.0095971233455876
100
AcDbVertex
100
AcDb2dVertex
 10
2.229558958799744
 20
0.0403101589839249
 30
0.0
 40
0.0038
 41
0.0038
  0
VERTEX
  5
3DA
330
3D8
100
AcDbEntity
  8
1
  6
Continuous
 62
     7
 48
0.0095971233455876
100
AcDbVertex
100
AcDb2dVertex
 10
2.24666665395433
 20
0.0106787617757817
 30
0.0
 40
0.0038
 41
0.0038
  0
SEQEND
  5
3DB
330
3D8
100
AcDbEntity
  8
1
  6
Continuous
 62
     7
 48
0.0095971233455876
370
     0
  0
POLYLINE
  5
3DC
330
1F
100
AcDbEntity
  8
1
  6
Continuous
 62
     7
 48
0.0095971233455876
370
     0
100
AcDb2dPolyline
 66
     1
 10
0.0
 20
0.0
 30
0.0
  0
VERTEX
  5
3DD
330
3DC
100
AcDbEntity
  8
1
  6
Continuous
 62
     7
 48
0.0095971233455876
100
AcDbVertex
100
AcDb2dVertex
 10
2.253594857184606
 20
0.010678761775782
 30
0.0
 40
0.0038
 41
0.0038
  0
VERTEX
  5
3DE
330
3DC
100
AcDbEntity
  8
1
  6
Continuous
 62
     7
 48
0.0095971233455876
100
AcDbVertex
100
AcDb2dVertex
 10
2.24666665395433
 20
0.0106787617757817
 30
0.0
 40
0.0038
 41
0.0038
  0
SEQEND
  5
3DF
330
3DC
100
AcDbEntity
  8
1
  6
Continuous
 62
     7
 48
0.0095971233455876
370
     0
  0
POLYLINE
  5
3E0
330
1F
100
AcDbEntity
  8
1
  6
Continuous
 62
     7
 48
0.0095971233455876
370
     0
100
AcDb2dPolyline
 66
     1
 10
0.0
 20
0.0
 30
0.0
  0
VERTEX
  5
3E1
330
3E0
100
AcDbEntity
  8
1
  6
Continuous
 62
     7
 48
0.0095971233455876
100
AcDbVertex
100
AcDb2dVertex
 10
2.229558958799744
 20
0.0403101589839249
 30
0.0
 40
0.0038
 41
0.0038
  0
VERTEX
  5
3E2
330
3E0
100
AcDbEntity
  8
1
  6
Continuous
 62
     7
 48
0.0095971233455876
100
AcDbVertex
100
AcDb2dVertex
 10
2.215702552339193
 20
0.0403101589839249
 30
0.0
 40
0.0038
 41
0.0038
  0
SEQEND
  5
3E3
330
3E0
100
AcDbEntity
  8
1
  6
Continuous
 62
     7
 48
0.0095971233455876
370
     0
  0
POLYLINE
  5
3E4
330
1F
100
AcDbEntity
  8
1
  6
Continuous
 62
     7
 48
0.0095971233455876
370
     0
100
AcDb2dPolyline
 66
     1
 10
0.0
 20
0.0
 30
0.0
  0
VERTEX
  5
3E5
330
3E4
100
AcDbEntity
  8
1
  6
Continuous
 62
     7
 48
0.0095971233455876
100
AcDbVertex
100
AcDb2dVertex
 10
2.208880755569469
 20
0.028494460379853
 30
0.0
 40
0.0038
 41
0.0038
  0
VERTEX
  5
3E6
330
3E4
100
AcDbEntity
  8
1
  6
Continuous
 62
     7
 48
0.0095971233455876
100
AcDbVertex
100
AcDb2dVertex
 10
2.198594857184605
 20
0.0106787617757817
 30
0.0
 40
0.0038
 41
0.0038
  0
SEQEND
  5
3E7
330
3E4
100
AcDbEntity
  8
1
  6
Continuous
 62
     7
 48
0.0095971233455876
370
     0
  0
POLYLINE
  5
3E8
330
1F
100
AcDbEntity
  8
1
  6
Continuous
 62
     7
 48
0.0095971233455876
370
     0
100
AcDb2dPolyline
 66
     1
 10
0.0
 20
0.0
 30
0.0
  0
VERTEX
  5
3E9
330
3E8
100
AcDbEntity
  8
1
  6
Continuous
 62
     7
 48
0.0095971233455876
100
AcDbVertex
100
AcDb2dVertex
 10
2.174558958799744
 20
0.0403101589839249
 30
0.0
 40
0.0038
 41
0.0038
  0
VERTEX
  5
3EA
330
3E8
100
AcDbEntity
  8
1
  6
Continuous
 62
     7
 48
0.0095971233455876
100
AcDbVertex
100
AcDb2dVertex
 10
2.19166665395433
 20
0.0106787617757817
 30
0.0
 40
0.0038
 41
0.0038
  0
SEQEND
  5
3EB
330
3E8
100
AcDbEntity
  8
1
  6
Continuous
 62
     7
 48
0.0095971233455876
370
     0
  0
POLYLINE
  5
3EC
330
1F
100
AcDbEntity
  8
1
  6
Continuous
 62
     7
 48
0.0095971233455876
370
     0
100
AcDb2dPolyline
 66
     1
 10
0.0
 20
0.0
 30
0.0
  0
VERTEX
  5
3ED
330
3EC
100
AcDbEntity
  8
1
  6
Continuous
 62
     7
 48
0.0095971233455876
100
AcDbVertex
100
AcDb2dVertex
 10
2.198594857184605
 20
0.0106787617757817
 30
0.0
 40
0.0038
 41
0.0038
  0
VERTEX
  5
3EE
330
3EC
100
AcDbEntity
  8
1
  6
Continuous
 62
     7
 48
0.0095971233455876
100
AcDbVertex
100
AcDb2dVertex
 10
2.19166665395433
 20
0.0106787617757817
 30
0.0
 40
0.0038
 41
0.0038
  0
SEQEND
  5
3EF
330
3EC
100
AcDbEntity
  8
1
  6
Continuous
 62
     7
 48
0.0095971233455876
370
     0
  0
POLYLINE
  5
3F0
330
1F
100
AcDbEntity
  8
1
  6
Continuous
 62
     7
 48
0.0095971233455876
370
     0
100
AcDb2dPolyline
 66
     1
 10
0.0
 20
0.0
 30
0.0
  0
VERTEX
  5
3F1
330
3F0
100
AcDbEntity
  8
1
  6
Continuous
 62
     7
 48
0.0095971233455876
100
AcDbVertex
100
AcDb2dVertex
 10
2.174558958799744
 20
0.0403101589839249
 30
0.0
 40
0.0038
 41
0.0038
  0
VERTEX
  5
3F2
330
3F0
100
AcDbEntity
  8
1
  6
Continuous
 62
     7
 48
0.0095971233455876
100
AcDbVertex
100
AcDb2dVertex
 10
2.160702552339192
 20
0.0403101589839249
 30
0.0
 40
0.0038
 41
0.0038
  0
SEQEND
  5
3F3
330
3F0
100
AcDbEntity
  8
1
  6
Continuous
 62
     7
 48
0.0095971233455876
370
     0
  0
POLYLINE
  5
3F4
330
1F
100
AcDbEntity
  8
1
  6
Continuous
 62
     7
 48
0.0095971233455876
370
     0
100
AcDb2dPolyline
 66
     1
 10
0.0
 20
0.0
 30
0.0
  0
VERTEX
  5
3F5
330
3F4
100
AcDbEntity
  8
1
  6
Continuous
 62
     7
 48
0.0095971233455876
100
AcDbVertex
100
AcDb2dVertex
 10
2.379430755569468
 20
0.0511444603798543
 30
0.0
 40
0.0038
 41
0.0038
  0
VERTEX
  5
3F6
330
3F4
100
AcDbEntity
  8
1
  6
Continuous
 62
     7
 48
0.0095971233455876
100
AcDbVertex
100
AcDb2dVertex
 10
2.350187419768826
 20
0.0219011245792115
 30
0.0
 40
0.0038
 41
0.0038
  0
SEQEND
  5
3F7
330
3F4
100
AcDbEntity
  8
1
  6
Continuous
 62
     7
 48
0.0095971233455876
370
     0
  0
POLYLINE
  5
3F8
330
1F
100
AcDbEntity
  8
1
  6
Continuous
 62
     7
 48
0.0095971233455876
370
     0
100
AcDb2dPolyline
 66
     1
 10
0.0
 20
0.0
 30
0.0
  0
VERTEX
  5
3F9
330
3F8
100
AcDbEntity
  8
1
  6
Continuous
 62
     7
 48
0.0095971233455876
100
AcDbVertex
100
AcDb2dVertex
 10
2.339558958799743
 20
0.0403101589839249
 30
0.0
 40
0.0038
 41
0.0038
  0
VERTEX
  5
3FA
330
3F8
100
AcDbEntity
  8
1
  6
Continuous
 62
     7
 48
0.0095971233455876
100
AcDbVertex
100
AcDb2dVertex
 10
2.350187419768826
 20
0.0219011245792115
 30
0.0
 40
0.0038
 41
0.0038
  0
SEQEND
  5
3FB
330
3F8
100
AcDbEntity
  8
1
  6
Continuous
 62
     7
 48
0.0095971233455876
370
     0
  0
POLYLINE
  5
3FC
330
1F
100
AcDbEntity
  8
1
  6
Continuous
 62
     7
 48
0.0095971233455876
370
     0
100
AcDb2dPolyline
 66
     1
 10
0.0
 20
0.0
 30
0.0
  0
VERTEX
  5
3FD
330
3FC
100
AcDbEntity
  8
1
  6
Continuous
 62
     7
 48
0.0095971233455876
100
AcDbVertex
100
AcDb2dVertex
 10
2.160702552339192
 20
0.0403101589839249
 30
0.0
 40
0.0038
 41
0.0038
  0
VERTEX
  5
3FE
330
3FC
100
AcDbEntity
  8
1
  6
Continuous
 62
     7
 48
0.0095971233455876
100
AcDbVertex
100
AcDb2dVertex
 10
2.153880755569469
 20
0.028494460379853
 30
0.0
 40
0.0038
 41
0.0038
  0
SEQEND
  5
3FF
330
3FC
100
AcDbEntity
  8
1
  6
Continuous
 62
     7
 48
0.0095971233455876
370
     0
  0
POLYLINE
  5
400
330
1F
100
AcDbEntity
  8
1
  6
Continuous
 62
     7
 48
0.0095971233455876
370
     0
100
AcDb2dPolyline
 66
     1
 10
0.0
 20
0.0
 30
0.0
  0
VERTEX
  5
401
330
400
100
AcDbEntity
  8
1
  6
Continuous
 62
     7
 48
0.0095971233455876
100
AcDbVertex
100
AcDb2dVertex
 10
2.153880755569469
 20
0.028494460379853
 30
0.0
 40
0.0038
 41
0.0038
  0
VERTEX
  5
402
330
400
100
AcDbEntity
  8
1
  6
Continuous
 62
     7
 48
0.0095971233455876
100
AcDbVertex
100
AcDb2dVertex
 10
2.149927681208597
 20
0.0216475347407261
 30
0.0
 40
0.0038
 41
0.0038
  0
SEQEND
  5
403
330
400
100
AcDbEntity
  8
1
  6
Continuous
 62
     7
 48
0.0095971233455876
370
     0
  0
POLYLINE
  5
404
330
1F
100
AcDbEntity
  8
1
  6
Continuous
 62
     7
 48
0.0095971233455876
370
     0
100
AcDb2dPolyline
 66
     1
 10
0.0
 20
0.0
 30
0.0
  0
VERTEX
  5
405
330
404
100
AcDbEntity
  8
1
  6
Continuous
 62
     7
 48
0.0095971233455876
100
AcDbVertex
100
AcDb2dVertex
 10
2.122430755569469
 20
0.0491444603798551
 30
0.0
 40
0.0038
 41
0.0038
  0
VERTEX
  5
406
330
404
100
AcDbEntity
  8
1
  6
Continuous
 62
     7
 48
0.0095971233455876
100
AcDbVertex
100
AcDb2dVertex
 10
2.149927681208597
 20
0.0216475347407261
 30
0.0
 40
0.0038
 41
0.0038
  0
SEQEND
  5
407
330
404
100
AcDbEntity
  8
1
  6
Continuous
 62
     7
 48
0.0095971233455876
370
     0
  0
DIMENSION
  5
408
330
1F
100
AcDbEntity
  8
1
  6
Continuous
 62
     7
 48
0.0000460881811863
370
     0
100
AcDbDimension
  2
*D2
 10
2.577430755569468
 20
0.8791444603798534
 30
0.0
 11
1.944430755569468
 21
0.9105803539968746
 31
0.0
 70
    32
 71
     5
 42
1.266
  3
Standard
100
AcDbAlignedDimension
 13
1.311430755569468
 23
0.4491444603798533
 33
0.0
 14
2.577430755569468
 24
0.4491444603798533
 34
0.0
100
AcDbRotatedDimension
1001
ACAD
1000
DSTYLE
1002
{
1070
   172
1070
     1
1070
    77
1070
     1
1070
   280
1070
     0
1070
   279
1070
     0
1070
    74
1070
     0
1070
    73
1070
     0
1070
   174
1070
     0
1070
   147
1040
0.0140788936170213
1070
    42
1040
0.0202325319148936
1070
   290
1070
     0
1070
   340
1005
409
1070
    78
1070
     0
1070
   272
1070
     3
1070
    71
1070
     0
1070
   146
1040
1.0
1070
   140
1040
0.034
1070
   271
1070
     3
1070
    41
1040
0.034
1070
   342
1005
0
1070
   173
1070
     0
1070
   277
1070
     2
1070
    44
1040
0.0101168085106383
1002
}
  0
DIMENSION
  5
417
330
1F
100
AcDbEntity
  8
1
  6
Continuous
 62
     7
 48
0.0000460881811863
370
     0
100
AcDbDimension
  2
*D3
 10
2.713430755569468
 20
0.6751444603798534
 30
0.0
 11
2.681059861952447
 21
0.2891444603798535
 31
0.0
 70
    32
 71
     5
 42
0.7719999999999999
  3
Standard
100
AcDbAlignedDimension
 13
2.010504303387624
 23
-0.0968555396201465
 33
0.0
 14
2.010504303387625
 24
0.6751444603798534
 34
0.0
 50
90.0
100
AcDbRotatedDimension
1001
ACAD
1000
DSTYLE
1002
{
1070
   172
1070
     1
1070
    77
1070
     1
1070
   280
1070
     0
1070
   279
1070
     0
1070
    74
1070
     0
1070
    73
1070
     0
1070
   174
1070
     0
1070
   147
1040
0.0140788936170213
1070
    42
1040
0.0202325319148936
1070
   290
1070
     0
1070
   340
1005
409
1070
    78
1070
     0
1070
   272
1070
     3
1070
    71
1070
     0
1070
     3
1000
HEX TIP Ø<>
1070
   146
1040
1.0
1070
   140
1040
0.034
1070
   271
1070
     3
1070
    41
1040
0.034
1070
   342
1005
0
1070
   173
1070
     0
1070
   277
1070
     2
1070
    44
1040
0.0101168085106383
1002
}
  0
TEXT
  5
424
330
1F
100
AcDbEntity
  8
1
  6
DASHED
 62
     5
420
      255
370
     0
100
AcDbText
 10
1.569670136019653
 20
-0.2548555396201806
 30
0.0
 40
0.034
  1
PART NET WEIGHT IS 8 GRAMS
  7
DC_TEXTSTYLE5
 72
     1
 11
1.930971136019653
 21
-0.2548555396201806
 31
0.0
100
AcDbText
  0
TEXT
  5
425
330
1F
100
AcDbEntity
  8
1
  6
HIDDEN
 62
     7
370
     0
100
AcDbText
 10
3.217988666683926
 20
-0.7666654308090028
 30
0.0
 40
0.034
  1
HEX AF = HEX TIP %%c / 1.125
  7
DC_TEXTSTYLE5
 72
     2
 11
3.836550666683926
 21
-0.7666654308090028
 31
0.0
100
AcDbText
  0
ENDSEC
  0
SECTION
  2
OBJECTS
  0
DICTIONARY
  5
C
330
0
100
AcDbDictionary
281
     1
  3
ACAD_DETAILVIEWSTYLE
350
46A
  3
ACAD_GROUP
350
D
  3
ACAD_IMAGE_VARS
350
99
  3
ACAD_LAYOUT
350
1A
  3
ACAD_MATERIAL
350
91
  3
ACAD_MLEADERSTYLE
350
97
  3
ACAD_MLINESTYLE
350
17
  3
ACAD_PLOTSETTINGS
350
19
  3
ACAD_PLOTSTYLENAME
350
E
  3
ACAD_SCALELIST
350
6F
  3
ACAD_SECTIONVIEWSTYLE
350
46B
  3
ACAD_TABLESTYLE
350
95
  3
ACAD_VISUALSTYLE
350
56
  3
ACDB_RECOMPOSE_DATA
350
466
  3
AcDbVariableDictionary
350
4E
  0
DICTIONARY
  5
426
330
8
100
AcDbDictionary
280
     1
281
     1
  3
ACAD_XREC_ROUNDTRIP
360
427
  0
DICTIONARY
  5
46A
102
{ACAD_REACTORS
330
C
102
}
330
C
100
AcDbDictionary
281
     1
  0
DICTIONARY
  5
D
102
{ACAD_REACTORS
330
C
102
}
330
C
100
AcDbDictionary
281
     1
  0
RASTERVARIABLES
  5
99
102
{ACAD_REACTORS
330
C
102
}
330
C
100
AcDbRasterVariables
 90
        0
 70
     0
 71
     1
 72
     5
  0
DICTIONARY
  5
1A
102
{ACAD_REACTORS
330
C
102
}
330
C
100
AcDbDictionary
281
     1
  3
Layout1
350
1E
  3
Model
350
22
  0
DICTIONARY
  5
91
102
{ACAD_REACTORS
330
C
102
}
330
C
100
AcDbDictionary
281
     1
  3
ByBlock
350
93
  3
ByLayer
350
92
  3
Global
350
94
  0
DICTIONARY
  5
97
102
{ACAD_REACTORS
330
C
102
}
330
C
100
AcDbDictionary
281
     1
  3
Standard
350
98
  0
DICTIONARY
  5
17
102
{ACAD_REACTORS
330
C
102
}
330
C
100
AcDbDictionary
281
     1
  3
Standard
350
18
  0
DICTIONARY
  5
19
102
{ACAD_REACTORS
330
C
102
}
330
C
100
AcDbDictionary
281
     1
  0
ACDBDICTIONARYWDFLT
  5
E
102
{ACAD_REACTORS
330
C
102
}
330
C
100
AcDbDictionary
281
     1
  3
Normal
350
F
100
AcDbDictionaryWithDefault
340
F
  0
DICTIONARY
  5
6F
102
{ACAD_REACTORS
330
C
102
}
330
C
100
AcDbDictionary
281
     1
  3
A0
350
70
  3
A1
350
71
  3
A2
350
72
  3
A3
350
73
  3
A4
350
74
  3
A5
350
75
  3
A6
350
76
  3
A7
350
77
  3
A8
350
78
  3
A9
350
79
  3
B0
350
7A
  3
B1
350
7B
  3
B2
350
7C
  3
B3
350
7D
  3
B4
350
7E
  3
B5
350
7F
  3
B6
350
80
  3
B7
350
81
  3
B8
350
82
  3
B9
350
83
  3
C0
350
84
  3
C1
350
85
  3
C2
350
86
  3
C3
350
87
  3
C4
350
88
  3
C5
350
89
  3
C6
350
8A
  3
C7
350
8B
  3
C8
350
8C
  3
C9
350
8D
  3
D0
350
8E
  3
D1
350
8F
  3
D2
350
90
  0
DICTIONARY
  5
46B
102
{ACAD_REACTORS
330
C
102
}
330
C
100
AcDbDictionary
281
     1
  0
DICTIONARY
  5
95
102
{ACAD_REACTORS
330
C
102
}
330
C
100
AcDbDictionary
281
     1
  3
Standard
350
96
  0
DICTIONARY
  5
56
102
{ACAD_REACTORS
330
C
102
}
330
C
100
AcDbDictionary
281
     1
  3
2dWireframe
350
5B
  3
Basic
350
5E
  3
Brighten
350
62
  3
ColorChange
350
66
  3
Conceptual
350
60
  3
Dim
350
61
  3
EdgeColorOff
350
69
  3
Facepattern
350
65
  3
Flat
350
57
  3
FlatWithEdges
350
58
  3
Gouraud
350
59
  3
GouraudWithEdges
350
5A
  3
Hidden
350
5D
  3
JitterOff
350
67
  3
Linepattern
350
64
  3
OverhangOff
350
68
  3
Realistic
350
5F
  3
Shaded
350
6E
  3
Shaded with edges
350
6D
  3
Shades of Gray
350
6A
  3
Sketchy
350
6B
  3
Thicken
350
63
  3
Wireframe
350
5C
  3
X-Ray
350
6C
  0
XRECORD
  5
466
102
{ACAD_REACTORS
330
C
102
}
330
C
100
AcDbXrecord
280
     1
 90
        1
330
96
  0
DICTIONARY
  5
4E
102
{ACAD_REACTORS
330
C
102
}
330
C
100
AcDbDictionary
281
     1
  3
CANNOSCALE
350
428
  3
CMLEADERSTYLE
350
468
  3
CTABLESTYLE
350
467
  3
DIMASSOC
350
4F
  3
MSLTSCALE
350
469
  3
XCLIPFRAME
350
429
  0
XRECORD
  5
427
102
{ACAD_REACTORS
330
426
102
}
330
426
100
AcDbXrecord
280
     1
102
VTR_0.000_0.000_1.000_1.000_VISUALSTYLE
340
5B
102
VTR_0.000_0.000_1.000_1.000_GRIDDISPLAY
 70
     3
102
VTR_0.000_0.000_1.000_1.000_GRIDMAJOR
 70
     5
102
VTR_0.000_0.000_1.000_1.000_DEFAULTLIGHTING
280
     1
102
VTR_0.000_0.000_1.000_1.000_DEFAULTLIGHTINGTYPE
 70
     1
102
VTR_0.000_0.000_1.000_1.000_BRIGHTNESS
141
0.0
102
VTR_0.000_0.000_1.000_1.000_CONTRAST
142
0.0
  0
LAYOUT
  5
1E
102
{ACAD_REACTORS
330
1A
102
}
330
1A
100
AcDbPlotSettings
  1

  2
HP DeskJet 720C v10.3
  4

  6

 40
0.0
 41
0.0
 42
0.0
 43
0.0
 44
0.0
 45
0.0
 46
0.0
 47
0.0
 48
0.0
 49
0.0
140
0.0
141
0.0
142
1.0
143
1.0
 70
   688
 72
     0
 73
     0
 74
     5
  7

 75
    16
 76
     0
 77
     2
 78
   300
147
1.0
148
0.0
149
0.0
100
AcDbLayout
  1
Layout1
 70
     1
 71
     1
 10
0.0
 20
0.0
 11
12.0
 21
9.0
 12
0.0
 22
0.0
 32
0.0
 14
1.000000000000000E+20
 24
1.000000000000000E+20
 34
1.000000000000000E+20
 15
-1.000000000000000E+20
 25
-1.000000000000000E+20
 35
-1.000000000000000E+20
146
0.0
 13
0.0
 23
0.0
 33
0.0
 16
1.0
 26
0.0
 36
0.0
 17
0.0
 27
1.0
 37
0.0
 76
     0
330
1B
  0
LAYOUT
  5
22
102
{ACAD_REACTORS
330
1A
102
}
330
1A
100
AcDbPlotSettings
  1

  2
None
  4
Custom Paper
  6

 40
0.5
 41
0.5
 42
0.5
 43
0.5
 44
296.9683333333333
 45
209.9733333333333
 46
0.2101666666666233
 47
0.0
 48
0.0
 49
0.0
140
0.0
141
0.0
142
1.0
143
0.0142415806475247
 70
  5796
 72
     2
 73
     0
 74
     0
  7

 75
     0
 76
     0
 77
     2
 78
   300
147
70.21692498534611
148
2.104535338607318
149
1.488055289924366
100
AcDbLayout
  1
Model
 70
     1
 71
     0
 10
0.0
 20
0.0
 11
12.0
 21
9.0
 12
0.0
 22
0.0
 32
0.0
 14
0.0705506666839267
 24
-1.145477002250478
 34
0.0038
 15
3.896978555060871
 25
1.56007807033928
 35
-0.0038
146
0.0
 13
0.0
 23
0.0
 33
0.0
 16
1.0
 26
0.0
 36
0.0
 17
0.0
 27
1.0
 37
0.0
 76
     0
330
1F
331
55
  0
MATERIAL
  5
93
102
{ACAD_REACTORS
330
91
102
}
102
{ACAD_XDICTIONARY
360
45C
102
}
330
91
100
AcDbMaterial
  1
ByBlock
  0
MATERIAL
  5
92
102
{ACAD_REACTORS
330
91
102
}
102
{ACAD_XDICTIONARY
360
45A
102
}
330
91
100
AcDbMaterial
  1
ByLayer
  0
MATERIAL
  5
94
102
{ACAD_REACTORS
330
91
102
}
102
{ACAD_XDICTIONARY
360
45E
102
}
330
91
100
AcDbMaterial
  1
Global
  0
MLEADERSTYLE
  5
98
102
{ACAD_REACTORS
330
97
102
}
102
{ACAD_XDICTIONARY
360
464
102
}
330
97
100
AcDbMLeaderStyle
170
     2
171
     1
172
     0
 90
        2
 40
0.0
 41
0.0
173
     1
 91
-1056964608
340
14
 92
       -2
290
     1
 42
0.09
291
     1
 43
0.36
  3
Standard
341
0
 44
0.18
300

342
11
174
     1
178
     6
175
     1
176
     0
 93
-1056964608
 45
0.18
292
     0
297
     0
 46
0.18
343
0
 94
-1056964608
 47
1.0
 49
1.0
140
1.0
293
     1
141
0.0
294
     1
177
     0
142
1.0
295
     0
296
     0
143
0.125
1001
ACAD_MLEADERVER
1070
     2
  0
MLINESTYLE
  5
18
102
{ACAD_REACTORS
330
17
102
}
330
17
100
AcDbMlineStyle
  2
STANDARD
 70
     0
  3

 62
   256
 51
90.0
 52
90.0
 71
     2
 49
0.5
 62
   256
  6
BYLAYER
 49
-0.5
 62
   256
  6
BYLAYER
  0
ACDBPLACEHOLDER
  5
F
102
{ACAD_REACTORS
330
E
102
}
330
E
  0
SCALE
  5
70
102
{ACAD_REACTORS
330
6F
102
}
330
6F
100
AcDbScale
 70
     0
300
1:1
140
1.0
141
1.0
290
     1
  0
SCALE
  5
71
102
{ACAD_REACTORS
330
6F
102
}
330
6F
100
AcDbScale
 70
     0
300
1:2
140
1.0
141
2.0
290
     0
  0
SCALE
  5
72
102
{ACAD_REACTORS
330
6F
102
}
330
6F
100
AcDbScale
 70
     0
300
1:4
140
1.0
141
4.0
290
     0
  0
SCALE
  5
73
102
{ACAD_REACTORS
330
6F
102
}
330
6F
100
AcDbScale
 70
     0
300
1:5
140
1.0
141
5.0
290
     0
  0
SCALE
  5
74
102
{ACAD_REACTORS
330
6F
102
}
330
6F
100
AcDbScale
 70
     0
300
1:8
140
1.0
141
8.0
290
     0
  0
SCALE
  5
75
102
{ACAD_REACTORS
330
6F
102
}
330
6F
100
AcDbScale
 70
     0
300
1:10
140
1.0
141
10.0
290
     0
  0
SCALE
  5
76
102
{ACAD_REACTORS
330
6F
102
}
330
6F
100
AcDbScale
 70
     0
300
1:16
140
1.0
141
16.0
290
     0
  0
SCALE
  5
77
102
{ACAD_REACTORS
330
6F
102
}
330
6F
100
AcDbScale
 70
     0
300
1:20
140
1.0
141
20.0
290
     0
  0
SCALE
  5
78
102
{ACAD_REACTORS
330
6F
102
}
330
6F
100
AcDbScale
 70
     0
300
1:30
140
1.0
141
30.0
290
     0
  0
SCALE
  5
79
102
{ACAD_REACTORS
330
6F
102
}
330
6F
100
AcDbScale
 70
     0
300
1:40
140
1.0
141
40.0
290
     0
  0
SCALE
  5
7A
102
{ACAD_REACTORS
330
6F
102
}
330
6F
100
AcDbScale
 70
     0
300
1:50
140
1.0
141
50.0
290
     0
  0
SCALE
  5
7B
102
{ACAD_REACTORS
330
6F
102
}
330
6F
100
AcDbScale
 70
     0
300
1:100
140
1.0
141
100.0
290
     0
  0
SCALE
  5
7C
102
{ACAD_REACTORS
330
6F
102
}
330
6F
100
AcDbScale
 70
     0
300
2:1
140
2.0
141
1.0
290
     0
  0
SCALE
  5
7D
102
{ACAD_REACTORS
330
6F
102
}
330
6F
100
AcDbScale
 70
     0
300
4:1
140
4.0
141
1.0
290
     0
  0
SCALE
  5
7E
102
{ACAD_REACTORS
330
6F
102
}
330
6F
100
AcDbScale
 70
     0
300
8:1
140
8.0
141
1.0
290
     0
  0
SCALE
  5
7F
102
{ACAD_REACTORS
330
6F
102
}
330
6F
100
AcDbScale
 70
     0
300
10:1
140
10.0
141
1.0
290
     0
  0
SCALE
  5
80
102
{ACAD_REACTORS
330
6F
102
}
330
6F
100
AcDbScale
 70
     0
300
100:1
140
100.0
141
1.0
290
     0
  0
SCALE
  5
81
102
{ACAD_REACTORS
330
6F
102
}
330
6F
100
AcDbScale
 70
     0
300
1/128" = 1'-0"
140
0.0078125
141
12.0
290
     0
  0
SCALE
  5
82
102
{ACAD_REACTORS
330
6F
102
}
330
6F
100
AcDbScale
 70
     0
300
1/64" = 1'-0"
140
0.015625
141
12.0
290
     0
  0
SCALE
  5
83
102
{ACAD_REACTORS
330
6F
102
}
330
6F
100
AcDbScale
 70
     0
300
1/32" = 1'-0"
140
0.03125
141
12.0
290
     0
  0
SCALE
  5
84
102
{ACAD_REACTORS
330
6F
102
}
330
6F
100
AcDbScale
 70
     0
300
1/16" = 1'-0"
140
0.0625
141
12.0
290
     0
  0
SCALE
  5
85
102
{ACAD_REACTORS
330
6F
102
}
330
6F
100
AcDbScale
 70
     0
300
3/32" = 1'-0"
140
0.09375
141
12.0
290
     0
  0
SCALE
  5
86
102
{ACAD_REACTORS
330
6F
102
}
330
6F
100
AcDbScale
 70
     0
300
1/8" = 1'-0"
140
0.125
141
12.0
290
     0
  0
SCALE
  5
87
102
{ACAD_REACTORS
330
6F
102
}
330
6F
100
AcDbScale
 70
     0
300
3/16" = 1'-0"
140
0.1875
141
12.0
290
     0
  0
SCALE
  5
88
102
{ACAD_REACTORS
330
6F
102
}
330
6F
100
AcDbScale
 70
     0
300
1/4" = 1'-0"
140
0.25
141
12.0
290
     0
  0
SCALE
  5
89
102
{ACAD_REACTORS
330
6F
102
}
330
6F
100
AcDbScale
 70
     0
300
3/8" = 1'-0"
140
0.375
141
12.0
290
     0
  0
SCALE
  5
8A
102
{ACAD_REACTORS
330
6F
102
}
330
6F
100
AcDbScale
 70
     0
300
1/2" = 1'-0"
140
0.5
141
12.0
290
     0
  0
SCALE
  5
8B
102
{ACAD_REACTORS
330
6F
102
}
330
6F
100
AcDbScale
 70
     0
300
3/4" = 1'-0"
140
0.75
141
12.0
290
     0
  0
SCALE
  5
8C
102
{ACAD_REACTORS
330
6F
102
}
330
6F
100
AcDbScale
 70
     0
300
1" = 1'-0"
140
1.0
141
12.0
290
     0
  0
SCALE
  5
8D
102
{ACAD_REACTORS
330
6F
102
}
330
6F
100
AcDbScale
 70
     0
300
1-1/2" = 1'-0"
140
1.5
141
12.0
290
     0
  0
SCALE
  5
8E
102
{ACAD_REACTORS
330
6F
102
}
330
6F
100
AcDbScale
 70
     0
300
3" = 1'-0"
140
3.0
141
12.0
290
     0
  0
SCALE
  5
8F
102
{ACAD_REACTORS
330
6F
102
}
330
6F
100
AcDbScale
 70
     0
300
6" = 1'-0"
140
6.0
141
12.0
290
     0
  0
SCALE
  5
90
102
{ACAD_REACTORS
330
6F
102
}
330
6F
100
AcDbScale
 70
     0
300
1'-0" = 1'-0"
140
12.0
141
12.0
290
     0
  0
TABLESTYLE
  5
96
102
{ACAD_REACTORS
330
95
102
}
102
{ACAD_XDICTIONARY
360
460
102
}
330
95
100
AcDbTableStyle
  3
Standard
 70
     0
 71
     0
 40
0.06
 41
0.06
280
     0
281
     0
  7
Standard
140
0.18
170
     2
 62
     0
 63
   257
283
     0
274
    -2
284
     1
 64
     0
275
    -2
285
     1
 65
     0
276
    -2
286
     1
 66
     0
277
    -2
287
     1
 67
     0
278
    -2
288
     1
 68
     0
279
    -2
289
     1
 69
     0
  7
Standard
140
0.25
170
     5
 62
     0
 63
   257
283
     0
274
    -2
284
     1
 64
     0
275
    -2
285
     1
 65
     0
276
    -2
286
     1
 66
     0
277
    -2
287
     1
 67
     0
278
    -2
288
     1
 68
     0
279
    -2
289
     1
 69
     0
  7
Standard
140
0.18
170
     5
 62
     0
 63
   257
283
     0
274
    -2
284
     1
 64
     0
275
    -2
285
     1
 65
     0
276
    -2
286
     1
 66
     0
277
    -2
287
     1
 67
     0
278
    -2
288
     1
 68
     0
279
    -2
289
     1
 69
     0
  0
VISUALSTYLE
  5
5B
102
{ACAD_REACTORS
330
56
102
}
102
{ACAD_XDICTIONARY
360
432
102
}
330
56
100
AcDbVisualStyle
  2
2dWireframe
 70
     4
 71
     0
 72
     2
 73
     0
 90
        0
 40
0.6
 41
30.0
 62
     5
 63
     7
421
 16777215
 74
     1
 91
        4
 64
     7
 65
   257
 75
     1
175
     1
 42
1.0
 92
        0
 66
   257
 43
1.0
 76
     1
 77
     6
 78
     2
 67
     7
 79
     5
170
     0
171
     0
290
     0
174
     0
 93
        1
 44
0.0
173
     0
291
     0
 45
0.0
1001
ACAD
1000
AcDbSavedByObjectVersion
1070
     0
  0
VISUALSTYLE
  5
5E
102
{ACAD_REACTORS
330
56
102
}
102
{ACAD_XDICTIONARY
360
438
102
}
330
56
100
AcDbVisualStyle
  2
Basic
 70
     7
 71
     1
 72
     0
 73
     1
 90
        0
 40
0.6
 41
30.0
 62
     5
 63
     7
421
 16777215
 74
     0
 91
        4
 64
     7
 65
   257
 75
     1
175
     1
 42
1.0
 92
        8
 66
     7
 43
1.0
 76
     1
 77
     6
 78
     2
 67
     7
 79
     5
170
     0
171
     0
290
     0
174
     0
 93
        1
 44
0.0
173
     0
291
     1
 45
0.0
1001
ACAD
1000
AcDbSavedByObjectVersion
1070
     0
  0
VISUALSTYLE
  5
62
102
{ACAD_REACTORS
330
56
102
}
102
{ACAD_XDICTIONARY
360
440
102
}
330
56
100
AcDbVisualStyle
  2
Brighten
 70
    12
 71
     2
 72
     2
 73
     0
 90
        0
 40
0.6
 41
30.0
 62
     5
 63
     7
421
 16777215
 74
     1
 91
        4
 64
     7
 65
   257
 75
     1
175
     1
 42
1.0
 92
        8
 66
     7
 43
1.0
 76
     1
 77
     6
 78
     2
 67
     7
 79
     5
170
     0
171
     0
290
     0
174
     0
 93
        1
 44
50.0
173
     0
291
     1
 45
0.0
1001
ACAD
1000
AcDbSavedByObjectVersion
1070
     0
  0
VISUALSTYLE
  5
66
102
{ACAD_REACTORS
330
56
102
}
102
{ACAD_XDICTIONARY
360
448
102
}
330
56
100
AcDbVisualStyle
  2
ColorChange
 70
    16
 71
     2
 72
     2
 73
     3
 90
        0
 40
0.6
 41
30.0
 62
     5
 63
     8
421
  8421504
 74
     1
 91
        4
 64
     7
 65
   257
 75
     1
175
     1
 42
1.0
 92
        8
 66
     8
424
  8421504
 43
1.0
 76
     1
 77
     6
 78
     2
 67
     7
 79
     5
170
     0
171
     0
290
     0
174
     0
 93
        1
 44
0.0
173
     0
291
     1
 45
0.0
1001
ACAD
1000
AcDbSavedByObjectVersion
1070
     0
  0
VISUALSTYLE
  5
60
102
{ACAD_REACTORS
330
56
102
}
102
{ACAD_XDICTIONARY
360
43C
102
}
330
56
100
AcDbVisualStyle
  2
Conceptual
 70
     9
 71
     3
 72
     2
 73
     0
 90
        0
 40
0.6
 41
30.0
 62
     5
 63
     7
421
 16777215
 74
     2
 91
        2
 64
     7
 65
   257
 75
     1
175
     1
 42
179.0
 92
        8
 66
     7
 43
1.0
 76
     1
 77
     6
 78
     2
 67
     7
 79
     3
170
     0
171
     0
290
     0
174
     0
 93
        1
 44
0.0
173
     0
291
     0
 45
0.0
1001
ACAD
1000
AcDbSavedByObjectVersion
1070
     0
  0
VISUALSTYLE
  5
61
102
{ACAD_REACTORS
330
56
102
}
102
{ACAD_XDICTIONARY
360
43E
102
}
330
56
100
AcDbVisualStyle
  2
Dim
 70
    11
 71
     2
 72
     2
 73
     0
 90
        0
 40
0.6
 41
30.0
 62
     5
 63
     7
421
 16777215
 74
     1
 91
        4
 64
     7
 65
   257
 75
     1
175
     1
 42
1.0
 92
        8
 66
     7
 43
1.0
 76
     1
 77
     6
 78
     2
 67
     7
 79
     5
170
     0
171
     0
290
     0
174
     0
 93
        1
 44
-50.0
173
     0
291
     1
 45
0.0
1001
ACAD
1000
AcDbSavedByObjectVersion
1070
     0
  0
VISUALSTYLE
  5
69
102
{ACAD_REACTORS
330
56
102
}
102
{ACAD_XDICTIONARY
360
44E
102
}
330
56
100
AcDbVisualStyle
  2
EdgeColorOff
 70
    22
 71
     2
 72
     2
 73
     0
 90
        0
 40
0.6
 41
30.0
 62
     5
 63
     7
421
 16777215
 74
     1
 91
        4
 64
     7
 65
   257
 75
     1
175
     1
 42
1.0
 92
        8
 66
     7
 43
1.0
 76
     1
 77
     6
 78
     2
 67
     7
 79
     5
170
     0
171
     0
290
     0
174
     0
 93
        1
 44
0.0
173
     0
291
     1
 45
0.0
1001
ACAD
1000
AcDbSavedByObjectVersion
1070
     0
  0
VISUALSTYLE
  5
65
102
{ACAD_REACTORS
330
56
102
}
102
{ACAD_XDICTIONARY
360
446
102
}
330
56
100
AcDbVisualStyle
  2
Facepattern
 70
    15
 71
     2
 72
     2
 73
     0
 90
        0
 40
0.6
 41
30.0
 62
     5
 63
     7
421
 16777215
 74
     1
 91
        4
 64
     7
 65
   257
 75
     1
175
     1
 42
1.0
 92
        8
 66
     7
 43
1.0
 76
     1
 77
     6
 78
     2
 67
     7
 79
     5
170
     0
171
     0
290
     0
174
     0
 93
        1
 44
0.0
173
     0
291
     1
 45
0.0
1001
ACAD
1000
AcDbSavedByObjectVersion
1070
     0
  0
VISUALSTYLE
  5
57
102
{ACAD_REACTORS
330
56
102
}
102
{ACAD_XDICTIONARY
360
42A
102
}
330
56
100
AcDbVisualStyle
  2
Flat
 70
     0
 71
     2
 72
     1
 73
     1
 90
        2
 40
0.6
 41
30.0
 62
     5
 63
     7
421
 16777215
 74
     0
 91
        0
 64
     7
 65
   257
 75
     1
175
     1
 42
1.0
 92
        8
 66
     7
 43
1.0
 76
     1
 77
     6
 78
     2
 67
     7
 79
     5
170
     0
171
     0
290
     0
174
     0
 93
       13
 44
0.0
173
     0
291
     1
 45
0.0
1001
ACAD
1000
AcDbSavedByObjectVersion
1070
     0
  0
VISUALSTYLE
  5
58
102
{ACAD_REACTORS
330
56
102
}
102
{ACAD_XDICTIONARY
360
42C
102
}
330
56
100
AcDbVisualStyle
  2
FlatWithEdges
 70
     1
 71
     2
 72
     1
 73
     1
 90
        2
 40
0.6
 41
30.0
 62
     5
 63
     7
421
 16777215
 74
     1
 91
        0
 64
     7
 65
   257
 75
     1
175
     1
 42
1.0
 92
        0
 66
   257
 43
1.0
 76
     1
 77
     6
 78
     2
 67
     7
 79
     5
170
     0
171
     0
290
     0
174
     0
 93
       13
 44
0.0
173
     0
291
     1
 45
0.0
1001
ACAD
1000
AcDbSavedByObjectVersion
1070
     0
  0
VISUALSTYLE
  5
59
102
{ACAD_REACTORS
330
56
102
}
102
{ACAD_XDICTIONARY
360
42E
102
}
330
56
100
AcDbVisualStyle
  2
Gouraud
 70
     2
 71
     2
 72
     2
 73
     1
 90
        2
 40
0.6
 41
30.0
 62
     5
 63
     7
421
 16777215
 74
     0
 91
        0
 64
     7
 65
   257
 75
     1
175
     1
 42
1.0
 92
        0
 66
     7
 43
1.0
 76
     1
 77
     6
 78
     2
 67
     7
 79
     5
170
     0
171
     0
290
     0
174
     0
 93
       13
 44
0.0
173
     0
291
     1
 45
0.0
1001
ACAD
1000
AcDbSavedByObjectVersion
1070
     0
  0
VISUALSTYLE
  5
5A
102
{ACAD_REACTORS
330
56
102
}
102
{ACAD_XDICTIONARY
360
430
102
}
330
56
100
AcDbVisualStyle
  2
GouraudWithEdges
 70
     3
 71
     2
 72
     2
 73
     1
 90
        2
 40
0.6
 41
30.0
 62
     5
 63
     7
421
 16777215
 74
     1
 91
        0
 64
     7
 65
   257
 75
     1
175
     1
 42
1.0
 92
        0
 66
   257
 43
1.0
 76
     1
 77
     6
 78
     2
 67
     7
 79
     5
170
     0
171
     0
290
     0
174
     0
 93
       13
 44
0.0
173
     0
291
     1
 45
0.0
1001
ACAD
1000
AcDbSavedByObjectVersion
1070
     0
  0
VISUALSTYLE
  5
5D
102
{ACAD_REACTORS
330
56
102
}
102
{ACAD_XDICTIONARY
360
436
102
}
330
56
100
AcDbVisualStyle
  2
Hidden
 70
     6
 71
     1
 72
     2
 73
     2
 90
        0
 40
0.6
 41
30.0
 62
     5
 63
     7
421
 16777215
 74
     2
 91
        2
 64
     7
 65
   257
 75
     2
175
     1
 42
40.0
 92
        0
 66
   257
 43
1.0
 76
     1
 77
     6
 78
     2
 67
     7
 79
     3
170
     0
171
     0
290
     0
174
     0
 93
        1
 44
0.0
173
     0
291
     0
 45
0.0
1001
ACAD
1000
AcDbSavedByObjectVersion
1070
     0
  0
VISUALSTYLE
  5
67
102
{ACAD_REACTORS
330
56
102
}
102
{ACAD_XDICTIONARY
360
44A
102
}
330
56
100
AcDbVisualStyle
  2
JitterOff
 70
    20
 71
     2
 72
     2
 73
     0
 90
        0
 40
0.6
 41
30.0
 62
     5
 63
     7
421
 16777215
 74
     1
 91
        4
 64
     7
 65
   257
 75
     1
175
     1
 42
1.0
 92
       10
 66
     7
 43
1.0
 76
     1
 77
     6
 78
     2
 67
     7
 79
     5
170
     0
171
     0
290
     0
174
     0
 93
        1
 44
0.0
173
     0
291
     1
 45
0.0
1001
ACAD
1000
AcDbSavedByObjectVersion
1070
     0
  0
VISUALSTYLE
  5
64
102
{ACAD_REACTORS
330
56
102
}
102
{ACAD_XDICTIONARY
360
444
102
}
330
56
100
AcDbVisualStyle
  2
Linepattern
 70
    14
 71
     2
 72
     2
 73
     0
 90
        0
 40
0.6
 41
30.0
 62
     5
 63
     7
421
 16777215
 74
     1
 91
        4
 64
     7
 65
   257
 75
     7
175
     7
 42
1.0
 92
        8
 66
     7
 43
1.0
 76
     1
 77
     6
 78
     2
 67
     7
 79
     5
170
     0
171
     0
290
     0
174
     0
 93
        1
 44
0.0
173
     0
291
     1
 45
0.0
1001
ACAD
1000
AcDbSavedByObjectVersion
1070
     0
  0
VISUALSTYLE
  5
68
102
{ACAD_REACTORS
330
56
102
}
102
{ACAD_XDICTIONARY
360
44C
102
}
330
56
100
AcDbVisualStyle
  2
OverhangOff
 70
    21
 71
     2
 72
     2
 73
     0
 90
        0
 40
0.6
 41
30.0
 62
     5
 63
     7
421
 16777215
 74
     1
 91
        4
 64
     7
 65
   257
 75
     1
175
     1
 42
1.0
 92
        9
 66
     7
 43
1.0
 76
     1
 77
     6
 78
     2
 67
     7
 79
     5
170
     0
171
     0
290
     0
174
     0
 93
        1
 44
0.0
173
     0
291
     1
 45
0.0
1001
ACAD
1000
AcDbSavedByObjectVersion
1070
     0
  0
VISUALSTYLE
  5
5F
102
{ACAD_REACTORS
330
56
102
}
102
{ACAD_XDICTIONARY
360
43A
102
}
330
56
100
AcDbVisualStyle
  2
Realistic
 70
     8
 71
     2
 72
     3
 73
     0
 90
        2
 40
0.6
 41
30.0
 62
     5
 63
     7
421
 16777215
 74
     0
 91
        0
 64
     7
 65
   257
 75
     1
175
     1
 42
1.0
 92
        8
 66
   257
 43
1.0
 76
     1
 77
     6
 78
     2
 67
     7
 79
     3
170
     0
171
     0
290
     0
174
     0
 93
       13
 44
0.0
173
     0
291
     0
 45
0.0
1001
ACAD
1000
AcDbSavedByObjectVersion
1070
     0
  0
VISUALSTYLE
  5
6E
102
{ACAD_REACTORS
330
56
102
}
102
{ACAD_XDICTIONARY
360
458
102
}
330
56
100
AcDbVisualStyle
  2
Shaded
 70
    27
 71
     2
 72
     2
 73
     1
 90
        2
 40
0.6
 41
30.0
 62
     5
 63
     7
421
 16777215
 74
     0
 91
        4
 64
     7
 65
   257
 75
     1
175
     1
 42
1.0
 92
        8
 66
   257
 43
1.0
 76
     1
 77
     6
 78
     2
 67
     8
425
  7895160
 79
     3
170
     0
171
     0
290
     0
174
     0
 93
        5
 44
0.0
173
     0
291
     0
 45
0.0
1001
ACAD
1000
AcDbSavedByObjectVersion
1070
     0
  0
VISUALSTYLE
  5
6D
102
{ACAD_REACTORS
330
56
102
}
102
{ACAD_XDICTIONARY
360
456
102
}
330
56
100
AcDbVisualStyle
  2
Shaded with edges
 70
    26
 71
     2
 72
     2
 73
     1
 90
        2
 40
0.6
 41
30.0
 62
     5
 63
     7
421
 16777215
 74
     1
 91
       10
 64
     7
 65
   257
 75
     2
175
     1
 42
1.0
 92
        8
 66
   257
 43
1.0
 76
     1
 77
     6
 78
     2
 67
     7
 79
     3
170
     0
171
     0
290
     0
174
     0
 93
        5
 44
0.0
173
     0
291
     0
 45
0.0
1001
ACAD
1000
AcDbSavedByObjectVersion
1070
     0
  0
VISUALSTYLE
  5
6A
102
{ACAD_REACTORS
330
56
102
}
102
{ACAD_XDICTIONARY
360
450
102
}
330
56
100
AcDbVisualStyle
  2
Shades of Gray
 70
    23
 71
     2
 72
     2
 73
     3
 90
        0
 40
0.6
 41
30.0
 62
     5
 63
     7
421
 16777215
 74
     2
 91
        2
 64
     7
 65
     7
 75
     1
175
     1
 42
40.0
 92
        8
 66
     7
 43
1.0
 76
     1
 77
     6
 78
     2
 67
     7
 79
     3
170
     0
171
     0
290
     0
174
     0
 93
        1
 44
0.0
173
     0
291
     0
 45
0.0
1001
ACAD
1000
AcDbSavedByObjectVersion
1070
     0
  0
VISUALSTYLE
  5
6B
102
{ACAD_REACTORS
330
56
102
}
102
{ACAD_XDICTIONARY
360
452
102
}
330
56
100
AcDbVisualStyle
  2
Sketchy
 70
    24
 71
     1
 72
     2
 73
     2
 90
        0
 40
0.6
 41
30.0
 62
     5
 63
     7
421
 16777215
 74
     2
 91
        2
 64
     7
 65
     7
 75
     1
175
     1
 42
40.0
 92
       11
 66
     7
 43
1.0
 76
     1
 77
     6
 78
     2
 67
     7
 79
     6
170
     0
171
     0
290
     0
174
     0
 93
        1
 44
0.0
173
     0
291
     0
 45
0.0
1001
ACAD
1000
AcDbSavedByObjectVersion
1070
     0
  0
VISUALSTYLE
  5
63
102
{ACAD_REACTORS
330
56
102
}
102
{ACAD_XDICTIONARY
360
442
102
}
330
56
100
AcDbVisualStyle
  2
Thicken
 70
    13
 71
     2
 72
     2
 73
     0
 90
        0
 40
0.6
 41
30.0
 62
     5
 63
     7
421
 16777215
 74
     1
 91
        4
 64
     7
 65
   257
 75
     1
175
     1
 42
1.0
 92
       12
 66
     7
 43
1.0
 76
     1
 77
     6
 78
     2
 67
     7
 79
     5
170
     0
171
     0
290
     0
174
     0
 93
        1
 44
0.0
173
     0
291
     1
 45
0.0
1001
ACAD
1000
AcDbSavedByObjectVersion
1070
     0
  0
VISUALSTYLE
  5
5C
102
{ACAD_REACTORS
330
56
102
}
102
{ACAD_XDICTIONARY
360
434
102
}
330
56
100
AcDbVisualStyle
  2
Wireframe
 70
     5
 71
     0
 72
     2
 73
     0
 90
        0
 40
0.6
 41
30.0
 62
     5
 63
     7
421
 16777215
 74
     1
 91
        4
 64
     7
 65
   257
 75
     1
175
     1
 42
1.0
 92
        0
 66
   257
 43
1.0
 76
     1
 77
     6
 78
     2
 67
     7
 79
     3
170
     0
171
     0
290
     0
174
     0
 93
        1
 44
0.0
173
     0
291
     0
 45
0.0
1001
ACAD
1000
AcDbSavedByObjectVersion
1070
     0
  0
VISUALSTYLE
  5
6C
102
{ACAD_REACTORS
330
56
102
}
102
{ACAD_XDICTIONARY
360
454
102
}
330
56
100
AcDbVisualStyle
  2
X-Ray
 70
    25
 71
     2
 72
     2
 73
     1
 90
        1
 40
0.5
 41
30.0
 62
     5
 63
     7
421
 16777215
 74
     1
 91
        0
 64
     7
 65
   257
 75
     1
175
     1
 42
1.0
 92
        8
 66
     7
 43
1.0
 76
     1
 77
     6
 78
     2
 67
     7
 79
     3
170
     0
171
     0
290
     0
174
     0
 93
       13
 44
0.0
173
     0
291
     0
 45
0.0
1001
ACAD
1000
AcDbSavedByObjectVersion
1070
     0
  0
DICTIONARYVAR
  5
428
102
{ACAD_REACTORS
330
4E
102
}
330
4E
100
DictionaryVariables
280
     0
  1
1:1
  0
DICTIONARYVAR
  5
468
102
{ACAD_REACTORS
330
4E
102
}
330
4E
100
DictionaryVariables
280
     0
  1
Standard
  0
DICTIONARYVAR
  5
467
102
{ACAD_REACTORS
330
4E
102
}
330
4E
100
DictionaryVariables
280
     0
  1
Standard
  0
DICTIONARYVAR
  5
4F
102
{ACAD_REACTORS
330
4E
102
}
330
4E
100
DictionaryVariables
280
     0
  1
1
  0
DICTIONARYVAR
  5
469
102
{ACAD_REACTORS
330
4E
102
}
330
4E
100
DictionaryVariables
280
     0
  1
0
  0
DICTIONARYVAR
  5
429
102
{ACAD_REACTORS
330
4E
102
}
330
4E
100
DictionaryVariables
280
     0
  1
2
  0
DICTIONARY
  5
45C
330
93
100
AcDbDictionary
280
     1
281
     1
  3
ACAD_XREC_ROUNDTRIP
360
45D
  0
DICTIONARY
  5
45A
330
92
100
AcDbDictionary
280
     1
281
     1
  3
ACAD_XREC_ROUNDTRIP
360
45B
  0
DICTIONARY
  5
45E
330
94
100
AcDbDictionary
280
     1
281
     1
  3
ACAD_XREC_ROUNDTRIP
360
45F
  0
DICTIONARY
  5
464
330
98
100
AcDbDictionary
280
     1
281
     1
  3
ACAD_XREC_ROUNDTRIP
360
465
  0
DICTIONARY
  5
460
330
96
100
AcDbDictionary
280
     1
281
     1
  3
ACAD_ROUNDTRIP_2008_TABLESTYLE_CELLSTYLEMAP
360
462
  3
ACAD_XREC_ROUNDTRIP
360
461
  0
DICTIONARY
  5
432
330
5B
100
AcDbDictionary
280
     1
281
     1
  3
ACAD_XREC_ROUNDTRIP
360
433
  0
DICTIONARY
  5
438
330
5E
100
AcDbDictionary
280
     1
281
     1
  3
ACAD_XREC_ROUNDTRIP
360
439
  0
DICTIONARY
  5
440
330
62
100
AcDbDictionary
280
     1
281
     1
  3
ACAD_XREC_ROUNDTRIP
360
441
  0
DICTIONARY
  5
448
330
66
100
AcDbDictionary
280
     1
281
     1
  3
ACAD_XREC_ROUNDTRIP
360
449
  0
DICTIONARY
  5
43C
330
60
100
AcDbDictionary
280
     1
281
     1
  3
ACAD_XREC_ROUNDTRIP
360
43D
  0
DICTIONARY
  5
43E
330
61
100
AcDbDictionary
280
     1
281
     1
  3
ACAD_XREC_ROUNDTRIP
360
43F
  0
DICTIONARY
  5
44E
330
69
100
AcDbDictionary
280
     1
281
     1
  3
ACAD_XREC_ROUNDTRIP
360
44F
  0
DICTIONARY
  5
446
330
65
100
AcDbDictionary
280
     1
281
     1
  3
ACAD_XREC_ROUNDTRIP
360
447
  0
DICTIONARY
  5
42A
330
57
100
AcDbDictionary
280
     1
281
     1
  3
ACAD_XREC_ROUNDTRIP
360
42B
  0
DICTIONARY
  5
42C
330
58
100
AcDbDictionary
280
     1
281
     1
  3
ACAD_XREC_ROUNDTRIP
360
42D
  0
DICTIONARY
  5
42E
330
59
100
AcDbDictionary
280
     1
281
     1
  3
ACAD_XREC_ROUNDTRIP
360
42F
  0
DICTIONARY
  5
430
330
5A
100
AcDbDictionary
280
     1
281
     1
  3
ACAD_XREC_ROUNDTRIP
360
431
  0
DICTIONARY
  5
436
330
5D
100
AcDbDictionary
280
     1
281
     1
  3
ACAD_XREC_ROUNDTRIP
360
437
  0
DICTIONARY
  5
44A
330
67
100
AcDbDictionary
280
     1
281
     1
  3
ACAD_XREC_ROUNDTRIP
360
44B
  0
DICTIONARY
  5
444
330
64
100
AcDbDictionary
280
     1
281
     1
  3
ACAD_XREC_ROUNDTRIP
360
445
  0
DICTIONARY
  5
44C
330
68
100
AcDbDictionary
280
     1
281
     1
  3
ACAD_XREC_ROUNDTRIP
360
44D
  0
DICTIONARY
  5
43A
330
5F
100
AcDbDictionary
280
     1
281
     1
  3
ACAD_XREC_ROUNDTRIP
360
43B
  0
DICTIONARY
  5
458
330
6E
100
AcDbDictionary
280
     1
281
     1
  3
ACAD_XREC_ROUNDTRIP
360
459
  0
DICTIONARY
  5
456
330
6D
100
AcDbDictionary
280
     1
281
     1
  3
ACAD_XREC_ROUNDTRIP
360
457
  0
DICTIONARY
  5
450
330
6A
100
AcDbDictionary
280
     1
281
     1
  3
ACAD_XREC_ROUNDTRIP
360
451
  0
DICTIONARY
  5
452
330
6B
100
AcDbDictionary
280
     1
281
     1
  3
ACAD_XREC_ROUNDTRIP
360
453
  0
DICTIONARY
  5
442
330
63
100
AcDbDictionary
280
     1
281
     1
  3
ACAD_XREC_ROUNDTRIP
360
443
  0
DICTIONARY
  5
434
330
5C
100
AcDbDictionary
280
     1
281
     1
  3
ACAD_XREC_ROUNDTRIP
360
435
  0
DICTIONARY
  5
454
330
6C
100
AcDbDictionary
280
     1
281
     1
  3
ACAD_XREC_ROUNDTRIP
360
455
  0
XRECORD
  5
45D
102
{ACAD_REACTORS
330
45C
102
}
330
45C
100
AcDbXrecord
280
     1
102
MATERIAL
148
0.0
149
0.0
149
0.0
 93
        0
 94
      127
282
     0
 72
     1
 77
     1
171
     1
175
     1
179
     1
273
     0
  0
XRECORD
  5
45B
102
{ACAD_REACTORS
330
45A
102
}
330
45A
100
AcDbXrecord
280
     1
102
MATERIAL
148
0.0
149
0.0
149
0.0
 93
        0
 94
      127
282
     0
 72
     1
 77
     1
171
     1
175
     1
179
     1
273
     0
  0
XRECORD
  5
45F
102
{ACAD_REACTORS
330
45E
102
}
330
45E
100
AcDbXrecord
280
     1
102
MATERIAL
148
0.0
149
0.0
149
0.0
 93
        0
 94
      127
282
     0
 72
     1
 77
     1
171
     1
175
     1
179
     1
273
     0
  0
XRECORD
  5
465
102
{ACAD_REACTORS
330
464
102
}
330
464
100
AcDbXrecord
280
     1
102
ACAD_ROUNDTRIP_2010_MLEADER_STYLE
  0
CELLSTYLEMAP
  5
462
102
{ACAD_REACTORS
330
460
102
}
330
460
100
AcDbCellStyleMap
 90
        3
300
CELLSTYLE
  1
TABLEFORMAT_BEGIN
 90
        5
170
     1
 91
        0
 92
    32768
 62
   257
 93
        1
300
CONTENTFORMAT
  1
CONTENTFORMAT_BEGIN
 90
        0
 91
        0
 92
        4
 93
        0
300

 40
0.0
140
1.0
 94
        5
 62
     0
340
11
144
0.25
309
CONTENTFORMAT_END
171
     1
301
MARGIN
  1
CELLMARGIN_BEGIN
 40
0.06
 40
0.06
 40
0.06
 40
0.06
 40
0.06
 40
0.06
309
CELLMARGIN_END
 94
        6
 95
        1
302
GRIDFORMAT
  1
GRIDFORMAT_BEGIN
 90
        0
 91
        1
 62
     0
 92
       -2
340
14
 93
        0
 40
0.045
309
GRIDFORMAT_END
 95
        2
302
GRIDFORMAT
  1
GRIDFORMAT_BEGIN
 90
        0
 91
        1
 62
     0
 92
       -2
340
14
 93
        0
 40
0.045
309
GRIDFORMAT_END
 95
        4
302
GRIDFORMAT
  1
GRIDFORMAT_BEGIN
 90
        0
 91
        1
 62
     0
 92
       -2
340
14
 93
        0
 40
0.045
309
GRIDFORMAT_END
 95
        8
302
GRIDFORMAT
  1
GRIDFORMAT_BEGIN
 90
        0
 91
        1
 62
     0
 92
       -2
340
14
 93
        0
 40
0.045
309
GRIDFORMAT_END
 95
       16
302
GRIDFORMAT
  1
GRIDFORMAT_BEGIN
 90
        0
 91
        1
 62
     0
 92
       -2
340
14
 93
        0
 40
0.045
309
GRIDFORMAT_END
 95
       32
302
GRIDFORMAT
  1
GRIDFORMAT_BEGIN
 90
        0
 91
        1
 62
     0
 92
       -2
340
14
 93
        0
 40
0.045
309
GRIDFORMAT_END
309
TABLEFORMAT_END
  1
CELLSTYLE_BEGIN
 90
        1
 91
        1
300
_TITLE
309
CELLSTYLE_END
300
CELLSTYLE
  1
TABLEFORMAT_BEGIN
 90
        5
170
     1
 91
        0
 92
        0
 62
   257
 93
        1
300
CONTENTFORMAT
  1
CONTENTFORMAT_BEGIN
 90
        0
 91
        0
 92
        4
 93
        0
300

 40
0.0
140
1.0
 94
        5
 62
     0
340
11
144
0.18
309
CONTENTFORMAT_END
171
     1
301
MARGIN
  1
CELLMARGIN_BEGIN
 40
0.06
 40
0.06
 40
0.06
 40
0.06
 40
0.06
 40
0.06
309
CELLMARGIN_END
 94
        6
 95
        1
302
GRIDFORMAT
  1
GRIDFORMAT_BEGIN
 90
        0
 91
        1
 62
     0
 92
       -2
340
14
 93
        0
 40
0.045
309
GRIDFORMAT_END
 95
        2
302
GRIDFORMAT
  1
GRIDFORMAT_BEGIN
 90
        0
 91
        1
 62
     0
 92
       -2
340
14
 93
        0
 40
0.045
309
GRIDFORMAT_END
 95
        4
302
GRIDFORMAT
  1
GRIDFORMAT_BEGIN
 90
        0
 91
        1
 62
     0
 92
       -2
340
14
 93
        0
 40
0.045
309
GRIDFORMAT_END
 95
        8
302
GRIDFORMAT
  1
GRIDFORMAT_BEGIN
 90
        0
 91
        1
 62
     0
 92
       -2
340
14
 93
        0
 40
0.045
309
GRIDFORMAT_END
 95
       16
302
GRIDFORMAT
  1
GRIDFORMAT_BEGIN
 90
        0
 91
        1
 62
     0
 92
       -2
340
14
 93
        0
 40
0.045
309
GRIDFORMAT_END
 95
       32
302
GRIDFORMAT
  1
GRIDFORMAT_BEGIN
 90
        0
 91
        1
 62
     0
 92
       -2
340
14
 93
        0
 40
0.045
309
GRIDFORMAT_END
309
TABLEFORMAT_END
  1
CELLSTYLE_BEGIN
 90
        2
 91
        1
300
_HEADER
309
CELLSTYLE_END
300
CELLSTYLE
  1
TABLEFORMAT_BEGIN
 90
        5
170
     1
 91
        0
 92
        0
 62
   257
 93
        1
300
CONTENTFORMAT
  1
CONTENTFORMAT_BEGIN
 90
        0
 91
        0
 92
        4
 93
        0
300

 40
0.0
140
1.0
 94
        2
 62
     0
340
11
144
0.18
309
CONTENTFORMAT_END
171
     1
301
MARGIN
  1
CELLMARGIN_BEGIN
 40
0.06
 40
0.06
 40
0.06
 40
0.06
 40
0.06
 40
0.06
309
CELLMARGIN_END
 94
        6
 95
        1
302
GRIDFORMAT
  1
GRIDFORMAT_BEGIN
 90
        0
 91
        1
 62
     0
 92
       -2
340
14
 93
        0
 40
0.045
309
GRIDFORMAT_END
 95
        2
302
GRIDFORMAT
  1
GRIDFORMAT_BEGIN
 90
        0
 91
        1
 62
     0
 92
       -2
340
14
 93
        0
 40
0.045
309
GRIDFORMAT_END
 95
        4
302
GRIDFORMAT
  1
GRIDFORMAT_BEGIN
 90
        0
 91
        1
 62
     0
 92
       -2
340
14
 93
        0
 40
0.045
309
GRIDFORMAT_END
 95
        8
302
GRIDFORMAT
  1
GRIDFORMAT_BEGIN
 90
        0
 91
        1
 62
     0
 92
       -2
340
14
 93
        0
 40
0.045
309
GRIDFORMAT_END
 95
       16
302
GRIDFORMAT
  1
GRIDFORMAT_BEGIN
 90
        0
 91
        1
 62
     0
 92
       -2
340
14
 93
        0
 40
0.045
309
GRIDFORMAT_END
 95
       32
302
GRIDFORMAT
  1
GRIDFORMAT_BEGIN
 90
        0
 91
        1
 62
     0
 92
       -2
340
14
 93
        0
 40
0.045
309
GRIDFORMAT_END
309
TABLEFORMAT_END
  1
CELLSTYLE_BEGIN
 90
        3
 91
        2
300
_DATA
309
CELLSTYLE_END
  0
XRECORD
  5
461
102
{ACAD_REACTORS
330
460
102
}
330
460
100
AcDbXrecord
280
     1
102
ACAD_ROUNDTRIP_PRE2007_TABLESTYLE
 90
        4
 91
        0
  1

 92
        4
 93
        0
  2

 94
        4
 95
        0
  3

  0
XRECORD
  5
433
102
{ACAD_REACTORS
330
432
102
}
330
432
100
AcDbXrecord
280
     1
102
RTVSPropertyOp0
 70
     1
102
RTVSPropertyOp1
 70
     1
102
RTVSPropertyOp2
 70
     1
102
RTVSPropertyOp3
 70
     1
102
RTVSPropertyOp4
 70
     1
102
RTVSPropertyOp5
 70
     1
102
RTVSPropertyOp6
 70
     1
102
RTVSPropertyOp7
 70
     1
102
RTVSPropertyOp8
 70
     1
102
RTVSPropertyOp9
 70
     1
102
RTVSPropertyOp10
 70
     1
102
RTVSPropertyOp11
 70
     1
102
RTVSPropertyOp12
 70
     1
102
RTVSPropertyOp13
 70
     1
102
RTVSPropertyOp14
 70
     1
102
RTVSPropertyOp15
 70
     1
102
RTVSPropertyOp16
 70
     1
102
RTVSPropertyOp17
 70
     1
102
RTVSPropertyOp18
 70
     1
102
RTVSPropertyOp19
 70
     1
102
RTVSPropertyOp20
 70
     1
102
RTVSPropertyOp21
 70
     1
102
RTVSPropertyOp22
 70
     1
102
RTVSPropertyOp23
 70
     1
102
RTVSPropertyOp24
 70
     1
102
RTVSPropertyOp25
 70
     1
102
RTVSPropertyOp26
 70
     1
102
RTVSPropertyOp27
 70
     1
102
RTVSPropertyOp28
 70
     1
102
RTVSPropertyOp29
 70
     1
102
RTVSPropertyOp30
 70
     1
102
RTVSPropertyOp31
 70
     1
102
RTVSPropertyOp32
 70
     1
102
RTVSPropertyOp33
 70
     1
102
RTVSPropertyOp34
 70
     1
102
RTVSPropertyOp35
 70
     1
102
RTVSPropertyOp36
 70
     1
102
RTVSPropertyOp37
 70
     1
102
RTVSPropertyOp38
 70
     1
102
RTVSPropertyOp39
 70
     1
102
RTVSPropertyOp40
 70
     1
102
RTVSPropertyOp41
 70
     1
102
RTVSPropertyOp42
 70
     1
102
RTVSPropertyOp43
 70
     1
102
RTVSPropertyOp44
 70
     1
102
RTVSPropertyOp45
 70
     1
102
RTVSPropertyOp46
 70
     1
102
RTVSPropertyOp47
 70
     1
102
RTVSPropertyOp48
 70
     1
102
RTVSPropertyOp49
 70
     1
102
RTVSPropertyOp50
 70
     1
102
RTVSPropertyOp51
 70
     0
102
RTVSPropertyOp52
 70
     0
102
RTVSPropertyOp53
 70
     1
102
RTVSPropertyOp54
 70
     1
102
RTVSPropertyOp55
 70
     1
102
RTVSPropertyOp56
 70
     1
102
RTVSPropertyOp57
 70
     1
102
RTVSPost2010Prop28
280
     1
102
RTVSPost2010PropOp28
 70
     1
102
RTVSPost2010Prop29
280
     1
102
RTVSPost2010PropOp29
 70
     1
102
RTVSPost2010Prop30
280
     0
102
RTVSPost2010PropOp30
 70
     1
102
RTVSPost2010Prop31
280
     0
102
RTVSPost2010PropOp31
 70
     1
102
RTVSPost2010Prop32
280
     0
102
RTVSPost2010PropOp32
 70
     1
102
RTVSPost2010Prop33
280
     0
102
RTVSPost2010PropOp33
 70
     1
102
RTVSPost2010Prop34
280
     0
102
RTVSPost2010PropOp34
 70
     1
102
RTVSPost2010Prop35
280
     0
102
RTVSPost2010PropOp35
 70
     1
102
RTVSPost2010Prop36
280
     0
102
RTVSPost2010PropOp36
 70
     1
102
RTVSPost2010Prop37
 90
       50
102
RTVSPost2010PropOp37
 70
     1
102
RTVSPost2010Prop38
140
0.0
102
RTVSPost2010PropOp38
 70
     1
102
RTVSPost2010Prop39
140
1.0
102
RTVSPost2010PropOp39
 70
     1
102
RTVSPost2010Prop40
 90
        0
102
RTVSPost2010PropOp40
 70
     1
102
RTVSPost2010Prop41ColorIndex
 90
       18
102
RTVSPost2010Prop41ColorRGB
 90
        0
102
RTVSPost2010PropOp41
 70
     1
102
RTVSPost2010Prop42
 90
       50
102
RTVSPost2010PropOp42
 70
     1
102
RTVSPost2010Prop43
 90
        3
102
RTVSPost2010PropOp43
 70
     1
102
RTVSPost2010Prop44ColorIndex
 90
        5
102
RTVSPost2010Prop44ColorRGB
 90
      255
102
RTVSPost2010PropOp44
 70
     1
102
RTVSPost2010Prop45
280
     0
102
RTVSPost2010PropOp45
 70
     1
102
RTVSPost2010Prop46
 90
       50
102
RTVSPost2010PropOp46
 70
     1
102
RTVSPost2010Prop47
 90
       50
102
RTVSPost2010PropOp47
 70
     1
102
RTVSPost2010Prop48
 90
       50
102
RTVSPost2010PropOp48
 70
     1
102
RTVSPost2010Prop49
280
     0
102
RTVSPost2010PropOp49
 70
     1
102
RTVSPost2010Prop50
 90
       50
102
RTVSPost2010PropOp50
 70
     1
102
RTVSPost2010Prop51ColorIndex
 90
      256
102
RTVSPost2010Prop51ColorRGB
 90
-16777216
102
RTVSPost2010PropOp51
 70
     0
102
RTVSPost2010Prop52
140
1.0
102
RTVSPost2010PropOp52
 70
     0
102
RTVSPost2010Prop53
 90
        2
102
RTVSPost2010PropOp53
 70
     1
102
RTVSPost2010Prop54
  1
strokes_ogs.tif
102
RTVSPost2010PropOp54
 70
     1
102
RTVSPost2010Prop55
280
     0
102
RTVSPost2010PropOp55
 70
     1
102
RTVSPost2010Prop56
140
1.0
102
RTVSPost2010PropOp56
 70
     1
102
RTVSPost2010Prop57
140
1.0
102
RTVSPost2010PropOp57
 70
     1
  0
XRECORD
  5
439
102
{ACAD_REACTORS
330
438
102
}
330
438
100
AcDbXrecord
280
     1
102
RTVSPropertyOp0
 70
     1
102
RTVSPropertyOp1
 70
     1
102
RTVSPropertyOp2
 70
     1
102
RTVSPropertyOp3
 70
     1
102
RTVSPropertyOp4
 70
     1
102
RTVSPropertyOp5
 70
     1
102
RTVSPropertyOp6
 70
     1
102
RTVSPropertyOp7
 70
     1
102
RTVSPropertyOp8
 70
     1
102
RTVSPropertyOp9
 70
     1
102
RTVSPropertyOp10
 70
     1
102
RTVSPropertyOp11
 70
     1
102
RTVSPropertyOp12
 70
     1
102
RTVSPropertyOp13
 70
     1
102
RTVSPropertyOp14
 70
     1
102
RTVSPropertyOp15
 70
     1
102
RTVSPropertyOp16
 70
     1
102
RTVSPropertyOp17
 70
     1
102
RTVSPropertyOp18
 70
     1
102
RTVSPropertyOp19
 70
     1
102
RTVSPropertyOp20
 70
     1
102
RTVSPropertyOp21
 70
     1
102
RTVSPropertyOp22
 70
     1
102
RTVSPropertyOp23
 70
     1
102
RTVSPropertyOp24
 70
     1
102
RTVSPropertyOp25
 70
     1
102
RTVSPropertyOp26
 70
     1
102
RTVSPropertyOp27
 70
     1
102
RTVSPropertyOp28
 70
     1
102
RTVSPropertyOp29
 70
     1
102
RTVSPropertyOp30
 70
     1
102
RTVSPropertyOp31
 70
     1
102
RTVSPropertyOp32
 70
     1
102
RTVSPropertyOp33
 70
     1
102
RTVSPropertyOp34
 70
     1
102
RTVSPropertyOp35
 70
     1
102
RTVSPropertyOp36
 70
     1
102
RTVSPropertyOp37
 70
     1
102
RTVSPropertyOp38
 70
     1
102
RTVSPropertyOp39
 70
     1
102
RTVSPropertyOp40
 70
     1
102
RTVSPropertyOp41
 70
     1
102
RTVSPropertyOp42
 70
     1
102
RTVSPropertyOp43
 70
     1
102
RTVSPropertyOp44
 70
     1
102
RTVSPropertyOp45
 70
     1
102
RTVSPropertyOp46
 70
     1
102
RTVSPropertyOp47
 70
     1
102
RTVSPropertyOp48
 70
     1
102
RTVSPropertyOp49
 70
     1
102
RTVSPropertyOp50
 70
     1
102
RTVSPropertyOp51
 70
     0
102
RTVSPropertyOp52
 70
     0
102
RTVSPropertyOp53
 70
     1
102
RTVSPropertyOp54
 70
     1
102
RTVSPropertyOp55
 70
     1
102
RTVSPropertyOp56
 70
     1
102
RTVSPropertyOp57
 70
     1
102
RTVSPost2010Prop28
280
     0
102
RTVSPost2010PropOp28
 70
     1
102
RTVSPost2010Prop29
280
     1
102
RTVSPost2010PropOp29
 70
     1
102
RTVSPost2010Prop30
280
     1
102
RTVSPost2010PropOp30
 70
     1
102
RTVSPost2010Prop31
280
     0
102
RTVSPost2010PropOp31
 70
     1
102
RTVSPost2010Prop32
280
     0
102
RTVSPost2010PropOp32
 70
     1
102
RTVSPost2010Prop33
280
     0
102
RTVSPost2010PropOp33
 70
     1
102
RTVSPost2010Prop34
280
     0
102
RTVSPost2010PropOp34
 70
     1
102
RTVSPost2010Prop35
280
     0
102
RTVSPost2010PropOp35
 70
     1
102
RTVSPost2010Prop36
280
     0
102
RTVSPost2010PropOp36
 70
     1
102
RTVSPost2010Prop37
 90
       50
102
RTVSPost2010PropOp37
 70
     1
102
RTVSPost2010Prop38
140
0.0
102
RTVSPost2010PropOp38
 70
     1
102
RTVSPost2010Prop39
140
1.0
102
RTVSPost2010PropOp39
 70
     1
102
RTVSPost2010Prop40
 90
        0
102
RTVSPost2010PropOp40
 70
     1
102
RTVSPost2010Prop41ColorIndex
 90
       18
102
RTVSPost2010Prop41ColorRGB
 90
        0
102
RTVSPost2010PropOp41
 70
     1
102
RTVSPost2010Prop42
 90
       50
102
RTVSPost2010PropOp42
 70
     1
102
RTVSPost2010Prop43
 90
        3
102
RTVSPost2010PropOp43
 70
     1
102
RTVSPost2010Prop44ColorIndex
 90
        5
102
RTVSPost2010Prop44ColorRGB
 90
      255
102
RTVSPost2010PropOp44
 70
     1
102
RTVSPost2010Prop45
280
     0
102
RTVSPost2010PropOp45
 70
     1
102
RTVSPost2010Prop46
 90
       50
102
RTVSPost2010PropOp46
 70
     1
102
RTVSPost2010Prop47
 90
       50
102
RTVSPost2010PropOp47
 70
     1
102
RTVSPost2010Prop48
 90
       50
102
RTVSPost2010PropOp48
 70
     1
102
RTVSPost2010Prop49
280
     0
102
RTVSPost2010PropOp49
 70
     1
102
RTVSPost2010Prop50
 90
       50
102
RTVSPost2010PropOp50
 70
     1
102
RTVSPost2010Prop51ColorIndex
 90
      256
102
RTVSPost2010Prop51ColorRGB
 90
-16777216
102
RTVSPost2010PropOp51
 70
     0
102
RTVSPost2010Prop52
140
1.0
102
RTVSPost2010PropOp52
 70
     0
102
RTVSPost2010Prop53
 90
        2
102
RTVSPost2010PropOp53
 70
     1
102
RTVSPost2010Prop54
  1
strokes_ogs.tif
102
RTVSPost2010PropOp54
 70
     1
102
RTVSPost2010Prop55
280
     0
102
RTVSPost2010PropOp55
 70
     1
102
RTVSPost2010Prop56
140
1.0
102
RTVSPost2010PropOp56
 70
     1
102
RTVSPost2010Prop57
140
1.0
102
RTVSPost2010PropOp57
 70
     1
  0
XRECORD
  5
441
102
{ACAD_REACTORS
330
440
102
}
330
440
100
AcDbXrecord
280
     1
102
RTVSPropertyOp0
 70
     1
102
RTVSPropertyOp1
 70
     1
102
RTVSPropertyOp2
 70
     1
102
RTVSPropertyOp3
 70
     1
102
RTVSPropertyOp4
 70
     1
102
RTVSPropertyOp5
 70
     1
102
RTVSPropertyOp6
 70
     1
102
RTVSPropertyOp7
 70
     1
102
RTVSPropertyOp8
 70
     1
102
RTVSPropertyOp9
 70
     1
102
RTVSPropertyOp10
 70
     1
102
RTVSPropertyOp11
 70
     1
102
RTVSPropertyOp12
 70
     1
102
RTVSPropertyOp13
 70
     1
102
RTVSPropertyOp14
 70
     1
102
RTVSPropertyOp15
 70
     1
102
RTVSPropertyOp16
 70
     1
102
RTVSPropertyOp17
 70
     1
102
RTVSPropertyOp18
 70
     1
102
RTVSPropertyOp19
 70
     1
102
RTVSPropertyOp20
 70
     1
102
RTVSPropertyOp21
 70
     1
102
RTVSPropertyOp22
 70
     1
102
RTVSPropertyOp23
 70
     1
102
RTVSPropertyOp24
 70
     1
102
RTVSPropertyOp25
 70
     1
102
RTVSPropertyOp26
 70
     1
102
RTVSPropertyOp27
 70
     1
102
RTVSPropertyOp28
 70
     1
102
RTVSPropertyOp29
 70
     1
102
RTVSPropertyOp30
 70
     1
102
RTVSPropertyOp31
 70
     1
102
RTVSPropertyOp32
 70
     1
102
RTVSPropertyOp33
 70
     1
102
RTVSPropertyOp34
 70
     1
102
RTVSPropertyOp35
 70
     1
102
RTVSPropertyOp36
 70
     1
102
RTVSPropertyOp37
 70
     1
102
RTVSPropertyOp38
 70
     1
102
RTVSPropertyOp39
 70
     1
102
RTVSPropertyOp40
 70
     1
102
RTVSPropertyOp41
 70
     1
102
RTVSPropertyOp42
 70
     1
102
RTVSPropertyOp43
 70
     1
102
RTVSPropertyOp44
 70
     1
102
RTVSPropertyOp45
 70
     1
102
RTVSPropertyOp46
 70
     1
102
RTVSPropertyOp47
 70
     1
102
RTVSPropertyOp48
 70
     1
102
RTVSPropertyOp49
 70
     1
102
RTVSPropertyOp50
 70
     1
102
RTVSPropertyOp51
 70
     0
102
RTVSPropertyOp52
 70
     0
102
RTVSPropertyOp53
 70
     1
102
RTVSPropertyOp54
 70
     1
102
RTVSPropertyOp55
 70
     1
102
RTVSPropertyOp56
 70
     1
102
RTVSPropertyOp57
 70
     1
102
RTVSPost2010Prop28
280
     0
102
RTVSPost2010PropOp28
 70
     1
102
RTVSPost2010Prop29
280
     1
102
RTVSPost2010PropOp29
 70
     1
102
RTVSPost2010Prop30
280
     1
102
RTVSPost2010PropOp30
 70
     1
102
RTVSPost2010Prop31
280
     0
102
RTVSPost2010PropOp31
 70
     1
102
RTVSPost2010Prop32
280
     0
102
RTVSPost2010PropOp32
 70
     1
102
RTVSPost2010Prop33
280
     0
102
RTVSPost2010PropOp33
 70
     1
102
RTVSPost2010Prop34
280
     0
102
RTVSPost2010PropOp34
 70
     1
102
RTVSPost2010Prop35
280
     0
102
RTVSPost2010PropOp35
 70
     1
102
RTVSPost2010Prop36
280
     0
102
RTVSPost2010PropOp36
 70
     1
102
RTVSPost2010Prop37
 90
       50
102
RTVSPost2010PropOp37
 70
     1
102
RTVSPost2010Prop38
140
0.0
102
RTVSPost2010PropOp38
 70
     1
102
RTVSPost2010Prop39
140
1.0
102
RTVSPost2010PropOp39
 70
     1
102
RTVSPost2010Prop40
 90
        0
102
RTVSPost2010PropOp40
 70
     1
102
RTVSPost2010Prop41ColorIndex
 90
       18
102
RTVSPost2010Prop41ColorRGB
 90
        0
102
RTVSPost2010PropOp41
 70
     1
102
RTVSPost2010Prop42
 90
       50
102
RTVSPost2010PropOp42
 70
     1
102
RTVSPost2010Prop43
 90
        3
102
RTVSPost2010PropOp43
 70
     1
102
RTVSPost2010Prop44ColorIndex
 90
        5
102
RTVSPost2010Prop44ColorRGB
 90
      255
102
RTVSPost2010PropOp44
 70
     1
102
RTVSPost2010Prop45
280
     0
102
RTVSPost2010PropOp45
 70
     1
102
RTVSPost2010Prop46
 90
       50
102
RTVSPost2010PropOp46
 70
     1
102
RTVSPost2010Prop47
 90
       50
102
RTVSPost2010PropOp47
 70
     1
102
RTVSPost2010Prop48
 90
       50
102
RTVSPost2010PropOp48
 70
     1
102
RTVSPost2010Prop49
280
     0
102
RTVSPost2010PropOp49
 70
     1
102
RTVSPost2010Prop50
 90
       50
102
RTVSPost2010PropOp50
 70
     1
102
RTVSPost2010Prop51ColorIndex
 90
      256
102
RTVSPost2010Prop51ColorRGB
 90
-16777216
102
RTVSPost2010PropOp51
 70
     0
102
RTVSPost2010Prop52
140
1.0
102
RTVSPost2010PropOp52
 70
     0
102
RTVSPost2010Prop53
 90
        2
102
RTVSPost2010PropOp53
 70
     1
102
RTVSPost2010Prop54
  1
strokes_ogs.tif
102
RTVSPost2010PropOp54
 70
     1
102
RTVSPost2010Prop55
280
     0
102
RTVSPost2010PropOp55
 70
     1
102
RTVSPost2010Prop56
140
1.0
102
RTVSPost2010PropOp56
 70
     1
102
RTVSPost2010Prop57
140
1.0
102
RTVSPost2010PropOp57
 70
     1
  0
XRECORD
  5
449
102
{ACAD_REACTORS
330
448
102
}
330
448
100
AcDbXrecord
280
     1
102
RTVSPropertyOp0
 70
     1
102
RTVSPropertyOp1
 70
     1
102
RTVSPropertyOp2
 70
     1
102
RTVSPropertyOp3
 70
     1
102
RTVSPropertyOp4
 70
     1
102
RTVSPropertyOp5
 70
     1
102
RTVSPropertyOp6
 70
     1
102
RTVSPropertyOp7
 70
     1
102
RTVSPropertyOp8
 70
     1
102
RTVSPropertyOp9
 70
     1
102
RTVSPropertyOp10
 70
     1
102
RTVSPropertyOp11
 70
     1
102
RTVSPropertyOp12
 70
     1
102
RTVSPropertyOp13
 70
     1
102
RTVSPropertyOp14
 70
     1
102
RTVSPropertyOp15
 70
     1
102
RTVSPropertyOp16
 70
     1
102
RTVSPropertyOp17
 70
     1
102
RTVSPropertyOp18
 70
     1
102
RTVSPropertyOp19
 70
     1
102
RTVSPropertyOp20
 70
     1
102
RTVSPropertyOp21
 70
     1
102
RTVSPropertyOp22
 70
     1
102
RTVSPropertyOp23
 70
     1
102
RTVSPropertyOp24
 70
     1
102
RTVSPropertyOp25
 70
     1
102
RTVSPropertyOp26
 70
     1
102
RTVSPropertyOp27
 70
     1
102
RTVSPropertyOp28
 70
     1
102
RTVSPropertyOp29
 70
     1
102
RTVSPropertyOp30
 70
     1
102
RTVSPropertyOp31
 70
     1
102
RTVSPropertyOp32
 70
     1
102
RTVSPropertyOp33
 70
     1
102
RTVSPropertyOp34
 70
     1
102
RTVSPropertyOp35
 70
     1
102
RTVSPropertyOp36
 70
     1
102
RTVSPropertyOp37
 70
     1
102
RTVSPropertyOp38
 70
     1
102
RTVSPropertyOp39
 70
     1
102
RTVSPropertyOp40
 70
     1
102
RTVSPropertyOp41
 70
     1
102
RTVSPropertyOp42
 70
     1
102
RTVSPropertyOp43
 70
     1
102
RTVSPropertyOp44
 70
     1
102
RTVSPropertyOp45
 70
     1
102
RTVSPropertyOp46
 70
     1
102
RTVSPropertyOp47
 70
     1
102
RTVSPropertyOp48
 70
     1
102
RTVSPropertyOp49
 70
     1
102
RTVSPropertyOp50
 70
     1
102
RTVSPropertyOp51
 70
     0
102
RTVSPropertyOp52
 70
     0
102
RTVSPropertyOp53
 70
     1
102
RTVSPropertyOp54
 70
     1
102
RTVSPropertyOp55
 70
     1
102
RTVSPropertyOp56
 70
     1
102
RTVSPropertyOp57
 70
     1
102
RTVSPost2010Prop28
280
     0
102
RTVSPost2010PropOp28
 70
     1
102
RTVSPost2010Prop29
280
     1
102
RTVSPost2010PropOp29
 70
     1
102
RTVSPost2010Prop30
280
     1
102
RTVSPost2010PropOp30
 70
     1
102
RTVSPost2010Prop31
280
     0
102
RTVSPost2010PropOp31
 70
     1
102
RTVSPost2010Prop32
280
     0
102
RTVSPost2010PropOp32
 70
     1
102
RTVSPost2010Prop33
280
     0
102
RTVSPost2010PropOp33
 70
     1
102
RTVSPost2010Prop34
280
     0
102
RTVSPost2010PropOp34
 70
     1
102
RTVSPost2010Prop35
280
     0
102
RTVSPost2010PropOp35
 70
     1
102
RTVSPost2010Prop36
280
     0
102
RTVSPost2010PropOp36
 70
     1
102
RTVSPost2010Prop37
 90
       50
102
RTVSPost2010PropOp37
 70
     1
102
RTVSPost2010Prop38
140
0.0
102
RTVSPost2010PropOp38
 70
     1
102
RTVSPost2010Prop39
140
1.0
102
RTVSPost2010PropOp39
 70
     1
102
RTVSPost2010Prop40
 90
        0
102
RTVSPost2010PropOp40
 70
     1
102
RTVSPost2010Prop41ColorIndex
 90
       18
102
RTVSPost2010Prop41ColorRGB
 90
        0
102
RTVSPost2010PropOp41
 70
     1
102
RTVSPost2010Prop42
 90
       50
102
RTVSPost2010PropOp42
 70
     1
102
RTVSPost2010Prop43
 90
        3
102
RTVSPost2010PropOp43
 70
     1
102
RTVSPost2010Prop44ColorIndex
 90
        5
102
RTVSPost2010Prop44ColorRGB
 90
      255
102
RTVSPost2010PropOp44
 70
     1
102
RTVSPost2010Prop45
280
     0
102
RTVSPost2010PropOp45
 70
     1
102
RTVSPost2010Prop46
 90
       50
102
RTVSPost2010PropOp46
 70
     1
102
RTVSPost2010Prop47
 90
       50
102
RTVSPost2010PropOp47
 70
     1
102
RTVSPost2010Prop48
 90
       50
102
RTVSPost2010PropOp48
 70
     1
102
RTVSPost2010Prop49
280
     0
102
RTVSPost2010PropOp49
 70
     1
102
RTVSPost2010Prop50
 90
       50
102
RTVSPost2010PropOp50
 70
     1
102
RTVSPost2010Prop51ColorIndex
 90
      256
102
RTVSPost2010Prop51ColorRGB
 90
-16777216
102
RTVSPost2010PropOp51
 70
     0
102
RTVSPost2010Prop52
140
1.0
102
RTVSPost2010PropOp52
 70
     0
102
RTVSPost2010Prop53
 90
        2
102
RTVSPost2010PropOp53
 70
     1
102
RTVSPost2010Prop54
  1
strokes_ogs.tif
102
RTVSPost2010PropOp54
 70
     1
102
RTVSPost2010Prop55
280
     0
102
RTVSPost2010PropOp55
 70
     1
102
RTVSPost2010Prop56
140
1.0
102
RTVSPost2010PropOp56
 70
     1
102
RTVSPost2010Prop57
140
1.0
102
RTVSPost2010PropOp57
 70
     1
  0
XRECORD
  5
43D
102
{ACAD_REACTORS
330
43C
102
}
330
43C
100
AcDbXrecord
280
     1
102
RTVSPropertyOp0
 70
     1
102
RTVSPropertyOp1
 70
     1
102
RTVSPropertyOp2
 70
     1
102
RTVSPropertyOp3
 70
     1
102
RTVSPropertyOp4
 70
     1
102
RTVSPropertyOp5
 70
     1
102
RTVSPropertyOp6
 70
     1
102
RTVSPropertyOp7
 70
     1
102
RTVSPropertyOp8
 70
     1
102
RTVSPropertyOp9
 70
     1
102
RTVSPropertyOp10
 70
     1
102
RTVSPropertyOp11
 70
     1
102
RTVSPropertyOp12
 70
     1
102
RTVSPropertyOp13
 70
     1
102
RTVSPropertyOp14
 70
     1
102
RTVSPropertyOp15
 70
     1
102
RTVSPropertyOp16
 70
     1
102
RTVSPropertyOp17
 70
     1
102
RTVSPropertyOp18
 70
     1
102
RTVSPropertyOp19
 70
     1
102
RTVSPropertyOp20
 70
     1
102
RTVSPropertyOp21
 70
     1
102
RTVSPropertyOp22
 70
     1
102
RTVSPropertyOp23
 70
     1
102
RTVSPropertyOp24
 70
     1
102
RTVSPropertyOp25
 70
     1
102
RTVSPropertyOp26
 70
     1
102
RTVSPropertyOp27
 70
     1
102
RTVSPropertyOp28
 70
     1
102
RTVSPropertyOp29
 70
     1
102
RTVSPropertyOp30
 70
     1
102
RTVSPropertyOp31
 70
     1
102
RTVSPropertyOp32
 70
     1
102
RTVSPropertyOp33
 70
     1
102
RTVSPropertyOp34
 70
     1
102
RTVSPropertyOp35
 70
     1
102
RTVSPropertyOp36
 70
     1
102
RTVSPropertyOp37
 70
     1
102
RTVSPropertyOp38
 70
     1
102
RTVSPropertyOp39
 70
     1
102
RTVSPropertyOp40
 70
     1
102
RTVSPropertyOp41
 70
     1
102
RTVSPropertyOp42
 70
     1
102
RTVSPropertyOp43
 70
     1
102
RTVSPropertyOp44
 70
     1
102
RTVSPropertyOp45
 70
     1
102
RTVSPropertyOp46
 70
     1
102
RTVSPropertyOp47
 70
     1
102
RTVSPropertyOp48
 70
     1
102
RTVSPropertyOp49
 70
     1
102
RTVSPropertyOp50
 70
     1
102
RTVSPropertyOp51
 70
     0
102
RTVSPropertyOp52
 70
     0
102
RTVSPropertyOp53
 70
     1
102
RTVSPropertyOp54
 70
     1
102
RTVSPropertyOp55
 70
     1
102
RTVSPropertyOp56
 70
     1
102
RTVSPropertyOp57
 70
     1
102
RTVSPost2010Prop28
280
     0
102
RTVSPost2010PropOp28
 70
     1
102
RTVSPost2010Prop29
280
     1
102
RTVSPost2010PropOp29
 70
     1
102
RTVSPost2010Prop30
280
     1
102
RTVSPost2010PropOp30
 70
     1
102
RTVSPost2010Prop31
280
     0
102
RTVSPost2010PropOp31
 70
     1
102
RTVSPost2010Prop32
280
     0
102
RTVSPost2010PropOp32
 70
     1
102
RTVSPost2010Prop33
280
     0
102
RTVSPost2010PropOp33
 70
     1
102
RTVSPost2010Prop34
280
     0
102
RTVSPost2010PropOp34
 70
     1
102
RTVSPost2010Prop35
280
     0
102
RTVSPost2010PropOp35
 70
     1
102
RTVSPost2010Prop36
280
     0
102
RTVSPost2010PropOp36
 70
     1
102
RTVSPost2010Prop37
 90
       50
102
RTVSPost2010PropOp37
 70
     1
102
RTVSPost2010Prop38
140
0.0
102
RTVSPost2010PropOp38
 70
     1
102
RTVSPost2010Prop39
140
1.0
102
RTVSPost2010PropOp39
 70
     1
102
RTVSPost2010Prop40
 90
        0
102
RTVSPost2010PropOp40
 70
     1
102
RTVSPost2010Prop41ColorIndex
 90
       18
102
RTVSPost2010Prop41ColorRGB
 90
        0
102
RTVSPost2010PropOp41
 70
     1
102
RTVSPost2010Prop42
 90
       50
102
RTVSPost2010PropOp42
 70
     1
102
RTVSPost2010Prop43
 90
        3
102
RTVSPost2010PropOp43
 70
     1
102
RTVSPost2010Prop44ColorIndex
 90
        5
102
RTVSPost2010Prop44ColorRGB
 90
      255
102
RTVSPost2010PropOp44
 70
     1
102
RTVSPost2010Prop45
280
     0
102
RTVSPost2010PropOp45
 70
     1
102
RTVSPost2010Prop46
 90
       50
102
RTVSPost2010PropOp46
 70
     1
102
RTVSPost2010Prop47
 90
       50
102
RTVSPost2010PropOp47
 70
     1
102
RTVSPost2010Prop48
 90
       50
102
RTVSPost2010PropOp48
 70
     1
102
RTVSPost2010Prop49
280
     0
102
RTVSPost2010PropOp49
 70
     1
102
RTVSPost2010Prop50
 90
       50
102
RTVSPost2010PropOp50
 70
     1
102
RTVSPost2010Prop51ColorIndex
 90
      256
102
RTVSPost2010Prop51ColorRGB
 90
-16777216
102
RTVSPost2010PropOp51
 70
     0
102
RTVSPost2010Prop52
140
1.0
102
RTVSPost2010PropOp52
 70
     0
102
RTVSPost2010Prop53
 90
        2
102
RTVSPost2010PropOp53
 70
     1
102
RTVSPost2010Prop54
  1
strokes_ogs.tif
102
RTVSPost2010PropOp54
 70
     1
102
RTVSPost2010Prop55
280
     0
102
RTVSPost2010PropOp55
 70
     1
102
RTVSPost2010Prop56
140
1.0
102
RTVSPost2010PropOp56
 70
     1
102
RTVSPost2010Prop57
140
1.0
102
RTVSPost2010PropOp57
 70
     1
  0
XRECORD
  5
43F
102
{ACAD_REACTORS
330
43E
102
}
330
43E
100
AcDbXrecord
280
     1
102
RTVSPropertyOp0
 70
     1
102
RTVSPropertyOp1
 70
     1
102
RTVSPropertyOp2
 70
     1
102
RTVSPropertyOp3
 70
     1
102
RTVSPropertyOp4
 70
     1
102
RTVSPropertyOp5
 70
     1
102
RTVSPropertyOp6
 70
     1
102
RTVSPropertyOp7
 70
     1
102
RTVSPropertyOp8
 70
     1
102
RTVSPropertyOp9
 70
     1
102
RTVSPropertyOp10
 70
     1
102
RTVSPropertyOp11
 70
     1
102
RTVSPropertyOp12
 70
     1
102
RTVSPropertyOp13
 70
     1
102
RTVSPropertyOp14
 70
     1
102
RTVSPropertyOp15
 70
     1
102
RTVSPropertyOp16
 70
     1
102
RTVSPropertyOp17
 70
     1
102
RTVSPropertyOp18
 70
     1
102
RTVSPropertyOp19
 70
     1
102
RTVSPropertyOp20
 70
     1
102
RTVSPropertyOp21
 70
     1
102
RTVSPropertyOp22
 70
     1
102
RTVSPropertyOp23
 70
     1
102
RTVSPropertyOp24
 70
     1
102
RTVSPropertyOp25
 70
     1
102
RTVSPropertyOp26
 70
     1
102
RTVSPropertyOp27
 70
     1
102
RTVSPropertyOp28
 70
     1
102
RTVSPropertyOp29
 70
     1
102
RTVSPropertyOp30
 70
     1
102
RTVSPropertyOp31
 70
     1
102
RTVSPropertyOp32
 70
     1
102
RTVSPropertyOp33
 70
     1
102
RTVSPropertyOp34
 70
     1
102
RTVSPropertyOp35
 70
     1
102
RTVSPropertyOp36
 70
     1
102
RTVSPropertyOp37
 70
     1
102
RTVSPropertyOp38
 70
     1
102
RTVSPropertyOp39
 70
     1
102
RTVSPropertyOp40
 70
     1
102
RTVSPropertyOp41
 70
     1
102
RTVSPropertyOp42
 70
     1
102
RTVSPropertyOp43
 70
     1
102
RTVSPropertyOp44
 70
     1
102
RTVSPropertyOp45
 70
     1
102
RTVSPropertyOp46
 70
     1
102
RTVSPropertyOp47
 70
     1
102
RTVSPropertyOp48
 70
     1
102
RTVSPropertyOp49
 70
     1
102
RTVSPropertyOp50
 70
     1
102
RTVSPropertyOp51
 70
     0
102
RTVSPropertyOp52
 70
     0
102
RTVSPropertyOp53
 70
     1
102
RTVSPropertyOp54
 70
     1
102
RTVSPropertyOp55
 70
     1
102
RTVSPropertyOp56
 70
     1
102
RTVSPropertyOp57
 70
     1
102
RTVSPost2010Prop28
280
     0
102
RTVSPost2010PropOp28
 70
     1
102
RTVSPost2010Prop29
280
     1
102
RTVSPost2010PropOp29
 70
     1
102
RTVSPost2010Prop30
280
     1
102
RTVSPost2010PropOp30
 70
     1
102
RTVSPost2010Prop31
280
     0
102
RTVSPost2010PropOp31
 70
     1
102
RTVSPost2010Prop32
280
     0
102
RTVSPost2010PropOp32
 70
     1
102
RTVSPost2010Prop33
280
     0
102
RTVSPost2010PropOp33
 70
     1
102
RTVSPost2010Prop34
280
     0
102
RTVSPost2010PropOp34
 70
     1
102
RTVSPost2010Prop35
280
     0
102
RTVSPost2010PropOp35
 70
     1
102
RTVSPost2010Prop36
280
     0
102
RTVSPost2010PropOp36
 70
     1
102
RTVSPost2010Prop37
 90
       50
102
RTVSPost2010PropOp37
 70
     1
102
RTVSPost2010Prop38
140
0.0
102
RTVSPost2010PropOp38
 70
     1
102
RTVSPost2010Prop39
140
1.0
102
RTVSPost2010PropOp39
 70
     1
102
RTVSPost2010Prop40
 90
        0
102
RTVSPost2010PropOp40
 70
     1
102
RTVSPost2010Prop41ColorIndex
 90
       18
102
RTVSPost2010Prop41ColorRGB
 90
        0
102
RTVSPost2010PropOp41
 70
     1
102
RTVSPost2010Prop42
 90
       50
102
RTVSPost2010PropOp42
 70
     1
102
RTVSPost2010Prop43
 90
        3
102
RTVSPost2010PropOp43
 70
     1
102
RTVSPost2010Prop44ColorIndex
 90
        5
102
RTVSPost2010Prop44ColorRGB
 90
      255
102
RTVSPost2010PropOp44
 70
     1
102
RTVSPost2010Prop45
280
     0
102
RTVSPost2010PropOp45
 70
     1
102
RTVSPost2010Prop46
 90
       50
102
RTVSPost2010PropOp46
 70
     1
102
RTVSPost2010Prop47
 90
       50
102
RTVSPost2010PropOp47
 70
     1
102
RTVSPost2010Prop48
 90
       50
102
RTVSPost2010PropOp48
 70
     1
102
RTVSPost2010Prop49
280
     0
102
RTVSPost2010PropOp49
 70
     1
102
RTVSPost2010Prop50
 90
       50
102
RTVSPost2010PropOp50
 70
     1
102
RTVSPost2010Prop51ColorIndex
 90
      256
102
RTVSPost2010Prop51ColorRGB
 90
-16777216
102
RTVSPost2010PropOp51
 70
     0
102
RTVSPost2010Prop52
140
1.0
102
RTVSPost2010PropOp52
 70
     0
102
RTVSPost2010Prop53
 90
        2
102
RTVSPost2010PropOp53
 70
     1
102
RTVSPost2010Prop54
  1
strokes_ogs.tif
102
RTVSPost2010PropOp54
 70
     1
102
RTVSPost2010Prop55
280
     0
102
RTVSPost2010PropOp55
 70
     1
102
RTVSPost2010Prop56
140
1.0
102
RTVSPost2010PropOp56
 70
     1
102
RTVSPost2010Prop57
140
1.0
102
RTVSPost2010PropOp57
 70
     1
  0
XRECORD
  5
44F
102
{ACAD_REACTORS
330
44E
102
}
330
44E
100
AcDbXrecord
280
     1
102
RTVSPropertyOp0
 70
     0
102
RTVSPropertyOp1
 70
     0
102
RTVSPropertyOp2
 70
     0
102
RTVSPropertyOp3
 70
     0
102
RTVSPropertyOp4
 70
     0
102
RTVSPropertyOp5
 70
     0
102
RTVSPropertyOp6
 70
     0
102
RTVSPropertyOp7
 70
     0
102
RTVSPropertyOp8
 70
     0
102
RTVSPropertyOp9
 70
     0
102
RTVSPropertyOp10
 70
     0
102
RTVSPropertyOp11
 70
     0
102
RTVSPropertyOp12
 70
     0
102
RTVSPropertyOp13
 70
     0
102
RTVSPropertyOp14
 70
     2
102
RTVSPropertyOp15
 70
     0
102
RTVSPropertyOp16
 70
     0
102
RTVSPropertyOp17
 70
     0
102
RTVSPropertyOp18
 70
     0
102
RTVSPropertyOp19
 70
     0
102
RTVSPropertyOp20
 70
     0
102
RTVSPropertyOp21
 70
     0
102
RTVSPropertyOp22
 70
     0
102
RTVSPropertyOp23
 70
     0
102
RTVSPropertyOp24
 70
     0
102
RTVSPropertyOp25
 70
     0
102
RTVSPropertyOp26
 70
     0
102
RTVSPropertyOp27
 70
     0
102
RTVSPropertyOp28
 70
     0
102
RTVSPropertyOp29
 70
     0
102
RTVSPropertyOp30
 70
     0
102
RTVSPropertyOp31
 70
     0
102
RTVSPropertyOp32
 70
     0
102
RTVSPropertyOp33
 70
     0
102
RTVSPropertyOp34
 70
     0
102
RTVSPropertyOp35
 70
     0
102
RTVSPropertyOp36
 70
     0
102
RTVSPropertyOp37
 70
     0
102
RTVSPropertyOp38
 70
     0
102
RTVSPropertyOp39
 70
     0
102
RTVSPropertyOp40
 70
     0
102
RTVSPropertyOp41
 70
     0
102
RTVSPropertyOp42
 70
     0
102
RTVSPropertyOp43
 70
     0
102
RTVSPropertyOp44
 70
     0
102
RTVSPropertyOp45
 70
     0
102
RTVSPropertyOp46
 70
     0
102
RTVSPropertyOp47
 70
     0
102
RTVSPropertyOp48
 70
     0
102
RTVSPropertyOp49
 70
     0
102
RTVSPropertyOp50
 70
     0
102
RTVSPropertyOp51
 70
     0
102
RTVSPropertyOp52
 70
     0
102
RTVSPropertyOp53
 70
     0
102
RTVSPropertyOp54
 70
     0
102
RTVSPropertyOp55
 70
     0
102
RTVSPropertyOp56
 70
     0
102
RTVSPropertyOp57
 70
     0
102
RTVSPost2010Prop28
280
     0
102
RTVSPost2010PropOp28
 70
     0
102
RTVSPost2010Prop29
280
     1
102
RTVSPost2010PropOp29
 70
     0
102
RTVSPost2010Prop30
280
     1
102
RTVSPost2010PropOp30
 70
     0
102
RTVSPost2010Prop31
280
     0
102
RTVSPost2010PropOp31
 70
     0
102
RTVSPost2010Prop32
280
     0
102
RTVSPost2010PropOp32
 70
     0
102
RTVSPost2010Prop33
280
     0
102
RTVSPost2010PropOp33
 70
     0
102
RTVSPost2010Prop34
280
     0
102
RTVSPost2010PropOp34
 70
     0
102
RTVSPost2010Prop35
280
     0
102
RTVSPost2010PropOp35
 70
     0
102
RTVSPost2010Prop36
280
     0
102
RTVSPost2010PropOp36
 70
     0
102
RTVSPost2010Prop37
 90
       50
102
RTVSPost2010PropOp37
 70
     0
102
RTVSPost2010Prop38
140
0.0
102
RTVSPost2010PropOp38
 70
     0
102
RTVSPost2010Prop39
140
1.0
102
RTVSPost2010PropOp39
 70
     0
102
RTVSPost2010Prop40
 90
        0
102
RTVSPost2010PropOp40
 70
     0
102
RTVSPost2010Prop41ColorIndex
 90
       18
102
RTVSPost2010Prop41ColorRGB
 90
        0
102
RTVSPost2010PropOp41
 70
     0
102
RTVSPost2010Prop42
 90
       50
102
RTVSPost2010PropOp42
 70
     0
102
RTVSPost2010Prop43
 90
        3
102
RTVSPost2010PropOp43
 70
     0
102
RTVSPost2010Prop44ColorIndex
 90
        5
102
RTVSPost2010Prop44ColorRGB
 90
      255
102
RTVSPost2010PropOp44
 70
     0
102
RTVSPost2010Prop45
280
     0
102
RTVSPost2010PropOp45
 70
     0
102
RTVSPost2010Prop46
 90
       50
102
RTVSPost2010PropOp46
 70
     0
102
RTVSPost2010Prop47
 90
       50
102
RTVSPost2010PropOp47
 70
     0
102
RTVSPost2010Prop48
 90
       50
102
RTVSPost2010PropOp48
 70
     0
102
RTVSPost2010Prop49
280
     0
102
RTVSPost2010PropOp49
 70
     0
102
RTVSPost2010Prop50
 90
       50
102
RTVSPost2010PropOp50
 70
     0
102
RTVSPost2010Prop51ColorIndex
 90
      256
102
RTVSPost2010Prop51ColorRGB
 90
-16777216
102
RTVSPost2010PropOp51
 70
     0
102
RTVSPost2010Prop52
140
1.0
102
RTVSPost2010PropOp52
 70
     0
102
RTVSPost2010Prop53
 90
        2
102
RTVSPost2010PropOp53
 70
     0
102
RTVSPost2010Prop54
  1
strokes_ogs.tif
102
RTVSPost2010PropOp54
 70
     0
102
RTVSPost2010Prop55
280
     0
102
RTVSPost2010PropOp55
 70
     0
102
RTVSPost2010Prop56
140
1.0
102
RTVSPost2010PropOp56
 70
     0
102
RTVSPost2010Prop57
140
1.0
102
RTVSPost2010PropOp57
 70
     0
  0
XRECORD
  5
447
102
{ACAD_REACTORS
330
446
102
}
330
446
100
AcDbXrecord
280
     1
102
RTVSPropertyOp0
 70
     1
102
RTVSPropertyOp1
 70
     1
102
RTVSPropertyOp2
 70
     1
102
RTVSPropertyOp3
 70
     1
102
RTVSPropertyOp4
 70
     1
102
RTVSPropertyOp5
 70
     1
102
RTVSPropertyOp6
 70
     1
102
RTVSPropertyOp7
 70
     1
102
RTVSPropertyOp8
 70
     1
102
RTVSPropertyOp9
 70
     1
102
RTVSPropertyOp10
 70
     1
102
RTVSPropertyOp11
 70
     1
102
RTVSPropertyOp12
 70
     1
102
RTVSPropertyOp13
 70
     1
102
RTVSPropertyOp14
 70
     1
102
RTVSPropertyOp15
 70
     1
102
RTVSPropertyOp16
 70
     1
102
RTVSPropertyOp17
 70
     1
102
RTVSPropertyOp18
 70
     1
102
RTVSPropertyOp19
 70
     1
102
RTVSPropertyOp20
 70
     1
102
RTVSPropertyOp21
 70
     1
102
RTVSPropertyOp22
 70
     1
102
RTVSPropertyOp23
 70
     1
102
RTVSPropertyOp24
 70
     1
102
RTVSPropertyOp25
 70
     1
102
RTVSPropertyOp26
 70
     1
102
RTVSPropertyOp27
 70
     1
102
RTVSPropertyOp28
 70
     1
102
RTVSPropertyOp29
 70
     1
102
RTVSPropertyOp30
 70
     1
102
RTVSPropertyOp31
 70
     1
102
RTVSPropertyOp32
 70
     1
102
RTVSPropertyOp33
 70
     1
102
RTVSPropertyOp34
 70
     1
102
RTVSPropertyOp35
 70
     1
102
RTVSPropertyOp36
 70
     1
102
RTVSPropertyOp37
 70
     1
102
RTVSPropertyOp38
 70
     1
102
RTVSPropertyOp39
 70
     1
102
RTVSPropertyOp40
 70
     1
102
RTVSPropertyOp41
 70
     1
102
RTVSPropertyOp42
 70
     1
102
RTVSPropertyOp43
 70
     1
102
RTVSPropertyOp44
 70
     1
102
RTVSPropertyOp45
 70
     1
102
RTVSPropertyOp46
 70
     1
102
RTVSPropertyOp47
 70
     1
102
RTVSPropertyOp48
 70
     1
102
RTVSPropertyOp49
 70
     1
102
RTVSPropertyOp50
 70
     1
102
RTVSPropertyOp51
 70
     0
102
RTVSPropertyOp52
 70
     0
102
RTVSPropertyOp53
 70
     1
102
RTVSPropertyOp54
 70
     1
102
RTVSPropertyOp55
 70
     1
102
RTVSPropertyOp56
 70
     1
102
RTVSPropertyOp57
 70
     1
102
RTVSPost2010Prop28
280
     0
102
RTVSPost2010PropOp28
 70
     1
102
RTVSPost2010Prop29
280
     1
102
RTVSPost2010PropOp29
 70
     1
102
RTVSPost2010Prop30
280
     1
102
RTVSPost2010PropOp30
 70
     1
102
RTVSPost2010Prop31
280
     0
102
RTVSPost2010PropOp31
 70
     1
102
RTVSPost2010Prop32
280
     0
102
RTVSPost2010PropOp32
 70
     1
102
RTVSPost2010Prop33
280
     0
102
RTVSPost2010PropOp33
 70
     1
102
RTVSPost2010Prop34
280
     0
102
RTVSPost2010PropOp34
 70
     1
102
RTVSPost2010Prop35
280
     0
102
RTVSPost2010PropOp35
 70
     1
102
RTVSPost2010Prop36
280
     0
102
RTVSPost2010PropOp36
 70
     1
102
RTVSPost2010Prop37
 90
       50
102
RTVSPost2010PropOp37
 70
     1
102
RTVSPost2010Prop38
140
0.0
102
RTVSPost2010PropOp38
 70
     1
102
RTVSPost2010Prop39
140
1.0
102
RTVSPost2010PropOp39
 70
     1
102
RTVSPost2010Prop40
 90
        0
102
RTVSPost2010PropOp40
 70
     1
102
RTVSPost2010Prop41ColorIndex
 90
       18
102
RTVSPost2010Prop41ColorRGB
 90
        0
102
RTVSPost2010PropOp41
 70
     1
102
RTVSPost2010Prop42
 90
       50
102
RTVSPost2010PropOp42
 70
     1
102
RTVSPost2010Prop43
 90
        3
102
RTVSPost2010PropOp43
 70
     1
102
RTVSPost2010Prop44ColorIndex
 90
        5
102
RTVSPost2010Prop44ColorRGB
 90
      255
102
RTVSPost2010PropOp44
 70
     1
102
RTVSPost2010Prop45
280
     0
102
RTVSPost2010PropOp45
 70
     1
102
RTVSPost2010Prop46
 90
       50
102
RTVSPost2010PropOp46
 70
     1
102
RTVSPost2010Prop47
 90
       50
102
RTVSPost2010PropOp47
 70
     1
102
RTVSPost2010Prop48
 90
       50
102
RTVSPost2010PropOp48
 70
     1
102
RTVSPost2010Prop49
280
     0
102
RTVSPost2010PropOp49
 70
     1
102
RTVSPost2010Prop50
 90
       50
102
RTVSPost2010PropOp50
 70
     1
102
RTVSPost2010Prop51ColorIndex
 90
      256
102
RTVSPost2010Prop51ColorRGB
 90
-16777216
102
RTVSPost2010PropOp51
 70
     0
102
RTVSPost2010Prop52
140
1.0
102
RTVSPost2010PropOp52
 70
     0
102
RTVSPost2010Prop53
 90
        2
102
RTVSPost2010PropOp53
 70
     1
102
RTVSPost2010Prop54
  1
strokes_ogs.tif
102
RTVSPost2010PropOp54
 70
     1
102
RTVSPost2010Prop55
280
     0
102
RTVSPost2010PropOp55
 70
     1
102
RTVSPost2010Prop56
140
1.0
102
RTVSPost2010PropOp56
 70
     1
102
RTVSPost2010Prop57
140
1.0
102
RTVSPost2010PropOp57
 70
     1
  0
XRECORD
  5
42B
102
{ACAD_REACTORS
330
42A
102
}
330
42A
100
AcDbXrecord
280
     1
102
RTVSPropertyOp0
 70
     1
102
RTVSPropertyOp1
 70
     1
102
RTVSPropertyOp2
 70
     1
102
RTVSPropertyOp3
 70
     1
102
RTVSPropertyOp4
 70
     1
102
RTVSPropertyOp5
 70
     1
102
RTVSPropertyOp6
 70
     1
102
RTVSPropertyOp7
 70
     1
102
RTVSPropertyOp8
 70
     1
102
RTVSPropertyOp9
 70
     1
102
RTVSPropertyOp10
 70
     1
102
RTVSPropertyOp11
 70
     1
102
RTVSPropertyOp12
 70
     1
102
RTVSPropertyOp13
 70
     1
102
RTVSPropertyOp14
 70
     1
102
RTVSPropertyOp15
 70
     1
102
RTVSPropertyOp16
 70
     1
102
RTVSPropertyOp17
 70
     1
102
RTVSPropertyOp18
 70
     1
102
RTVSPropertyOp19
 70
     1
102
RTVSPropertyOp20
 70
     1
102
RTVSPropertyOp21
 70
     1
102
RTVSPropertyOp22
 70
     1
102
RTVSPropertyOp23
 70
     1
102
RTVSPropertyOp24
 70
     1
102
RTVSPropertyOp25
 70
     1
102
RTVSPropertyOp26
 70
     1
102
RTVSPropertyOp27
 70
     1
102
RTVSPropertyOp28
 70
     1
102
RTVSPropertyOp29
 70
     1
102
RTVSPropertyOp30
 70
     1
102
RTVSPropertyOp31
 70
     1
102
RTVSPropertyOp32
 70
     1
102
RTVSPropertyOp33
 70
     1
102
RTVSPropertyOp34
 70
     1
102
RTVSPropertyOp35
 70
     1
102
RTVSPropertyOp36
 70
     1
102
RTVSPropertyOp37
 70
     1
102
RTVSPropertyOp38
 70
     1
102
RTVSPropertyOp39
 70
     1
102
RTVSPropertyOp40
 70
     1
102
RTVSPropertyOp41
 70
     1
102
RTVSPropertyOp42
 70
     1
102
RTVSPropertyOp43
 70
     1
102
RTVSPropertyOp44
 70
     1
102
RTVSPropertyOp45
 70
     1
102
RTVSPropertyOp46
 70
     1
102
RTVSPropertyOp47
 70
     1
102
RTVSPropertyOp48
 70
     1
102
RTVSPropertyOp49
 70
     1
102
RTVSPropertyOp50
 70
     1
102
RTVSPropertyOp51
 70
     0
102
RTVSPropertyOp52
 70
     0
102
RTVSPropertyOp53
 70
     1
102
RTVSPropertyOp54
 70
     1
102
RTVSPropertyOp55
 70
     1
102
RTVSPropertyOp56
 70
     1
102
RTVSPropertyOp57
 70
     1
102
RTVSPost2010Prop28
280
     0
102
RTVSPost2010PropOp28
 70
     1
102
RTVSPost2010Prop29
280
     1
102
RTVSPost2010PropOp29
 70
     1
102
RTVSPost2010Prop30
280
     1
102
RTVSPost2010PropOp30
 70
     1
102
RTVSPost2010Prop31
280
     0
102
RTVSPost2010PropOp31
 70
     1
102
RTVSPost2010Prop32
280
     0
102
RTVSPost2010PropOp32
 70
     1
102
RTVSPost2010Prop33
280
     0
102
RTVSPost2010PropOp33
 70
     1
102
RTVSPost2010Prop34
280
     0
102
RTVSPost2010PropOp34
 70
     1
102
RTVSPost2010Prop35
280
     0
102
RTVSPost2010PropOp35
 70
     1
102
RTVSPost2010Prop36
280
     0
102
RTVSPost2010PropOp36
 70
     1
102
RTVSPost2010Prop37
 90
       50
102
RTVSPost2010PropOp37
 70
     1
102
RTVSPost2010Prop38
140
0.0
102
RTVSPost2010PropOp38
 70
     1
102
RTVSPost2010Prop39
140
1.0
102
RTVSPost2010PropOp39
 70
     1
102
RTVSPost2010Prop40
 90
        0
102
RTVSPost2010PropOp40
 70
     1
102
RTVSPost2010Prop41ColorIndex
 90
       18
102
RTVSPost2010Prop41ColorRGB
 90
        0
102
RTVSPost2010PropOp41
 70
     1
102
RTVSPost2010Prop42
 90
       50
102
RTVSPost2010PropOp42
 70
     1
102
RTVSPost2010Prop43
 90
        3
102
RTVSPost2010PropOp43
 70
     1
102
RTVSPost2010Prop44ColorIndex
 90
        5
102
RTVSPost2010Prop44ColorRGB
 90
      255
102
RTVSPost2010PropOp44
 70
     1
102
RTVSPost2010Prop45
280
     0
102
RTVSPost2010PropOp45
 70
     1
102
RTVSPost2010Prop46
 90
       50
102
RTVSPost2010PropOp46
 70
     1
102
RTVSPost2010Prop47
 90
       50
102
RTVSPost2010PropOp47
 70
     1
102
RTVSPost2010Prop48
 90
       50
102
RTVSPost2010PropOp48
 70
     1
102
RTVSPost2010Prop49
280
     0
102
RTVSPost2010PropOp49
 70
     1
102
RTVSPost2010Prop50
 90
       50
102
RTVSPost2010PropOp50
 70
     1
102
RTVSPost2010Prop51ColorIndex
 90
      256
102
RTVSPost2010Prop51ColorRGB
 90
-16777216
102
RTVSPost2010PropOp51
 70
     0
102
RTVSPost2010Prop52
140
1.0
102
RTVSPost2010PropOp52
 70
     0
102
RTVSPost2010Prop53
 90
        2
102
RTVSPost2010PropOp53
 70
     1
102
RTVSPost2010Prop54
  1
strokes_ogs.tif
102
RTVSPost2010PropOp54
 70
     1
102
RTVSPost2010Prop55
280
     0
102
RTVSPost2010PropOp55
 70
     1
102
RTVSPost2010Prop56
140
1.0
102
RTVSPost2010PropOp56
 70
     1
102
RTVSPost2010Prop57
140
1.0
102
RTVSPost2010PropOp57
 70
     1
  0
XRECORD
  5
42D
102
{ACAD_REACTORS
330
42C
102
}
330
42C
100
AcDbXrecord
280
     1
102
RTVSPropertyOp0
 70
     1
102
RTVSPropertyOp1
 70
     1
102
RTVSPropertyOp2
 70
     1
102
RTVSPropertyOp3
 70
     1
102
RTVSPropertyOp4
 70
     1
102
RTVSPropertyOp5
 70
     1
102
RTVSPropertyOp6
 70
     1
102
RTVSPropertyOp7
 70
     1
102
RTVSPropertyOp8
 70
     1
102
RTVSPropertyOp9
 70
     1
102
RTVSPropertyOp10
 70
     1
102
RTVSPropertyOp11
 70
     1
102
RTVSPropertyOp12
 70
     1
102
RTVSPropertyOp13
 70
     1
102
RTVSPropertyOp14
 70
     1
102
RTVSPropertyOp15
 70
     1
102
RTVSPropertyOp16
 70
     1
102
RTVSPropertyOp17
 70
     1
102
RTVSPropertyOp18
 70
     1
102
RTVSPropertyOp19
 70
     1
102
RTVSPropertyOp20
 70
     1
102
RTVSPropertyOp21
 70
     1
102
RTVSPropertyOp22
 70
     1
102
RTVSPropertyOp23
 70
     1
102
RTVSPropertyOp24
 70
     1
102
RTVSPropertyOp25
 70
     1
102
RTVSPropertyOp26
 70
     1
102
RTVSPropertyOp27
 70
     1
102
RTVSPropertyOp28
 70
     1
102
RTVSPropertyOp29
 70
     1
102
RTVSPropertyOp30
 70
     1
102
RTVSPropertyOp31
 70
     1
102
RTVSPropertyOp32
 70
     1
102
RTVSPropertyOp33
 70
     1
102
RTVSPropertyOp34
 70
     1
102
RTVSPropertyOp35
 70
     1
102
RTVSPropertyOp36
 70
     1
102
RTVSPropertyOp37
 70
     1
102
RTVSPropertyOp38
 70
     1
102
RTVSPropertyOp39
 70
     1
102
RTVSPropertyOp40
 70
     1
102
RTVSPropertyOp41
 70
     1
102
RTVSPropertyOp42
 70
     1
102
RTVSPropertyOp43
 70
     1
102
RTVSPropertyOp44
 70
     1
102
RTVSPropertyOp45
 70
     1
102
RTVSPropertyOp46
 70
     1
102
RTVSPropertyOp47
 70
     1
102
RTVSPropertyOp48
 70
     1
102
RTVSPropertyOp49
 70
     1
102
RTVSPropertyOp50
 70
     1
102
RTVSPropertyOp51
 70
     0
102
RTVSPropertyOp52
 70
     0
102
RTVSPropertyOp53
 70
     1
102
RTVSPropertyOp54
 70
     1
102
RTVSPropertyOp55
 70
     1
102
RTVSPropertyOp56
 70
     1
102
RTVSPropertyOp57
 70
     1
102
RTVSPost2010Prop28
280
     0
102
RTVSPost2010PropOp28
 70
     1
102
RTVSPost2010Prop29
280
     1
102
RTVSPost2010PropOp29
 70
     1
102
RTVSPost2010Prop30
280
     1
102
RTVSPost2010PropOp30
 70
     1
102
RTVSPost2010Prop31
280
     0
102
RTVSPost2010PropOp31
 70
     1
102
RTVSPost2010Prop32
280
     0
102
RTVSPost2010PropOp32
 70
     1
102
RTVSPost2010Prop33
280
     0
102
RTVSPost2010PropOp33
 70
     1
102
RTVSPost2010Prop34
280
     0
102
RTVSPost2010PropOp34
 70
     1
102
RTVSPost2010Prop35
280
     0
102
RTVSPost2010PropOp35
 70
     1
102
RTVSPost2010Prop36
280
     0
102
RTVSPost2010PropOp36
 70
     1
102
RTVSPost2010Prop37
 90
       50
102
RTVSPost2010PropOp37
 70
     1
102
RTVSPost2010Prop38
140
0.0
102
RTVSPost2010PropOp38
 70
     1
102
RTVSPost2010Prop39
140
1.0
102
RTVSPost2010PropOp39
 70
     1
102
RTVSPost2010Prop40
 90
        0
102
RTVSPost2010PropOp40
 70
     1
102
RTVSPost2010Prop41ColorIndex
 90
       18
102
RTVSPost2010Prop41ColorRGB
 90
        0
102
RTVSPost2010PropOp41
 70
     1
102
RTVSPost2010Prop42
 90
       50
102
RTVSPost2010PropOp42
 70
     1
102
RTVSPost2010Prop43
 90
        3
102
RTVSPost2010PropOp43
 70
     1
102
RTVSPost2010Prop44ColorIndex
 90
        5
102
RTVSPost2010Prop44ColorRGB
 90
      255
102
RTVSPost2010PropOp44
 70
     1
102
RTVSPost2010Prop45
280
     0
102
RTVSPost2010PropOp45
 70
     1
102
RTVSPost2010Prop46
 90
       50
102
RTVSPost2010PropOp46
 70
     1
102
RTVSPost2010Prop47
 90
       50
102
RTVSPost2010PropOp47
 70
     1
102
RTVSPost2010Prop48
 90
       50
102
RTVSPost2010PropOp48
 70
     1
102
RTVSPost2010Prop49
280
     0
102
RTVSPost2010PropOp49
 70
     1
102
RTVSPost2010Prop50
 90
       50
102
RTVSPost2010PropOp50
 70
     1
102
RTVSPost2010Prop51ColorIndex
 90
      256
102
RTVSPost2010Prop51ColorRGB
 90
-16777216
102
RTVSPost2010PropOp51
 70
     0
102
RTVSPost2010Prop52
140
1.0
102
RTVSPost2010PropOp52
 70
     0
102
RTVSPost2010Prop53
 90
        2
102
RTVSPost2010PropOp53
 70
     1
102
RTVSPost2010Prop54
  1
strokes_ogs.tif
102
RTVSPost2010PropOp54
 70
     1
102
RTVSPost2010Prop55
280
     0
102
RTVSPost2010PropOp55
 70
     1
102
RTVSPost2010Prop56
140
1.0
102
RTVSPost2010PropOp56
 70
     1
102
RTVSPost2010Prop57
140
1.0
102
RTVSPost2010PropOp57
 70
     1
  0
XRECORD
  5
42F
102
{ACAD_REACTORS
330
42E
102
}
330
42E
100
AcDbXrecord
280
     1
102
RTVSPropertyOp0
 70
     1
102
RTVSPropertyOp1
 70
     1
102
RTVSPropertyOp2
 70
     1
102
RTVSPropertyOp3
 70
     1
102
RTVSPropertyOp4
 70
     1
102
RTVSPropertyOp5
 70
     1
102
RTVSPropertyOp6
 70
     1
102
RTVSPropertyOp7
 70
     1
102
RTVSPropertyOp8
 70
     1
102
RTVSPropertyOp9
 70
     1
102
RTVSPropertyOp10
 70
     1
102
RTVSPropertyOp11
 70
     1
102
RTVSPropertyOp12
 70
     1
102
RTVSPropertyOp13
 70
     1
102
RTVSPropertyOp14
 70
     1
102
RTVSPropertyOp15
 70
     1
102
RTVSPropertyOp16
 70
     1
102
RTVSPropertyOp17
 70
     1
102
RTVSPropertyOp18
 70
     1
102
RTVSPropertyOp19
 70
     1
102
RTVSPropertyOp20
 70
     1
102
RTVSPropertyOp21
 70
     1
102
RTVSPropertyOp22
 70
     1
102
RTVSPropertyOp23
 70
     1
102
RTVSPropertyOp24
 70
     1
102
RTVSPropertyOp25
 70
     1
102
RTVSPropertyOp26
 70
     1
102
RTVSPropertyOp27
 70
     1
102
RTVSPropertyOp28
 70
     1
102
RTVSPropertyOp29
 70
     1
102
RTVSPropertyOp30
 70
     1
102
RTVSPropertyOp31
 70
     1
102
RTVSPropertyOp32
 70
     1
102
RTVSPropertyOp33
 70
     1
102
RTVSPropertyOp34
 70
     1
102
RTVSPropertyOp35
 70
     1
102
RTVSPropertyOp36
 70
     1
102
RTVSPropertyOp37
 70
     1
102
RTVSPropertyOp38
 70
     1
102
RTVSPropertyOp39
 70
     1
102
RTVSPropertyOp40
 70
     1
102
RTVSPropertyOp41
 70
     1
102
RTVSPropertyOp42
 70
     1
102
RTVSPropertyOp43
 70
     1
102
RTVSPropertyOp44
 70
     1
102
RTVSPropertyOp45
 70
     1
102
RTVSPropertyOp46
 70
     1
102
RTVSPropertyOp47
 70
     1
102
RTVSPropertyOp48
 70
     1
102
RTVSPropertyOp49
 70
     1
102
RTVSPropertyOp50
 70
     1
102
RTVSPropertyOp51
 70
     0
102
RTVSPropertyOp52
 70
     0
102
RTVSPropertyOp53
 70
     1
102
RTVSPropertyOp54
 70
     1
102
RTVSPropertyOp55
 70
     1
102
RTVSPropertyOp56
 70
     1
102
RTVSPropertyOp57
 70
     1
102
RTVSPost2010Prop28
280
     0
102
RTVSPost2010PropOp28
 70
     1
102
RTVSPost2010Prop29
280
     1
102
RTVSPost2010PropOp29
 70
     1
102
RTVSPost2010Prop30
280
     1
102
RTVSPost2010PropOp30
 70
     1
102
RTVSPost2010Prop31
280
     0
102
RTVSPost2010PropOp31
 70
     1
102
RTVSPost2010Prop32
280
     0
102
RTVSPost2010PropOp32
 70
     1
102
RTVSPost2010Prop33
280
     0
102
RTVSPost2010PropOp33
 70
     1
102
RTVSPost2010Prop34
280
     0
102
RTVSPost2010PropOp34
 70
     1
102
RTVSPost2010Prop35
280
     0
102
RTVSPost2010PropOp35
 70
     1
102
RTVSPost2010Prop36
280
     0
102
RTVSPost2010PropOp36
 70
     1
102
RTVSPost2010Prop37
 90
       50
102
RTVSPost2010PropOp37
 70
     1
102
RTVSPost2010Prop38
140
0.0
102
RTVSPost2010PropOp38
 70
     1
102
RTVSPost2010Prop39
140
1.0
102
RTVSPost2010PropOp39
 70
     1
102
RTVSPost2010Prop40
 90
        0
102
RTVSPost2010PropOp40
 70
     1
102
RTVSPost2010Prop41ColorIndex
 90
       18
102
RTVSPost2010Prop41ColorRGB
 90
        0
102
RTVSPost2010PropOp41
 70
     1
102
RTVSPost2010Prop42
 90
       50
102
RTVSPost2010PropOp42
 70
     1
102
RTVSPost2010Prop43
 90
        3
102
RTVSPost2010PropOp43
 70
     1
102
RTVSPost2010Prop44ColorIndex
 90
        5
102
RTVSPost2010Prop44ColorRGB
 90
      255
102
RTVSPost2010PropOp44
 70
     1
102
RTVSPost2010Prop45
280
     0
102
RTVSPost2010PropOp45
 70
     1
102
RTVSPost2010Prop46
 90
       50
102
RTVSPost2010PropOp46
 70
     1
102
RTVSPost2010Prop47
 90
       50
102
RTVSPost2010PropOp47
 70
     1
102
RTVSPost2010Prop48
 90
       50
102
RTVSPost2010PropOp48
 70
     1
102
RTVSPost2010Prop49
280
     0
102
RTVSPost2010PropOp49
 70
     1
102
RTVSPost2010Prop50
 90
       50
102
RTVSPost2010PropOp50
 70
     1
102
RTVSPost2010Prop51ColorIndex
 90
      256
102
RTVSPost2010Prop51ColorRGB
 90
-16777216
102
RTVSPost2010PropOp51
 70
     0
102
RTVSPost2010Prop52
140
1.0
102
RTVSPost2010PropOp52
 70
     0
102
RTVSPost2010Prop53
 90
        2
102
RTVSPost2010PropOp53
 70
     1
102
RTVSPost2010Prop54
  1
strokes_ogs.tif
102
RTVSPost2010PropOp54
 70
     1
102
RTVSPost2010Prop55
280
     0
102
RTVSPost2010PropOp55
 70
     1
102
RTVSPost2010Prop56
140
1.0
102
RTVSPost2010PropOp56
 70
     1
102
RTVSPost2010Prop57
140
1.0
102
RTVSPost2010PropOp57
 70
     1
  0
XRECORD
  5
431
102
{ACAD_REACTORS
330
430
102
}
330
430
100
AcDbXrecord
280
     1
102
RTVSPropertyOp0
 70
     1
102
RTVSPropertyOp1
 70
     1
102
RTVSPropertyOp2
 70
     1
102
RTVSPropertyOp3
 70
     1
102
RTVSPropertyOp4
 70
     1
102
RTVSPropertyOp5
 70
     1
102
RTVSPropertyOp6
 70
     1
102
RTVSPropertyOp7
 70
     1
102
RTVSPropertyOp8
 70
     1
102
RTVSPropertyOp9
 70
     1
102
RTVSPropertyOp10
 70
     1
102
RTVSPropertyOp11
 70
     1
102
RTVSPropertyOp12
 70
     1
102
RTVSPropertyOp13
 70
     1
102
RTVSPropertyOp14
 70
     1
102
RTVSPropertyOp15
 70
     1
102
RTVSPropertyOp16
 70
     1
102
RTVSPropertyOp17
 70
     1
102
RTVSPropertyOp18
 70
     1
102
RTVSPropertyOp19
 70
     1
102
RTVSPropertyOp20
 70
     1
102
RTVSPropertyOp21
 70
     1
102
RTVSPropertyOp22
 70
     1
102
RTVSPropertyOp23
 70
     1
102
RTVSPropertyOp24
 70
     1
102
RTVSPropertyOp25
 70
     1
102
RTVSPropertyOp26
 70
     1
102
RTVSPropertyOp27
 70
     1
102
RTVSPropertyOp28
 70
     1
102
RTVSPropertyOp29
 70
     1
102
RTVSPropertyOp30
 70
     1
102
RTVSPropertyOp31
 70
     1
102
RTVSPropertyOp32
 70
     1
102
RTVSPropertyOp33
 70
     1
102
RTVSPropertyOp34
 70
     1
102
RTVSPropertyOp35
 70
     1
102
RTVSPropertyOp36
 70
     1
102
RTVSPropertyOp37
 70
     1
102
RTVSPropertyOp38
 70
     1
102
RTVSPropertyOp39
 70
     1
102
RTVSPropertyOp40
 70
     1
102
RTVSPropertyOp41
 70
     1
102
RTVSPropertyOp42
 70
     1
102
RTVSPropertyOp43
 70
     1
102
RTVSPropertyOp44
 70
     1
102
RTVSPropertyOp45
 70
     1
102
RTVSPropertyOp46
 70
     1
102
RTVSPropertyOp47
 70
     1
102
RTVSPropertyOp48
 70
     1
102
RTVSPropertyOp49
 70
     1
102
RTVSPropertyOp50
 70
     1
102
RTVSPropertyOp51
 70
     0
102
RTVSPropertyOp52
 70
     0
102
RTVSPropertyOp53
 70
     1
102
RTVSPropertyOp54
 70
     1
102
RTVSPropertyOp55
 70
     1
102
RTVSPropertyOp56
 70
     1
102
RTVSPropertyOp57
 70
     1
102
RTVSPost2010Prop28
280
     0
102
RTVSPost2010PropOp28
 70
     1
102
RTVSPost2010Prop29
280
     1
102
RTVSPost2010PropOp29
 70
     1
102
RTVSPost2010Prop30
280
     1
102
RTVSPost2010PropOp30
 70
     1
102
RTVSPost2010Prop31
280
     0
102
RTVSPost2010PropOp31
 70
     1
102
RTVSPost2010Prop32
280
     0
102
RTVSPost2010PropOp32
 70
     1
102
RTVSPost2010Prop33
280
     0
102
RTVSPost2010PropOp33
 70
     1
102
RTVSPost2010Prop34
280
     0
102
RTVSPost2010PropOp34
 70
     1
102
RTVSPost2010Prop35
280
     0
102
RTVSPost2010PropOp35
 70
     1
102
RTVSPost2010Prop36
280
     0
102
RTVSPost2010PropOp36
 70
     1
102
RTVSPost2010Prop37
 90
       50
102
RTVSPost2010PropOp37
 70
     1
102
RTVSPost2010Prop38
140
0.0
102
RTVSPost2010PropOp38
 70
     1
102
RTVSPost2010Prop39
140
1.0
102
RTVSPost2010PropOp39
 70
     1
102
RTVSPost2010Prop40
 90
        0
102
RTVSPost2010PropOp40
 70
     1
102
RTVSPost2010Prop41ColorIndex
 90
       18
102
RTVSPost2010Prop41ColorRGB
 90
        0
102
RTVSPost2010PropOp41
 70
     1
102
RTVSPost2010Prop42
 90
       50
102
RTVSPost2010PropOp42
 70
     1
102
RTVSPost2010Prop43
 90
        3
102
RTVSPost2010PropOp43
 70
     1
102
RTVSPost2010Prop44ColorIndex
 90
        5
102
RTVSPost2010Prop44ColorRGB
 90
      255
102
RTVSPost2010PropOp44
 70
     1
102
RTVSPost2010Prop45
280
     0
102
RTVSPost2010PropOp45
 70
     1
102
RTVSPost2010Prop46
 90
       50
102
RTVSPost2010PropOp46
 70
     1
102
RTVSPost2010Prop47
 90
       50
102
RTVSPost2010PropOp47
 70
     1
102
RTVSPost2010Prop48
 90
       50
102
RTVSPost2010PropOp48
 70
     1
102
RTVSPost2010Prop49
280
     0
102
RTVSPost2010PropOp49
 70
     1
102
RTVSPost2010Prop50
 90
       50
102
RTVSPost2010PropOp50
 70
     1
102
RTVSPost2010Prop51ColorIndex
 90
      256
102
RTVSPost2010Prop51ColorRGB
 90
-16777216
102
RTVSPost2010PropOp51
 70
     0
102
RTVSPost2010Prop52
140
1.0
102
RTVSPost2010PropOp52
 70
     0
102
RTVSPost2010Prop53
 90
        2
102
RTVSPost2010PropOp53
 70
     1
102
RTVSPost2010Prop54
  1
strokes_ogs.tif
102
RTVSPost2010PropOp54
 70
     1
102
RTVSPost2010Prop55
280
     0
102
RTVSPost2010PropOp55
 70
     1
102
RTVSPost2010Prop56
140
1.0
102
RTVSPost2010PropOp56
 70
     1
102
RTVSPost2010Prop57
140
1.0
102
RTVSPost2010PropOp57
 70
     1
  0
XRECORD
  5
437
102
{ACAD_REACTORS
330
436
102
}
330
436
100
AcDbXrecord
280
     1
102
RTVSPropertyOp0
 70
     1
102
RTVSPropertyOp1
 70
     1
102
RTVSPropertyOp2
 70
     1
102
RTVSPropertyOp3
 70
     1
102
RTVSPropertyOp4
 70
     1
102
RTVSPropertyOp5
 70
     1
102
RTVSPropertyOp6
 70
     1
102
RTVSPropertyOp7
 70
     1
102
RTVSPropertyOp8
 70
     1
102
RTVSPropertyOp9
 70
     1
102
RTVSPropertyOp10
 70
     1
102
RTVSPropertyOp11
 70
     1
102
RTVSPropertyOp12
 70
     1
102
RTVSPropertyOp13
 70
     1
102
RTVSPropertyOp14
 70
     1
102
RTVSPropertyOp15
 70
     1
102
RTVSPropertyOp16
 70
     1
102
RTVSPropertyOp17
 70
     1
102
RTVSPropertyOp18
 70
     1
102
RTVSPropertyOp19
 70
     1
102
RTVSPropertyOp20
 70
     1
102
RTVSPropertyOp21
 70
     1
102
RTVSPropertyOp22
 70
     1
102
RTVSPropertyOp23
 70
     1
102
RTVSPropertyOp24
 70
     1
102
RTVSPropertyOp25
 70
     1
102
RTVSPropertyOp26
 70
     1
102
RTVSPropertyOp27
 70
     1
102
RTVSPropertyOp28
 70
     1
102
RTVSPropertyOp29
 70
     1
102
RTVSPropertyOp30
 70
     1
102
RTVSPropertyOp31
 70
     1
102
RTVSPropertyOp32
 70
     1
102
RTVSPropertyOp33
 70
     1
102
RTVSPropertyOp34
 70
     1
102
RTVSPropertyOp35
 70
     1
102
RTVSPropertyOp36
 70
     1
102
RTVSPropertyOp37
 70
     1
102
RTVSPropertyOp38
 70
     1
102
RTVSPropertyOp39
 70
     1
102
RTVSPropertyOp40
 70
     1
102
RTVSPropertyOp41
 70
     1
102
RTVSPropertyOp42
 70
     1
102
RTVSPropertyOp43
 70
     1
102
RTVSPropertyOp44
 70
     1
102
RTVSPropertyOp45
 70
     1
102
RTVSPropertyOp46
 70
     1
102
RTVSPropertyOp47
 70
     1
102
RTVSPropertyOp48
 70
     1
102
RTVSPropertyOp49
 70
     1
102
RTVSPropertyOp50
 70
     1
102
RTVSPropertyOp51
 70
     0
102
RTVSPropertyOp52
 70
     0
102
RTVSPropertyOp53
 70
     1
102
RTVSPropertyOp54
 70
     1
102
RTVSPropertyOp55
 70
     1
102
RTVSPropertyOp56
 70
     1
102
RTVSPropertyOp57
 70
     1
102
RTVSPost2010Prop28
280
     0
102
RTVSPost2010PropOp28
 70
     1
102
RTVSPost2010Prop29
280
     1
102
RTVSPost2010PropOp29
 70
     1
102
RTVSPost2010Prop30
280
     1
102
RTVSPost2010PropOp30
 70
     1
102
RTVSPost2010Prop31
280
     0
102
RTVSPost2010PropOp31
 70
     1
102
RTVSPost2010Prop32
280
     0
102
RTVSPost2010PropOp32
 70
     1
102
RTVSPost2010Prop33
280
     0
102
RTVSPost2010PropOp33
 70
     1
102
RTVSPost2010Prop34
280
     0
102
RTVSPost2010PropOp34
 70
     1
102
RTVSPost2010Prop35
280
     0
102
RTVSPost2010PropOp35
 70
     1
102
RTVSPost2010Prop36
280
     0
102
RTVSPost2010PropOp36
 70
     1
102
RTVSPost2010Prop37
 90
       50
102
RTVSPost2010PropOp37
 70
     1
102
RTVSPost2010Prop38
140
0.0
102
RTVSPost2010PropOp38
 70
     1
102
RTVSPost2010Prop39
140
1.0
102
RTVSPost2010PropOp39
 70
     1
102
RTVSPost2010Prop40
 90
        0
102
RTVSPost2010PropOp40
 70
     1
102
RTVSPost2010Prop41ColorIndex
 90
       18
102
RTVSPost2010Prop41ColorRGB
 90
        0
102
RTVSPost2010PropOp41
 70
     1
102
RTVSPost2010Prop42
 90
       50
102
RTVSPost2010PropOp42
 70
     1
102
RTVSPost2010Prop43
 90
        3
102
RTVSPost2010PropOp43
 70
     1
102
RTVSPost2010Prop44ColorIndex
 90
        5
102
RTVSPost2010Prop44ColorRGB
 90
      255
102
RTVSPost2010PropOp44
 70
     1
102
RTVSPost2010Prop45
280
     0
102
RTVSPost2010PropOp45
 70
     1
102
RTVSPost2010Prop46
 90
       50
102
RTVSPost2010PropOp46
 70
     1
102
RTVSPost2010Prop47
 90
       50
102
RTVSPost2010PropOp47
 70
     1
102
RTVSPost2010Prop48
 90
       50
102
RTVSPost2010PropOp48
 70
     1
102
RTVSPost2010Prop49
280
     0
102
RTVSPost2010PropOp49
 70
     1
102
RTVSPost2010Prop50
 90
       50
102
RTVSPost2010PropOp50
 70
     1
102
RTVSPost2010Prop51ColorIndex
 90
      256
102
RTVSPost2010Prop51ColorRGB
 90
-16777216
102
RTVSPost2010PropOp51
 70
     0
102
RTVSPost2010Prop52
140
1.0
102
RTVSPost2010PropOp52
 70
     0
102
RTVSPost2010Prop53
 90
        2
102
RTVSPost2010PropOp53
 70
     1
102
RTVSPost2010Prop54
  1
strokes_ogs.tif
102
RTVSPost2010PropOp54
 70
     1
102
RTVSPost2010Prop55
280
     0
102
RTVSPost2010PropOp55
 70
     1
102
RTVSPost2010Prop56
140
1.0
102
RTVSPost2010PropOp56
 70
     1
102
RTVSPost2010Prop57
140
1.0
102
RTVSPost2010PropOp57
 70
     1
  0
XRECORD
  5
44B
102
{ACAD_REACTORS
330
44A
102
}
330
44A
100
AcDbXrecord
280
     1
102
RTVSPropertyOp0
 70
     0
102
RTVSPropertyOp1
 70
     0
102
RTVSPropertyOp2
 70
     0
102
RTVSPropertyOp3
 70
     0
102
RTVSPropertyOp4
 70
     0
102
RTVSPropertyOp5
 70
     0
102
RTVSPropertyOp6
 70
     0
102
RTVSPropertyOp7
 70
     0
102
RTVSPropertyOp8
 70
     0
102
RTVSPropertyOp9
 70
     0
102
RTVSPropertyOp10
 70
     0
102
RTVSPropertyOp11
 70
     0
102
RTVSPropertyOp12
 70
     0
102
RTVSPropertyOp13
 70
     0
102
RTVSPropertyOp14
 70
     2
102
RTVSPropertyOp15
 70
     0
102
RTVSPropertyOp16
 70
     0
102
RTVSPropertyOp17
 70
     0
102
RTVSPropertyOp18
 70
     0
102
RTVSPropertyOp19
 70
     0
102
RTVSPropertyOp20
 70
     0
102
RTVSPropertyOp21
 70
     0
102
RTVSPropertyOp22
 70
     0
102
RTVSPropertyOp23
 70
     0
102
RTVSPropertyOp24
 70
     0
102
RTVSPropertyOp25
 70
     0
102
RTVSPropertyOp26
 70
     0
102
RTVSPropertyOp27
 70
     0
102
RTVSPropertyOp28
 70
     0
102
RTVSPropertyOp29
 70
     0
102
RTVSPropertyOp30
 70
     0
102
RTVSPropertyOp31
 70
     0
102
RTVSPropertyOp32
 70
     0
102
RTVSPropertyOp33
 70
     0
102
RTVSPropertyOp34
 70
     0
102
RTVSPropertyOp35
 70
     0
102
RTVSPropertyOp36
 70
     0
102
RTVSPropertyOp37
 70
     0
102
RTVSPropertyOp38
 70
     0
102
RTVSPropertyOp39
 70
     0
102
RTVSPropertyOp40
 70
     0
102
RTVSPropertyOp41
 70
     0
102
RTVSPropertyOp42
 70
     0
102
RTVSPropertyOp43
 70
     0
102
RTVSPropertyOp44
 70
     0
102
RTVSPropertyOp45
 70
     0
102
RTVSPropertyOp46
 70
     0
102
RTVSPropertyOp47
 70
     0
102
RTVSPropertyOp48
 70
     0
102
RTVSPropertyOp49
 70
     0
102
RTVSPropertyOp50
 70
     0
102
RTVSPropertyOp51
 70
     0
102
RTVSPropertyOp52
 70
     0
102
RTVSPropertyOp53
 70
     0
102
RTVSPropertyOp54
 70
     0
102
RTVSPropertyOp55
 70
     0
102
RTVSPropertyOp56
 70
     0
102
RTVSPropertyOp57
 70
     0
102
RTVSPost2010Prop28
280
     0
102
RTVSPost2010PropOp28
 70
     0
102
RTVSPost2010Prop29
280
     1
102
RTVSPost2010PropOp29
 70
     0
102
RTVSPost2010Prop30
280
     1
102
RTVSPost2010PropOp30
 70
     0
102
RTVSPost2010Prop31
280
     0
102
RTVSPost2010PropOp31
 70
     0
102
RTVSPost2010Prop32
280
     0
102
RTVSPost2010PropOp32
 70
     0
102
RTVSPost2010Prop33
280
     0
102
RTVSPost2010PropOp33
 70
     0
102
RTVSPost2010Prop34
280
     0
102
RTVSPost2010PropOp34
 70
     0
102
RTVSPost2010Prop35
280
     0
102
RTVSPost2010PropOp35
 70
     0
102
RTVSPost2010Prop36
280
     0
102
RTVSPost2010PropOp36
 70
     0
102
RTVSPost2010Prop37
 90
       50
102
RTVSPost2010PropOp37
 70
     0
102
RTVSPost2010Prop38
140
0.0
102
RTVSPost2010PropOp38
 70
     0
102
RTVSPost2010Prop39
140
1.0
102
RTVSPost2010PropOp39
 70
     0
102
RTVSPost2010Prop40
 90
        0
102
RTVSPost2010PropOp40
 70
     0
102
RTVSPost2010Prop41ColorIndex
 90
       18
102
RTVSPost2010Prop41ColorRGB
 90
        0
102
RTVSPost2010PropOp41
 70
     0
102
RTVSPost2010Prop42
 90
       50
102
RTVSPost2010PropOp42
 70
     0
102
RTVSPost2010Prop43
 90
        3
102
RTVSPost2010PropOp43
 70
     0
102
RTVSPost2010Prop44ColorIndex
 90
        5
102
RTVSPost2010Prop44ColorRGB
 90
      255
102
RTVSPost2010PropOp44
 70
     0
102
RTVSPost2010Prop45
280
     0
102
RTVSPost2010PropOp45
 70
     0
102
RTVSPost2010Prop46
 90
       50
102
RTVSPost2010PropOp46
 70
     0
102
RTVSPost2010Prop47
 90
       50
102
RTVSPost2010PropOp47
 70
     0
102
RTVSPost2010Prop48
 90
       50
102
RTVSPost2010PropOp48
 70
     0
102
RTVSPost2010Prop49
280
     0
102
RTVSPost2010PropOp49
 70
     0
102
RTVSPost2010Prop50
 90
       50
102
RTVSPost2010PropOp50
 70
     0
102
RTVSPost2010Prop51ColorIndex
 90
      256
102
RTVSPost2010Prop51ColorRGB
 90
-16777216
102
RTVSPost2010PropOp51
 70
     0
102
RTVSPost2010Prop52
140
1.0
102
RTVSPost2010PropOp52
 70
     0
102
RTVSPost2010Prop53
 90
        2
102
RTVSPost2010PropOp53
 70
     0
102
RTVSPost2010Prop54
  1
strokes_ogs.tif
102
RTVSPost2010PropOp54
 70
     0
102
RTVSPost2010Prop55
280
     0
102
RTVSPost2010PropOp55
 70
     0
102
RTVSPost2010Prop56
140
1.0
102
RTVSPost2010PropOp56
 70
     0
102
RTVSPost2010Prop57
140
1.0
102
RTVSPost2010PropOp57
 70
     0
  0
XRECORD
  5
445
102
{ACAD_REACTORS
330
444
102
}
330
444
100
AcDbXrecord
280
     1
102
RTVSPropertyOp0
 70
     1
102
RTVSPropertyOp1
 70
     1
102
RTVSPropertyOp2
 70
     1
102
RTVSPropertyOp3
 70
     1
102
RTVSPropertyOp4
 70
     1
102
RTVSPropertyOp5
 70
     1
102
RTVSPropertyOp6
 70
     1
102
RTVSPropertyOp7
 70
     1
102
RTVSPropertyOp8
 70
     1
102
RTVSPropertyOp9
 70
     1
102
RTVSPropertyOp10
 70
     1
102
RTVSPropertyOp11
 70
     1
102
RTVSPropertyOp12
 70
     1
102
RTVSPropertyOp13
 70
     1
102
RTVSPropertyOp14
 70
     1
102
RTVSPropertyOp15
 70
     1
102
RTVSPropertyOp16
 70
     1
102
RTVSPropertyOp17
 70
     1
102
RTVSPropertyOp18
 70
     1
102
RTVSPropertyOp19
 70
     1
102
RTVSPropertyOp20
 70
     1
102
RTVSPropertyOp21
 70
     1
102
RTVSPropertyOp22
 70
     1
102
RTVSPropertyOp23
 70
     1
102
RTVSPropertyOp24
 70
     1
102
RTVSPropertyOp25
 70
     1
102
RTVSPropertyOp26
 70
     1
102
RTVSPropertyOp27
 70
     1
102
RTVSPropertyOp28
 70
     1
102
RTVSPropertyOp29
 70
     1
102
RTVSPropertyOp30
 70
     1
102
RTVSPropertyOp31
 70
     1
102
RTVSPropertyOp32
 70
     1
102
RTVSPropertyOp33
 70
     1
102
RTVSPropertyOp34
 70
     1
102
RTVSPropertyOp35
 70
     1
102
RTVSPropertyOp36
 70
     1
102
RTVSPropertyOp37
 70
     1
102
RTVSPropertyOp38
 70
     1
102
RTVSPropertyOp39
 70
     1
102
RTVSPropertyOp40
 70
     1
102
RTVSPropertyOp41
 70
     1
102
RTVSPropertyOp42
 70
     1
102
RTVSPropertyOp43
 70
     1
102
RTVSPropertyOp44
 70
     1
102
RTVSPropertyOp45
 70
     1
102
RTVSPropertyOp46
 70
     1
102
RTVSPropertyOp47
 70
     1
102
RTVSPropertyOp48
 70
     1
102
RTVSPropertyOp49
 70
     1
102
RTVSPropertyOp50
 70
     1
102
RTVSPropertyOp51
 70
     0
102
RTVSPropertyOp52
 70
     0
102
RTVSPropertyOp53
 70
     1
102
RTVSPropertyOp54
 70
     1
102
RTVSPropertyOp55
 70
     1
102
RTVSPropertyOp56
 70
     1
102
RTVSPropertyOp57
 70
     1
102
RTVSPost2010Prop28
280
     0
102
RTVSPost2010PropOp28
 70
     1
102
RTVSPost2010Prop29
280
     1
102
RTVSPost2010PropOp29
 70
     1
102
RTVSPost2010Prop30
280
     1
102
RTVSPost2010PropOp30
 70
     1
102
RTVSPost2010Prop31
280
     0
102
RTVSPost2010PropOp31
 70
     1
102
RTVSPost2010Prop32
280
     0
102
RTVSPost2010PropOp32
 70
     1
102
RTVSPost2010Prop33
280
     0
102
RTVSPost2010PropOp33
 70
     1
102
RTVSPost2010Prop34
280
     0
102
RTVSPost2010PropOp34
 70
     1
102
RTVSPost2010Prop35
280
     0
102
RTVSPost2010PropOp35
 70
     1
102
RTVSPost2010Prop36
280
     0
102
RTVSPost2010PropOp36
 70
     1
102
RTVSPost2010Prop37
 90
       50
102
RTVSPost2010PropOp37
 70
     1
102
RTVSPost2010Prop38
140
0.0
102
RTVSPost2010PropOp38
 70
     1
102
RTVSPost2010Prop39
140
1.0
102
RTVSPost2010PropOp39
 70
     1
102
RTVSPost2010Prop40
 90
        0
102
RTVSPost2010PropOp40
 70
     1
102
RTVSPost2010Prop41ColorIndex
 90
       18
102
RTVSPost2010Prop41ColorRGB
 90
        0
102
RTVSPost2010PropOp41
 70
     1
102
RTVSPost2010Prop42
 90
       50
102
RTVSPost2010PropOp42
 70
     1
102
RTVSPost2010Prop43
 90
        3
102
RTVSPost2010PropOp43
 70
     1
102
RTVSPost2010Prop44ColorIndex
 90
        5
102
RTVSPost2010Prop44ColorRGB
 90
      255
102
RTVSPost2010PropOp44
 70
     1
102
RTVSPost2010Prop45
280
     0
102
RTVSPost2010PropOp45
 70
     1
102
RTVSPost2010Prop46
 90
       50
102
RTVSPost2010PropOp46
 70
     1
102
RTVSPost2010Prop47
 90
       50
102
RTVSPost2010PropOp47
 70
     1
102
RTVSPost2010Prop48
 90
       50
102
RTVSPost2010PropOp48
 70
     1
102
RTVSPost2010Prop49
280
     0
102
RTVSPost2010PropOp49
 70
     1
102
RTVSPost2010Prop50
 90
       50
102
RTVSPost2010PropOp50
 70
     1
102
RTVSPost2010Prop51ColorIndex
 90
      256
102
RTVSPost2010Prop51ColorRGB
 90
-16777216
102
RTVSPost2010PropOp51
 70
     0
102
RTVSPost2010Prop52
140
1.0
102
RTVSPost2010PropOp52
 70
     0
102
RTVSPost2010Prop53
 90
        2
102
RTVSPost2010PropOp53
 70
     1
102
RTVSPost2010Prop54
  1
strokes_ogs.tif
102
RTVSPost2010PropOp54
 70
     1
102
RTVSPost2010Prop55
280
     0
102
RTVSPost2010PropOp55
 70
     1
102
RTVSPost2010Prop56
140
1.0
102
RTVSPost2010PropOp56
 70
     1
102
RTVSPost2010Prop57
140
1.0
102
RTVSPost2010PropOp57
 70
     1
  0
XRECORD
  5
44D
102
{ACAD_REACTORS
330
44C
102
}
330
44C
100
AcDbXrecord
280
     1
102
RTVSPropertyOp0
 70
     0
102
RTVSPropertyOp1
 70
     0
102
RTVSPropertyOp2
 70
     0
102
RTVSPropertyOp3
 70
     0
102
RTVSPropertyOp4
 70
     0
102
RTVSPropertyOp5
 70
     0
102
RTVSPropertyOp6
 70
     0
102
RTVSPropertyOp7
 70
     0
102
RTVSPropertyOp8
 70
     0
102
RTVSPropertyOp9
 70
     0
102
RTVSPropertyOp10
 70
     0
102
RTVSPropertyOp11
 70
     0
102
RTVSPropertyOp12
 70
     0
102
RTVSPropertyOp13
 70
     0
102
RTVSPropertyOp14
 70
     2
102
RTVSPropertyOp15
 70
     0
102
RTVSPropertyOp16
 70
     0
102
RTVSPropertyOp17
 70
     0
102
RTVSPropertyOp18
 70
     0
102
RTVSPropertyOp19
 70
     0
102
RTVSPropertyOp20
 70
     0
102
RTVSPropertyOp21
 70
     0
102
RTVSPropertyOp22
 70
     0
102
RTVSPropertyOp23
 70
     0
102
RTVSPropertyOp24
 70
     0
102
RTVSPropertyOp25
 70
     0
102
RTVSPropertyOp26
 70
     0
102
RTVSPropertyOp27
 70
     0
102
RTVSPropertyOp28
 70
     0
102
RTVSPropertyOp29
 70
     0
102
RTVSPropertyOp30
 70
     0
102
RTVSPropertyOp31
 70
     0
102
RTVSPropertyOp32
 70
     0
102
RTVSPropertyOp33
 70
     0
102
RTVSPropertyOp34
 70
     0
102
RTVSPropertyOp35
 70
     0
102
RTVSPropertyOp36
 70
     0
102
RTVSPropertyOp37
 70
     0
102
RTVSPropertyOp38
 70
     0
102
RTVSPropertyOp39
 70
     0
102
RTVSPropertyOp40
 70
     0
102
RTVSPropertyOp41
 70
     0
102
RTVSPropertyOp42
 70
     0
102
RTVSPropertyOp43
 70
     0
102
RTVSPropertyOp44
 70
     0
102
RTVSPropertyOp45
 70
     0
102
RTVSPropertyOp46
 70
     0
102
RTVSPropertyOp47
 70
     0
102
RTVSPropertyOp48
 70
     0
102
RTVSPropertyOp49
 70
     0
102
RTVSPropertyOp50
 70
     0
102
RTVSPropertyOp51
 70
     0
102
RTVSPropertyOp52
 70
     0
102
RTVSPropertyOp53
 70
     0
102
RTVSPropertyOp54
 70
     0
102
RTVSPropertyOp55
 70
     0
102
RTVSPropertyOp56
 70
     0
102
RTVSPropertyOp57
 70
     0
102
RTVSPost2010Prop28
280
     0
102
RTVSPost2010PropOp28
 70
     0
102
RTVSPost2010Prop29
280
     1
102
RTVSPost2010PropOp29
 70
     0
102
RTVSPost2010Prop30
280
     1
102
RTVSPost2010PropOp30
 70
     0
102
RTVSPost2010Prop31
280
     0
102
RTVSPost2010PropOp31
 70
     0
102
RTVSPost2010Prop32
280
     0
102
RTVSPost2010PropOp32
 70
     0
102
RTVSPost2010Prop33
280
     0
102
RTVSPost2010PropOp33
 70
     0
102
RTVSPost2010Prop34
280
     0
102
RTVSPost2010PropOp34
 70
     0
102
RTVSPost2010Prop35
280
     0
102
RTVSPost2010PropOp35
 70
     0
102
RTVSPost2010Prop36
280
     0
102
RTVSPost2010PropOp36
 70
     0
102
RTVSPost2010Prop37
 90
       50
102
RTVSPost2010PropOp37
 70
     0
102
RTVSPost2010Prop38
140
0.0
102
RTVSPost2010PropOp38
 70
     0
102
RTVSPost2010Prop39
140
1.0
102
RTVSPost2010PropOp39
 70
     0
102
RTVSPost2010Prop40
 90
        0
102
RTVSPost2010PropOp40
 70
     0
102
RTVSPost2010Prop41ColorIndex
 90
       18
102
RTVSPost2010Prop41ColorRGB
 90
        0
102
RTVSPost2010PropOp41
 70
     0
102
RTVSPost2010Prop42
 90
       50
102
RTVSPost2010PropOp42
 70
     0
102
RTVSPost2010Prop43
 90
        3
102
RTVSPost2010PropOp43
 70
     0
102
RTVSPost2010Prop44ColorIndex
 90
        5
102
RTVSPost2010Prop44ColorRGB
 90
      255
102
RTVSPost2010PropOp44
 70
     0
102
RTVSPost2010Prop45
280
     0
102
RTVSPost2010PropOp45
 70
     0
102
RTVSPost2010Prop46
 90
       50
102
RTVSPost2010PropOp46
 70
     0
102
RTVSPost2010Prop47
 90
       50
102
RTVSPost2010PropOp47
 70
     0
102
RTVSPost2010Prop48
 90
       50
102
RTVSPost2010PropOp48
 70
     0
102
RTVSPost2010Prop49
280
     0
102
RTVSPost2010PropOp49
 70
     0
102
RTVSPost2010Prop50
 90
       50
102
RTVSPost2010PropOp50
 70
     0
102
RTVSPost2010Prop51ColorIndex
 90
      256
102
RTVSPost2010Prop51ColorRGB
 90
-16777216
102
RTVSPost2010PropOp51
 70
     0
102
RTVSPost2010Prop52
140
1.0
102
RTVSPost2010PropOp52
 70
     0
102
RTVSPost2010Prop53
 90
        2
102
RTVSPost2010PropOp53
 70
     0
102
RTVSPost2010Prop54
  1
strokes_ogs.tif
102
RTVSPost2010PropOp54
 70
     0
102
RTVSPost2010Prop55
280
     0
102
RTVSPost2010PropOp55
 70
     0
102
RTVSPost2010Prop56
140
1.0
102
RTVSPost2010PropOp56
 70
     0
102
RTVSPost2010Prop57
140
1.0
102
RTVSPost2010PropOp57
 70
     0
  0
XRECORD
  5
43B
102
{ACAD_REACTORS
330
43A
102
}
330
43A
100
AcDbXrecord
280
     1
102
RTVSPropertyOp0
 70
     1
102
RTVSPropertyOp1
 70
     1
102
RTVSPropertyOp2
 70
     1
102
RTVSPropertyOp3
 70
     1
102
RTVSPropertyOp4
 70
     1
102
RTVSPropertyOp5
 70
     1
102
RTVSPropertyOp6
 70
     1
102
RTVSPropertyOp7
 70
     1
102
RTVSPropertyOp8
 70
     1
102
RTVSPropertyOp9
 70
     1
102
RTVSPropertyOp10
 70
     1
102
RTVSPropertyOp11
 70
     1
102
RTVSPropertyOp12
 70
     1
102
RTVSPropertyOp13
 70
     1
102
RTVSPropertyOp14
 70
     1
102
RTVSPropertyOp15
 70
     1
102
RTVSPropertyOp16
 70
     1
102
RTVSPropertyOp17
 70
     1
102
RTVSPropertyOp18
 70
     1
102
RTVSPropertyOp19
 70
     1
102
RTVSPropertyOp20
 70
     1
102
RTVSPropertyOp21
 70
     1
102
RTVSPropertyOp22
 70
     1
102
RTVSPropertyOp23
 70
     1
102
RTVSPropertyOp24
 70
     1
102
RTVSPropertyOp25
 70
     1
102
RTVSPropertyOp26
 70
     1
102
RTVSPropertyOp27
 70
     1
102
RTVSPropertyOp28
 70
     1
102
RTVSPropertyOp29
 70
     1
102
RTVSPropertyOp30
 70
     1
102
RTVSPropertyOp31
 70
     1
102
RTVSPropertyOp32
 70
     1
102
RTVSPropertyOp33
 70
     1
102
RTVSPropertyOp34
 70
     1
102
RTVSPropertyOp35
 70
     1
102
RTVSPropertyOp36
 70
     1
102
RTVSPropertyOp37
 70
     1
102
RTVSPropertyOp38
 70
     1
102
RTVSPropertyOp39
 70
     1
102
RTVSPropertyOp40
 70
     1
102
RTVSPropertyOp41
 70
     1
102
RTVSPropertyOp42
 70
     1
102
RTVSPropertyOp43
 70
     1
102
RTVSPropertyOp44
 70
     1
102
RTVSPropertyOp45
 70
     1
102
RTVSPropertyOp46
 70
     1
102
RTVSPropertyOp47
 70
     1
102
RTVSPropertyOp48
 70
     1
102
RTVSPropertyOp49
 70
     1
102
RTVSPropertyOp50
 70
     1
102
RTVSPropertyOp51
 70
     0
102
RTVSPropertyOp52
 70
     0
102
RTVSPropertyOp53
 70
     1
102
RTVSPropertyOp54
 70
     1
102
RTVSPropertyOp55
 70
     1
102
RTVSPropertyOp56
 70
     1
102
RTVSPropertyOp57
 70
     1
102
RTVSPost2010Prop28
280
     0
102
RTVSPost2010PropOp28
 70
     1
102
RTVSPost2010Prop29
280
     1
102
RTVSPost2010PropOp29
 70
     1
102
RTVSPost2010Prop30
280
     1
102
RTVSPost2010PropOp30
 70
     1
102
RTVSPost2010Prop31
280
     0
102
RTVSPost2010PropOp31
 70
     1
102
RTVSPost2010Prop32
280
     0
102
RTVSPost2010PropOp32
 70
     1
102
RTVSPost2010Prop33
280
     0
102
RTVSPost2010PropOp33
 70
     1
102
RTVSPost2010Prop34
280
     0
102
RTVSPost2010PropOp34
 70
     1
102
RTVSPost2010Prop35
280
     0
102
RTVSPost2010PropOp35
 70
     1
102
RTVSPost2010Prop36
280
     0
102
RTVSPost2010PropOp36
 70
     1
102
RTVSPost2010Prop37
 90
       50
102
RTVSPost2010PropOp37
 70
     1
102
RTVSPost2010Prop38
140
0.0
102
RTVSPost2010PropOp38
 70
     1
102
RTVSPost2010Prop39
140
1.0
102
RTVSPost2010PropOp39
 70
     1
102
RTVSPost2010Prop40
 90
        0
102
RTVSPost2010PropOp40
 70
     1
102
RTVSPost2010Prop41ColorIndex
 90
       18
102
RTVSPost2010Prop41ColorRGB
 90
        0
102
RTVSPost2010PropOp41
 70
     1
102
RTVSPost2010Prop42
 90
       50
102
RTVSPost2010PropOp42
 70
     1
102
RTVSPost2010Prop43
 90
        3
102
RTVSPost2010PropOp43
 70
     1
102
RTVSPost2010Prop44ColorIndex
 90
        5
102
RTVSPost2010Prop44ColorRGB
 90
      255
102
RTVSPost2010PropOp44
 70
     1
102
RTVSPost2010Prop45
280
     0
102
RTVSPost2010PropOp45
 70
     1
102
RTVSPost2010Prop46
 90
       50
102
RTVSPost2010PropOp46
 70
     1
102
RTVSPost2010Prop47
 90
       50
102
RTVSPost2010PropOp47
 70
     1
102
RTVSPost2010Prop48
 90
       50
102
RTVSPost2010PropOp48
 70
     1
102
RTVSPost2010Prop49
280
     0
102
RTVSPost2010PropOp49
 70
     1
102
RTVSPost2010Prop50
 90
       50
102
RTVSPost2010PropOp50
 70
     1
102
RTVSPost2010Prop51ColorIndex
 90
      256
102
RTVSPost2010Prop51ColorRGB
 90
-16777216
102
RTVSPost2010PropOp51
 70
     0
102
RTVSPost2010Prop52
140
1.0
102
RTVSPost2010PropOp52
 70
     0
102
RTVSPost2010Prop53
 90
        2
102
RTVSPost2010PropOp53
 70
     1
102
RTVSPost2010Prop54
  1
strokes_ogs.tif
102
RTVSPost2010PropOp54
 70
     1
102
RTVSPost2010Prop55
280
     0
102
RTVSPost2010PropOp55
 70
     1
102
RTVSPost2010Prop56
140
1.0
102
RTVSPost2010PropOp56
 70
     1
102
RTVSPost2010Prop57
140
1.0
102
RTVSPost2010PropOp57
 70
     1
  0
XRECORD
  5
459
102
{ACAD_REACTORS
330
458
102
}
330
458
100
AcDbXrecord
280
     1
102
RTVSPropertyOp0
 70
     1
102
RTVSPropertyOp1
 70
     1
102
RTVSPropertyOp2
 70
     1
102
RTVSPropertyOp3
 70
     1
102
RTVSPropertyOp4
 70
     1
102
RTVSPropertyOp5
 70
     1
102
RTVSPropertyOp6
 70
     1
102
RTVSPropertyOp7
 70
     1
102
RTVSPropertyOp8
 70
     1
102
RTVSPropertyOp9
 70
     1
102
RTVSPropertyOp10
 70
     1
102
RTVSPropertyOp11
 70
     1
102
RTVSPropertyOp12
 70
     1
102
RTVSPropertyOp13
 70
     1
102
RTVSPropertyOp14
 70
     1
102
RTVSPropertyOp15
 70
     1
102
RTVSPropertyOp16
 70
     1
102
RTVSPropertyOp17
 70
     1
102
RTVSPropertyOp18
 70
     1
102
RTVSPropertyOp19
 70
     1
102
RTVSPropertyOp20
 70
     1
102
RTVSPropertyOp21
 70
     1
102
RTVSPropertyOp22
 70
     1
102
RTVSPropertyOp23
 70
     1
102
RTVSPropertyOp24
 70
     1
102
RTVSPropertyOp25
 70
     1
102
RTVSPropertyOp26
 70
     1
102
RTVSPropertyOp27
 70
     1
102
RTVSPropertyOp28
 70
     1
102
RTVSPropertyOp29
 70
     1
102
RTVSPropertyOp30
 70
     1
102
RTVSPropertyOp31
 70
     1
102
RTVSPropertyOp32
 70
     1
102
RTVSPropertyOp33
 70
     1
102
RTVSPropertyOp34
 70
     1
102
RTVSPropertyOp35
 70
     1
102
RTVSPropertyOp36
 70
     1
102
RTVSPropertyOp37
 70
     1
102
RTVSPropertyOp38
 70
     1
102
RTVSPropertyOp39
 70
     1
102
RTVSPropertyOp40
 70
     1
102
RTVSPropertyOp41
 70
     1
102
RTVSPropertyOp42
 70
     1
102
RTVSPropertyOp43
 70
     1
102
RTVSPropertyOp44
 70
     1
102
RTVSPropertyOp45
 70
     1
102
RTVSPropertyOp46
 70
     1
102
RTVSPropertyOp47
 70
     1
102
RTVSPropertyOp48
 70
     1
102
RTVSPropertyOp49
 70
     1
102
RTVSPropertyOp50
 70
     1
102
RTVSPropertyOp51
 70
     0
102
RTVSPropertyOp52
 70
     0
102
RTVSPropertyOp53
 70
     1
102
RTVSPropertyOp54
 70
     1
102
RTVSPropertyOp55
 70
     1
102
RTVSPropertyOp56
 70
     1
102
RTVSPropertyOp57
 70
     1
102
RTVSPost2010Prop28
280
     0
102
RTVSPost2010PropOp28
 70
     1
102
RTVSPost2010Prop29
280
     1
102
RTVSPost2010PropOp29
 70
     1
102
RTVSPost2010Prop30
280
     1
102
RTVSPost2010PropOp30
 70
     1
102
RTVSPost2010Prop31
280
     0
102
RTVSPost2010PropOp31
 70
     1
102
RTVSPost2010Prop32
280
     0
102
RTVSPost2010PropOp32
 70
     1
102
RTVSPost2010Prop33
280
     0
102
RTVSPost2010PropOp33
 70
     1
102
RTVSPost2010Prop34
280
     0
102
RTVSPost2010PropOp34
 70
     1
102
RTVSPost2010Prop35
280
     0
102
RTVSPost2010PropOp35
 70
     1
102
RTVSPost2010Prop36
280
     0
102
RTVSPost2010PropOp36
 70
     1
102
RTVSPost2010Prop37
 90
       50
102
RTVSPost2010PropOp37
 70
     1
102
RTVSPost2010Prop38
140
0.0
102
RTVSPost2010PropOp38
 70
     1
102
RTVSPost2010Prop39
140
1.0
102
RTVSPost2010PropOp39
 70
     1
102
RTVSPost2010Prop40
 90
        0
102
RTVSPost2010PropOp40
 70
     1
102
RTVSPost2010Prop41ColorIndex
 90
       18
102
RTVSPost2010Prop41ColorRGB
 90
        0
102
RTVSPost2010PropOp41
 70
     1
102
RTVSPost2010Prop42
 90
       50
102
RTVSPost2010PropOp42
 70
     1
102
RTVSPost2010Prop43
 90
        3
102
RTVSPost2010PropOp43
 70
     1
102
RTVSPost2010Prop44ColorIndex
 90
        5
102
RTVSPost2010Prop44ColorRGB
 90
      255
102
RTVSPost2010PropOp44
 70
     1
102
RTVSPost2010Prop45
280
     0
102
RTVSPost2010PropOp45
 70
     1
102
RTVSPost2010Prop46
 90
       50
102
RTVSPost2010PropOp46
 70
     1
102
RTVSPost2010Prop47
 90
       50
102
RTVSPost2010PropOp47
 70
     1
102
RTVSPost2010Prop48
 90
       50
102
RTVSPost2010PropOp48
 70
     1
102
RTVSPost2010Prop49
280
     0
102
RTVSPost2010PropOp49
 70
     1
102
RTVSPost2010Prop50
 90
       50
102
RTVSPost2010PropOp50
 70
     1
102
RTVSPost2010Prop51ColorIndex
 90
      256
102
RTVSPost2010Prop51ColorRGB
 90
-16777216
102
RTVSPost2010PropOp51
 70
     0
102
RTVSPost2010Prop52
140
1.0
102
RTVSPost2010PropOp52
 70
     0
102
RTVSPost2010Prop53
 90
        2
102
RTVSPost2010PropOp53
 70
     1
102
RTVSPost2010Prop54
  1
strokes_ogs.tif
102
RTVSPost2010PropOp54
 70
     1
102
RTVSPost2010Prop55
280
     0
102
RTVSPost2010PropOp55
 70
     1
102
RTVSPost2010Prop56
140
1.0
102
RTVSPost2010PropOp56
 70
     1
102
RTVSPost2010Prop57
140
1.0
102
RTVSPost2010PropOp57
 70
     1
  0
XRECORD
  5
457
102
{ACAD_REACTORS
330
456
102
}
330
456
100
AcDbXrecord
280
     1
102
RTVSPropertyOp0
 70
     1
102
RTVSPropertyOp1
 70
     1
102
RTVSPropertyOp2
 70
     1
102
RTVSPropertyOp3
 70
     1
102
RTVSPropertyOp4
 70
     1
102
RTVSPropertyOp5
 70
     1
102
RTVSPropertyOp6
 70
     1
102
RTVSPropertyOp7
 70
     1
102
RTVSPropertyOp8
 70
     1
102
RTVSPropertyOp9
 70
     1
102
RTVSPropertyOp10
 70
     1
102
RTVSPropertyOp11
 70
     1
102
RTVSPropertyOp12
 70
     1
102
RTVSPropertyOp13
 70
     1
102
RTVSPropertyOp14
 70
     1
102
RTVSPropertyOp15
 70
     1
102
RTVSPropertyOp16
 70
     1
102
RTVSPropertyOp17
 70
     1
102
RTVSPropertyOp18
 70
     1
102
RTVSPropertyOp19
 70
     1
102
RTVSPropertyOp20
 70
     1
102
RTVSPropertyOp21
 70
     1
102
RTVSPropertyOp22
 70
     1
102
RTVSPropertyOp23
 70
     1
102
RTVSPropertyOp24
 70
     1
102
RTVSPropertyOp25
 70
     1
102
RTVSPropertyOp26
 70
     1
102
RTVSPropertyOp27
 70
     1
102
RTVSPropertyOp28
 70
     1
102
RTVSPropertyOp29
 70
     1
102
RTVSPropertyOp30
 70
     1
102
RTVSPropertyOp31
 70
     1
102
RTVSPropertyOp32
 70
     1
102
RTVSPropertyOp33
 70
     1
102
RTVSPropertyOp34
 70
     1
102
RTVSPropertyOp35
 70
     1
102
RTVSPropertyOp36
 70
     1
102
RTVSPropertyOp37
 70
     1
102
RTVSPropertyOp38
 70
     1
102
RTVSPropertyOp39
 70
     1
102
RTVSPropertyOp40
 70
     1
102
RTVSPropertyOp41
 70
     1
102
RTVSPropertyOp42
 70
     1
102
RTVSPropertyOp43
 70
     1
102
RTVSPropertyOp44
 70
     1
102
RTVSPropertyOp45
 70
     1
102
RTVSPropertyOp46
 70
     1
102
RTVSPropertyOp47
 70
     1
102
RTVSPropertyOp48
 70
     1
102
RTVSPropertyOp49
 70
     1
102
RTVSPropertyOp50
 70
     1
102
RTVSPropertyOp51
 70
     0
102
RTVSPropertyOp52
 70
     0
102
RTVSPropertyOp53
 70
     1
102
RTVSPropertyOp54
 70
     1
102
RTVSPropertyOp55
 70
     1
102
RTVSPropertyOp56
 70
     1
102
RTVSPropertyOp57
 70
     1
102
RTVSPost2010Prop28
280
     0
102
RTVSPost2010PropOp28
 70
     1
102
RTVSPost2010Prop29
280
     1
102
RTVSPost2010PropOp29
 70
     1
102
RTVSPost2010Prop30
280
     1
102
RTVSPost2010PropOp30
 70
     1
102
RTVSPost2010Prop31
280
     0
102
RTVSPost2010PropOp31
 70
     1
102
RTVSPost2010Prop32
280
     0
102
RTVSPost2010PropOp32
 70
     1
102
RTVSPost2010Prop33
280
     0
102
RTVSPost2010PropOp33
 70
     1
102
RTVSPost2010Prop34
280
     0
102
RTVSPost2010PropOp34
 70
     1
102
RTVSPost2010Prop35
280
     0
102
RTVSPost2010PropOp35
 70
     1
102
RTVSPost2010Prop36
280
     0
102
RTVSPost2010PropOp36
 70
     1
102
RTVSPost2010Prop37
 90
       50
102
RTVSPost2010PropOp37
 70
     1
102
RTVSPost2010Prop38
140
0.0
102
RTVSPost2010PropOp38
 70
     1
102
RTVSPost2010Prop39
140
1.0
102
RTVSPost2010PropOp39
 70
     1
102
RTVSPost2010Prop40
 90
        0
102
RTVSPost2010PropOp40
 70
     1
102
RTVSPost2010Prop41ColorIndex
 90
       18
102
RTVSPost2010Prop41ColorRGB
 90
        0
102
RTVSPost2010PropOp41
 70
     1
102
RTVSPost2010Prop42
 90
       50
102
RTVSPost2010PropOp42
 70
     1
102
RTVSPost2010Prop43
 90
        3
102
RTVSPost2010PropOp43
 70
     1
102
RTVSPost2010Prop44ColorIndex
 90
        5
102
RTVSPost2010Prop44ColorRGB
 90
      255
102
RTVSPost2010PropOp44
 70
     1
102
RTVSPost2010Prop45
280
     0
102
RTVSPost2010PropOp45
 70
     1
102
RTVSPost2010Prop46
 90
       50
102
RTVSPost2010PropOp46
 70
     1
102
RTVSPost2010Prop47
 90
       50
102
RTVSPost2010PropOp47
 70
     1
102
RTVSPost2010Prop48
 90
       50
102
RTVSPost2010PropOp48
 70
     1
102
RTVSPost2010Prop49
280
     0
102
RTVSPost2010PropOp49
 70
     1
102
RTVSPost2010Prop50
 90
       50
102
RTVSPost2010PropOp50
 70
     1
102
RTVSPost2010Prop51ColorIndex
 90
      256
102
RTVSPost2010Prop51ColorRGB
 90
-16777216
102
RTVSPost2010PropOp51
 70
     0
102
RTVSPost2010Prop52
140
1.0
102
RTVSPost2010PropOp52
 70
     0
102
RTVSPost2010Prop53
 90
        2
102
RTVSPost2010PropOp53
 70
     1
102
RTVSPost2010Prop54
  1
strokes_ogs.tif
102
RTVSPost2010PropOp54
 70
     1
102
RTVSPost2010Prop55
280
     0
102
RTVSPost2010PropOp55
 70
     1
102
RTVSPost2010Prop56
140
1.0
102
RTVSPost2010PropOp56
 70
     1
102
RTVSPost2010Prop57
140
1.0
102
RTVSPost2010PropOp57
 70
     1
  0
XRECORD
  5
451
102
{ACAD_REACTORS
330
450
102
}
330
450
100
AcDbXrecord
280
     1
102
RTVSPropertyOp0
 70
     1
102
RTVSPropertyOp1
 70
     1
102
RTVSPropertyOp2
 70
     1
102
RTVSPropertyOp3
 70
     1
102
RTVSPropertyOp4
 70
     1
102
RTVSPropertyOp5
 70
     1
102
RTVSPropertyOp6
 70
     1
102
RTVSPropertyOp7
 70
     1
102
RTVSPropertyOp8
 70
     1
102
RTVSPropertyOp9
 70
     1
102
RTVSPropertyOp10
 70
     1
102
RTVSPropertyOp11
 70
     1
102
RTVSPropertyOp12
 70
     1
102
RTVSPropertyOp13
 70
     1
102
RTVSPropertyOp14
 70
     1
102
RTVSPropertyOp15
 70
     1
102
RTVSPropertyOp16
 70
     1
102
RTVSPropertyOp17
 70
     1
102
RTVSPropertyOp18
 70
     1
102
RTVSPropertyOp19
 70
     1
102
RTVSPropertyOp20
 70
     1
102
RTVSPropertyOp21
 70
     1
102
RTVSPropertyOp22
 70
     1
102
RTVSPropertyOp23
 70
     1
102
RTVSPropertyOp24
 70
     1
102
RTVSPropertyOp25
 70
     1
102
RTVSPropertyOp26
 70
     1
102
RTVSPropertyOp27
 70
     1
102
RTVSPropertyOp28
 70
     1
102
RTVSPropertyOp29
 70
     1
102
RTVSPropertyOp30
 70
     1
102
RTVSPropertyOp31
 70
     1
102
RTVSPropertyOp32
 70
     1
102
RTVSPropertyOp33
 70
     1
102
RTVSPropertyOp34
 70
     1
102
RTVSPropertyOp35
 70
     1
102
RTVSPropertyOp36
 70
     1
102
RTVSPropertyOp37
 70
     1
102
RTVSPropertyOp38
 70
     1
102
RTVSPropertyOp39
 70
     1
102
RTVSPropertyOp40
 70
     1
102
RTVSPropertyOp41
 70
     1
102
RTVSPropertyOp42
 70
     1
102
RTVSPropertyOp43
 70
     1
102
RTVSPropertyOp44
 70
     1
102
RTVSPropertyOp45
 70
     1
102
RTVSPropertyOp46
 70
     1
102
RTVSPropertyOp47
 70
     1
102
RTVSPropertyOp48
 70
     1
102
RTVSPropertyOp49
 70
     1
102
RTVSPropertyOp50
 70
     1
102
RTVSPropertyOp51
 70
     0
102
RTVSPropertyOp52
 70
     0
102
RTVSPropertyOp53
 70
     1
102
RTVSPropertyOp54
 70
     1
102
RTVSPropertyOp55
 70
     1
102
RTVSPropertyOp56
 70
     1
102
RTVSPropertyOp57
 70
     1
102
RTVSPost2010Prop28
280
     0
102
RTVSPost2010PropOp28
 70
     1
102
RTVSPost2010Prop29
280
     1
102
RTVSPost2010PropOp29
 70
     1
102
RTVSPost2010Prop30
280
     1
102
RTVSPost2010PropOp30
 70
     1
102
RTVSPost2010Prop31
280
     0
102
RTVSPost2010PropOp31
 70
     1
102
RTVSPost2010Prop32
280
     0
102
RTVSPost2010PropOp32
 70
     1
102
RTVSPost2010Prop33
280
     0
102
RTVSPost2010PropOp33
 70
     1
102
RTVSPost2010Prop34
280
     0
102
RTVSPost2010PropOp34
 70
     1
102
RTVSPost2010Prop35
280
     0
102
RTVSPost2010PropOp35
 70
     1
102
RTVSPost2010Prop36
280
     0
102
RTVSPost2010PropOp36
 70
     1
102
RTVSPost2010Prop37
 90
       50
102
RTVSPost2010PropOp37
 70
     1
102
RTVSPost2010Prop38
140
0.0
102
RTVSPost2010PropOp38
 70
     1
102
RTVSPost2010Prop39
140
1.0
102
RTVSPost2010PropOp39
 70
     1
102
RTVSPost2010Prop40
 90
        0
102
RTVSPost2010PropOp40
 70
     1
102
RTVSPost2010Prop41ColorIndex
 90
       18
102
RTVSPost2010Prop41ColorRGB
 90
        0
102
RTVSPost2010PropOp41
 70
     1
102
RTVSPost2010Prop42
 90
       50
102
RTVSPost2010PropOp42
 70
     1
102
RTVSPost2010Prop43
 90
        3
102
RTVSPost2010PropOp43
 70
     1
102
RTVSPost2010Prop44ColorIndex
 90
        5
102
RTVSPost2010Prop44ColorRGB
 90
      255
102
RTVSPost2010PropOp44
 70
     1
102
RTVSPost2010Prop45
280
     0
102
RTVSPost2010PropOp45
 70
     1
102
RTVSPost2010Prop46
 90
       50
102
RTVSPost2010PropOp46
 70
     1
102
RTVSPost2010Prop47
 90
       50
102
RTVSPost2010PropOp47
 70
     1
102
RTVSPost2010Prop48
 90
       50
102
RTVSPost2010PropOp48
 70
     1
102
RTVSPost2010Prop49
280
     0
102
RTVSPost2010PropOp49
 70
     1
102
RTVSPost2010Prop50
 90
       50
102
RTVSPost2010PropOp50
 70
     1
102
RTVSPost2010Prop51ColorIndex
 90
      256
102
RTVSPost2010Prop51ColorRGB
 90
-16777216
102
RTVSPost2010PropOp51
 70
     0
102
RTVSPost2010Prop52
140
1.0
102
RTVSPost2010PropOp52
 70
     0
102
RTVSPost2010Prop53
 90
        2
102
RTVSPost2010PropOp53
 70
     1
102
RTVSPost2010Prop54
  1
strokes_ogs.tif
102
RTVSPost2010PropOp54
 70
     1
102
RTVSPost2010Prop55
280
     0
102
RTVSPost2010PropOp55
 70
     1
102
RTVSPost2010Prop56
140
1.0
102
RTVSPost2010PropOp56
 70
     1
102
RTVSPost2010Prop57
140
1.0
102
RTVSPost2010PropOp57
 70
     1
  0
XRECORD
  5
453
102
{ACAD_REACTORS
330
452
102
}
330
452
100
AcDbXrecord
280
     1
102
RTVSPropertyOp0
 70
     1
102
RTVSPropertyOp1
 70
     1
102
RTVSPropertyOp2
 70
     1
102
RTVSPropertyOp3
 70
     1
102
RTVSPropertyOp4
 70
     1
102
RTVSPropertyOp5
 70
     1
102
RTVSPropertyOp6
 70
     1
102
RTVSPropertyOp7
 70
     1
102
RTVSPropertyOp8
 70
     1
102
RTVSPropertyOp9
 70
     1
102
RTVSPropertyOp10
 70
     1
102
RTVSPropertyOp11
 70
     1
102
RTVSPropertyOp12
 70
     1
102
RTVSPropertyOp13
 70
     1
102
RTVSPropertyOp14
 70
     1
102
RTVSPropertyOp15
 70
     1
102
RTVSPropertyOp16
 70
     1
102
RTVSPropertyOp17
 70
     1
102
RTVSPropertyOp18
 70
     1
102
RTVSPropertyOp19
 70
     1
102
RTVSPropertyOp20
 70
     1
102
RTVSPropertyOp21
 70
     1
102
RTVSPropertyOp22
 70
     1
102
RTVSPropertyOp23
 70
     1
102
RTVSPropertyOp24
 70
     1
102
RTVSPropertyOp25
 70
     1
102
RTVSPropertyOp26
 70
     1
102
RTVSPropertyOp27
 70
     1
102
RTVSPropertyOp28
 70
     1
102
RTVSPropertyOp29
 70
     1
102
RTVSPropertyOp30
 70
     1
102
RTVSPropertyOp31
 70
     1
102
RTVSPropertyOp32
 70
     1
102
RTVSPropertyOp33
 70
     1
102
RTVSPropertyOp34
 70
     1
102
RTVSPropertyOp35
 70
     1
102
RTVSPropertyOp36
 70
     1
102
RTVSPropertyOp37
 70
     1
102
RTVSPropertyOp38
 70
     1
102
RTVSPropertyOp39
 70
     1
102
RTVSPropertyOp40
 70
     1
102
RTVSPropertyOp41
 70
     1
102
RTVSPropertyOp42
 70
     1
102
RTVSPropertyOp43
 70
     1
102
RTVSPropertyOp44
 70
     1
102
RTVSPropertyOp45
 70
     1
102
RTVSPropertyOp46
 70
     1
102
RTVSPropertyOp47
 70
     1
102
RTVSPropertyOp48
 70
     1
102
RTVSPropertyOp49
 70
     1
102
RTVSPropertyOp50
 70
     1
102
RTVSPropertyOp51
 70
     0
102
RTVSPropertyOp52
 70
     0
102
RTVSPropertyOp53
 70
     1
102
RTVSPropertyOp54
 70
     1
102
RTVSPropertyOp55
 70
     1
102
RTVSPropertyOp56
 70
     1
102
RTVSPropertyOp57
 70
     1
102
RTVSPost2010Prop28
280
     0
102
RTVSPost2010PropOp28
 70
     1
102
RTVSPost2010Prop29
280
     1
102
RTVSPost2010PropOp29
 70
     1
102
RTVSPost2010Prop30
280
     1
102
RTVSPost2010PropOp30
 70
     1
102
RTVSPost2010Prop31
280
     0
102
RTVSPost2010PropOp31
 70
     1
102
RTVSPost2010Prop32
280
     0
102
RTVSPost2010PropOp32
 70
     1
102
RTVSPost2010Prop33
280
     0
102
RTVSPost2010PropOp33
 70
     1
102
RTVSPost2010Prop34
280
     0
102
RTVSPost2010PropOp34
 70
     1
102
RTVSPost2010Prop35
280
     0
102
RTVSPost2010PropOp35
 70
     1
102
RTVSPost2010Prop36
280
     0
102
RTVSPost2010PropOp36
 70
     1
102
RTVSPost2010Prop37
 90
       50
102
RTVSPost2010PropOp37
 70
     1
102
RTVSPost2010Prop38
140
0.0
102
RTVSPost2010PropOp38
 70
     1
102
RTVSPost2010Prop39
140
1.0
102
RTVSPost2010PropOp39
 70
     1
102
RTVSPost2010Prop40
 90
        0
102
RTVSPost2010PropOp40
 70
     1
102
RTVSPost2010Prop41ColorIndex
 90
       18
102
RTVSPost2010Prop41ColorRGB
 90
        0
102
RTVSPost2010PropOp41
 70
     1
102
RTVSPost2010Prop42
 90
       50
102
RTVSPost2010PropOp42
 70
     1
102
RTVSPost2010Prop43
 90
        3
102
RTVSPost2010PropOp43
 70
     1
102
RTVSPost2010Prop44ColorIndex
 90
        5
102
RTVSPost2010Prop44ColorRGB
 90
      255
102
RTVSPost2010PropOp44
 70
     1
102
RTVSPost2010Prop45
280
     0
102
RTVSPost2010PropOp45
 70
     1
102
RTVSPost2010Prop46
 90
       50
102
RTVSPost2010PropOp46
 70
     1
102
RTVSPost2010Prop47
 90
       50
102
RTVSPost2010PropOp47
 70
     1
102
RTVSPost2010Prop48
 90
       50
102
RTVSPost2010PropOp48
 70
     1
102
RTVSPost2010Prop49
280
     0
102
RTVSPost2010PropOp49
 70
     1
102
RTVSPost2010Prop50
 90
       50
102
RTVSPost2010PropOp50
 70
     1
102
RTVSPost2010Prop51ColorIndex
 90
      256
102
RTVSPost2010Prop51ColorRGB
 90
-16777216
102
RTVSPost2010PropOp51
 70
     0
102
RTVSPost2010Prop52
140
1.0
102
RTVSPost2010PropOp52
 70
     0
102
RTVSPost2010Prop53
 90
        2
102
RTVSPost2010PropOp53
 70
     1
102
RTVSPost2010Prop54
  1
strokes_ogs.tif
102
RTVSPost2010PropOp54
 70
     1
102
RTVSPost2010Prop55
280
     0
102
RTVSPost2010PropOp55
 70
     1
102
RTVSPost2010Prop56
140
1.0
102
RTVSPost2010PropOp56
 70
     1
102
RTVSPost2010Prop57
140
1.0
102
RTVSPost2010PropOp57
 70
     1
  0
XRECORD
  5
443
102
{ACAD_REACTORS
330
442
102
}
330
442
100
AcDbXrecord
280
     1
102
RTVSPropertyOp0
 70
     1
102
RTVSPropertyOp1
 70
     1
102
RTVSPropertyOp2
 70
     1
102
RTVSPropertyOp3
 70
     1
102
RTVSPropertyOp4
 70
     1
102
RTVSPropertyOp5
 70
     1
102
RTVSPropertyOp6
 70
     1
102
RTVSPropertyOp7
 70
     1
102
RTVSPropertyOp8
 70
     1
102
RTVSPropertyOp9
 70
     1
102
RTVSPropertyOp10
 70
     1
102
RTVSPropertyOp11
 70
     1
102
RTVSPropertyOp12
 70
     1
102
RTVSPropertyOp13
 70
     1
102
RTVSPropertyOp14
 70
     1
102
RTVSPropertyOp15
 70
     1
102
RTVSPropertyOp16
 70
     1
102
RTVSPropertyOp17
 70
     1
102
RTVSPropertyOp18
 70
     1
102
RTVSPropertyOp19
 70
     1
102
RTVSPropertyOp20
 70
     1
102
RTVSPropertyOp21
 70
     1
102
RTVSPropertyOp22
 70
     1
102
RTVSPropertyOp23
 70
     1
102
RTVSPropertyOp24
 70
     1
102
RTVSPropertyOp25
 70
     1
102
RTVSPropertyOp26
 70
     1
102
RTVSPropertyOp27
 70
     1
102
RTVSPropertyOp28
 70
     1
102
RTVSPropertyOp29
 70
     1
102
RTVSPropertyOp30
 70
     1
102
RTVSPropertyOp31
 70
     1
102
RTVSPropertyOp32
 70
     1
102
RTVSPropertyOp33
 70
     1
102
RTVSPropertyOp34
 70
     1
102
RTVSPropertyOp35
 70
     1
102
RTVSPropertyOp36
 70
     1
102
RTVSPropertyOp37
 70
     1
102
RTVSPropertyOp38
 70
     1
102
RTVSPropertyOp39
 70
     1
102
RTVSPropertyOp40
 70
     1
102
RTVSPropertyOp41
 70
     1
102
RTVSPropertyOp42
 70
     1
102
RTVSPropertyOp43
 70
     1
102
RTVSPropertyOp44
 70
     1
102
RTVSPropertyOp45
 70
     1
102
RTVSPropertyOp46
 70
     1
102
RTVSPropertyOp47
 70
     1
102
RTVSPropertyOp48
 70
     1
102
RTVSPropertyOp49
 70
     1
102
RTVSPropertyOp50
 70
     1
102
RTVSPropertyOp51
 70
     0
102
RTVSPropertyOp52
 70
     0
102
RTVSPropertyOp53
 70
     1
102
RTVSPropertyOp54
 70
     1
102
RTVSPropertyOp55
 70
     1
102
RTVSPropertyOp56
 70
     1
102
RTVSPropertyOp57
 70
     1
102
RTVSPost2010Prop28
280
     0
102
RTVSPost2010PropOp28
 70
     1
102
RTVSPost2010Prop29
280
     1
102
RTVSPost2010PropOp29
 70
     1
102
RTVSPost2010Prop30
280
     1
102
RTVSPost2010PropOp30
 70
     1
102
RTVSPost2010Prop31
280
     0
102
RTVSPost2010PropOp31
 70
     1
102
RTVSPost2010Prop32
280
     0
102
RTVSPost2010PropOp32
 70
     1
102
RTVSPost2010Prop33
280
     0
102
RTVSPost2010PropOp33
 70
     1
102
RTVSPost2010Prop34
280
     0
102
RTVSPost2010PropOp34
 70
     1
102
RTVSPost2010Prop35
280
     0
102
RTVSPost2010PropOp35
 70
     1
102
RTVSPost2010Prop36
280
     0
102
RTVSPost2010PropOp36
 70
     1
102
RTVSPost2010Prop37
 90
       50
102
RTVSPost2010PropOp37
 70
     1
102
RTVSPost2010Prop38
140
0.0
102
RTVSPost2010PropOp38
 70
     1
102
RTVSPost2010Prop39
140
1.0
102
RTVSPost2010PropOp39
 70
     1
102
RTVSPost2010Prop40
 90
        0
102
RTVSPost2010PropOp40
 70
     1
102
RTVSPost2010Prop41ColorIndex
 90
       18
102
RTVSPost2010Prop41ColorRGB
 90
        0
102
RTVSPost2010PropOp41
 70
     1
102
RTVSPost2010Prop42
 90
       50
102
RTVSPost2010PropOp42
 70
     1
102
RTVSPost2010Prop43
 90
        3
102
RTVSPost2010PropOp43
 70
     1
102
RTVSPost2010Prop44ColorIndex
 90
        5
102
RTVSPost2010Prop44ColorRGB
 90
      255
102
RTVSPost2010PropOp44
 70
     1
102
RTVSPost2010Prop45
280
     0
102
RTVSPost2010PropOp45
 70
     1
102
RTVSPost2010Prop46
 90
       50
102
RTVSPost2010PropOp46
 70
     1
102
RTVSPost2010Prop47
 90
       50
102
RTVSPost2010PropOp47
 70
     1
102
RTVSPost2010Prop48
 90
       50
102
RTVSPost2010PropOp48
 70
     1
102
RTVSPost2010Prop49
280
     0
102
RTVSPost2010PropOp49
 70
     1
102
RTVSPost2010Prop50
 90
       50
102
RTVSPost2010PropOp50
 70
     1
102
RTVSPost2010Prop51ColorIndex
 90
      256
102
RTVSPost2010Prop51ColorRGB
 90
-16777216
102
RTVSPost2010PropOp51
 70
     0
102
RTVSPost2010Prop52
140
1.0
102
RTVSPost2010PropOp52
 70
     0
102
RTVSPost2010Prop53
 90
        2
102
RTVSPost2010PropOp53
 70
     1
102
RTVSPost2010Prop54
  1
strokes_ogs.tif
102
RTVSPost2010PropOp54
 70
     1
102
RTVSPost2010Prop55
280
     0
102
RTVSPost2010PropOp55
 70
     1
102
RTVSPost2010Prop56
140
1.0
102
RTVSPost2010PropOp56
 70
     1
102
RTVSPost2010Prop57
140
1.0
102
RTVSPost2010PropOp57
 70
     1
  0
XRECORD
  5
435
102
{ACAD_REACTORS
330
434
102
}
330
434
100
AcDbXrecord
280
     1
102
RTVSPropertyOp0
 70
     1
102
RTVSPropertyOp1
 70
     1
102
RTVSPropertyOp2
 70
     1
102
RTVSPropertyOp3
 70
     1
102
RTVSPropertyOp4
 70
     1
102
RTVSPropertyOp5
 70
     1
102
RTVSPropertyOp6
 70
     1
102
RTVSPropertyOp7
 70
     1
102
RTVSPropertyOp8
 70
     1
102
RTVSPropertyOp9
 70
     1
102
RTVSPropertyOp10
 70
     1
102
RTVSPropertyOp11
 70
     1
102
RTVSPropertyOp12
 70
     1
102
RTVSPropertyOp13
 70
     1
102
RTVSPropertyOp14
 70
     1
102
RTVSPropertyOp15
 70
     1
102
RTVSPropertyOp16
 70
     1
102
RTVSPropertyOp17
 70
     1
102
RTVSPropertyOp18
 70
     1
102
RTVSPropertyOp19
 70
     1
102
RTVSPropertyOp20
 70
     1
102
RTVSPropertyOp21
 70
     1
102
RTVSPropertyOp22
 70
     1
102
RTVSPropertyOp23
 70
     1
102
RTVSPropertyOp24
 70
     1
102
RTVSPropertyOp25
 70
     1
102
RTVSPropertyOp26
 70
     1
102
RTVSPropertyOp27
 70
     1
102
RTVSPropertyOp28
 70
     1
102
RTVSPropertyOp29
 70
     1
102
RTVSPropertyOp30
 70
     1
102
RTVSPropertyOp31
 70
     1
102
RTVSPropertyOp32
 70
     1
102
RTVSPropertyOp33
 70
     1
102
RTVSPropertyOp34
 70
     1
102
RTVSPropertyOp35
 70
     1
102
RTVSPropertyOp36
 70
     1
102
RTVSPropertyOp37
 70
     1
102
RTVSPropertyOp38
 70
     1
102
RTVSPropertyOp39
 70
     1
102
RTVSPropertyOp40
 70
     1
102
RTVSPropertyOp41
 70
     1
102
RTVSPropertyOp42
 70
     1
102
RTVSPropertyOp43
 70
     1
102
RTVSPropertyOp44
 70
     1
102
RTVSPropertyOp45
 70
     1
102
RTVSPropertyOp46
 70
     1
102
RTVSPropertyOp47
 70
     1
102
RTVSPropertyOp48
 70
     1
102
RTVSPropertyOp49
 70
     1
102
RTVSPropertyOp50
 70
     1
102
RTVSPropertyOp51
 70
     0
102
RTVSPropertyOp52
 70
     0
102
RTVSPropertyOp53
 70
     1
102
RTVSPropertyOp54
 70
     1
102
RTVSPropertyOp55
 70
     1
102
RTVSPropertyOp56
 70
     1
102
RTVSPropertyOp57
 70
     1
102
RTVSPost2010Prop28
280
     0
102
RTVSPost2010PropOp28
 70
     1
102
RTVSPost2010Prop29
280
     1
102
RTVSPost2010PropOp29
 70
     1
102
RTVSPost2010Prop30
280
     1
102
RTVSPost2010PropOp30
 70
     1
102
RTVSPost2010Prop31
280
     0
102
RTVSPost2010PropOp31
 70
     1
102
RTVSPost2010Prop32
280
     0
102
RTVSPost2010PropOp32
 70
     1
102
RTVSPost2010Prop33
280
     0
102
RTVSPost2010PropOp33
 70
     1
102
RTVSPost2010Prop34
280
     0
102
RTVSPost2010PropOp34
 70
     1
102
RTVSPost2010Prop35
280
     0
102
RTVSPost2010PropOp35
 70
     1
102
RTVSPost2010Prop36
280
     0
102
RTVSPost2010PropOp36
 70
     1
102
RTVSPost2010Prop37
 90
       50
102
RTVSPost2010PropOp37
 70
     1
102
RTVSPost2010Prop38
140
0.0
102
RTVSPost2010PropOp38
 70
     1
102
RTVSPost2010Prop39
140
1.0
102
RTVSPost2010PropOp39
 70
     1
102
RTVSPost2010Prop40
 90
        0
102
RTVSPost2010PropOp40
 70
     1
102
RTVSPost2010Prop41ColorIndex
 90
       18
102
RTVSPost2010Prop41ColorRGB
 90
        0
102
RTVSPost2010PropOp41
 70
     1
102
RTVSPost2010Prop42
 90
       50
102
RTVSPost2010PropOp42
 70
     1
102
RTVSPost2010Prop43
 90
        3
102
RTVSPost2010PropOp43
 70
     1
102
RTVSPost2010Prop44ColorIndex
 90
        5
102
RTVSPost2010Prop44ColorRGB
 90
      255
102
RTVSPost2010PropOp44
 70
     1
102
RTVSPost2010Prop45
280
     0
102
RTVSPost2010PropOp45
 70
     1
102
RTVSPost2010Prop46
 90
       50
102
RTVSPost2010PropOp46
 70
     1
102
RTVSPost2010Prop47
 90
       50
102
RTVSPost2010PropOp47
 70
     1
102
RTVSPost2010Prop48
 90
       50
102
RTVSPost2010PropOp48
 70
     1
102
RTVSPost2010Prop49
280
     0
102
RTVSPost2010PropOp49
 70
     1
102
RTVSPost2010Prop50
 90
       50
102
RTVSPost2010PropOp50
 70
     1
102
RTVSPost2010Prop51ColorIndex
 90
      256
102
RTVSPost2010Prop51ColorRGB
 90
-16777216
102
RTVSPost2010PropOp51
 70
     0
102
RTVSPost2010Prop52
140
1.0
102
RTVSPost2010PropOp52
 70
     0
102
RTVSPost2010Prop53
 90
        2
102
RTVSPost2010PropOp53
 70
     1
102
RTVSPost2010Prop54
  1
strokes_ogs.tif
102
RTVSPost2010PropOp54
 70
     1
102
RTVSPost2010Prop55
280
     0
102
RTVSPost2010PropOp55
 70
     1
102
RTVSPost2010Prop56
140
1.0
102
RTVSPost2010PropOp56
 70
     1
102
RTVSPost2010Prop57
140
1.0
102
RTVSPost2010PropOp57
 70
     1
  0
XRECORD
  5
455
102
{ACAD_REACTORS
330
454
102
}
330
454
100
AcDbXrecord
280
     1
102
RTVSPropertyOp0
 70
     1
102
RTVSPropertyOp1
 70
     1
102
RTVSPropertyOp2
 70
     1
102
RTVSPropertyOp3
 70
     1
102
RTVSPropertyOp4
 70
     1
102
RTVSPropertyOp5
 70
     1
102
RTVSPropertyOp6
 70
     1
102
RTVSPropertyOp7
 70
     1
102
RTVSPropertyOp8
 70
     1
102
RTVSPropertyOp9
 70
     1
102
RTVSPropertyOp10
 70
     1
102
RTVSPropertyOp11
 70
     1
102
RTVSPropertyOp12
 70
     1
102
RTVSPropertyOp13
 70
     1
102
RTVSPropertyOp14
 70
     1
102
RTVSPropertyOp15
 70
     1
102
RTVSPropertyOp16
 70
     1
102
RTVSPropertyOp17
 70
     1
102
RTVSPropertyOp18
 70
     1
102
RTVSPropertyOp19
 70
     1
102
RTVSPropertyOp20
 70
     1
102
RTVSPropertyOp21
 70
     1
102
RTVSPropertyOp22
 70
     1
102
RTVSPropertyOp23
 70
     1
102
RTVSPropertyOp24
 70
     1
102
RTVSPropertyOp25
 70
     1
102
RTVSPropertyOp26
 70
     1
102
RTVSPropertyOp27
 70
     1
102
RTVSPropertyOp28
 70
     1
102
RTVSPropertyOp29
 70
     1
102
RTVSPropertyOp30
 70
     1
102
RTVSPropertyOp31
 70
     1
102
RTVSPropertyOp32
 70
     1
102
RTVSPropertyOp33
 70
     1
102
RTVSPropertyOp34
 70
     1
102
RTVSPropertyOp35
 70
     1
102
RTVSPropertyOp36
 70
     1
102
RTVSPropertyOp37
 70
     1
102
RTVSPropertyOp38
 70
     1
102
RTVSPropertyOp39
 70
     1
102
RTVSPropertyOp40
 70
     1
102
RTVSPropertyOp41
 70
     1
102
RTVSPropertyOp42
 70
     1
102
RTVSPropertyOp43
 70
     1
102
RTVSPropertyOp44
 70
     1
102
RTVSPropertyOp45
 70
     1
102
RTVSPropertyOp46
 70
     1
102
RTVSPropertyOp47
 70
     1
102
RTVSPropertyOp48
 70
     1
102
RTVSPropertyOp49
 70
     1
102
RTVSPropertyOp50
 70
     1
102
RTVSPropertyOp51
 70
     0
102
RTVSPropertyOp52
 70
     0
102
RTVSPropertyOp53
 70
     1
102
RTVSPropertyOp54
 70
     1
102
RTVSPropertyOp55
 70
     1
102
RTVSPropertyOp56
 70
     1
102
RTVSPropertyOp57
 70
     1
102
RTVSPost2010Prop28
280
     0
102
RTVSPost2010PropOp28
 70
     1
102
RTVSPost2010Prop29
280
     1
102
RTVSPost2010PropOp29
 70
     1
102
RTVSPost2010Prop30
280
     1
102
RTVSPost2010PropOp30
 70
     1
102
RTVSPost2010Prop31
280
     0
102
RTVSPost2010PropOp31
 70
     1
102
RTVSPost2010Prop32
280
     0
102
RTVSPost2010PropOp32
 70
     1
102
RTVSPost2010Prop33
280
     0
102
RTVSPost2010PropOp33
 70
     1
102
RTVSPost2010Prop34
280
     0
102
RTVSPost2010PropOp34
 70
     1
102
RTVSPost2010Prop35
280
     0
102
RTVSPost2010PropOp35
 70
     1
102
RTVSPost2010Prop36
280
     0
102
RTVSPost2010PropOp36
 70
     1
102
RTVSPost2010Prop37
 90
       50
102
RTVSPost2010PropOp37
 70
     1
102
RTVSPost2010Prop38
140
0.0
102
RTVSPost2010PropOp38
 70
     1
102
RTVSPost2010Prop39
140
1.0
102
RTVSPost2010PropOp39
 70
     1
102
RTVSPost2010Prop40
 90
        0
102
RTVSPost2010PropOp40
 70
     1
102
RTVSPost2010Prop41ColorIndex
 90
       18
102
RTVSPost2010Prop41ColorRGB
 90
        0
102
RTVSPost2010PropOp41
 70
     1
102
RTVSPost2010Prop42
 90
       50
102
RTVSPost2010PropOp42
 70
     1
102
RTVSPost2010Prop43
 90
        3
102
RTVSPost2010PropOp43
 70
     1
102
RTVSPost2010Prop44ColorIndex
 90
        5
102
RTVSPost2010Prop44ColorRGB
 90
      255
102
RTVSPost2010PropOp44
 70
     1
102
RTVSPost2010Prop45
280
     0
102
RTVSPost2010PropOp45
 70
     1
102
RTVSPost2010Prop46
 90
       50
102
RTVSPost2010PropOp46
 70
     1
102
RTVSPost2010Prop47
 90
       50
102
RTVSPost2010PropOp47
 70
     1
102
RTVSPost2010Prop48
 90
       50
102
RTVSPost2010PropOp48
 70
     1
102
RTVSPost2010Prop49
280
     0
102
RTVSPost2010PropOp49
 70
     1
102
RTVSPost2010Prop50
 90
       50
102
RTVSPost2010PropOp50
 70
     1
102
RTVSPost2010Prop51ColorIndex
 90
      256
102
RTVSPost2010Prop51ColorRGB
 90
-16777216
102
RTVSPost2010PropOp51
 70
     0
102
RTVSPost2010Prop52
140
1.0
102
RTVSPost2010PropOp52
 70
     0
102
RTVSPost2010Prop53
 90
        2
102
RTVSPost2010PropOp53
 70
     1
102
RTVSPost2010Prop54
  1
strokes_ogs.tif
102
RTVSPost2010PropOp54
 70
     1
102
RTVSPost2010Prop55
280
     0
102
RTVSPost2010PropOp55
 70
     1
102
RTVSPost2010Prop56
140
1.0
102
RTVSPost2010PropOp56
 70
     1
102
RTVSPost2010Prop57
140
1.0
102
RTVSPost2010PropOp57
 70
     1
  0
ENDSEC
  0
EOF
