  0
SECTION
  2
HEADER
  9
$ACADVER
  1
AC1018
  9
$ACADMAINTVER
 70
     0
  9
$DWGCODEPAGE
  3
ANSI_1252
  9
$INSBASE
 10
0.0
 20
0.0
 30
0.0
  9
$EXTMIN
 10
0.0556978947504684
 20
-0.9043239491451145
 30
0.003
  9
$EXTMAX
 10
3.076562017153319
 20
1.2316405818468
 30
-0.003
  9
$LIMMIN
 10
0.0
 20
0.0
  9
$LIMMAX
 10
12.0
 20
9.0
  9
$ORTHOMODE
 70
     0
  9
$REGENMODE
 70
     1
  9
$FILLMODE
 70
     1
  9
$QTEXTMODE
 70
     0
  9
$MIRRTEXT
 70
     1
  9
$LTSCALE
 40
1.0
  9
$ATTMODE
 70
     1
  9
$TEXTSIZE
 40
0.2
  9
$TRACEWID
 40
0.05
  9
$TEXTSTYLE
  7
Simplex
  9
$CLAYER
  8
0
  9
$CELTYPE
  6
ByLayer
  9
$CECOLOR
 62
   256
  9
$CELTSCALE
 40
1.0
  9
$DISPSILH
 70
     0
  9
$DIMSCALE
 40
1.0
  9
$DIMASZ
 40
0.18
  9
$DIMEXO
 40
0.0625
  9
$DIMDLI
 40
0.38
  9
$DIMRND
 40
0.0
  9
$DIMDLE
 40
0.0
  9
$DIMEXE
 40
0.18
  9
$DIMTP
 40
0.0
  9
$DIMTM
 40
0.0
  9
$DIMTXT
 40
0.18
  9
$DIMCEN
 40
0.09
  9
$DIMTSZ
 40
0.0
  9
$DIMTOL
 70
     0
  9
$DIMLIM
 70
     0
  9
$DIMTIH
 70
     1
  9
$DIMTOH
 70
     1
  9
$DIMSE1
 70
     0
  9
$DIMSE2
 70
     0
  9
$DIMTAD
 70
     0
  9
$DIMZIN
 70
     0
  9
$DIMBLK
  1

  9
$DIMASO
 70
     1
  9
$DIMSHO
 70
     1
  9
$DIMPOST
  1

  9
$DIMAPOST
  1

  9
$DIMALT
 70
     0
  9
$DIMALTD
 70
     2
  9
$DIMALTF
 40
25.4
  9
$DIMLFAC
 40
1.0
  9
$DIMTOFL
 70
     0
  9
$DIMTVP
 40
0.0
  9
$DIMTIX
 70
     0
  9
$DIMSOXD
 70
     0
  9
$DIMSAH
 70
     0
  9
$DIMBLK1
  1

  9
$DIMBLK2
  1

  9
$DIMSTYLE
  2
Standard
  9
$DIMCLRD
 70
     0
  9
$DIMCLRE
 70
     0
  9
$DIMCLRT
 70
     0
  9
$DIMTFAC
 40
1.0
  9
$DIMGAP
 40
0.09
  9
$DIMJUST
 70
     0
  9
$DIMSD1
 70
     0
  9
$DIMSD2
 70
     0
  9
$DIMTOLJ
 70
     1
  9
$DIMTZIN
 70
     0
  9
$DIMALTZ
 70
     0
  9
$DIMALTTZ
 70
     0
  9
$DIMUPT
 70
     0
  9
$DIMDEC
 70
     4
  9
$DIMTDEC
 70
     4
  9
$DIMALTU
 70
     2
  9
$DIMALTTD
 70
     2
  9
$DIMTXSTY
  7
Standard
  9
$DIMAUNIT
 70
     0
  9
$DIMADEC
 70
     0
  9
$DIMALTRND
 40
0.0
  9
$DIMAZIN
 70
     0
  9
$DIMDSEP
 70
    46
  9
$DIMATFIT
 70
     3
  9
$DIMFRAC
 70
     0
  9
$DIMLDRBLK
  1

  9
$DIMLUNIT
 70
     2
  9
$DIMLWD
 70
    -2
  9
$DIMLWE
 70
    -2
  9
$DIMTMOVE
 70
     0
  9
$LUNITS
 70
     2
  9
$LUPREC
 70
     4
  9
$SKETCHINC
 40
0.1
  9
$FILLETRAD
 40
0.5
  9
$AUNITS
 70
     0
  9
$AUPREC
 70
     0
  9
$MENU
  1
.
  9
$ELEVATION
 40
0.0
  9
$PELEVATION
 40
0.0
  9
$THICKNESS
 40
0.0
  9
$LIMCHECK
 70
     0
  9
$CHAMFERA
 40
0.5
  9
$CHAMFERB
 40
0.5
  9
$CHAMFERC
 40
1.0
  9
$CHAMFERD
 40
0.0
  9
$SKPOLY
 70
     0
  9
$TDCREATE
 40
2452381.314152083
  9
$TDUCREATE
 40
2452380.897485417
  9
$TDUPDATE
 40
2457966.337630637
  9
$TDUUPDATE
 40
2457965.92096397
  9
$TDINDWG
 40
0.0040921296
  9
$TDUSRTIMER
 40
0.0040921296
  9
$USRTIMER
 70
     1
  9
$ANGBASE
 50
0.0
  9
$ANGDIR
 70
     0
  9
$PDMODE
 70
     0
  9
$PDSIZE
 40
0.0
  9
$PLINEWID
 40
0.0
  9
$SPLFRAME
 70
     0
  9
$SPLINETYPE
 70
     6
  9
$SPLINESEGS
 70
     8
  9
$HANDSEED
  5
350
  9
$SURFTAB1
 70
     6
  9
$SURFTAB2
 70
     6
  9
$SURFTYPE
 70
     6
  9
$SURFU
 70
     6
  9
$SURFV
 70
     6
  9
$UCSBASE
  2

  9
$UCSNAME
  2

  9
$UCSORG
 10
0.0
 20
0.0
 30
0.0
  9
$UCSXDIR
 10
1.0
 20
0.0
 30
0.0
  9
$UCSYDIR
 10
0.0
 20
1.0
 30
0.0
  9
$UCSORTHOREF
  2

  9
$UCSORTHOVIEW
 70
     0
  9
$UCSORGTOP
 10
0.0
 20
0.0
 30
0.0
  9
$UCSORGBOTTOM
 10
0.0
 20
0.0
 30
0.0
  9
$UCSORGLEFT
 10
0.0
 20
0.0
 30
0.0
  9
$UCSORGRIGHT
 10
0.0
 20
0.0
 30
0.0
  9
$UCSORGFRONT
 10
0.0
 20
0.0
 30
0.0
  9
$UCSORGBACK
 10
0.0
 20
0.0
 30
0.0
  9
$PUCSBASE
  2

  9
$PUCSNAME
  2

  9
$PUCSORG
 10
0.0
 20
0.0
 30
0.0
  9
$PUCSXDIR
 10
1.0
 20
0.0
 30
0.0
  9
$PUCSYDIR
 10
0.0
 20
1.0
 30
0.0
  9
$PUCSORTHOREF
  2

  9
$PUCSORTHOVIEW
 70
     0
  9
$PUCSORGTOP
 10
0.0
 20
0.0
 30
0.0
  9
$PUCSORGBOTTOM
 10
0.0
 20
0.0
 30
0.0
  9
$PUCSORGLEFT
 10
0.0
 20
0.0
 30
0.0
  9
$PUCSORGRIGHT
 10
0.0
 20
0.0
 30
0.0
  9
$PUCSORGFRONT
 10
0.0
 20
0.0
 30
0.0
  9
$PUCSORGBACK
 10
0.0
 20
0.0
 30
0.0
  9
$USERI1
 70
     0
  9
$USERI2
 70
     0
  9
$USERI3
 70
     0
  9
$USERI4
 70
     0
  9
$USERI5
 70
     0
  9
$USERR1
 40
0.0
  9
$USERR2
 40
0.0
  9
$USERR3
 40
0.0
  9
$USERR4
 40
0.0
  9
$USERR5
 40
0.0
  9
$WORLDVIEW
 70
     1
  9
$SHADEDGE
 70
     3
  9
$SHADEDIF
 70
    70
  9
$TILEMODE
 70
     1
  9
$MAXACTVP
 70
    64
  9
$PINSBASE
 10
0.0
 20
0.0
 30
0.0
  9
$PLIMCHECK
 70
     0
  9
$PEXTMIN
 10
1.000000000000000E+20
 20
1.000000000000000E+20
 30
1.000000000000000E+20
  9
$PEXTMAX
 10
-1.000000000000000E+20
 20
-1.000000000000000E+20
 30
-1.000000000000000E+20
  9
$PLIMMIN
 10
0.0
 20
0.0
  9
$PLIMMAX
 10
12.0
 20
9.0
  9
$UNITMODE
 70
     0
  9
$VISRETAIN
 70
     1
  9
$PLINEGEN
 70
     0
  9
$PSLTSCALE
 70
     1
  9
$TREEDEPTH
 70
  3020
  9
$CMLSTYLE
  2
Standard
  9
$CMLJUST
 70
     0
  9
$CMLSCALE
 40
1.0
  9
$PROXYGRAPHICS
 70
     1
  9
$MEASUREMENT
 70
     0
  9
$CELWEIGHT
370
    -1
  9
$ENDCAPS
280
     0
  9
$JOINSTYLE
280
     0
  9
$LWDISPLAY
290
     1
  9
$INSUNITS
 70
     0
  9
$HYPERLINKBASE
  1

  9
$STYLESHEET
  1

  9
$XEDIT
290
     1
  9
$CEPSNTYPE
380
     0
  9
$PSTYLEMODE
290
     1
  9
$FINGERPRINTGUID
  2
{2DA8D5D2-0A6F-4433-BE9F-7C818D36D6ED}
  9
$VERSIONGUID
  2
{A098EE71-2063-4C44-BF23-3920F6FD3DB3}
  9
$EXTNAMES
290
     1
  9
$PSVPSCALE
 40
0.0
  9
$OLESTARTUP
290
     0
  9
$SORTENTS
280
   127
  9
$INDEXCTL
280
     0
  9
$HIDETEXT
280
     1
  9
$XCLIPFRAME
290
     0
  9
$HALOGAP
280
     0
  9
$OBSCOLOR
 70
   257
  9
$OBSLTYPE
280
     0
  9
$INTERSECTIONDISPLAY
280
     0
  9
$INTERSECTIONCOLOR
 70
   257
  9
$DIMASSOC
280
     1
  9
$PROJECTNAME
  1

  0
ENDSEC
  0
SECTION
  2
CLASSES
  0
CLASS
  1
ACDBDICTIONARYWDFLT
  2
AcDbDictionaryWithDefault
  3
ObjectDBX Classes
 90
        0
 91
        4
280
     0
281
     0
  0
CLASS
  1
ACDBPLACEHOLDER
  2
AcDbPlaceHolder
  3
ObjectDBX Classes
 90
        0
 91
        1
280
     0
281
     0
  0
CLASS
  1
LAYOUT
  2
AcDbLayout
  3
ObjectDBX Classes
 90
        0
 91
        1
280
     0
281
     0
  0
CLASS
  1
DICTIONARYVAR
  2
AcDbDictionaryVar
  3
ObjectDBX Classes
 90
        0
 91
        4
280
     0
281
     0
  0
CLASS
  1
VISUALSTYLE
  2
AcDbVisualStyle
  3
ObjectDBX Classes
 90
     4095
 91
        4
280
     0
281
     0
  0
CLASS
  1
SCALE
  2
AcDbScale
  3
ObjectDBX Classes
 90
     1153
 91
        4
280
     0
281
     0
  0
CLASS
  1
MATERIAL
  2
AcDbMaterial
  3
ObjectDBX Classes
 90
     1153
 91
        4
280
     0
281
     0
  0
CLASS
  1
TABLESTYLE
  2
AcDbTableStyle
  3
ObjectDBX Classes
 90
     4095
 91
        4
280
     0
281
     0
  0
CLASS
  1
MLEADERSTYLE
  2
AcDbMLeaderStyle
  3
ACDB_MLEADERSTYLE_CLASS
 90
     4095
 91
        4
280
     0
281
     0
  0
CLASS
  1
RASTERVARIABLES
  2
AcDbRasterVariables
  3
ISM
 90
        0
 91
        4
280
     0
281
     0
  0
CLASS
  1
SUN
  2
AcDbSun
  3
SCENEOE
 90
     1153
 91
        4
280
     0
281
     0
  0
CLASS
  1
CELLSTYLEMAP
  2
AcDbCellStyleMap
  3
ObjectDBX Classes
 90
     1152
 91
        4
280
     0
281
     0
  0
ENDSEC
  0
SECTION
  2
TABLES
  0
TABLE
  2
VPORT
  5
8
102
{ACAD_XDICTIONARY
360
30A
102
}
330
0
100
AcDbSymbolTable
 70
     2
  0
VPORT
  5
55
330
8
100
AcDbSymbolTableRecord
100
AcDbViewportTableRecord
  2
*Active
 70
     0
 10
0.0
 20
0.0
 11
1.0
 21
1.0
 12
0.0
 22
0.0
 13
0.0
 23
0.0
 14
0.5
 24
0.5
 15
0.5
 25
0.5
 16
0.0
 26
0.0
 36
1.0
 17
1.566129955951894
 27
0.1636583163508427
 37
0.0
 40
2.349560984091103
 41
1.414285714285715
 42
50.0
 43
0.0
 44
0.0
 50
0.0
 51
0.0
 71
     8
 72
   100
 73
     1
 74
     3
 75
     0
 76
     0
 77
     0
 78
     0
281
     0
 65
     1
110
0.0
120
0.0
130
0.0
111
1.0
121
0.0
131
0.0
112
0.0
122
1.0
132
0.0
 79
     0
146
0.0
  0
ENDTAB
  0
TABLE
  2
LTYPE
  5
5
330
0
100
AcDbSymbolTable
 70
    25
  0
LTYPE
  5
14
330
5
100
AcDbSymbolTableRecord
100
AcDbLinetypeTableRecord
  2
ByBlock
 70
     0
  3

 72
    65
 73
     0
 40
0.0
  0
LTYPE
  5
15
330
5
100
AcDbSymbolTableRecord
100
AcDbLinetypeTableRecord
  2
ByLayer
 70
     0
  3

 72
    65
 73
     0
 40
0.0
  0
LTYPE
  5
16
330
5
100
AcDbSymbolTableRecord
100
AcDbLinetypeTableRecord
  2
Continuous
 70
     0
  3
Solid line
 72
    65
 73
     0
 40
0.0
  0
LTYPE
  5
2D
330
5
100
AcDbSymbolTableRecord
100
AcDbLinetypeTableRecord
  2
BORDER
 70
     0
  3
Border __ __ . __ __ . __ __ . __ __ . __ __ .
 72
    65
 73
     6
 40
1.75
 49
0.5
 74
     0
 49
-0.25
 74
     0
 49
0.5
 74
     0
 49
-0.25
 74
     0
 49
0.0
 74
     0
 49
-0.25
 74
     0
  0
LTYPE
  5
2E
330
5
100
AcDbSymbolTableRecord
100
AcDbLinetypeTableRecord
  2
BORDER2
 70
     0
  3
Border (.5x) __.__.__.__.__.__.__.__.__.__.__.
 72
    65
 73
     6
 40
0.875
 49
0.25
 74
     0
 49
-0.125
 74
     0
 49
0.25
 74
     0
 49
-0.125
 74
     0
 49
0.0
 74
     0
 49
-0.125
 74
     0
  0
LTYPE
  5
2F
330
5
100
AcDbSymbolTableRecord
100
AcDbLinetypeTableRecord
  2
BORDERX2
 70
     0
  3
Border (2x) ____  ____  .  ____  ____  .  ___
 72
    65
 73
     6
 40
3.5
 49
1.0
 74
     0
 49
-0.5
 74
     0
 49
1.0
 74
     0
 49
-0.5
 74
     0
 49
0.0
 74
     0
 49
-0.5
 74
     0
  0
LTYPE
  5
30
330
5
100
AcDbSymbolTableRecord
100
AcDbLinetypeTableRecord
  2
CENTER
 70
     0
  3
Center ____ _ ____ _ ____ _ ____ _ ____ _ ____
 72
    65
 73
     4
 40
2.0
 49
1.25
 74
     0
 49
-0.25
 74
     0
 49
0.25
 74
     0
 49
-0.25
 74
     0
  0
LTYPE
  5
31
330
5
100
AcDbSymbolTableRecord
100
AcDbLinetypeTableRecord
  2
CENTER2
 70
     0
  3
Center (.5x) ___ _ ___ _ ___ _ ___ _ ___ _ ___
 72
    65
 73
     4
 40
1.125
 49
0.75
 74
     0
 49
-0.125
 74
     0
 49
0.125
 74
     0
 49
-0.125
 74
     0
  0
LTYPE
  5
32
330
5
100
AcDbSymbolTableRecord
100
AcDbLinetypeTableRecord
  2
CENTERX2
 70
     0
  3
Center (2x) ________  __  ________  __  _____
 72
    65
 73
     4
 40
4.0
 49
2.5
 74
     0
 49
-0.5
 74
     0
 49
0.5
 74
     0
 49
-0.5
 74
     0
  0
LTYPE
  5
33
330
5
100
AcDbSymbolTableRecord
100
AcDbLinetypeTableRecord
  2
DASHDOT
 70
     0
  3
Dash dot __ . __ . __ . __ . __ . __ . __ . __
 72
    65
 73
     4
 40
1.0
 49
0.5
 74
     0
 49
-0.25
 74
     0
 49
0.0
 74
     0
 49
-0.25
 74
     0
  0
LTYPE
  5
34
330
5
100
AcDbSymbolTableRecord
100
AcDbLinetypeTableRecord
  2
DASHDOT2
 70
     0
  3
Dash dot (.5x) _._._._._._._._._._._._._._._.
 72
    65
 73
     4
 40
0.5
 49
0.25
 74
     0
 49
-0.125
 74
     0
 49
0.0
 74
     0
 49
-0.125
 74
     0
  0
LTYPE
  5
35
330
5
100
AcDbSymbolTableRecord
100
AcDbLinetypeTableRecord
  2
DASHDOTX2
 70
     0
  3
Dash dot (2x) ____  .  ____  .  ____  .  ___
 72
    65
 73
     4
 40
2.0
 49
1.0
 74
     0
 49
-0.5
 74
     0
 49
0.0
 74
     0
 49
-0.5
 74
     0
  0
LTYPE
  5
36
330
5
100
AcDbSymbolTableRecord
100
AcDbLinetypeTableRecord
  2
DASHED
 70
     0
  3
Dashed __ __ __ __ __ __ __ __ __ __ __ __ __ _
 72
    65
 73
     2
 40
0.75
 49
0.5
 74
     0
 49
-0.25
 74
     0
  0
LTYPE
  5
37
330
5
100
AcDbSymbolTableRecord
100
AcDbLinetypeTableRecord
  2
DASHED2
 70
     0
  3
Dashed (.5x) _ _ _ _ _ _ _ _ _ _ _ _ _ _ _ _ _
 72
    65
 73
     2
 40
0.375
 49
0.25
 74
     0
 49
-0.125
 74
     0
  0
LTYPE
  5
38
330
5
100
AcDbSymbolTableRecord
100
AcDbLinetypeTableRecord
  2
DASHEDX2
 70
     0
  3
Dashed (2x) ____  ____  ____  ____  ____  ___
 72
    65
 73
     2
 40
1.5
 49
1.0
 74
     0
 49
-0.5
 74
     0
  0
LTYPE
  5
39
330
5
100
AcDbSymbolTableRecord
100
AcDbLinetypeTableRecord
  2
DIVIDE
 70
     0
  3
Divide ____ . . ____ . . ____ . . ____ . . ____
 72
    65
 73
     6
 40
1.25
 49
0.5
 74
     0
 49
-0.25
 74
     0
 49
0.0
 74
     0
 49
-0.25
 74
     0
 49
0.0
 74
     0
 49
-0.25
 74
     0
  0
LTYPE
  5
3A
330
5
100
AcDbSymbolTableRecord
100
AcDbLinetypeTableRecord
  2
DIVIDE2
 70
     0
  3
Divide (.5x) __..__..__..__..__..__..__..__.._
 72
    65
 73
     6
 40
0.625
 49
0.25
 74
     0
 49
-0.125
 74
     0
 49
0.0
 74
     0
 49
-0.125
 74
     0
 49
0.0
 74
     0
 49
-0.125
 74
     0
  0
LTYPE
  5
3B
330
5
100
AcDbSymbolTableRecord
100
AcDbLinetypeTableRecord
  2
DIVIDEX2
 70
     0
  3
Divide (2x) ________  .  .  ________  .  .  _
 72
    65
 73
     6
 40
2.5
 49
1.0
 74
     0
 49
-0.5
 74
     0
 49
0.0
 74
     0
 49
-0.5
 74
     0
 49
0.0
 74
     0
 49
-0.5
 74
     0
  0
LTYPE
  5
3C
330
5
100
AcDbSymbolTableRecord
100
AcDbLinetypeTableRecord
  2
DOT
 70
     0
  3
Dot . . . . . . . . . . . . . . . . . . . . . .
 72
    65
 73
     2
 40
0.25
 49
0.0
 74
     0
 49
-0.25
 74
     0
  0
LTYPE
  5
3D
330
5
100
AcDbSymbolTableRecord
100
AcDbLinetypeTableRecord
  2
DOT2
 70
     0
  3
Dot (.5x) .....................................
 72
    65
 73
     2
 40
0.125
 49
0.0
 74
     0
 49
-0.125
 74
     0
  0
LTYPE
  5
3E
330
5
100
AcDbSymbolTableRecord
100
AcDbLinetypeTableRecord
  2
DOTX2
 70
     0
  3
Dot (2x) .  .  .  .  .  .  .  .  .  .  .  .  . 
 72
    65
 73
     2
 40
0.5
 49
0.0
 74
     0
 49
-0.5
 74
     0
  0
LTYPE
  5
3F
330
5
100
AcDbSymbolTableRecord
100
AcDbLinetypeTableRecord
  2
HIDDEN
 70
     0
  3
Hidden __ __ __ __ __ __ __ __ __ __ __ __ __ _
 72
    65
 73
     2
 40
0.375
 49
0.25
 74
     0
 49
-0.125
 74
     0
  0
LTYPE
  5
40
330
5
100
AcDbSymbolTableRecord
100
AcDbLinetypeTableRecord
  2
HIDDEN2
 70
     0
  3
Hidden (.5x) _ _ _ _ _ _ _ _ _ _ _ _ _ _ _ _ _
 72
    65
 73
     2
 40
0.1875
 49
0.125
 74
     0
 49
-0.0625
 74
     0
  0
LTYPE
  5
41
330
5
100
AcDbSymbolTableRecord
100
AcDbLinetypeTableRecord
  2
HIDDENX2
 70
     0
  3
Hidden (2x) ____ ____ ____ ____ ____ ____ ____
 72
    65
 73
     2
 40
0.75
 49
0.5
 74
     0
 49
-0.25
 74
     0
  0
LTYPE
  5
42
330
5
100
AcDbSymbolTableRecord
100
AcDbLinetypeTableRecord
  2
PHANTOM
 70
     0
  3
Phantom ______  __  __  ______  __  __  ______
 72
    65
 73
     6
 40
2.5
 49
1.25
 74
     0
 49
-0.25
 74
     0
 49
0.25
 74
     0
 49
-0.25
 74
     0
 49
0.25
 74
     0
 49
-0.25
 74
     0
  0
LTYPE
  5
43
330
5
100
AcDbSymbolTableRecord
100
AcDbLinetypeTableRecord
  2
PHANTOM2
 70
     0
  3
Phantom (.5x) ___ _ _ ___ _ _ ___ _ _ ___ _ _
 72
    65
 73
     6
 40
1.25
 49
0.625
 74
     0
 49
-0.125
 74
     0
 49
0.125
 74
     0
 49
-0.125
 74
     0
 49
0.125
 74
     0
 49
-0.125
 74
     0
  0
LTYPE
  5
44
330
5
100
AcDbSymbolTableRecord
100
AcDbLinetypeTableRecord
  2
PHANTOMX2
 70
     0
  3
Phantom (2x) ____________    ____    ____   _
 72
    65
 73
     6
 40
5.0
 49
2.5
 74
     0
 49
-0.5
 74
     0
 49
0.5
 74
     0
 49
-0.5
 74
     0
 49
0.5
 74
     0
 49
-0.5
 74
     0
  0
ENDTAB
  0
TABLE
  2
LAYER
  5
2
330
0
100
AcDbSymbolTable
 70
     3
  0
LAYER
  5
10
330
2
100
AcDbSymbolTableRecord
100
AcDbLayerTableRecord
  2
0
 70
     0
 62
     7
  6
Continuous
370
    -3
390
F
  0
LAYER
  5
9B
330
2
100
AcDbSymbolTableRecord
100
AcDbLayerTableRecord
  2
1
 70
     0
 62
     7
  6
Continuous
370
     0
390
F
  0
LAYER
  5
2C0
330
2
100
AcDbSymbolTableRecord
100
AcDbLayerTableRecord
  2
Defpoints
 70
     0
 62
     7
  6
Continuous
290
     0
370
    -3
390
F
  0
ENDTAB
  0
TABLE
  2
STYLE
  5
3
330
0
100
AcDbSymbolTable
 70
     8
  0
STYLE
  5
11
330
3
100
AcDbSymbolTableRecord
100
AcDbTextStyleTableRecord
  2
Standard
 70
     0
 40
0.0
 41
1.0
 50
0.0
 71
     0
 42
0.2
  3
txt
  4

  0
STYLE
  5
2C
330
3
100
AcDbSymbolTableRecord
100
AcDbTextStyleTableRecord
  2

 70
     1
 40
0.0
 41
1.0
 50
0.0
 71
     0
 42
0.2
  3
ltypeshp.shx
  4

  0
STYLE
  5
4A
330
3
100
AcDbSymbolTableRecord
100
AcDbTextStyleTableRecord
  2
Simplex
 70
     0
 40
0.0
 41
1.0
 50
0.0
 71
     0
 42
0.2
  3
simplex.shx
  4

  0
STYLE
  5
4B
330
3
100
AcDbSymbolTableRecord
100
AcDbTextStyleTableRecord
  2
BigFont
 70
     0
 40
0.0
 41
1.0
 50
0.0
 71
     0
 42
0.2
  3
simplex.shx
  4
bigfont.shx
  0
STYLE
  5
DF
330
3
100
AcDbSymbolTableRecord
100
AcDbTextStyleTableRecord
  2
DC_TEXTSTYLE4
 70
     0
 40
0.2
 41
1.0
 50
0.0
 71
     0
 42
0.2
  3
arialbi.ttf
  4

1001
ACAD
1000
Arial
1071
 50331682
  0
STYLE
  5
E4
330
3
100
AcDbSymbolTableRecord
100
AcDbTextStyleTableRecord
  2
DC_TEXTSTYLE5
 70
     0
 40
0.2
 41
1.0
 50
0.0
 71
     0
 42
0.2
  3
arial.ttf
  4

1001
ACAD
1000
Arial
1071
       34
  0
STYLE
  5
105
330
3
100
AcDbSymbolTableRecord
100
AcDbTextStyleTableRecord
  2
DC_TEXTSTYLE6
 70
     0
 40
0.2
 41
1.0
 50
0.0
 71
     0
 42
0.2
  3
timesbd.ttf
  4

1001
ACAD
1000
Times New Roman
1071
 33554450
  0
STYLE
  5
2BF
330
3
100
AcDbSymbolTableRecord
100
AcDbTextStyleTableRecord
  2
DC_TEXTSTYLE7
 70
     0
 40
0.026
 41
1.0
 50
0.0
 71
     0
 42
0.2
  3
arial.ttf
  4

1001
ACAD
1000
Arial
1071
        4
  0
ENDTAB
  0
TABLE
  2
VIEW
  5
6
330
0
100
AcDbSymbolTable
 70
     0
  0
ENDTAB
  0
TABLE
  2
UCS
  5
7
330
0
100
AcDbSymbolTable
 70
     0
  0
ENDTAB
  0
TABLE
  2
APPID
  5
9
330
0
100
AcDbSymbolTable
 70
     2
  0
APPID
  5
12
330
9
100
AcDbSymbolTableRecord
100
AcDbRegAppTableRecord
  2
ACAD
 70
     0
  0
APPID
  5
347
330
9
100
AcDbSymbolTableRecord
100
AcDbRegAppTableRecord
  2
ACAD_MLEADERVER
 70
     0
  0
ENDTAB
  0
TABLE
  2
DIMSTYLE
  5
A
330
0
100
AcDbSymbolTable
 70
     1
100
AcDbDimStyleTable
  0
DIMSTYLE
105
27
102
{ACAD_REACTORS
330
2BE
330
2CD
330
2DA
330
2E7
102
}
330
A
100
AcDbSymbolTableRecord
100
AcDbDimStyleTableRecord
  2
Standard
 70
     0
178
     0
340
11
  0
ENDTAB
  0
TABLE
  2
BLOCK_RECORD
  5
1
330
0
100
AcDbSymbolTable
 70
     6
  0
BLOCK_RECORD
  5
1F
330
1
100
AcDbSymbolTableRecord
100
AcDbBlockTableRecord
  2
*Model_Space
340
22
  0
BLOCK_RECORD
  5
1B
330
1
100
AcDbSymbolTableRecord
100
AcDbBlockTableRecord
  2
*Paper_Space
340
1E
  0
BLOCK_RECORD
  5
9C
330
1
100
AcDbSymbolTableRecord
100
AcDbBlockTableRecord
  2
1
340
0
  0
BLOCK_RECORD
  5
2C1
330
1
100
AcDbSymbolTableRecord
100
AcDbBlockTableRecord
  2
*D2
340
0
  0
BLOCK_RECORD
  5
2CE
330
1
100
AcDbSymbolTableRecord
100
AcDbBlockTableRecord
  2
*D3
340
0
  0
BLOCK_RECORD
  5
2DB
330
1
100
AcDbSymbolTableRecord
100
AcDbBlockTableRecord
  2
*D4
340
0
  0
BLOCK_RECORD
  5
2E8
330
1
100
AcDbSymbolTableRecord
100
AcDbBlockTableRecord
  2
*D5
340
0
  0
ENDTAB
  0
ENDSEC
  0
SECTION
  2
BLOCKS
  0
BLOCK
  5
20
330
1F
100
AcDbEntity
  8
0
100
AcDbBlockBegin
  2
*Model_Space
 70
     0
 10
0.0
 20
0.0
 30
0.0
  3
*Model_Space
  1

  0
ENDBLK
  5
21
330
1F
100
AcDbEntity
  8
0
100
AcDbBlockEnd
  0
BLOCK
  5
1C
330
1B
100
AcDbEntity
 67
     1
  8
0
100
AcDbBlockBegin
  2
*Paper_Space
 70
     0
 10
0.0
 20
0.0
 30
0.0
  3
*Paper_Space
  1

  0
ENDBLK
  5
1D
330
1B
100
AcDbEntity
 67
     1
  8
0
100
AcDbBlockEnd
  0
BLOCK
  5
D2
330
9C
100
AcDbEntity
  8
0
100
AcDbBlockBegin
  2
1
 70
     0
 10
1.774730949128924
 20
0.0248062946386848
 30
0.0
  3
1
  1

  0
POLYLINE
  5
9D
330
9C
100
AcDbEntity
  8
1
  6
Continuous
 62
     7
 48
0.0006667254981344
370
     0
100
AcDb2dPolyline
 66
     1
 10
0.0
 20
0.0
 30
0.0
  0
VERTEX
  5
9E
330
9D
100
AcDbEntity
  8
1
  6
Continuous
 62
     7
 48
0.0006667254981344
100
AcDbVertex
100
AcDb2dVertex
 10
1.676332119163043
 20
-0.0301865650752472
 30
0.0
 40
12.81650402181394
 41
12.81650402181394
  0
VERTEX
  5
9F
330
9D
100
AcDbEntity
  8
1
  6
Continuous
 62
     7
 48
0.0006667254981344
100
AcDbVertex
100
AcDb2dVertex
 10
1.676332119163043
 20
-0.0301865650752472
 30
0.0
 40
12.81650402181394
 41
12.81650402181394
  0
SEQEND
  5
A0
330
9D
100
AcDbEntity
  8
1
  6
Continuous
 62
     7
 48
0.0006667254981344
370
     0
  0
POLYLINE
  5
A1
330
9C
100
AcDbEntity
  8
1
  6
Continuous
 62
     7
 48
0.0006667254981344
370
     0
100
AcDb2dPolyline
 66
     1
 10
0.0
 20
0.0
 30
0.0
  0
VERTEX
  5
A2
330
A1
100
AcDbEntity
  8
1
  6
Continuous
 62
     7
 48
0.0006667254981344
100
AcDbVertex
100
AcDb2dVertex
 10
1.850166592375758
 20
-0.0422584034927968
 30
0.0
 40
12.81650402181394
 41
12.81650402181394
  0
VERTEX
  5
A3
330
A1
100
AcDbEntity
  8
1
  6
Continuous
 62
     7
 48
0.0006667254981344
100
AcDbVertex
100
AcDb2dVertex
 10
1.83414672171631
 20
-0.0301865650752473
 30
0.0
 40
12.81650402181394
 41
12.81650402181394
  0
SEQEND
  5
A4
330
A1
100
AcDbEntity
  8
1
  6
Continuous
 62
     7
 48
0.0006667254981344
370
     0
  0
POLYLINE
  5
A5
330
9C
100
AcDbEntity
  8
1
  6
Continuous
 62
     7
 48
0.0006667254981344
370
     0
100
AcDb2dPolyline
 66
     1
 10
0.0
 20
0.0
 30
0.0
  0
VERTEX
  5
A6
330
A5
100
AcDbEntity
  8
1
  6
Continuous
 62
     7
 48
0.0006667254981344
100
AcDbVertex
100
AcDb2dVertex
 10
1.681160854530063
 20
-0.0301865650752472
 30
0.0
 40
12.81650402181394
 41
12.81650402181394
  0
VERTEX
  5
A7
330
A5
100
AcDbEntity
  8
1
  6
Continuous
 62
     7
 48
0.0006667254981344
100
AcDbVertex
100
AcDb2dVertex
 10
1.676332119163043
 20
-0.0253578297082277
 30
0.0
 40
12.81650402181394
 41
12.81650402181394
  0
SEQEND
  5
A8
330
A5
100
AcDbEntity
  8
1
  6
Continuous
 62
     7
 48
0.0006667254981344
370
     0
  0
POLYLINE
  5
A9
330
9C
100
AcDbEntity
  8
1
  6
Continuous
 62
     7
 48
0.0006667254981344
370
     0
100
AcDb2dPolyline
 66
     1
 10
0.0
 20
0.0
 30
0.0
  0
VERTEX
  5
AA
330
A9
100
AcDbEntity
  8
1
  6
Continuous
 62
     7
 48
0.0006667254981344
100
AcDbVertex
100
AcDb2dVertex
 10
1.850166592375758
 20
0.0470732007970703
 30
0.0
 40
12.81650402181394
 41
12.81650402181394
  0
VERTEX
  5
AB
330
A9
100
AcDbEntity
  8
1
  6
Continuous
 62
     7
 48
0.0006667254981344
100
AcDbVertex
100
AcDb2dVertex
 10
1.676332119163043
 20
0.0470732007970703
 30
0.0
 40
12.81650402181394
 41
12.81650402181394
  0
SEQEND
  5
AC
330
A9
100
AcDbEntity
  8
1
  6
Continuous
 62
     7
 48
0.0006667254981344
370
     0
  0
POLYLINE
  5
AD
330
9C
100
AcDbEntity
  8
1
  6
Continuous
 62
     7
 48
0.0006667254981344
370
     0
100
AcDb2dPolyline
 66
     1
 10
0.0
 20
0.0
 30
0.0
  0
VERTEX
  5
AE
330
AD
100
AcDbEntity
  8
1
  6
Continuous
 62
     7
 48
0.0006667254981344
100
AcDbVertex
100
AcDb2dVertex
 10
1.850166592375758
 20
0.0977749221507786
 30
0.0
 40
12.81650402181394
 41
12.81650402181394
  0
VERTEX
  5
AF
330
AD
100
AcDbEntity
  8
1
  6
Continuous
 62
     7
 48
0.0006667254981344
100
AcDbVertex
100
AcDb2dVertex
 10
1.83414672171631
 20
0.0857030837332289
 30
0.0
 40
12.81650402181394
 41
12.81650402181394
  0
SEQEND
  5
B0
330
AD
100
AcDbEntity
  8
1
  6
Continuous
 62
     7
 48
0.0006667254981344
370
     0
  0
POLYLINE
  5
B1
330
9C
100
AcDbEntity
  8
1
  6
Continuous
 62
     7
 48
0.0006667254981344
370
     0
100
AcDb2dPolyline
 66
     1
 10
0.0
 20
0.0
 30
0.0
  0
VERTEX
  5
B2
330
B1
100
AcDbEntity
  8
1
  6
Continuous
 62
     7
 48
0.0006667254981344
100
AcDbVertex
100
AcDb2dVertex
 10
1.681160854530063
 20
0.0857030837332289
 30
0.0
 40
12.81650402181394
 41
12.81650402181394
  0
VERTEX
  5
B3
330
B1
100
AcDbEntity
  8
1
  6
Continuous
 62
     7
 48
0.0006667254981344
100
AcDbVertex
100
AcDb2dVertex
 10
1.676332119163043
 20
0.0808743483662095
 30
0.0
 40
12.81650402181394
 41
12.81650402181394
  0
SEQEND
  5
B4
330
B1
100
AcDbEntity
  8
1
  6
Continuous
 62
     7
 48
0.0006667254981344
370
     0
  0
POLYLINE
  5
B5
330
9C
100
AcDbEntity
  8
1
  6
Continuous
 62
     7
 48
0.0006667254981344
370
     0
100
AcDb2dPolyline
 66
     1
 10
0.0
 20
0.0
 30
0.0
  0
VERTEX
  5
B6
330
B5
100
AcDbEntity
  8
1
  6
Continuous
 62
     7
 48
0.0006667254981344
100
AcDbVertex
100
AcDb2dVertex
 10
1.850166592375758
 20
0.0084433178609114
 30
0.0
 40
12.81650402181394
 41
12.81650402181394
  0
VERTEX
  5
B7
330
B5
100
AcDbEntity
  8
1
  6
Continuous
 62
     7
 48
0.0006667254981344
100
AcDbVertex
100
AcDb2dVertex
 10
1.676332119163043
 20
0.0084433178609114
 30
0.0
 40
12.81650402181394
 41
12.81650402181394
  0
SEQEND
  5
B8
330
B5
100
AcDbEntity
  8
1
  6
Continuous
 62
     7
 48
0.0006667254981344
370
     0
  0
POLYLINE
  5
B9
330
9C
100
AcDbEntity
  8
1
  6
Continuous
 62
     7
 48
0.0006667254981344
370
     0
100
AcDb2dPolyline
 66
     1
 10
0.0
 20
0.0
 30
0.0
  0
VERTEX
  5
BA
330
B9
100
AcDbEntity
  8
1
  6
Continuous
 62
     7
 48
0.0006667254981344
100
AcDbVertex
100
AcDb2dVertex
 10
1.845337857008738
 20
0.0470732007970703
 30
0.0
 40
12.81650402181394
 41
12.81650402181394
  0
VERTEX
  5
BB
330
B9
100
AcDbEntity
  8
1
  6
Continuous
 62
     7
 48
0.0006667254981344
100
AcDbVertex
100
AcDb2dVertex
 10
1.681160854530063
 20
0.0470732007970702
 30
0.0
 40
12.81650402181394
 41
12.81650402181394
  0
SEQEND
  5
BC
330
B9
100
AcDbEntity
  8
1
  6
Continuous
 62
     7
 48
0.0006667254981344
370
     0
  0
POLYLINE
  5
BD
330
9C
100
AcDbEntity
  8
1
  6
Continuous
 62
     7
 48
0.0006667254981344
370
     0
100
AcDb2dPolyline
 66
     1
 10
0.0
 20
0.0
 30
0.0
  0
VERTEX
  5
BE
330
BD
100
AcDbEntity
  8
1
  6
Continuous
 62
     7
 48
0.0006667254981344
100
AcDbVertex
100
AcDb2dVertex
 10
1.850166592375758
 20
-0.0422584034927968
 30
0.0
 40
12.81650402181394
 41
12.81650402181394
  0
VERTEX
  5
BF
330
BD
100
AcDbEntity
  8
1
  6
Continuous
 62
     7
 48
0.0006667254981344
100
AcDbVertex
100
AcDb2dVertex
 10
1.850166592375758
 20
0.0977749221507791
 30
0.0
 40
12.81650402181394
 41
12.81650402181394
  0
SEQEND
  5
C0
330
BD
100
AcDbEntity
  8
1
  6
Continuous
 62
     7
 48
0.0006667254981344
370
     0
  0
POLYLINE
  5
C1
330
9C
100
AcDbEntity
  8
1
  6
Continuous
 62
     7
 48
0.0006667254981344
370
     0
100
AcDb2dPolyline
 66
     1
 10
0.0
 20
0.0
 30
0.0
 70
   128
  0
VERTEX
  5
C2
330
C1
100
AcDbEntity
  8
1
  6
Continuous
 62
     7
 48
0.0006667254981344
100
AcDbVertex
100
AcDb2dVertex
 10
1.83414672171631
 20
0.0857030837332289
 30
0.0
 40
12.81650402181394
 41
12.81650402181394
  0
VERTEX
  5
C3
330
C1
100
AcDbEntity
  8
1
  6
Continuous
 62
     7
 48
0.0006667254981344
100
AcDbVertex
100
AcDb2dVertex
 10
1.681160854530063
 20
0.0857030837332289
 30
0.0
 40
12.81650402181394
 41
12.81650402181394
  0
VERTEX
  5
C4
330
C1
100
AcDbEntity
  8
1
  6
Continuous
 62
     7
 48
0.0006667254981344
100
AcDbVertex
100
AcDb2dVertex
 10
1.676332119163043
 20
0.0808743483662094
 30
0.0
 40
12.81650402181394
 41
12.81650402181394
  0
SEQEND
  5
C5
330
C1
100
AcDbEntity
  8
1
  6
Continuous
 62
     7
 48
0.0006667254981344
370
     0
  0
POLYLINE
  5
C6
330
9C
100
AcDbEntity
  8
1
  6
Continuous
 62
     7
 48
0.0006667254981344
370
     0
100
AcDb2dPolyline
 66
     1
 10
0.0
 20
0.0
 30
0.0
 70
   128
  0
VERTEX
  5
C7
330
C6
100
AcDbEntity
  8
1
  6
Continuous
 62
     7
 48
0.0006667254981344
100
AcDbVertex
100
AcDb2dVertex
 10
1.83414672171631
 20
-0.0301865650752473
 30
0.0
 40
12.81650402181394
 41
12.81650402181394
  0
VERTEX
  5
C8
330
C6
100
AcDbEntity
  8
1
  6
Continuous
 62
     7
 48
0.0006667254981344
100
AcDbVertex
100
AcDb2dVertex
 10
1.681160854530063
 20
-0.0301865650752472
 30
0.0
 40
12.81650402181394
 41
12.81650402181394
  0
VERTEX
  5
C9
330
C6
100
AcDbEntity
  8
1
  6
Continuous
 62
     7
 48
0.0006667254981344
100
AcDbVertex
100
AcDb2dVertex
 10
1.676332119163043
 20
-0.0253578297082277
 30
0.0
 40
12.81650402181394
 41
12.81650402181394
  0
SEQEND
  5
CA
330
C6
100
AcDbEntity
  8
1
  6
Continuous
 62
     7
 48
0.0006667254981344
370
     0
  0
POLYLINE
  5
CB
330
9C
100
AcDbEntity
  8
1
  6
Continuous
 62
     7
 48
0.0006667254981344
370
     0
100
AcDb2dPolyline
 66
     1
 10
0.0
 20
0.0
 30
0.0
  0
VERTEX
  5
CC
330
CB
100
AcDbEntity
  8
1
  6
Continuous
 62
     7
 48
0.0006667254981344
100
AcDbVertex
100
AcDb2dVertex
 10
1.676332119163043
 20
-0.0253578297082277
 30
0.0
 40
12.81650402181394
 41
12.81650402181394
  0
VERTEX
  5
CD
330
CB
100
AcDbEntity
  8
1
  6
Continuous
 62
     7
 48
0.0006667254981344
100
AcDbVertex
100
AcDb2dVertex
 10
1.676332119163043
 20
0.0808743483662093
 30
0.0
 40
12.81650402181394
 41
12.81650402181394
  0
SEQEND
  5
CE
330
CB
100
AcDbEntity
  8
1
  6
Continuous
 62
     7
 48
0.0006667254981344
370
     0
  0
HATCH
  5
CF
330
9C
100
AcDbEntity
  8
1
  6
Continuous
 62
     7
 48
0.0018192703099865
370
     0
100
AcDbHatch
 10
0.0
 20
0.0
 30
0.0
210
0.0
220
0.0
230
1.0
  2
DC_ANSI31
 70
     0
 71
     0
 91
        1
 92
        3
 72
     0
 73
     1
 93
        6
 10
1.850166592375758
 20
0.0470732007970703
 10
1.676332119163043
 20
0.0470732007970703
 10
1.676332119163043
 20
0.0808743483662083
 10
1.681160854530063
 20
0.0857030837332289
 10
1.834146721716313
 20
0.085703083733229
 10
1.850166592375758
 20
0.0977749221507792
 97
        0
 75
     0
 76
     2
 52
0.0
 41
50.0
 77
     0
 78
     1
 53
45.0
 43
0.0
 44
0.0
 45
-0.0128641837300278
 46
0.0128641837300278
 79
     1
 49
3.638540619972937
 98
        1
 10
0.0
 20
0.0
  0
HATCH
  5
D0
330
9C
100
AcDbEntity
  8
1
  6
Continuous
 62
     7
 48
0.0018192703099865
370
     0
100
AcDbHatch
 10
0.0
 20
0.0
 30
0.0
210
0.0
220
0.0
230
1.0
  2
DC_ANSI31
 70
     0
 71
     0
 91
        1
 92
        3
 72
     0
 73
     1
 93
        6
 10
1.850166592375758
 20
-0.0422584034927967
 10
1.834146721716311
 20
-0.0301865650752472
 10
1.681160854530063
 20
-0.0301865650752473
 10
1.676332119163043
 20
-0.0253578297082269
 10
1.676332119163043
 20
0.0084433178609114
 10
1.850166592375758
 20
0.0084433178609114
 97
        0
 75
     0
 76
     2
 52
0.0
 41
50.0
 77
     0
 78
     1
 53
45.0
 43
0.0
 44
0.0
 45
-0.0128641837300278
 46
0.0128641837300278
 79
     1
 49
3.638540619972937
 98
        1
 10
0.0
 20
0.0
  0
LINE
  5
D1
330
9C
100
AcDbEntity
  8
1
  6
Continuous
 62
     7
 48
0.0005821664991957
370
     0
100
AcDbLine
 10
1.676332119163043
 20
0.0277582593289908
 30
0.0
 11
1.850166592375758
 21
0.027758259328991
 31
0.0
  0
ENDBLK
  5
D3
330
9C
100
AcDbEntity
  8
0
100
AcDbBlockEnd
  0
BLOCK
  5
2C2
330
2C1
100
AcDbEntity
  8
0
100
AcDbBlockBegin
  2
*D2
 70
     1
 10
0.0
 20
0.0
 30
0.0
  3
*D2
  1

  0
LINE
  5
2C4
330
2C1
100
AcDbEntity
  8
1
  6
Continuous
 62
     0
 48
0.0000363854061997
370
    -2
100
AcDbLine
 10
1.018262492088916
 20
0.3387666513030301
 30
0.0
 11
1.018262492088916
 21
0.6744936690874678
 31
0.0
  0
LINE
  5
2C5
330
2C1
100
AcDbEntity
  8
1
  6
Continuous
 62
     0
 48
0.0000363854061997
370
    -2
100
AcDbLine
 10
1.273262286592598
 20
0.3387666513030299
 30
0.0
 11
1.273262286592598
 21
0.6744936690874678
 31
0.0
  0
LINE
  5
2C6
330
2C1
100
AcDbEntity
  8
1
  6
Continuous
 62
     0
 48
0.0000363854061997
370
    -2
100
AcDbLine
 10
1.044262492088916
 20
0.666757139675703
 30
0.0
 11
1.247262286592598
 21
0.666757139675703
 31
0.0
  0
SOLID
  5
2C7
330
2C1
100
AcDbEntity
  8
1
 62
     0
100
AcDbTrace
 10
1.044262492088916
 20
0.6710904730090363
 30
0.0
 11
1.044262492088916
 21
0.6624238063423697
 31
0.0
 12
1.018262492088916
 22
0.666757139675703
 32
0.0
 13
1.018262492088916
 23
0.666757139675703
 33
0.0
  0
SOLID
  5
2C8
330
2C1
100
AcDbEntity
  8
1
 62
     0
100
AcDbTrace
 10
1.247262286592598
 20
0.6624238063423697
 30
0.0
 11
1.247262286592598
 21
0.6710904730090363
 31
0.0
 12
1.273262286592598
 22
0.666757139675703
 32
0.0
 13
1.273262286592598
 23
0.666757139675703
 33
0.0
  0
MTEXT
  5
2C9
330
2C1
100
AcDbEntity
  8
1
 62
     0
370
     0
100
AcDbMText
 10
1.145762389340757
 20
0.7079294730090364
 30
0.0
 40
0.026
 41
0.0
 71
     5
 72
     1
  1
\A1;{\H1.000000x;\S1/4;} HEX KEY
  7
DC_TEXTSTYLE7
 73
     1
 44
1.0
  0
POINT
  5
2CA
330
2C1
100
AcDbEntity
  8
Defpoints
 62
     0
100
AcDbPoint
 10
1.018262492088916
 20
0.3232943571853831
 30
0.0
  0
POINT
  5
2CB
330
2C1
100
AcDbEntity
  8
Defpoints
 62
     0
100
AcDbPoint
 10
1.273262286592598
 20
0.3232943571853828
 30
0.0
  0
POINT
  5
2CC
330
2C1
100
AcDbEntity
  8
Defpoints
 62
     0
100
AcDbPoint
 10
1.273262286592598
 20
0.666757139675703
 30
0.0
  0
ENDBLK
  5
2C3
330
2C1
100
AcDbEntity
  8
0
100
AcDbBlockEnd
  0
BLOCK
  5
2CF
330
2CE
100
AcDbEntity
  8
0
100
AcDbBlockBegin
  2
*D3
 70
     1
 10
0.0
 20
0.0
 30
0.0
  3
*D3
  1

  0
LINE
  5
2D1
330
2CE
100
AcDbEntity
  8
1
  6
Continuous
 62
     0
 48
0.0000363854061997
370
    -2
100
AcDbLine
 10
1.74970975776181
 20
0.5031545513030306
 30
0.0
 11
1.74970975776181
 21
0.6744936690874678
 31
0.0
  0
LINE
  5
2D2
330
2CE
100
AcDbEntity
  8
1
  6
Continuous
 62
     0
 48
0.0000363854061997
370
    -2
100
AcDbLine
 10
2.09970975776181
 20
0.5951545513030309
 30
0.0
 11
2.09970975776181
 21
0.6744936690874678
 31
0.0
  0
LINE
  5
2D3
330
2CE
100
AcDbEntity
  8
1
  6
Continuous
 62
     0
 48
0.0000363854061997
370
    -2
100
AcDbLine
 10
1.77570975776181
 20
0.666757139675703
 30
0.0
 11
2.07370975776181
 21
0.666757139675703
 31
0.0
  0
SOLID
  5
2D4
330
2CE
100
AcDbEntity
  8
1
 62
     0
100
AcDbTrace
 10
1.77570975776181
 20
0.6710904730090363
 30
0.0
 11
1.77570975776181
 21
0.6624238063423697
 31
0.0
 12
1.74970975776181
 22
0.666757139675703
 32
0.0
 13
1.74970975776181
 23
0.666757139675703
 33
0.0
  0
SOLID
  5
2D5
330
2CE
100
AcDbEntity
  8
1
 62
     0
100
AcDbTrace
 10
2.07370975776181
 20
0.6624238063423697
 30
0.0
 11
2.07370975776181
 21
0.6710904730090363
 31
0.0
 12
2.09970975776181
 22
0.666757139675703
 32
0.0
 13
2.09970975776181
 23
0.666757139675703
 33
0.0
  0
MTEXT
  5
2D6
330
2CE
100
AcDbEntity
  8
1
 62
     0
370
     0
100
AcDbMText
 10
1.92470975776181
 20
0.6908301396757031
 30
0.0
 40
0.026
 41
0.0
 71
     5
 72
     1
  1
\A1;0.350
  7
DC_TEXTSTYLE7
 73
     1
 44
1.0
  0
POINT
  5
2D7
330
2CE
100
AcDbEntity
  8
Defpoints
 62
     0
100
AcDbPoint
 10
1.74970975776181
 20
0.4876822571853834
 30
0.0
  0
POINT
  5
2D8
330
2CE
100
AcDbEntity
  8
Defpoints
 62
     0
100
AcDbPoint
 10
2.09970975776181
 20
0.5796822571853838
 30
0.0
  0
POINT
  5
2D9
330
2CE
100
AcDbEntity
  8
Defpoints
 62
     0
100
AcDbPoint
 10
2.09970975776181
 20
0.666757139675703
 30
0.0
  0
ENDBLK
  5
2D0
330
2CE
100
AcDbEntity
  8
0
100
AcDbBlockEnd
  0
BLOCK
  5
2DC
330
2DB
100
AcDbEntity
  8
0
100
AcDbBlockBegin
  2
*D4
 70
     1
 10
0.0
 20
0.0
 30
0.0
  3
*D4
  1

  0
LINE
  5
2DE
330
2DB
100
AcDbEntity
  8
1
  6
Continuous
 62
     0
 48
0.0000363854061997
370
    -2
100
AcDbLine
 10
1.749709757761811
 20
0.5136822571853821
 30
0.0
 11
1.749709757761811
 21
0.752493669087468
 31
0.0
  0
LINE
  5
2DF
330
2DB
100
AcDbEntity
  8
1
  6
Continuous
 62
     0
 48
0.0000363854061997
370
    -2
100
AcDbLine
 10
2.20470975776181
 20
0.5556822571853834
 30
0.0
 11
2.20470975776181
 21
0.752493669087468
 31
0.0
  0
LINE
  5
2E0
330
2DB
100
AcDbEntity
  8
1
  6
Continuous
 62
     0
 48
0.0000363854061997
370
    -2
100
AcDbLine
 10
1.775709757761811
 20
0.7447571396757032
 30
0.0
 11
2.17870975776181
 21
0.7447571396757032
 31
0.0
  0
SOLID
  5
2E1
330
2DB
100
AcDbEntity
  8
1
 62
     0
100
AcDbTrace
 10
1.775709757761811
 20
0.7490904730090365
 30
0.0
 11
1.775709757761811
 21
0.7404238063423699
 31
0.0
 12
1.749709757761811
 22
0.7447571396757032
 32
0.0
 13
1.749709757761811
 23
0.7447571396757032
 33
0.0
  0
SOLID
  5
2E2
330
2DB
100
AcDbEntity
  8
1
 62
     0
100
AcDbTrace
 10
2.17870975776181
 20
0.7404238063423699
 30
0.0
 11
2.17870975776181
 21
0.7490904730090365
 31
0.0
 12
2.20470975776181
 22
0.7447571396757032
 32
0.0
 13
2.20470975776181
 23
0.7447571396757032
 33
0.0
  0
MTEXT
  5
2E3
330
2DB
100
AcDbEntity
  8
1
 62
     0
370
     0
100
AcDbMText
 10
1.977209757761811
 20
0.7688301396757032
 30
0.0
 40
0.026
 41
0.0
 71
     5
 72
     1
  1
\A1;0.455
  7
DC_TEXTSTYLE7
 73
     1
 44
1.0
  0
POINT
  5
2E4
330
2DB
100
AcDbEntity
  8
Defpoints
 62
     0
100
AcDbPoint
 10
1.749709757761811
 20
0.4876822571853821
 30
0.0
  0
POINT
  5
2E5
330
2DB
100
AcDbEntity
  8
Defpoints
 62
     0
100
AcDbPoint
 10
2.20470975776181
 20
0.5296822571853834
 30
0.0
  0
POINT
  5
2E6
330
2DB
100
AcDbEntity
  8
Defpoints
 62
     0
100
AcDbPoint
 10
2.20470975776181
 20
0.7447571396757032
 30
0.0
  0
ENDBLK
  5
2DD
330
2DB
100
AcDbEntity
  8
0
100
AcDbBlockEnd
  0
BLOCK
  5
2E9
330
2E8
100
AcDbEntity
  8
0
100
AcDbBlockBegin
  2
*D5
 70
     1
 10
0.0
 20
0.0
 30
0.0
  3
*D5
  1

  0
LINE
  5
2EB
330
2E8
100
AcDbEntity
  8
1
  6
Continuous
 62
     0
 48
0.0000363854061997
370
    -2
100
AcDbLine
 10
2.17470975776181
 20
-0.0903177428146165
 30
0.0
 11
2.316446287173575
 21
-0.0903177428146165
 31
0.0
  0
LINE
  5
2EC
330
2E8
100
AcDbEntity
  8
1
  6
Continuous
 62
     0
 48
0.0000363854061997
370
    -2
100
AcDbLine
 10
2.17470975776181
 20
0.5896822571853837
 30
0.0
 11
2.316446287173575
 21
0.5896822571853837
 31
0.0
  0
LINE
  5
2ED
330
2E8
100
AcDbEntity
  8
1
  6
Continuous
 62
     0
 48
0.0000363854061997
370
    -2
100
AcDbLine
 10
2.30870975776181
 20
-0.0643177428146165
 30
0.0
 11
2.30870975776181
 21
0.5636822571853837
 31
0.0
  0
SOLID
  5
2EE
330
2E8
100
AcDbEntity
  8
1
 62
     0
100
AcDbTrace
 10
2.304376424428477
 20
-0.0643177428146165
 30
0.0
 11
2.313043091095143
 21
-0.0643177428146165
 31
0.0
 12
2.30870975776181
 22
-0.0903177428146165
 32
0.0
 13
2.30870975776181
 23
-0.0903177428146165
 33
0.0
  0
SOLID
  5
2EF
330
2E8
100
AcDbEntity
  8
1
 62
     0
100
AcDbTrace
 10
2.313043091095143
 20
0.5636822571853837
 30
0.0
 11
2.304376424428477
 21
0.5636822571853837
 31
0.0
 12
2.30870975776181
 22
0.5896822571853837
 32
0.0
 13
2.30870975776181
 23
0.5896822571853837
 33
0.0
  0
MTEXT
  5
2F0
330
2E8
100
AcDbEntity
  8
1
 62
     0
370
     0
100
AcDbMText
 10
2.28392175776181
 20
0.2496822571853836
 30
0.0
 40
0.026
 41
0.0
 71
     5
 72
     1
  1
\A1;Ø0.680
  7
DC_TEXTSTYLE7
 11
0.0
 21
1.0
 31
0.0
 73
     1
 44
1.0
  0
POINT
  5
2F1
330
2E8
100
AcDbEntity
  8
Defpoints
 62
     0
100
AcDbPoint
 10
2.14470975776181
 20
-0.0903177428146165
 30
0.0
  0
POINT
  5
2F2
330
2E8
100
AcDbEntity
  8
Defpoints
 62
     0
100
AcDbPoint
 10
2.14470975776181
 20
0.5896822571853837
 30
0.0
  0
POINT
  5
2F3
330
2E8
100
AcDbEntity
  8
Defpoints
 62
     0
100
AcDbPoint
 10
2.30870975776181
 20
0.5896822571853837
 30
0.0
  0
ENDBLK
  5
2EA
330
2E8
100
AcDbEntity
  8
0
100
AcDbBlockEnd
  0
ENDSEC
  0
SECTION
  2
ENTITIES
  0
LINE
  5
D4
330
1F
100
AcDbEntity
  8
1
  6
Continuous
 62
     7
 48
0.0005821664991957
370
     0
100
AcDbLine
 10
0.0556978947504684
 20
-0.9043239491451145
 30
0.0
 11
3.076562017153319
 21
-0.9043239491451145
 31
0.0
  0
LINE
  5
D5
330
1F
100
AcDbEntity
  8
1
  6
Continuous
 62
     7
 48
0.0005821664991957
370
     0
100
AcDbLine
 10
0.0556978947504684
 20
-0.9043239491451145
 30
0.0
 11
0.0556978947504684
 21
1.2316405818468
 31
0.0
  0
LINE
  5
D6
330
1F
100
AcDbEntity
  8
1
  6
Continuous
 62
     7
 48
0.0005821664991957
370
     0
100
AcDbLine
 10
3.076562017153319
 20
-0.9043239491451145
 30
0.0
 11
3.076562017153319
 21
1.2316405818468
 31
0.0
  0
LINE
  5
D7
330
1F
100
AcDbEntity
  8
1
  6
Continuous
 62
     7
 48
0.0005821664991957
370
     0
100
AcDbLine
 10
3.076562017153319
 20
1.2316405818468
 30
0.0
 11
0.0556978947504684
 21
1.2316405818468
 31
0.0
  0
POLYLINE
  5
D8
330
1F
100
AcDbEntity
  8
1
  6
Continuous
 62
     7
 48
0.0005821664991957
370
     0
100
AcDb2dPolyline
 66
     1
 10
0.0
 20
0.0
 30
0.0
 70
   128
  0
VERTEX
  5
D9
330
D8
100
AcDbEntity
  8
1
  6
Continuous
 62
     7
 48
0.0005821664991957
100
AcDbVertex
100
AcDb2dVertex
 10
2.415430138512964
 20
-0.8834598267422631
 30
0.0
  0
VERTEX
  5
DA
330
D8
100
AcDbEntity
  8
1
  6
Continuous
 62
     7
 48
0.0005821664991957
100
AcDbVertex
100
AcDb2dVertex
 10
2.415430138512964
 20
-0.8020897493711426
 30
0.0
  0
VERTEX
  5
DB
330
D8
100
AcDbEntity
  8
1
  6
Continuous
 62
     7
 48
0.0005821664991957
100
AcDbVertex
100
AcDb2dVertex
 10
0.0765620171533196
 20
-0.8020897493711424
 30
0.0
  0
SEQEND
  5
DC
330
D8
100
AcDbEntity
  8
1
  6
Continuous
 62
     7
 48
0.0005821664991957
370
     0
  0
LINE
  5
DD
330
1F
100
AcDbEntity
  8
1
  6
Continuous
 62
     7
 48
0.0005821664991957
370
     0
100
AcDbLine
 10
1.838211152161578
 20
-0.720719672000022
 30
0.0
 11
1.838211152161578
 21
-0.8834598267422634
 31
0.0
  0
LINE
  5
DE
330
1F
100
AcDbEntity
  8
1
  6
Continuous
 62
     7
 48
0.0005821664991957
370
     0
100
AcDbLine
 10
1.260992165810191
 20
-0.7207196720000223
 30
0.0
 11
1.260992165810191
 21
-0.8834598267422634
 31
0.0
  0
TEXT
  5
E0
330
1F
100
AcDbEntity
  8
1
  6
Continuous
 62
     1
420
 16711680
370
     0
100
AcDbText
 10
0.1164216695441619
 20
-0.7879536519924478
 30
0.0
 40
0.0406850386855603
  1
SPEED
  7
DC_TEXTSTYLE4
100
AcDbText
  0
TEXT
  5
E1
330
1F
100
AcDbEntity
  8
1
  6
Continuous
 62
     5
420
      255
370
     0
100
AcDbText
 10
0.3114100575542831
 20
-0.7883400112591262
 30
0.0
 40
0.0406850386855603
  1
FLOW
  7
DC_TEXTSTYLE4
100
AcDbText
  0
TEXT
  5
E2
330
1F
100
AcDbEntity
  8
1
  6
Continuous
 62
     7
370
     0
100
AcDbText
 10
0.493539530014671
 20
-0.7885378288630068
 30
0.0
 40
0.0406850386855603
  1
PRODUCTS PTY LTD
  7
DC_TEXTSTYLE4
100
AcDbText
  0
LINE
  5
E3
330
1F
100
AcDbEntity
  8
1
  6
Continuous
 62
     7
 48
0.0005821664991957
370
     0
100
AcDbLine
 10
1.107885432174031
 20
-0.7207196720000223
 30
0.0
 11
1.107885432174031
 21
-0.8020897493711426
 31
0.0
  0
TEXT
  5
E5
330
1F
100
AcDbEntity
  8
1
  6
Continuous
 62
     7
370
     0
100
AcDbText
 10
1.134370238856063
 20
-0.758093239919565
 30
0.0
 40
0.0203425193427802
  1
MAX 3D
  7
DC_TEXTSTYLE5
100
AcDbText
  0
TEXT
  5
E6
330
1F
100
AcDbEntity
  8
1
  6
Continuous
 62
     7
370
     0
100
AcDbText
 10
1.158800408769643
 20
-0.7935517005724548
 30
0.0
 40
0.0203425193427802
  1
V14
  7
DC_TEXTSTYLE5
100
AcDbText
  0
LINE
  5
E7
330
1F
100
AcDbEntity
  8
1
  6
Continuous
 62
     7
 48
0.0005821664991957
370
     0
100
AcDbLine
 10
1.260992165810191
 20
-0.8020897493711426
 30
0.0
 11
1.260992165810191
 21
-0.8020897493711426
 31
0.0
  0
LINE
  5
E8
330
1F
100
AcDbEntity
  8
1
  6
Continuous
 62
     7
 48
0.0005821664991957
370
     0
100
AcDbLine
 10
1.838211152161578
 20
-0.8020897493711426
 30
0.0
 11
1.838211152161578
 21
-0.8020897493711426
 31
0.0
  0
TEXT
  5
E9
330
1F
100
AcDbEntity
  8
1
  6
Continuous
 62
     7
370
     0
100
AcDbText
 10
1.281334685152972
 20
-0.7817472300283624
 30
0.0
 40
0.0355994088498652
  1
Drg No: 814-06
  7
DC_TEXTSTYLE5
100
AcDbText
  0
ARC
  5
EA
330
1F
100
AcDbEntity
  8
1
  6
Continuous
 62
     7
 48
0.0005821664991957
370
     0
100
AcDbCircle
 10
0.0765630094713366
 20
1.210775467125932
 30
0.0
 40
0.0000009923180166
100
AcDbArc
 50
90.0
 51
180.0
  0
LINE
  5
EB
330
1F
100
AcDbEntity
  8
1
  6
Continuous
 62
     7
 48
0.0005821664991957
370
     0
100
AcDbLine
 10
0.0765630094713366
 20
1.210776459443949
 30
0.0
 11
3.055696902432452
 21
1.210776459443949
 31
0.0
  0
LINE
  5
EC
330
1F
100
AcDbEntity
  8
1
  6
Continuous
 62
     7
 48
0.0005821664991957
370
     0
100
AcDbLine
 10
3.055697894750468
 20
1.210775467125932
 30
0.0
 11
3.055697894750468
 21
-0.8834588344242468
 31
0.0
  0
LINE
  5
ED
330
1F
100
AcDbEntity
  8
1
  6
Continuous
 62
     7
 48
0.0005821664991957
370
     0
100
AcDbLine
 10
3.055696902432452
 20
-0.8834598267422631
 30
0.0
 11
0.0765630094713362
 21
-0.8834598267422631
 31
0.0
  0
ARC
  5
EE
330
1F
100
AcDbEntity
  8
1
  6
Continuous
 62
     7
 48
0.0005821664991957
370
     0
100
AcDbCircle
 10
0.0765630094713366
 20
-0.8834588344242463
 30
0.0
 40
0.0000009923180167
100
AcDbArc
 50
180.0
 51
269.9999999775637
  0
LINE
  5
EF
330
1F
100
AcDbEntity
  8
1
  6
Continuous
 62
     7
 48
0.0005821664991957
370
     0
100
AcDbLine
 10
0.0765620171533199
 20
-0.8834588344242463
 30
0.0
 11
0.0765620171533199
 21
1.210775467125932
 31
0.0
  0
LINE
  5
F0
330
1F
100
AcDbEntity
  8
1
  6
Continuous
 62
     7
 48
0.0005821664991957
370
     0
100
AcDbLine
 10
1.566129955951894
 20
1.210776459443949
 30
0.0
 11
1.566129955951895
 21
1.2316405818468
 31
0.0
  0
LINE
  5
F1
330
1F
100
AcDbEntity
  8
1
  6
Continuous
 62
     7
 48
0.0005821664991957
370
     0
100
AcDbLine
 10
3.055697894750468
 20
0.2450283937219629
 30
0.0
 11
3.076562017153319
 21
0.2450283937219626
 31
0.0
  0
LINE
  5
F2
330
1F
100
AcDbEntity
  8
1
  6
Continuous
 62
     7
 48
0.0005821664991957
370
     0
100
AcDbLine
 10
0.0765620171533196
 20
0.2450283937219626
 30
0.0
 11
0.0556978947504684
 21
0.2450283937219626
 31
0.0
  0
POLYLINE
  5
F3
330
1F
100
AcDbEntity
  8
1
  6
Continuous
 62
     7
 48
0.0005821664991957
370
     0
100
AcDb2dPolyline
 66
     1
 10
0.0
 20
0.0
 30
0.0
 70
   128
  0
VERTEX
  5
F4
330
F3
100
AcDbEntity
  8
1
  6
Continuous
 62
     7
 48
0.0005821664991957
100
AcDbVertex
100
AcDb2dVertex
 10
2.415430138512964
 20
-0.8020897493711426
 30
0.0
  0
VERTEX
  5
F5
330
F3
100
AcDbEntity
  8
1
  6
Continuous
 62
     7
 48
0.0005821664991957
100
AcDbVertex
100
AcDb2dVertex
 10
2.415430138512964
 20
-0.720719672000022
 30
0.0
  0
VERTEX
  5
F6
330
F3
100
AcDbEntity
  8
1
  6
Continuous
 62
     7
 48
0.0005821664991957
100
AcDbVertex
100
AcDb2dVertex
 10
0.0765620171533196
 20
-0.7207196720000222
 30
0.0
  0
SEQEND
  5
F7
330
F3
100
AcDbEntity
  8
1
  6
Continuous
 62
     7
 48
0.0005821664991957
370
     0
  0
POLYLINE
  5
F8
330
1F
100
AcDbEntity
  8
1
  6
Continuous
 62
     7
 48
0.0002910832495978
370
     0
100
AcDb2dPolyline
 66
     1
 10
0.0
 20
0.0
 30
0.0
 70
   128
  0
VERTEX
  5
F9
330
F8
100
AcDbEntity
  8
1
  6
Continuous
 62
     7
 48
0.0002910832495978
100
AcDbVertex
100
AcDb2dVertex
 10
0.0765620171533201
 20
1.152065432652982
 30
0.0
  0
VERTEX
  5
FA
330
F8
100
AcDbEntity
  8
1
  6
Continuous
 62
     7
 48
0.0002910832495978
100
AcDbVertex
100
AcDb2dVertex
 10
0.5850521297070779
 20
1.152065432652981
 30
0.0
  0
VERTEX
  5
FB
330
F8
100
AcDbEntity
  8
1
  6
Continuous
 62
     7
 48
0.0002910832495978
100
AcDbVertex
100
AcDb2dVertex
 10
0.5850521297070779
 20
1.210776459443949
 30
0.0
  0
SEQEND
  5
FC
330
F8
100
AcDbEntity
  8
1
  6
Continuous
 62
     7
 48
0.0002910832495978
370
     0
  0
POLYLINE
  5
FD
330
1F
100
AcDbEntity
  8
1
  6
Continuous
 62
     7
 48
0.0029108324959784
370
     0
100
AcDb2dPolyline
 66
     1
 10
0.0
 20
0.0
 30
0.0
 70
   128
  0
VERTEX
  5
FE
330
FD
100
AcDbEntity
  8
1
  6
Continuous
 62
     7
 48
0.0029108324959784
100
AcDbVertex
100
AcDb2dVertex
 10
2.948911688828644
 20
1.210775665589536
 30
0.0
  0
VERTEX
  5
FF
330
FD
100
AcDbEntity
  8
1
  6
Continuous
 62
     7
 48
0.0029108324959784
100
AcDbVertex
100
AcDb2dVertex
 10
2.948911688828644
 20
1.145877428914895
 30
0.0
  0
VERTEX
  5
100
330
FD
100
AcDbEntity
  8
1
  6
Continuous
 62
     7
 48
0.0029108324959784
100
AcDbVertex
100
AcDb2dVertex
 10
3.055696902432451
 20
1.145877428914895
 30
0.0
  0
SEQEND
  5
101
330
FD
100
AcDbEntity
  8
1
  6
Continuous
 62
     7
 48
0.0029108324959784
370
     0
  0
LINE
  5
102
330
1F
100
AcDbEntity
  8
1
  6
Continuous
 62
     7
 48
0.0005821664991957
370
     0
100
AcDbLine
 10
2.415430138512964
 20
-0.720719672000022
 30
0.0
 11
3.055697894750468
 21
-0.720719672000022
 31
0.0
  0
TEXT
  5
103
330
1F
100
AcDbEntity
  8
1
  6
Continuous
 62
     7
370
     0
100
AcDbText
 10
1.858553671504358
 20
-0.7817472300283624
 30
0.0
 40
0.0355994088498652
  1
Drg Date: 27/07/2017
  7
DC_TEXTSTYLE5
100
AcDbText
  0
TEXT
  5
104
330
1F
100
AcDbEntity
  8
1
  6
Continuous
 62
     5
420
      255
370
     0
100
AcDbText
 10
0.0843205438965035
 20
1.16481132332755
 30
0.0
 40
0.0264890898026604
  1
-6 AN IN HEX O RING PLUG
  7
DC_TEXTSTYLE5
100
AcDbText
  0
TEXT
  5
106
330
1F
100
AcDbEntity
  8
1
  6
DASHED
 62
     1
420
 16711680
370
     0
100
AcDbText
 10
2.976536430294987
 20
1.15885707624982
 30
0.0
 40
0.0284757715378594
  1
A4
 41
1.000000000000003
  7
DC_TEXTSTYLE6
 72
     1
 11
3.002304295630548
 21
1.15885707624982
 31
0.0
100
AcDbText
  0
LINE
  5
107
330
1F
100
AcDbEntity
  8
1
  6
Continuous
 62
     7
 48
0.00173834940238
370
     0
100
AcDbLine
 10
2.948911688828644
 20
1.145877428914895
 30
0.0
 11
2.767820779737734
 21
1.145877428914895
 31
0.0
  0
LINE
  5
108
330
1F
100
AcDbEntity
  8
1
  6
CENTER
 62
    94
420
    37376
 48
0.0436363636363636
370
     0
100
AcDbLine
 10
2.829349645562532
 20
1.178326547252215
 30
0.0
 11
2.781430025301959
 21
1.178326547252215
 31
0.0
  0
POLYLINE
  5
109
330
1F
100
AcDbEntity
  8
1
  6
Continuous
 62
     7
 48
0.00173834940238
370
     0
100
AcDb2dPolyline
 66
     1
 10
0.0
 20
0.0
 30
0.0
  0
VERTEX
  5
10A
330
109
100
AcDbEntity
  8
1
  6
Continuous
 62
     7
 48
0.00173834940238
100
AcDbVertex
100
AcDb2dVertex
 10
2.927093507010464
 20
1.195781092706761
 30
0.0
 40
0.00276
 41
0.00276
  0
VERTEX
  5
10B
330
109
100
AcDbEntity
  8
1
  6
Continuous
 62
     7
 48
0.00173834940238
100
AcDbVertex
100
AcDb2dVertex
 10
2.927093507010464
 20
1.16087200179767
 30
0.0
 40
0.00276
 41
0.00276
  0
SEQEND
  5
10C
330
109
100
AcDbEntity
  8
1
  6
Continuous
 62
     7
 48
0.00173834940238
370
     0
  0
POLYLINE
  5
10D
330
1F
100
AcDbEntity
  8
1
  6
Continuous
 62
     7
 48
0.00173834940238
370
     0
100
AcDb2dPolyline
 66
     1
 10
0.0
 20
0.0
 30
0.0
  0
VERTEX
  5
10E
330
10D
100
AcDbEntity
  8
1
  6
Continuous
 62
     7
 48
0.00173834940238
100
AcDbVertex
100
AcDb2dVertex
 10
2.861638961555917
 20
1.189235638161306
 30
0.0
 40
0.00276
 41
0.00276
  0
VERTEX
  5
10F
330
10D
100
AcDbEntity
  8
1
  6
Continuous
 62
     7
 48
0.00173834940238
100
AcDbVertex
100
AcDb2dVertex
 10
2.861638961555917
 20
1.167417456343124
 30
0.0
 40
0.00276
 41
0.00276
  0
SEQEND
  5
110
330
10D
100
AcDbEntity
  8
1
  6
Continuous
 62
     7
 48
0.00173834940238
370
     0
  0
POLYLINE
  5
111
330
1F
100
AcDbEntity
  8
1
  6
Continuous
 62
     7
 48
0.00173834940238
370
     0
100
AcDb2dPolyline
 66
     1
 10
0.0
 20
0.0
 30
0.0
  0
VERTEX
  5
112
330
111
100
AcDbEntity
  8
1
  6
Continuous
 62
     7
 48
0.00173834940238
100
AcDbVertex
100
AcDb2dVertex
 10
2.861638961555917
 20
1.189235638161306
 30
0.0
 40
0.00276
 41
0.00276
  0
VERTEX
  5
113
330
111
100
AcDbEntity
  8
1
  6
Continuous
 62
     7
 48
0.00173834940238
100
AcDbVertex
100
AcDb2dVertex
 10
2.927093507010464
 20
1.195781092706761
 30
0.0
 40
0.00276
 41
0.00276
  0
SEQEND
  5
114
330
111
100
AcDbEntity
  8
1
  6
Continuous
 62
     7
 48
0.00173834940238
370
     0
  0
POLYLINE
  5
115
330
1F
100
AcDbEntity
  8
1
  6
Continuous
 62
     7
 48
0.00173834940238
370
     0
100
AcDb2dPolyline
 66
     1
 10
0.0
 20
0.0
 30
0.0
  0
VERTEX
  5
116
330
115
100
AcDbEntity
  8
1
  6
Continuous
 62
     7
 48
0.00173834940238
100
AcDbVertex
100
AcDb2dVertex
 10
2.861638961555917
 20
1.167417456343124
 30
0.0
 40
0.00276
 41
0.00276
  0
VERTEX
  5
117
330
115
100
AcDbEntity
  8
1
  6
Continuous
 62
     7
 48
0.00173834940238
100
AcDbVertex
100
AcDb2dVertex
 10
2.927093507010464
 20
1.16087200179767
 30
0.0
 40
0.00276
 41
0.00276
  0
SEQEND
  5
118
330
115
100
AcDbEntity
  8
1
  6
Continuous
 62
     7
 48
0.00173834940238
370
     0
  0
LINE
  5
119
330
1F
100
AcDbEntity
  8
1
  6
CENTER
 62
    94
420
    37376
 48
0.0436363636363636
370
     0
100
AcDbLine
 10
2.807093507010463
 20
1.200144729070397
 30
0.0
 11
2.807093507010463
 21
1.156508365434034
 31
0.0
  0
LINE
  5
11A
330
1F
100
AcDbEntity
  8
1
  6
Continuous
 62
     7
 48
0.00173834940238
370
     0
100
AcDbLine
 10
2.767820779737734
 20
1.145877428914895
 30
0.0
 11
2.767820779737733
 21
1.210776459443948
 31
0.0
  0
LINE
  5
11B
330
1F
100
AcDbEntity
  8
1
  6
Continuous
 62
     7
 48
0.00173834940238
370
     0
100
AcDbLine
 10
2.767820779737734
 20
1.110968338005804
 30
0.0
 11
3.055697696286865
 21
1.110968338005805
 31
0.0
  0
TEXT
  5
11C
330
1F
100
AcDbEntity
  8
1
  6
DASHED
 62
     7
370
     0
100
AcDbText
 10
2.775898768357822
 20
1.116204701115832
 30
0.0
 40
0.0157090909090906
  1
3RD ANGLE PROJECTION
 41
1.000000000000007
  7
DC_TEXTSTYLE5
 72
     1
 11
2.911758841085093
 21
1.116204701115832
 31
0.0
100
AcDbText
  0
LINE
  5
11D
330
1F
100
AcDbEntity
  8
1
  6
Continuous
 62
     7
 48
0.00173834940238
370
     0
100
AcDbLine
 10
2.767820779737734
 20
1.145877428914895
 30
0.0
 11
2.767820779737734
 21
1.110968338005804
 31
0.0
  0
TEXT
  5
11E
330
1F
100
AcDbEntity
  8
1
  6
Continuous
 62
     7
370
     0
100
AcDbText
 10
1.669148838069943
 20
-0.7096427489350986
 30
0.0
 40
0.0221538461298461
  1
MK #
 41
1.0
  7
DC_TEXTSTYLE4
100
AcDbText
  0
TEXT
  5
11F
330
1F
100
AcDbEntity
  8
1
  6
Continuous
 62
     7
370
     0
100
AcDbText
 10
1.76351927321785
 20
-0.7096427489350986
 30
0.0
 40
0.0221538461298461
  1
QTY
 41
1.000000000000001
  7
DC_TEXTSTYLE4
100
AcDbText
  0
TEXT
  5
120
330
1F
100
AcDbEntity
  8
1
  6
Continuous
 62
     7
370
     0
100
AcDbText
 10
1.849288075226501
 20
-0.7096427489350986
 30
0.0
 40
0.0221538461298461
  1
PART #
 41
0.9999999999999999
  7
DC_TEXTSTYLE4
100
AcDbText
  0
TEXT
  5
121
330
1F
100
AcDbEntity
  8
1
  6
Continuous
 62
     7
370
     0
100
AcDbText
 10
2.043881820246573
 20
-0.7096427489350983
 30
0.0
 40
0.0221538461298461
  1
DESCRIPTION
 41
0.9999999999999996
  7
DC_TEXTSTYLE4
100
AcDbText
  0
TEXT
  5
122
330
1F
100
AcDbEntity
  8
1
  6
Continuous
 62
     7
370
     0
100
AcDbText
 10
2.426507061577887
 20
-0.7096427489350986
 30
0.0
 40
0.0221538461298461
  1
MATERIAL
 41
0.9999999999999993
  7
DC_TEXTSTYLE4
100
AcDbText
  0
TEXT
  5
123
330
1F
100
AcDbEntity
  8
1
  6
Continuous
 62
     7
370
     0
100
AcDbText
 10
1.695148838069943
 20
-0.6653350566754063
 30
0.0
 40
0.0221538461298462
  1
1
 41
1.000000000000003
  7
DC_TEXTSTYLE5
100
AcDbText
  0
TEXT
  5
124
330
1F
100
AcDbEntity
  8
1
  6
Continuous
 62
     7
370
     0
100
AcDbText
 10
1.78691927321785
 20
-0.6653350566754063
 30
0.0
 40
0.0221538461298462
  1
1
 41
1.000000000000004
  7
DC_TEXTSTYLE5
100
AcDbText
  0
TEXT
  5
125
330
1F
100
AcDbEntity
  8
1
  6
Continuous
 62
     7
370
     0
100
AcDbText
 10
1.849288075226501
 20
-0.6653350566754063
 30
0.0
 40
0.0221538461298462
  1
C814-06
 41
1.000000000000003
  7
DC_TEXTSTYLE5
100
AcDbText
  0
TEXT
  5
126
330
1F
100
AcDbEntity
  8
1
  6
Continuous
 62
     7
370
     0
100
AcDbText
 10
2.043881820246573
 20
-0.6653350566754062
 30
0.0
 40
0.0221538461298462
  1
IN HEX O RING PLUG
 41
0.9999999999999996
  7
DC_TEXTSTYLE5
100
AcDbText
  0
TEXT
  5
127
330
1F
100
AcDbEntity
  8
1
  6
Continuous
 62
     7
370
     0
100
AcDbText
 10
2.426507061577887
 20
-0.6653350566754064
 30
0.0
 40
0.0221538461298462
  1
ALLOY
 41
0.9999999999999993
  7
DC_TEXTSTYLE5
100
AcDbText
  0
LINE
  5
128
330
1F
100
AcDbEntity
  8
1
  6
Continuous
 62
     7
 48
0.00173834940238
370
     0
100
AcDbLine
 10
3.055697894750468
 20
-0.6321042874806373
 30
0.0
 11
1.65807191500502
 21
-0.6321042874806375
 31
0.0
  0
LINE
  5
129
330
1F
100
AcDbEntity
  8
1
  6
CENTER
 62
    94
420
    37376
 48
0.0436363636363636
370
     0
100
AcDbLine
 10
2.932840748936146
 20
1.178326547252215
 30
0.0
 11
2.85521717072062
 21
1.178326547252215
 31
0.0
  0
LINE
  5
12A
330
1F
100
AcDbEntity
  8
1
  6
Continuous
 62
     7
 48
0.00173834940238
370
     0
100
AcDbLine
 10
1.65807191500502
 20
-0.7207196720000216
 30
0.0
 11
1.65807191500502
 21
-0.6764119797403295
 31
0.0
  0
LINE
  5
12B
330
1F
100
AcDbEntity
  8
1
  6
Continuous
 62
     7
 48
0.00173834940238
370
     0
100
AcDbLine
 10
3.055697894750468
 20
-0.720719672000022
 30
0.0
 11
3.055697894750468
 21
-0.6764119797403296
 31
0.0
  0
LINE
  5
12C
330
1F
100
AcDbEntity
  8
1
  6
Continuous
 62
     7
 48
0.00173834940238
370
     0
100
AcDbLine
 10
1.83899999464963
 20
-0.7207196720000221
 30
0.0
 11
3.055697894750468
 21
-0.7207196720000221
 31
0.0
  0
LINE
  5
12D
330
1F
100
AcDbEntity
  8
1
  6
Continuous
 62
     7
 48
0.00173834940238
370
     0
100
AcDbLine
 10
3.055697894750468
 20
-0.6764119797403296
 30
0.0
 11
1.65807191500502
 21
-0.67641197974033
 31
0.0
  0
LINE
  5
12E
330
1F
100
AcDbEntity
  8
1
  6
Continuous
 62
     7
 48
0.00173834940238
370
     0
100
AcDbLine
 10
1.65807191500502
 20
-0.6764119797403295
 30
0.0
 11
1.65807191500502
 21
-0.6321042874806371
 31
0.0
  0
LINE
  5
12F
330
1F
100
AcDbEntity
  8
1
  6
Continuous
 62
     7
 48
0.00173834940238
370
     0
100
AcDbLine
 10
3.055697894750468
 20
-0.6321042874806373
 30
0.0
 11
3.055697894750468
 21
-0.6764119797403296
 31
0.0
  0
LINE
  5
130
330
1F
100
AcDbEntity
  8
1
  6
Continuous
 62
     7
 48
0.00173834940238
370
     0
100
AcDbLine
 10
1.752442350152926
 20
-0.720719672000022
 30
0.0
 11
1.752442350152926
 21
-0.6764119797403295
 31
0.0
  0
LINE
  5
131
330
1F
100
AcDbEntity
  8
1
  6
Continuous
 62
     7
 48
0.00173834940238
370
     0
100
AcDbLine
 10
1.838211152161578
 20
-0.720719672000022
 30
0.0
 11
1.838211152161578
 21
-0.6764119797403295
 31
0.0
  0
LINE
  5
132
330
1F
100
AcDbEntity
  8
1
  6
Continuous
 62
     7
 48
0.00173834940238
370
     0
100
AcDbLine
 10
2.03280489718165
 20
-0.7207196720000216
 30
0.0
 11
2.03280489718165
 21
-0.6764119797403294
 31
0.0
  0
LINE
  5
133
330
1F
100
AcDbEntity
  8
1
  6
Continuous
 62
     7
 48
0.00173834940238
370
     0
100
AcDbLine
 10
2.415430138512964
 20
-0.720719672000022
 30
0.0
 11
2.415430138512964
 21
-0.6764119797403292
 31
0.0
  0
LINE
  5
134
330
1F
100
AcDbEntity
  8
1
  6
Continuous
 62
     7
 48
0.00173834940238
370
     0
100
AcDbLine
 10
1.752442350152926
 20
-0.6764119797403295
 30
0.0
 11
1.752442350152926
 21
-0.6321042874806374
 31
0.0
  0
LINE
  5
135
330
1F
100
AcDbEntity
  8
1
  6
Continuous
 62
     7
 48
0.00173834940238
370
     0
100
AcDbLine
 10
1.838211152161578
 20
-0.6764119797403295
 30
0.0
 11
1.838211152161578
 21
-0.6321042874806374
 31
0.0
  0
LINE
  5
136
330
1F
100
AcDbEntity
  8
1
  6
Continuous
 62
     7
 48
0.00173834940238
370
     0
100
AcDbLine
 10
2.03280489718165
 20
-0.6764119797403294
 30
0.0
 11
2.03280489718165
 21
-0.6321042874806375
 31
0.0
  0
LINE
  5
137
330
1F
100
AcDbEntity
  8
1
  6
Continuous
 62
     7
 48
0.00173834940238
370
     0
100
AcDbLine
 10
2.415430138512964
 20
-0.6764119797403292
 30
0.0
 11
2.415430138512964
 21
-0.6321042874806373
 31
0.0
  0
TEXT
  5
138
330
1F
100
AcDbEntity
  8
1
  6
Continuous
 62
     7
370
     0
100
AcDbText
 10
2.626142245531134
 20
-0.7096427489350989
 30
0.0
 40
0.0221538461298461
  1
SURFACE CONDITION
 41
1.000000000000001
  7
DC_TEXTSTYLE4
100
AcDbText
  0
TEXT
  5
139
330
1F
100
AcDbEntity
  8
1
  6
Continuous
 62
     7
370
     0
100
AcDbText
 10
2.626142245531134
 20
-0.6653350566754067
 30
0.0
 40
0.0221538461298462
  1
HARD COAT ANODIZED
 41
1.000000000000004
  7
DC_TEXTSTYLE5
100
AcDbText
  0
LINE
  5
13A
330
1F
100
AcDbEntity
  8
1
  6
Continuous
 62
     7
 48
0.00173834940238
370
     0
100
AcDbLine
 10
2.615065322466211
 20
-0.7207196720000223
 30
0.0
 11
2.615065322466211
 21
-0.67641197974033
 31
0.0
  0
LINE
  5
13B
330
1F
100
AcDbEntity
  8
1
  6
Continuous
 62
     7
 48
0.00173834940238
370
     0
100
AcDbLine
 10
2.615065322466211
 20
-0.67641197974033
 30
0.0
 11
2.615065322466211
 21
-0.6321042874806377
 31
0.0
  0
TEXT
  5
13C
330
1F
100
AcDbEntity
  8
1
  6
Continuous
 62
     7
370
     0
100
AcDbText
 10
1.695148838069943
 20
-0.6210273644157139
 30
0.0
 40
0.0221538461298462
  1
2
 41
1.000000000000003
  7
DC_TEXTSTYLE5
100
AcDbText
  0
TEXT
  5
13D
330
1F
100
AcDbEntity
  8
1
  6
Continuous
 62
     7
370
     0
100
AcDbText
 10
1.78691927321785
 20
-0.6210273644157139
 30
0.0
 40
0.0221538461298462
  1
1
 41
1.000000000000004
  7
DC_TEXTSTYLE5
100
AcDbText
  0
TEXT
  5
13E
330
1F
100
AcDbEntity
  8
1
  6
Continuous
 62
     7
370
     0
100
AcDbText
 10
1.849288075226501
 20
-0.6210273644157139
 30
0.0
 40
0.0221538461298462
  1
COB-06
 41
1.000000000000003
  7
DC_TEXTSTYLE5
100
AcDbText
  0
TEXT
  5
13F
330
1F
100
AcDbEntity
  8
1
  6
Continuous
 62
     7
370
     0
100
AcDbText
 10
2.043881820246573
 20
-0.6210273644157137
 30
0.0
 40
0.0221538461298462
  1
O RING BOSS GASKET
 41
0.9999999999999996
  7
DC_TEXTSTYLE5
100
AcDbText
  0
TEXT
  5
140
330
1F
100
AcDbEntity
  8
1
  6
Continuous
 62
     7
370
     0
100
AcDbText
 10
2.426507061577887
 20
-0.621027364415714
 30
0.0
 40
0.0221538461298462
  1
NITRILE 90
 41
0.9999999999999993
  7
DC_TEXTSTYLE5
100
AcDbText
  0
LINE
  5
141
330
1F
100
AcDbEntity
  8
1
  6
Continuous
 62
     7
 48
0.00173834940238
370
     0
100
AcDbLine
 10
3.055697894750468
 20
-0.5877965952209449
 30
0.0
 11
1.65807191500502
 21
-0.5877965952209451
 31
0.0
  0
LINE
  5
142
330
1F
100
AcDbEntity
  8
1
  6
Continuous
 62
     7
 48
0.00173834940238
370
     0
100
AcDbLine
 10
3.055697894750468
 20
-0.6321042874806373
 30
0.0
 11
1.65807191500502
 21
-0.6321042874806375
 31
0.0
  0
LINE
  5
143
330
1F
100
AcDbEntity
  8
1
  6
Continuous
 62
     7
 48
0.00173834940238
370
     0
100
AcDbLine
 10
1.65807191500502
 20
-0.6321042874806371
 30
0.0
 11
1.65807191500502
 21
-0.5877965952209447
 31
0.0
  0
LINE
  5
144
330
1F
100
AcDbEntity
  8
1
  6
Continuous
 62
     7
 48
0.00173834940238
370
     0
100
AcDbLine
 10
3.055697894750468
 20
-0.5877965952209449
 30
0.0
 11
3.055697894750468
 21
-0.6321042874806373
 31
0.0
  0
LINE
  5
145
330
1F
100
AcDbEntity
  8
1
  6
Continuous
 62
     7
 48
0.00173834940238
370
     0
100
AcDbLine
 10
1.752442350152926
 20
-0.6321042874806371
 30
0.0
 11
1.752442350152926
 21
-0.587796595220945
 31
0.0
  0
LINE
  5
146
330
1F
100
AcDbEntity
  8
1
  6
Continuous
 62
     7
 48
0.00173834940238
370
     0
100
AcDbLine
 10
1.838211152161578
 20
-0.6321042874806371
 30
0.0
 11
1.838211152161578
 21
-0.587796595220945
 31
0.0
  0
LINE
  5
147
330
1F
100
AcDbEntity
  8
1
  6
Continuous
 62
     7
 48
0.00173834940238
370
     0
100
AcDbLine
 10
2.03280489718165
 20
-0.632104287480637
 30
0.0
 11
2.03280489718165
 21
-0.5877965952209451
 31
0.0
  0
LINE
  5
148
330
1F
100
AcDbEntity
  8
1
  6
Continuous
 62
     7
 48
0.00173834940238
370
     0
100
AcDbLine
 10
2.415430138512964
 20
-0.6321042874806367
 30
0.0
 11
2.415430138512964
 21
-0.5877965952209449
 31
0.0
  0
TEXT
  5
149
330
1F
100
AcDbEntity
  8
1
  6
Continuous
 62
     7
370
     0
100
AcDbText
 10
2.626142245531134
 20
-0.6210273644157143
 30
0.0
 40
0.0221538461298462
  1
AS PURCHASED 
 41
1.000000000000004
  7
DC_TEXTSTYLE5
100
AcDbText
  0
LINE
  5
14A
330
1F
100
AcDbEntity
  8
1
  6
Continuous
 62
     7
 48
0.00173834940238
370
     0
100
AcDbLine
 10
2.615065322466211
 20
-0.6321042874806375
 30
0.0
 11
2.615065322466211
 21
-0.5877965952209454
 31
0.0
  0
LINE
  5
14B
330
1F
100
AcDbEntity
  8
1
  6
Continuous
 62
     7
 48
0.00173834940238
370
     0
100
AcDbLine
 10
3.055697894750468
 20
-0.5877965952209444
 30
0.0
 11
1.65807191500502
 21
-0.5877965952209447
 31
0.0
  0
LINE
  5
14C
330
1F
100
AcDbEntity
  8
1
  6
Continuous
 62
     7
 48
0.00173834940238
370
     0
100
AcDbLine
 10
3.055697894750468
 20
-0.5877965952209444
 30
0.0
 11
1.65807191500502
 21
-0.5877965952209447
 31
0.0
  0
LINE
  5
14D
330
1F
100
AcDbEntity
  8
1
  6
Continuous
 62
     7
 48
0.00173834940238
370
     0
100
AcDbLine
 10
3.055697894750468
 20
-0.5434889029612521
 30
0.0
 11
3.055697894750468
 21
-0.5877965952209444
 31
0.0
  0
LINE
  5
14E
330
1F
100
AcDbEntity
  8
1
  6
Continuous
 62
     7
 48
0.0005821664991957
370
     0
100
AcDbLine
 10
0.6383422041211774
 20
-0.8834598267422634
 30
0.0
 11
0.6383422041211774
 21
-0.8020897493711424
 31
0.0
  0
TEXT
  5
14F
330
1F
100
AcDbEntity
  8
1
  6
Continuous
 62
     7
370
     0
100
AcDbText
 10
1.858553671504358
 20
-0.8631173073994827
 30
0.0
 40
0.0355994088498652
  1
.
  7
DC_TEXTSTYLE5
100
AcDbText
  0
TEXT
  5
150
330
1F
100
AcDbEntity
  8
1
  6
Continuous
 62
    94
420
    37376
370
     0
100
AcDbText
 10
1.281334685152972
 20
-0.8631173073994832
 30
0.0
 40
0.0355994088498652
  1
.
  7
DC_TEXTSTYLE5
100
AcDbText
  0
TEXT
  5
151
330
1F
100
AcDbEntity
  8
1
  6
Continuous
 62
    94
420
    37376
370
     0
100
AcDbText
 10
0.6586847234639576
 20
-0.8631173073994832
 30
0.0
 40
0.0355994088498652
  1
.
  7
DC_TEXTSTYLE5
100
AcDbText
  0
TEXT
  5
152
330
1F
100
AcDbEntity
  8
1
  6
Continuous
 62
    94
420
    37376
370
     0
100
AcDbText
 10
0.1167254527788088
 20
-0.8631173073994829
 30
0.0
 40
0.0355994088498652
  1
.
  7
DC_TEXTSTYLE5
100
AcDbText
  0
ARC
  5
153
330
1F
100
AcDbEntity
  8
1
  6
Continuous
 62
     7
 48
0.0005821664991957
370
     0
100
AcDbCircle
 10
3.055696902432451
 20
1.210775665589536
 30
0.0
 40
0.0000007938544133
100
AcDbArc
 50
0.0
 51
89.99999993589647
  0
POLYLINE
  5
154
330
1F
100
AcDbEntity
  8
1
  6
Continuous
 62
     7
 48
0.00173834940238
370
     0
100
AcDb2dPolyline
 66
     1
 10
0.0
 20
0.0
 30
0.0
 70
   129
  0
VERTEX
  5
155
330
154
100
AcDbEntity
  8
1
  6
Continuous
 62
     7
 48
0.00173834940238
100
AcDbVertex
100
AcDb2dVertex
 10
2.82454805246501
 20
1.178326547252215
 30
0.0
 40
0.00276
 41
0.00276
  0
VERTEX
  5
156
330
154
100
AcDbEntity
  8
1
  6
Continuous
 62
     7
 48
0.00173834940238
100
AcDbVertex
100
AcDb2dVertex
 10
2.824282878699405
 20
1.181357497262402
 30
0.0
 40
0.00276
 41
0.00276
  0
VERTEX
  5
157
330
154
100
AcDbEntity
  8
1
  6
Continuous
 62
     7
 48
0.00173834940238
100
AcDbVertex
100
AcDb2dVertex
 10
2.823495414573273
 20
1.184296353390264
 30
0.0
 40
0.00276
 41
0.00276
  0
VERTEX
  5
158
330
154
100
AcDbEntity
  8
1
  6
Continuous
 62
     7
 48
0.00173834940238
100
AcDbVertex
100
AcDb2dVertex
 10
2.822209586785611
 20
1.187053819979488
 30
0.0
 40
0.00276
 41
0.00276
  0
VERTEX
  5
159
330
154
100
AcDbEntity
  8
1
  6
Continuous
 62
     7
 48
0.00173834940238
100
AcDbVertex
100
AcDb2dVertex
 10
2.820464464563087
 20
1.189546112803108
 30
0.0
 40
0.00276
 41
0.00276
  0
VERTEX
  5
15A
330
154
100
AcDbEntity
  8
1
  6
Continuous
 62
     7
 48
0.00173834940238
100
AcDbVertex
100
AcDb2dVertex
 10
2.818313072561356
 20
1.191697504804838
 30
0.0
 40
0.00276
 41
0.00276
  0
VERTEX
  5
15B
330
154
100
AcDbEntity
  8
1
  6
Continuous
 62
     7
 48
0.00173834940238
100
AcDbVertex
100
AcDb2dVertex
 10
2.815820779737737
 20
1.193442627027362
 30
0.0
 40
0.00276
 41
0.00276
  0
VERTEX
  5
15C
330
154
100
AcDbEntity
  8
1
  6
Continuous
 62
     7
 48
0.00173834940238
100
AcDbVertex
100
AcDb2dVertex
 10
2.813063313148512
 20
1.194728454815024
 30
0.0
 40
0.00276
 41
0.00276
  0
VERTEX
  5
15D
330
154
100
AcDbEntity
  8
1
  6
Continuous
 62
     7
 48
0.00173834940238
100
AcDbVertex
100
AcDb2dVertex
 10
2.81012445702065
 20
1.195515918941156
 30
0.0
 40
0.00276
 41
0.00276
  0
VERTEX
  5
15E
330
154
100
AcDbEntity
  8
1
  6
Continuous
 62
     7
 48
0.00173834940238
100
AcDbVertex
100
AcDb2dVertex
 10
2.807093507010463
 20
1.195781092706761
 30
0.0
 40
0.00276
 41
0.00276
  0
VERTEX
  5
15F
330
154
100
AcDbEntity
  8
1
  6
Continuous
 62
     7
 48
0.00173834940238
100
AcDbVertex
100
AcDb2dVertex
 10
2.804062557000277
 20
1.195515918941156
 30
0.0
 40
0.00276
 41
0.00276
  0
VERTEX
  5
160
330
154
100
AcDbEntity
  8
1
  6
Continuous
 62
     7
 48
0.00173834940238
100
AcDbVertex
100
AcDb2dVertex
 10
2.801123700872415
 20
1.194728454815024
 30
0.0
 40
0.00276
 41
0.00276
  0
VERTEX
  5
161
330
154
100
AcDbEntity
  8
1
  6
Continuous
 62
     7
 48
0.00173834940238
100
AcDbVertex
100
AcDb2dVertex
 10
2.79836623428319
 20
1.193442627027362
 30
0.0
 40
0.00276
 41
0.00276
  0
VERTEX
  5
162
330
154
100
AcDbEntity
  8
1
  6
Continuous
 62
     7
 48
0.00173834940238
100
AcDbVertex
100
AcDb2dVertex
 10
2.795873941459571
 20
1.191697504804838
 30
0.0
 40
0.00276
 41
0.00276
  0
VERTEX
  5
163
330
154
100
AcDbEntity
  8
1
  6
Continuous
 62
     7
 48
0.00173834940238
100
AcDbVertex
100
AcDb2dVertex
 10
2.79372254945784
 20
1.189546112803108
 30
0.0
 40
0.00276
 41
0.00276
  0
VERTEX
  5
164
330
154
100
AcDbEntity
  8
1
  6
Continuous
 62
     7
 48
0.00173834940238
100
AcDbVertex
100
AcDb2dVertex
 10
2.791977427235316
 20
1.187053819979488
 30
0.0
 40
0.00276
 41
0.00276
  0
VERTEX
  5
165
330
154
100
AcDbEntity
  8
1
  6
Continuous
 62
     7
 48
0.00173834940238
100
AcDbVertex
100
AcDb2dVertex
 10
2.790691599447654
 20
1.184296353390264
 30
0.0
 40
0.00276
 41
0.00276
  0
VERTEX
  5
166
330
154
100
AcDbEntity
  8
1
  6
Continuous
 62
     7
 48
0.00173834940238
100
AcDbVertex
100
AcDb2dVertex
 10
2.789904135321522
 20
1.181357497262402
 30
0.0
 40
0.00276
 41
0.00276
  0
VERTEX
  5
167
330
154
100
AcDbEntity
  8
1
  6
Continuous
 62
     7
 48
0.00173834940238
100
AcDbVertex
100
AcDb2dVertex
 10
2.789638961555917
 20
1.178326547252215
 30
0.0
 40
0.00276
 41
0.00276
  0
VERTEX
  5
168
330
154
100
AcDbEntity
  8
1
  6
Continuous
 62
     7
 48
0.00173834940238
100
AcDbVertex
100
AcDb2dVertex
 10
2.789904135321522
 20
1.175295597242029
 30
0.0
 40
0.00276
 41
0.00276
  0
VERTEX
  5
169
330
154
100
AcDbEntity
  8
1
  6
Continuous
 62
     7
 48
0.00173834940238
100
AcDbVertex
100
AcDb2dVertex
 10
2.790691599447654
 20
1.172356741114167
 30
0.0
 40
0.00276
 41
0.00276
  0
VERTEX
  5
16A
330
154
100
AcDbEntity
  8
1
  6
Continuous
 62
     7
 48
0.00173834940238
100
AcDbVertex
100
AcDb2dVertex
 10
2.791977427235316
 20
1.169599274524942
 30
0.0
 40
0.00276
 41
0.00276
  0
VERTEX
  5
16B
330
154
100
AcDbEntity
  8
1
  6
Continuous
 62
     7
 48
0.00173834940238
100
AcDbVertex
100
AcDb2dVertex
 10
2.79372254945784
 20
1.167106981701323
 30
0.0
 40
0.00276
 41
0.00276
  0
VERTEX
  5
16C
330
154
100
AcDbEntity
  8
1
  6
Continuous
 62
     7
 48
0.00173834940238
100
AcDbVertex
100
AcDb2dVertex
 10
2.795873941459571
 20
1.164955589699593
 30
0.0
 40
0.00276
 41
0.00276
  0
VERTEX
  5
16D
330
154
100
AcDbEntity
  8
1
  6
Continuous
 62
     7
 48
0.00173834940238
100
AcDbVertex
100
AcDb2dVertex
 10
2.79836623428319
 20
1.163210467477068
 30
0.0
 40
0.00276
 41
0.00276
  0
VERTEX
  5
16E
330
154
100
AcDbEntity
  8
1
  6
Continuous
 62
     7
 48
0.00173834940238
100
AcDbVertex
100
AcDb2dVertex
 10
2.801123700872415
 20
1.161924639689406
 30
0.0
 40
0.00276
 41
0.00276
  0
VERTEX
  5
16F
330
154
100
AcDbEntity
  8
1
  6
Continuous
 62
     7
 48
0.00173834940238
100
AcDbVertex
100
AcDb2dVertex
 10
2.804062557000277
 20
1.161137175563274
 30
0.0
 40
0.00276
 41
0.00276
  0
VERTEX
  5
170
330
154
100
AcDbEntity
  8
1
  6
Continuous
 62
     7
 48
0.00173834940238
100
AcDbVertex
100
AcDb2dVertex
 10
2.807093507010463
 20
1.160872001797669
 30
0.0
 40
0.00276
 41
0.00276
  0
VERTEX
  5
171
330
154
100
AcDbEntity
  8
1
  6
Continuous
 62
     7
 48
0.00173834940238
100
AcDbVertex
100
AcDb2dVertex
 10
2.81012445702065
 20
1.161137175563274
 30
0.0
 40
0.00276
 41
0.00276
  0
VERTEX
  5
172
330
154
100
AcDbEntity
  8
1
  6
Continuous
 62
     7
 48
0.00173834940238
100
AcDbVertex
100
AcDb2dVertex
 10
2.813063313148512
 20
1.161924639689406
 30
0.0
 40
0.00276
 41
0.00276
  0
VERTEX
  5
173
330
154
100
AcDbEntity
  8
1
  6
Continuous
 62
     7
 48
0.00173834940238
100
AcDbVertex
100
AcDb2dVertex
 10
2.815820779737737
 20
1.163210467477068
 30
0.0
 40
0.00276
 41
0.00276
  0
VERTEX
  5
174
330
154
100
AcDbEntity
  8
1
  6
Continuous
 62
     7
 48
0.00173834940238
100
AcDbVertex
100
AcDb2dVertex
 10
2.818313072561356
 20
1.164955589699593
 30
0.0
 40
0.00276
 41
0.00276
  0
VERTEX
  5
175
330
154
100
AcDbEntity
  8
1
  6
Continuous
 62
     7
 48
0.00173834940238
100
AcDbVertex
100
AcDb2dVertex
 10
2.820464464563087
 20
1.167106981701323
 30
0.0
 40
0.00276
 41
0.00276
  0
VERTEX
  5
176
330
154
100
AcDbEntity
  8
1
  6
Continuous
 62
     7
 48
0.00173834940238
100
AcDbVertex
100
AcDb2dVertex
 10
2.822209586785611
 20
1.169599274524942
 30
0.0
 40
0.00276
 41
0.00276
  0
VERTEX
  5
177
330
154
100
AcDbEntity
  8
1
  6
Continuous
 62
     7
 48
0.00173834940238
100
AcDbVertex
100
AcDb2dVertex
 10
2.823495414573273
 20
1.172356741114167
 30
0.0
 40
0.00276
 41
0.00276
  0
VERTEX
  5
178
330
154
100
AcDbEntity
  8
1
  6
Continuous
 62
     7
 48
0.00173834940238
100
AcDbVertex
100
AcDb2dVertex
 10
2.824282878699405
 20
1.175295597242029
 30
0.0
 40
0.00276
 41
0.00276
  0
VERTEX
  5
179
330
154
100
AcDbEntity
  8
1
  6
Continuous
 62
     7
 48
0.00173834940238
100
AcDbVertex
100
AcDb2dVertex
 10
2.82454805246501
 20
1.178326547252215
 30
0.0
 40
0.00276
 41
0.00276
  0
SEQEND
  5
17A
330
154
100
AcDbEntity
  8
1
  6
Continuous
 62
     7
 48
0.00173834940238
370
     0
  0
POLYLINE
  5
17B
330
1F
100
AcDbEntity
  8
1
  6
Continuous
 62
     7
 48
0.00173834940238
370
     0
100
AcDb2dPolyline
 66
     1
 10
0.0
 20
0.0
 30
0.0
 70
   129
  0
VERTEX
  5
17C
330
17B
100
AcDbEntity
  8
1
  6
Continuous
 62
     7
 48
0.00173834940238
100
AcDbVertex
100
AcDb2dVertex
 10
2.818002597919555
 20
1.178326547252215
 30
0.0
 40
0.00276
 41
0.00276
  0
VERTEX
  5
17D
330
17B
100
AcDbEntity
  8
1
  6
Continuous
 62
     7
 48
0.00173834940238
100
AcDbVertex
100
AcDb2dVertex
 10
2.817836864316051
 20
1.180220891008582
 30
0.0
 40
0.00276
 41
0.00276
  0
VERTEX
  5
17E
330
17B
100
AcDbEntity
  8
1
  6
Continuous
 62
     7
 48
0.00173834940238
100
AcDbVertex
100
AcDb2dVertex
 10
2.817344699237219
 20
1.182057676088495
 30
0.0
 40
0.00276
 41
0.00276
  0
VERTEX
  5
17F
330
17B
100
AcDbEntity
  8
1
  6
Continuous
 62
     7
 48
0.00173834940238
100
AcDbVertex
100
AcDb2dVertex
 10
2.81654105686993
 20
1.183781092706761
 30
0.0
 40
0.00276
 41
0.00276
  0
VERTEX
  5
180
330
17B
100
AcDbEntity
  8
1
  6
Continuous
 62
     7
 48
0.00173834940238
100
AcDbVertex
100
AcDb2dVertex
 10
2.815450355480852
 20
1.185338775721523
 30
0.0
 40
0.00276
 41
0.00276
  0
VERTEX
  5
181
330
17B
100
AcDbEntity
  8
1
  6
Continuous
 62
     7
 48
0.00173834940238
100
AcDbVertex
100
AcDb2dVertex
 10
2.814105735479771
 20
1.186683395722604
 30
0.0
 40
0.00276
 41
0.00276
  0
VERTEX
  5
182
330
17B
100
AcDbEntity
  8
1
  6
Continuous
 62
     7
 48
0.00173834940238
100
AcDbVertex
100
AcDb2dVertex
 10
2.812548052465009
 20
1.187774097111682
 30
0.0
 40
0.00276
 41
0.00276
  0
VERTEX
  5
183
330
17B
100
AcDbEntity
  8
1
  6
Continuous
 62
     7
 48
0.00173834940238
100
AcDbVertex
100
AcDb2dVertex
 10
2.810824635846743
 20
1.188577739478971
 30
0.0
 40
0.00276
 41
0.00276
  0
VERTEX
  5
184
330
17B
100
AcDbEntity
  8
1
  6
Continuous
 62
     7
 48
0.00173834940238
100
AcDbVertex
100
AcDb2dVertex
 10
2.80898785076683
 20
1.189069904557803
 30
0.0
 40
0.00276
 41
0.00276
  0
VERTEX
  5
185
330
17B
100
AcDbEntity
  8
1
  6
Continuous
 62
     7
 48
0.00173834940238
100
AcDbVertex
100
AcDb2dVertex
 10
2.807093507010463
 20
1.189235638161306
 30
0.0
 40
0.00276
 41
0.00276
  0
VERTEX
  5
186
330
17B
100
AcDbEntity
  8
1
  6
Continuous
 62
     7
 48
0.00173834940238
100
AcDbVertex
100
AcDb2dVertex
 10
2.805199163254097
 20
1.189069904557803
 30
0.0
 40
0.00276
 41
0.00276
  0
VERTEX
  5
187
330
17B
100
AcDbEntity
  8
1
  6
Continuous
 62
     7
 48
0.00173834940238
100
AcDbVertex
100
AcDb2dVertex
 10
2.803362378174183
 20
1.188577739478971
 30
0.0
 40
0.00276
 41
0.00276
  0
VERTEX
  5
188
330
17B
100
AcDbEntity
  8
1
  6
Continuous
 62
     7
 48
0.00173834940238
100
AcDbVertex
100
AcDb2dVertex
 10
2.801638961555918
 20
1.187774097111682
 30
0.0
 40
0.00276
 41
0.00276
  0
VERTEX
  5
189
330
17B
100
AcDbEntity
  8
1
  6
Continuous
 62
     7
 48
0.00173834940238
100
AcDbVertex
100
AcDb2dVertex
 10
2.800081278541156
 20
1.186683395722604
 30
0.0
 40
0.00276
 41
0.00276
  0
VERTEX
  5
18A
330
17B
100
AcDbEntity
  8
1
  6
Continuous
 62
     7
 48
0.00173834940238
100
AcDbVertex
100
AcDb2dVertex
 10
2.798736658540074
 20
1.185338775721523
 30
0.0
 40
0.00276
 41
0.00276
  0
VERTEX
  5
18B
330
17B
100
AcDbEntity
  8
1
  6
Continuous
 62
     7
 48
0.00173834940238
100
AcDbVertex
100
AcDb2dVertex
 10
2.797645957150997
 20
1.183781092706761
 30
0.0
 40
0.00276
 41
0.00276
  0
VERTEX
  5
18C
330
17B
100
AcDbEntity
  8
1
  6
Continuous
 62
     7
 48
0.00173834940238
100
AcDbVertex
100
AcDb2dVertex
 10
2.796842314783708
 20
1.182057676088495
 30
0.0
 40
0.00276
 41
0.00276
  0
VERTEX
  5
18D
330
17B
100
AcDbEntity
  8
1
  6
Continuous
 62
     7
 48
0.00173834940238
100
AcDbVertex
100
AcDb2dVertex
 10
2.796350149704875
 20
1.180220891008582
 30
0.0
 40
0.00276
 41
0.00276
  0
VERTEX
  5
18E
330
17B
100
AcDbEntity
  8
1
  6
Continuous
 62
     7
 48
0.00173834940238
100
AcDbVertex
100
AcDb2dVertex
 10
2.796184416101372
 20
1.178326547252215
 30
0.0
 40
0.00276
 41
0.00276
  0
VERTEX
  5
18F
330
17B
100
AcDbEntity
  8
1
  6
Continuous
 62
     7
 48
0.00173834940238
100
AcDbVertex
100
AcDb2dVertex
 10
2.796350149704875
 20
1.176432203495849
 30
0.0
 40
0.00276
 41
0.00276
  0
VERTEX
  5
190
330
17B
100
AcDbEntity
  8
1
  6
Continuous
 62
     7
 48
0.00173834940238
100
AcDbVertex
100
AcDb2dVertex
 10
2.796842314783708
 20
1.174595418415935
 30
0.0
 40
0.00276
 41
0.00276
  0
VERTEX
  5
191
330
17B
100
AcDbEntity
  8
1
  6
Continuous
 62
     7
 48
0.00173834940238
100
AcDbVertex
100
AcDb2dVertex
 10
2.797645957150997
 20
1.17287200179767
 30
0.0
 40
0.00276
 41
0.00276
  0
VERTEX
  5
192
330
17B
100
AcDbEntity
  8
1
  6
Continuous
 62
     7
 48
0.00173834940238
100
AcDbVertex
100
AcDb2dVertex
 10
2.798736658540074
 20
1.171314318782908
 30
0.0
 40
0.00276
 41
0.00276
  0
VERTEX
  5
193
330
17B
100
AcDbEntity
  8
1
  6
Continuous
 62
     7
 48
0.00173834940238
100
AcDbVertex
100
AcDb2dVertex
 10
2.800081278541156
 20
1.169969698781826
 30
0.0
 40
0.00276
 41
0.00276
  0
VERTEX
  5
194
330
17B
100
AcDbEntity
  8
1
  6
Continuous
 62
     7
 48
0.00173834940238
100
AcDbVertex
100
AcDb2dVertex
 10
2.801638961555918
 20
1.168878997392749
 30
0.0
 40
0.00276
 41
0.00276
  0
VERTEX
  5
195
330
17B
100
AcDbEntity
  8
1
  6
Continuous
 62
     7
 48
0.00173834940238
100
AcDbVertex
100
AcDb2dVertex
 10
2.803362378174183
 20
1.16807535502546
 30
0.0
 40
0.00276
 41
0.00276
  0
VERTEX
  5
196
330
17B
100
AcDbEntity
  8
1
  6
Continuous
 62
     7
 48
0.00173834940238
100
AcDbVertex
100
AcDb2dVertex
 10
2.805199163254096
 20
1.167583189946628
 30
0.0
 40
0.00276
 41
0.00276
  0
VERTEX
  5
197
330
17B
100
AcDbEntity
  8
1
  6
Continuous
 62
     7
 48
0.00173834940238
100
AcDbVertex
100
AcDb2dVertex
 10
2.807093507010463
 20
1.167417456343125
 30
0.0
 40
0.00276
 41
0.00276
  0
VERTEX
  5
198
330
17B
100
AcDbEntity
  8
1
  6
Continuous
 62
     7
 48
0.00173834940238
100
AcDbVertex
100
AcDb2dVertex
 10
2.80898785076683
 20
1.167583189946628
 30
0.0
 40
0.00276
 41
0.00276
  0
VERTEX
  5
199
330
17B
100
AcDbEntity
  8
1
  6
Continuous
 62
     7
 48
0.00173834940238
100
AcDbVertex
100
AcDb2dVertex
 10
2.810824635846743
 20
1.16807535502546
 30
0.0
 40
0.00276
 41
0.00276
  0
VERTEX
  5
19A
330
17B
100
AcDbEntity
  8
1
  6
Continuous
 62
     7
 48
0.00173834940238
100
AcDbVertex
100
AcDb2dVertex
 10
2.812548052465009
 20
1.168878997392749
 30
0.0
 40
0.00276
 41
0.00276
  0
VERTEX
  5
19B
330
17B
100
AcDbEntity
  8
1
  6
Continuous
 62
     7
 48
0.00173834940238
100
AcDbVertex
100
AcDb2dVertex
 10
2.814105735479771
 20
1.169969698781826
 30
0.0
 40
0.00276
 41
0.00276
  0
VERTEX
  5
19C
330
17B
100
AcDbEntity
  8
1
  6
Continuous
 62
     7
 48
0.00173834940238
100
AcDbVertex
100
AcDb2dVertex
 10
2.815450355480852
 20
1.171314318782908
 30
0.0
 40
0.00276
 41
0.00276
  0
VERTEX
  5
19D
330
17B
100
AcDbEntity
  8
1
  6
Continuous
 62
     7
 48
0.00173834940238
100
AcDbVertex
100
AcDb2dVertex
 10
2.81654105686993
 20
1.17287200179767
 30
0.0
 40
0.00276
 41
0.00276
  0
VERTEX
  5
19E
330
17B
100
AcDbEntity
  8
1
  6
Continuous
 62
     7
 48
0.00173834940238
100
AcDbVertex
100
AcDb2dVertex
 10
2.817344699237219
 20
1.174595418415935
 30
0.0
 40
0.00276
 41
0.00276
  0
VERTEX
  5
19F
330
17B
100
AcDbEntity
  8
1
  6
Continuous
 62
     7
 48
0.00173834940238
100
AcDbVertex
100
AcDb2dVertex
 10
2.817836864316051
 20
1.176432203495849
 30
0.0
 40
0.00276
 41
0.00276
  0
VERTEX
  5
1A0
330
17B
100
AcDbEntity
  8
1
  6
Continuous
 62
     7
 48
0.00173834940238
100
AcDbVertex
100
AcDb2dVertex
 10
2.818002597919555
 20
1.178326547252215
 30
0.0
 40
0.00276
 41
0.00276
  0
SEQEND
  5
1A1
330
17B
100
AcDbEntity
  8
1
  6
Continuous
 62
     7
 48
0.00173834940238
370
     0
  0
TEXT
  5
1A2
330
1F
100
AcDbEntity
  8
1
  6
DASHED
 62
     7
370
     0
100
AcDbText
 10
2.515283143103535
 20
-0.7953549333911277
 30
0.0
 40
0.0449999999999999
  1
-6 AN IN HEX
 41
1.000000000000003
  7
DC_TEXTSTYLE5
 72
     1
 11
2.709008143103535
 21
-0.7953549333911277
 31
0.0
100
AcDbText
  0
TEXT
  5
1A3
330
1F
100
AcDbEntity
  8
1
  6
DASHED
 62
     7
370
     0
100
AcDbText
 10
2.511582803332832
 20
-0.8644596682176028
 30
0.0
 40
0.0449999999999999
  1
O RING PLUG
 41
1.000000000000003
  7
DC_TEXTSTYLE5
 72
     1
 11
2.717525303332833
 21
-0.8644596682176028
 31
0.0
100
AcDbText
  0
LINE
  5
1A4
330
1F
100
AcDbEntity
  8
1
  6
Continuous
 62
     7
 48
0.0005821664991957
370
     0
100
AcDbLine
 10
2.187136164633003
 20
0.5721086640565765
 30
0.0
 11
2.268136164633003
 21
0.6531086640565765
 31
0.0
  0
TEXT
  5
1A5
330
1F
100
AcDbEntity
  8
1
  6
DASHED
 62
     7
370
     0
100
AcDbText
 10
2.276752047725041
 20
0.6587005471486147
 30
0.0
 40
0.0269999999999999
  1
1
  7
DC_TEXTSTYLE5
 72
     1
 11
2.287228047725041
 21
0.6587005471486147
 31
0.0
100
AcDbText
  0
CIRCLE
  5
1A6
330
1F
100
AcDbEntity
  8
1
  6
Continuous
 62
     7
 48
0.0005821664991957
370
     0
100
AcDbCircle
 10
2.28722804772504
 20
0.6722005471486133
 30
0.0
 40
0.0270000000000001
  0
POLYLINE
  5
1A7
330
1F
100
AcDbEntity
  8
1
  6
Continuous
 62
     7
 48
0.0075766763254639
370
     0
100
AcDb2dPolyline
 66
     1
 10
0.0
 20
0.0
 30
0.0
  0
VERTEX
  5
1A8
330
1A7
100
AcDbEntity
  8
1
  6
Continuous
 62
     7
 48
0.0075766763254639
100
AcDbVertex
100
AcDb2dVertex
 10
1.74970975776181
 20
0.0116822571853838
 30
0.0
 40
0.003
 41
0.003
  0
VERTEX
  5
1A9
330
1A7
100
AcDbEntity
  8
1
  6
Continuous
 62
     7
 48
0.0075766763254639
100
AcDbVertex
100
AcDb2dVertex
 10
1.74970975776181
 20
0.4876822571853834
 30
0.0
 40
0.003
 41
0.003
  0
SEQEND
  5
1AA
330
1A7
100
AcDbEntity
  8
1
  6
Continuous
 62
     7
 48
0.0075766763254639
370
     0
  0
LINE
  5
1AB
330
1F
100
AcDbEntity
  8
1
  6
HIDDEN
 62
     7
 48
0.0888888888889006
370
     0
100
AcDbLine
 10
2.20470975776181
 20
0.0946822571853838
 30
0.0
 11
2.175709757761811
 21
0.1236822571853838
 31
0.0
  0
LINE
  5
1AC
330
1F
100
AcDbEntity
  8
1
  6
HIDDEN
 62
     7
 48
0.0888888888889006
370
     0
100
AcDbLine
 10
2.175709757761811
 20
0.1236822571853838
 30
0.0
 11
2.175709757761811
 21
0.3756822571853834
 31
0.0
  0
LINE
  5
1AD
330
1F
100
AcDbEntity
  8
1
  6
HIDDEN
 62
     7
 48
0.0888888888889006
370
     0
100
AcDbLine
 10
2.175709757761811
 20
0.3756822571853834
 30
0.0
 11
2.20470975776181
 21
0.4046822571853837
 31
0.0
  0
LINE
  5
1AE
330
1F
100
AcDbEntity
  8
1
  6
HIDDEN
 62
     7
 48
0.0888888888889006
370
     0
100
AcDbLine
 10
1.96045975776181
 20
0.3756822571853834
 30
0.0
 11
2.175709757761811
 21
0.3756822571853834
 31
0.0
  0
LINE
  5
1AF
330
1F
100
AcDbEntity
  8
1
  6
HIDDEN
 62
     7
 48
0.0888888888889006
370
     0
100
AcDbLine
 10
1.96045975776181
 20
0.3756822571853834
 30
0.0
 11
1.93670975776181
 21
0.4006822571853836
 31
0.0
  0
LINE
  5
1B0
330
1F
100
AcDbEntity
  8
1
  6
HIDDEN
 62
     7
 48
0.0888888888889006
370
     0
100
AcDbLine
 10
1.93670975776181
 20
0.0986822571853835
 30
0.0
 11
1.96045975776181
 21
0.1236822571853838
 31
0.0
  0
LINE
  5
1B1
330
1F
100
AcDbEntity
  8
1
  6
HIDDEN
 62
     7
 48
0.0888888888889006
370
     0
100
AcDbLine
 10
1.96045975776181
 20
0.1236822571853838
 30
0.0
 11
2.175709757761811
 21
0.1236822571853838
 31
0.0
  0
POLYLINE
  5
1B2
330
1F
100
AcDbEntity
  8
1
  6
Continuous
 62
     7
 48
0.0075766763254639
370
     0
100
AcDb2dPolyline
 66
     1
 10
0.0
 20
0.0
 30
0.0
  0
VERTEX
  5
1B3
330
1B2
100
AcDbEntity
  8
1
  6
Continuous
 62
     7
100
AcDbVertex
100
AcDb2dVertex
 10
2.08970975776181
 20
0.4896822571853836
 30
0.0
 40
0.003
 41
0.003
 42
0.414213562373095
  0
VERTEX
  5
1B4
330
1B2
100
AcDbEntity
  8
1
  6
Continuous
 62
     7
100
AcDbVertex
100
AcDb2dVertex
 10
2.09970975776181
 20
0.4996822571853838
 30
0.0
 40
0.003
 41
0.003
  0
SEQEND
  5
1B5
330
1B2
100
AcDbEntity
  8
1
  6
Continuous
 62
     7
 48
0.0075766763254639
370
     0
  0
POLYLINE
  5
1B6
330
1F
100
AcDbEntity
  8
1
  6
Continuous
 62
     7
 48
0.0075766763254639
370
     0
100
AcDb2dPolyline
 66
     1
 10
0.0
 20
0.0
 30
0.0
  0
VERTEX
  5
1B7
330
1B6
100
AcDbEntity
  8
1
  6
Continuous
 62
     7
 48
0.0075766763254639
100
AcDbVertex
100
AcDb2dVertex
 10
2.08970975776181
 20
0.4896822571853836
 30
0.0
 40
0.003
 41
0.003
  0
VERTEX
  5
1B8
330
1B6
100
AcDbEntity
  8
1
  6
Continuous
 62
     7
 48
0.0075766763254639
100
AcDbVertex
100
AcDb2dVertex
 10
2.00670975776181
 20
0.4896822571853836
 30
0.0
 40
0.003
 41
0.003
  0
SEQEND
  5
1B9
330
1B6
100
AcDbEntity
  8
1
  6
Continuous
 62
     7
 48
0.0075766763254639
370
     0
  0
POLYLINE
  5
1BA
330
1F
100
AcDbEntity
  8
1
  6
Continuous
 62
     7
 48
0.0075766763254639
370
     0
100
AcDb2dPolyline
 66
     1
 10
0.0
 20
0.0
 30
0.0
  0
VERTEX
  5
1BB
330
1BA
100
AcDbEntity
  8
1
  6
Continuous
 62
     7
100
AcDbVertex
100
AcDb2dVertex
 10
2.09970975776181
 20
-0.0003177428146163
 30
0.0
 40
0.003
 41
0.003
 42
0.414213562373095
  0
VERTEX
  5
1BC
330
1BA
100
AcDbEntity
  8
1
  6
Continuous
 62
     7
100
AcDbVertex
100
AcDb2dVertex
 10
2.08970975776181
 20
0.0096822571853838
 30
0.0
 40
0.003
 41
0.003
  0
SEQEND
  5
1BD
330
1BA
100
AcDbEntity
  8
1
  6
Continuous
 62
     7
 48
0.0075766763254639
370
     0
  0
POLYLINE
  5
1BE
330
1F
100
AcDbEntity
  8
1
  6
Continuous
 62
     7
 48
0.0075766763254639
370
     0
100
AcDb2dPolyline
 66
     1
 10
0.0
 20
0.0
 30
0.0
  0
VERTEX
  5
1BF
330
1BE
100
AcDbEntity
  8
1
  6
Continuous
 62
     7
 48
0.0075766763254639
100
AcDbVertex
100
AcDb2dVertex
 10
2.08970975776181
 20
0.0096822571853838
 30
0.0
 40
0.003
 41
0.003
  0
VERTEX
  5
1C0
330
1BE
100
AcDbEntity
  8
1
  6
Continuous
 62
     7
 48
0.0075766763254639
100
AcDbVertex
100
AcDb2dVertex
 10
2.00670975776181
 20
0.0096822571853838
 30
0.0
 40
0.003
 41
0.003
  0
SEQEND
  5
1C1
330
1BE
100
AcDbEntity
  8
1
  6
Continuous
 62
     7
 48
0.0075766763254639
370
     0
  0
LINE
  5
1C2
330
1F
100
AcDbEntity
  8
1
  6
HIDDEN
 62
     7
 48
0.0888888888889006
370
     0
100
AcDbLine
 10
1.93670975776181
 20
0.0986822571853835
 30
0.0
 11
1.88670975776181
 21
0.0986822571853835
 31
0.0
  0
LINE
  5
1C3
330
1F
100
AcDbEntity
  8
1
  6
HIDDEN
 62
     7
 48
0.0888888888889006
370
     0
100
AcDbLine
 10
1.88670975776181
 20
0.4006822571853836
 30
0.0
 11
1.93670975776181
 21
0.4006822571853836
 31
0.0
  0
LINE
  5
1C4
330
1F
100
AcDbEntity
  8
1
  6
HIDDEN
 62
     7
 48
0.0888888888889006
370
     0
100
AcDbLine
 10
1.94193475776181
 20
0.3951822571853836
 30
0.0
 11
2.19520975776181
 21
0.3951822571853836
 31
0.0
  0
LINE
  5
1C5
330
1F
100
AcDbEntity
  8
1
  6
HIDDEN
 62
     7
 48
0.0888888888889006
370
     0
100
AcDbLine
 10
1.94193475776181
 20
0.1041822571853839
 30
0.0
 11
2.19520975776181
 21
0.1041822571853839
 31
0.0
  0
ARC
  5
1C6
330
1F
100
AcDbEntity
  8
1
  6
HIDDEN
 62
     7
 48
0.0888888888889006
370
     0
100
AcDbCircle
 10
1.88670975776181
 20
0.1086822571853838
 30
0.0
 40
0.0100000000000002
100
AcDbArc
 50
180.0
 51
270.0
  0
LINE
  5
1C7
330
1F
100
AcDbEntity
  8
1
  6
HIDDEN
 62
     7
 48
0.0888888888889006
370
     0
100
AcDbLine
 10
1.87670975776181
 20
0.1086822571853838
 30
0.0
 11
1.87670975776181
 21
0.1371822571853833
 31
0.0
  0
LINE
  5
1C8
330
1F
100
AcDbEntity
  8
1
  6
HIDDEN
 62
     7
 48
0.0888888888889006
370
     0
100
AcDbLine
 10
1.87670975776181
 20
0.362182257185384
 30
0.0
 11
1.87670975776181
 21
0.3906822571853835
 31
0.0
  0
ARC
  5
1C9
330
1F
100
AcDbEntity
  8
1
  6
HIDDEN
 62
     7
 48
0.0888888888889006
370
     0
100
AcDbCircle
 10
1.88670975776181
 20
0.3906822571853835
 30
0.0
 40
0.0100000000000001
100
AcDbArc
 50
90.0
 51
180.0
  0
LINE
  5
1CA
330
1F
100
AcDbEntity
  8
1
  6
HIDDEN
 62
     7
 48
0.0888888888889006
370
     0
100
AcDbLine
 10
1.87670975776181
 20
0.1371822571853839
 30
0.0
 11
1.830110731994837
 21
0.2496822571853844
 31
0.0
  0
SPLINE
  5
1CB
330
1F
100
AcDbEntity
  8
1
  6
HIDDEN
 62
     7
 48
0.0888888888889006
370
     0
100
AcDbSpline
210
0.0
220
0.0
230
1.0
 70
  1080
 71
     3
 72
    23
 73
    19
 74
    17
 42
0.000000001
 43
0.0000000001
 44
0.0
 40
0.0
 40
0.0
 40
0.0
 40
0.0
 40
0.0078125
 40
0.0156250000000001
 40
0.0234375000000003
 40
0.0312500000000001
 40
0.0390624999999998
 40
0.0468750000000002
 40
0.0546875
 40
0.0624999999999998
 40
0.0703125000000001
 40
0.078125
 40
0.0859375000000002
 40
0.0937500000000002
 40
0.1015625000000001
 40
0.1093750000000001
 40
0.1171875000000003
 40
0.121769122532894
 40
0.121769122532894
 40
0.121769122532894
 40
0.121769122532894
 10
1.87670975776181
 20
0.362182257185384
 30
0.0
 10
1.87571318632336
 20
0.3597763209028026
 30
0.0
 10
1.873720043446458
 20
0.3549644483376397
 30
0.0
 10
1.870730329131105
 20
0.3477466394898951
 30
0.0
 10
1.867740614815753
 20
0.3405288306421507
 30
0.0
 10
1.8647509005004
 20
0.3333110217944064
 30
0.0
 10
1.861761186185049
 20
0.3260932129466617
 30
0.0
 10
1.858771471869696
 20
0.3188754040989177
 30
0.0
 10
1.855781757554344
 20
0.3116575952511728
 30
0.0
 10
1.852792043238992
 20
0.3044397864034287
 30
0.0
 10
1.849802328923638
 20
0.2972219775556844
 30
0.0
 10
1.846812614608288
 20
0.2900041687079395
 30
0.0
 10
1.843822900292934
 20
0.2827863598601954
 30
0.0
 10
1.840833185977582
 20
0.2755685510124509
 30
0.0
 10
1.83784347166223
 20
0.2683507421647063
 30
0.0
 10
1.834853757346878
 20
0.261132933316962
 30
0.0
 10
1.832276177457746
 20
0.2549101049905212
 30
0.0
 10
1.830695169007067
 20
0.2510932129466621
 30
0.0
 10
1.830110731994837
 20
0.2496822571853844
 30
0.0
 11
1.87670975776181
 21
0.362182257185384
 31
0.0
 11
1.873720043446457
 21
0.3549644483376397
 31
0.0
 11
1.870730329131105
 21
0.3477466394898951
 31
0.0
 11
1.867740614815753
 21
0.3405288306421506
 31
0.0
 11
1.864750900500401
 21
0.3333110217944062
 31
0.0
 11
1.861761186185049
 21
0.326093212946662
 31
0.0
 11
1.858771471869696
 21
0.3188754040989174
 31
0.0
 11
1.855781757554344
 21
0.3116575952511729
 31
0.0
 11
1.852792043238992
 21
0.3044397864034288
 31
0.0
 11
1.849802328923639
 21
0.2972219775556842
 31
0.0
 11
1.846812614608287
 21
0.2900041687079397
 31
0.0
 11
1.843822900292934
 21
0.2827863598601953
 31
0.0
 11
1.840833185977582
 21
0.2755685510124509
 31
0.0
 11
1.83784347166223
 21
0.2683507421647064
 31
0.0
 11
1.834853757346878
 21
0.261132933316962
 31
0.0
 11
1.831864043031526
 21
0.2539151244692174
 31
0.0
 11
1.830110731994837
 21
0.2496822571853844
 31
0.0
  0
LINE
  5
1CC
330
1F
100
AcDbEntity
  8
1
  6
HIDDEN
 62
     7
 48
0.0888888888889006
370
     0
100
AcDbLine
 10
1.96045975776181
 20
0.1236822571853838
 30
0.0
 11
1.96045975776181
 21
0.3756822571853834
 31
0.0
  0
POLYLINE
  5
1CD
330
1F
100
AcDbEntity
  8
1
  6
Continuous
 62
     7
 48
0.0075766763254639
370
     0
100
AcDb2dPolyline
 66
     1
 10
0.0
 20
0.0
 30
0.0
  0
VERTEX
  5
1CE
330
1CD
100
AcDbEntity
  8
1
  6
Continuous
 62
     7
100
AcDbVertex
100
AcDb2dVertex
 10
2.20470975776181
 20
0.5296822571853834
 30
0.0
 40
0.003
 41
0.003
 42
0.414213562373095
  0
VERTEX
  5
1CF
330
1CD
100
AcDbEntity
  8
1
  6
Continuous
 62
     7
100
AcDbVertex
100
AcDb2dVertex
 10
2.14470975776181
 20
0.5896822571853834
 30
0.0
 40
0.003
 41
0.003
  0
SEQEND
  5
1D0
330
1CD
100
AcDbEntity
  8
1
  6
Continuous
 62
     7
 48
0.0075766763254639
370
     0
  0
POLYLINE
  5
1D1
330
1F
100
AcDbEntity
  8
1
  6
Continuous
 62
     7
 48
0.0075766763254639
370
     0
100
AcDb2dPolyline
 66
     1
 10
0.0
 20
0.0
 30
0.0
  0
VERTEX
  5
1D2
330
1D1
100
AcDbEntity
  8
1
  6
Continuous
 62
     7
 48
0.0075766763254639
100
AcDbVertex
100
AcDb2dVertex
 10
2.20470975776181
 20
0.5296822571853834
 30
0.0
 40
0.003
 41
0.003
  0
VERTEX
  5
1D3
330
1D1
100
AcDbEntity
  8
1
  6
Continuous
 62
     7
 48
0.0075766763254639
100
AcDbVertex
100
AcDb2dVertex
 10
2.20470975776181
 20
-0.0303177428146163
 30
0.0
 40
0.003
 41
0.003
  0
SEQEND
  5
1D4
330
1D1
100
AcDbEntity
  8
1
  6
Continuous
 62
     7
 48
0.0075766763254639
370
     0
  0
POLYLINE
  5
1D5
330
1F
100
AcDbEntity
  8
1
  6
Continuous
 62
     7
 48
0.0075766763254639
370
     0
100
AcDb2dPolyline
 66
     1
 10
0.0
 20
0.0
 30
0.0
  0
VERTEX
  5
1D6
330
1D5
100
AcDbEntity
  8
1
  6
Continuous
 62
     7
100
AcDbVertex
100
AcDb2dVertex
 10
2.14470975776181
 20
-0.0903177428146165
 30
0.0
 40
0.003
 41
0.003
 42
0.4142135623730951
  0
VERTEX
  5
1D7
330
1D5
100
AcDbEntity
  8
1
  6
Continuous
 62
     7
100
AcDbVertex
100
AcDb2dVertex
 10
2.20470975776181
 20
-0.0303177428146163
 30
0.0
 40
0.003
 41
0.003
  0
SEQEND
  5
1D8
330
1D5
100
AcDbEntity
  8
1
  6
Continuous
 62
     7
 48
0.0075766763254639
370
     0
  0
POLYLINE
  5
1D9
330
1F
100
AcDbEntity
  8
1
  6
Continuous
 62
     7
 48
0.0075766763254639
370
     0
100
AcDb2dPolyline
 66
     1
 10
0.0
 20
0.0
 30
0.0
  0
VERTEX
  5
1DA
330
1D9
100
AcDbEntity
  8
1
  6
Continuous
 62
     7
 48
0.0075766763254639
100
AcDbVertex
100
AcDb2dVertex
 10
2.14470975776181
 20
-0.0903177428146165
 30
0.0
 40
0.003
 41
0.003
  0
VERTEX
  5
1DB
330
1D9
100
AcDbEntity
  8
1
  6
Continuous
 62
     7
 48
0.0075766763254639
100
AcDbVertex
100
AcDb2dVertex
 10
2.10970975776181
 20
-0.0903177428146165
 30
0.0
 40
0.003
 41
0.003
  0
SEQEND
  5
1DC
330
1D9
100
AcDbEntity
  8
1
  6
Continuous
 62
     7
 48
0.0075766763254639
370
     0
  0
POLYLINE
  5
1DD
330
1F
100
AcDbEntity
  8
1
  6
Continuous
 62
     7
 48
0.0075766763254639
370
     0
100
AcDb2dPolyline
 66
     1
 10
0.0
 20
0.0
 30
0.0
  0
VERTEX
  5
1DE
330
1DD
100
AcDbEntity
  8
1
  6
Continuous
 62
     7
100
AcDbVertex
100
AcDb2dVertex
 10
2.09970975776181
 20
-0.0803177428146164
 30
0.0
 40
0.003
 41
0.003
 42
0.414213562373095
  0
VERTEX
  5
1DF
330
1DD
100
AcDbEntity
  8
1
  6
Continuous
 62
     7
100
AcDbVertex
100
AcDb2dVertex
 10
2.10970975776181
 20
-0.0903177428146166
 30
0.0
 40
0.003
 41
0.003
  0
SEQEND
  5
1E0
330
1DD
100
AcDbEntity
  8
1
  6
Continuous
 62
     7
 48
0.0075766763254639
370
     0
  0
POLYLINE
  5
1E1
330
1F
100
AcDbEntity
  8
1
  6
Continuous
 62
     7
 48
0.0075766763254639
370
     0
100
AcDb2dPolyline
 66
     1
 10
0.0
 20
0.0
 30
0.0
  0
VERTEX
  5
1E2
330
1E1
100
AcDbEntity
  8
1
  6
Continuous
 62
     7
 48
0.0075766763254639
100
AcDbVertex
100
AcDb2dVertex
 10
2.09970975776181
 20
-0.0803177428146164
 30
0.0
 40
0.003
 41
0.003
  0
VERTEX
  5
1E3
330
1E1
100
AcDbEntity
  8
1
  6
Continuous
 62
     7
 48
0.0075766763254639
100
AcDbVertex
100
AcDb2dVertex
 10
2.09970975776181
 20
-0.0003177428146163
 30
0.0
 40
0.003
 41
0.003
  0
SEQEND
  5
1E4
330
1E1
100
AcDbEntity
  8
1
  6
Continuous
 62
     7
 48
0.0075766763254639
370
     0
  0
POLYLINE
  5
1E5
330
1F
100
AcDbEntity
  8
1
  6
Continuous
 62
     7
 48
0.0075766763254639
370
     0
100
AcDb2dPolyline
 66
     1
 10
0.0
 20
0.0
 30
0.0
  0
VERTEX
  5
1E6
330
1E5
100
AcDbEntity
  8
1
  6
Continuous
 62
     7
 48
0.0075766763254639
100
AcDbVertex
100
AcDb2dVertex
 10
2.14470975776181
 20
0.5896822571853837
 30
0.0
 40
0.003
 41
0.003
  0
VERTEX
  5
1E7
330
1E5
100
AcDbEntity
  8
1
  6
Continuous
 62
     7
 48
0.0075766763254639
100
AcDbVertex
100
AcDb2dVertex
 10
2.10970975776181
 20
0.5896822571853837
 30
0.0
 40
0.003
 41
0.003
  0
SEQEND
  5
1E8
330
1E5
100
AcDbEntity
  8
1
  6
Continuous
 62
     7
 48
0.0075766763254639
370
     0
  0
POLYLINE
  5
1E9
330
1F
100
AcDbEntity
  8
1
  6
Continuous
 62
     7
 48
0.0075766763254639
370
     0
100
AcDb2dPolyline
 66
     1
 10
0.0
 20
0.0
 30
0.0
  0
VERTEX
  5
1EA
330
1E9
100
AcDbEntity
  8
1
  6
Continuous
 62
     7
100
AcDbVertex
100
AcDb2dVertex
 10
2.10970975776181
 20
0.5896822571853837
 30
0.0
 40
0.003
 41
0.003
 42
0.414213562373095
  0
VERTEX
  5
1EB
330
1E9
100
AcDbEntity
  8
1
  6
Continuous
 62
     7
100
AcDbVertex
100
AcDb2dVertex
 10
2.09970975776181
 20
0.5796822571853838
 30
0.0
 40
0.003
 41
0.003
  0
SEQEND
  5
1EC
330
1E9
100
AcDbEntity
  8
1
  6
Continuous
 62
     7
 48
0.0075766763254639
370
     0
  0
POLYLINE
  5
1ED
330
1F
100
AcDbEntity
  8
1
  6
Continuous
 62
     7
 48
0.0075766763254639
370
     0
100
AcDb2dPolyline
 66
     1
 10
0.0
 20
0.0
 30
0.0
  0
VERTEX
  5
1EE
330
1ED
100
AcDbEntity
  8
1
  6
Continuous
 62
     7
 48
0.0075766763254639
100
AcDbVertex
100
AcDb2dVertex
 10
2.09970975776181
 20
0.5796822571853838
 30
0.0
 40
0.003
 41
0.003
  0
VERTEX
  5
1EF
330
1ED
100
AcDbEntity
  8
1
  6
Continuous
 62
     7
 48
0.0075766763254639
100
AcDbVertex
100
AcDb2dVertex
 10
2.09970975776181
 20
0.4996822571853838
 30
0.0
 40
0.003
 41
0.003
  0
SEQEND
  5
1F0
330
1ED
100
AcDbEntity
  8
1
  6
Continuous
 62
     7
 48
0.0075766763254639
370
     0
  0
POLYLINE
  5
1F1
330
1F
100
AcDbEntity
  8
1
  6
Continuous
 62
     7
 48
0.0075766763254639
370
     0
100
AcDb2dPolyline
 66
     1
 10
0.0
 20
0.0
 30
0.0
  0
VERTEX
  5
1F2
330
1F1
100
AcDbEntity
  8
1
  6
Continuous
 62
     7
 48
0.0075766763254639
100
AcDbVertex
100
AcDb2dVertex
 10
1.831137960992087
 20
0.4985165585813112
 30
0.0
 40
0.003
 41
0.003
  0
VERTEX
  5
1F3
330
1F1
100
AcDbEntity
  8
1
  6
Continuous
 62
     7
 48
0.0075766763254639
100
AcDbVertex
100
AcDb2dVertex
 10
1.837959757761812
 20
0.5103322571853833
 30
0.0
 40
0.003
 41
0.003
  0
SEQEND
  5
1F4
330
1F1
100
AcDbEntity
  8
1
  6
Continuous
 62
     7
 48
0.0075766763254639
370
     0
  0
POLYLINE
  5
1F5
330
1F
100
AcDbEntity
  8
1
  6
Continuous
 62
     7
 48
0.0075766763254639
370
     0
100
AcDb2dPolyline
 66
     1
 10
0.0
 20
0.0
 30
0.0
  0
VERTEX
  5
1F6
330
1F5
100
AcDbEntity
  8
1
  6
Continuous
 62
     7
 48
0.0075766763254639
100
AcDbVertex
100
AcDb2dVertex
 10
1.817281554531536
 20
0.4985165585813112
 30
0.0
 40
0.003
 41
0.003
  0
VERTEX
  5
1F7
330
1F5
100
AcDbEntity
  8
1
  6
Continuous
 62
     7
 48
0.0075766763254639
100
AcDbVertex
100
AcDb2dVertex
 10
1.80039405915774
 20
0.5277665585813107
 30
0.0
 40
0.003
 41
0.003
  0
SEQEND
  5
1F8
330
1F5
100
AcDbEntity
  8
1
  6
Continuous
 62
     7
 48
0.0075766763254639
370
     0
  0
POLYLINE
  5
1F9
330
1F
100
AcDbEntity
  8
1
  6
Continuous
 62
     7
 48
0.0075766763254639
370
     0
100
AcDb2dPolyline
 66
     1
 10
0.0
 20
0.0
 30
0.0
  0
VERTEX
  5
1FA
330
1F9
100
AcDbEntity
  8
1
  6
Continuous
 62
     7
 48
0.0075766763254639
100
AcDbVertex
100
AcDb2dVertex
 10
1.817281554531536
 20
0.4985165585813112
 30
0.0
 40
0.003
 41
0.003
  0
VERTEX
  5
1FB
330
1F9
100
AcDbEntity
  8
1
  6
Continuous
 62
     7
 48
0.0075766763254639
100
AcDbVertex
100
AcDb2dVertex
 10
1.831137960992087
 20
0.4985165585813112
 30
0.0
 40
0.003
 41
0.003
  0
SEQEND
  5
1FC
330
1F9
100
AcDbEntity
  8
1
  6
Continuous
 62
     7
 48
0.0075766763254639
370
     0
  0
POLYLINE
  5
1FD
330
1F
100
AcDbEntity
  8
1
  6
Continuous
 62
     7
 48
0.0075766763254639
370
     0
100
AcDb2dPolyline
 66
     1
 10
0.0
 20
0.0
 30
0.0
  0
VERTEX
  5
1FE
330
1FD
100
AcDbEntity
  8
1
  6
Continuous
 62
     7
 48
0.0075766763254639
100
AcDbVertex
100
AcDb2dVertex
 10
1.837959757761812
 20
0.5103322571853833
 30
0.0
 40
0.003
 41
0.003
  0
VERTEX
  5
1FF
330
1FD
100
AcDbEntity
  8
1
  6
Continuous
 62
     7
 48
0.0075766763254639
100
AcDbVertex
100
AcDb2dVertex
 10
1.848245656146675
 20
0.5281479557894546
 30
0.0
 40
0.003
 41
0.003
  0
SEQEND
  5
200
330
1FD
100
AcDbEntity
  8
1
  6
Continuous
 62
     7
 48
0.0075766763254639
370
     0
  0
POLYLINE
  5
201
330
1F
100
AcDbEntity
  8
1
  6
Continuous
 62
     7
 48
0.0075766763254639
370
     0
100
AcDb2dPolyline
 66
     1
 10
0.0
 20
0.0
 30
0.0
  0
VERTEX
  5
202
330
201
100
AcDbEntity
  8
1
  6
Continuous
 62
     7
 48
0.0075766763254639
100
AcDbVertex
100
AcDb2dVertex
 10
1.886137960992087
 20
0.4985165585813112
 30
0.0
 40
0.003
 41
0.003
  0
VERTEX
  5
203
330
201
100
AcDbEntity
  8
1
  6
Continuous
 62
     7
 48
0.0075766763254639
100
AcDbVertex
100
AcDb2dVertex
 10
1.892959757761812
 20
0.5103322571853833
 30
0.0
 40
0.003
 41
0.003
  0
SEQEND
  5
204
330
201
100
AcDbEntity
  8
1
  6
Continuous
 62
     7
 48
0.0075766763254639
370
     0
  0
POLYLINE
  5
205
330
1F
100
AcDbEntity
  8
1
  6
Continuous
 62
     7
 48
0.0075766763254639
370
     0
100
AcDb2dPolyline
 66
     1
 10
0.0
 20
0.0
 30
0.0
  0
VERTEX
  5
206
330
205
100
AcDbEntity
  8
1
  6
Continuous
 62
     7
 48
0.0075766763254639
100
AcDbVertex
100
AcDb2dVertex
 10
1.872281554531537
 20
0.4985165585813112
 30
0.0
 40
0.003
 41
0.003
  0
VERTEX
  5
207
330
205
100
AcDbEntity
  8
1
  6
Continuous
 62
     7
 48
0.0075766763254639
100
AcDbVertex
100
AcDb2dVertex
 10
1.85517385937695
 20
0.5281479557894546
 30
0.0
 40
0.003
 41
0.003
  0
SEQEND
  5
208
330
205
100
AcDbEntity
  8
1
  6
Continuous
 62
     7
 48
0.0075766763254639
370
     0
  0
POLYLINE
  5
209
330
1F
100
AcDbEntity
  8
1
  6
Continuous
 62
     7
 48
0.0075766763254639
370
     0
100
AcDb2dPolyline
 66
     1
 10
0.0
 20
0.0
 30
0.0
  0
VERTEX
  5
20A
330
209
100
AcDbEntity
  8
1
  6
Continuous
 62
     7
 48
0.0075766763254639
100
AcDbVertex
100
AcDb2dVertex
 10
1.848245656146675
 20
0.5281479557894546
 30
0.0
 40
0.003
 41
0.003
  0
VERTEX
  5
20B
330
209
100
AcDbEntity
  8
1
  6
Continuous
 62
     7
 48
0.0075766763254639
100
AcDbVertex
100
AcDb2dVertex
 10
1.85517385937695
 20
0.5281479557894546
 30
0.0
 40
0.003
 41
0.003
  0
SEQEND
  5
20C
330
209
100
AcDbEntity
  8
1
  6
Continuous
 62
     7
 48
0.0075766763254639
370
     0
  0
POLYLINE
  5
20D
330
1F
100
AcDbEntity
  8
1
  6
Continuous
 62
     7
 48
0.0075766763254639
370
     0
100
AcDb2dPolyline
 66
     1
 10
0.0
 20
0.0
 30
0.0
  0
VERTEX
  5
20E
330
20D
100
AcDbEntity
  8
1
  6
Continuous
 62
     7
 48
0.0075766763254639
100
AcDbVertex
100
AcDb2dVertex
 10
1.872281554531537
 20
0.4985165585813112
 30
0.0
 40
0.003
 41
0.003
  0
VERTEX
  5
20F
330
20D
100
AcDbEntity
  8
1
  6
Continuous
 62
     7
 48
0.0075766763254639
100
AcDbVertex
100
AcDb2dVertex
 10
1.886137960992087
 20
0.4985165585813112
 30
0.0
 40
0.003
 41
0.003
  0
SEQEND
  5
210
330
20D
100
AcDbEntity
  8
1
  6
Continuous
 62
     7
 48
0.0075766763254639
370
     0
  0
POLYLINE
  5
211
330
1F
100
AcDbEntity
  8
1
  6
Continuous
 62
     7
 48
0.0075766763254639
370
     0
100
AcDb2dPolyline
 66
     1
 10
0.0
 20
0.0
 30
0.0
  0
VERTEX
  5
212
330
211
100
AcDbEntity
  8
1
  6
Continuous
 62
     7
 48
0.0075766763254639
100
AcDbVertex
100
AcDb2dVertex
 10
1.892959757761812
 20
0.5103322571853833
 30
0.0
 40
0.003
 41
0.003
  0
VERTEX
  5
213
330
211
100
AcDbEntity
  8
1
  6
Continuous
 62
     7
 48
0.0075766763254639
100
AcDbVertex
100
AcDb2dVertex
 10
1.903245656146674
 20
0.5281479557894541
 30
0.0
 40
0.003
 41
0.003
  0
SEQEND
  5
214
330
211
100
AcDbEntity
  8
1
  6
Continuous
 62
     7
 48
0.0075766763254639
370
     0
  0
POLYLINE
  5
215
330
1F
100
AcDbEntity
  8
1
  6
Continuous
 62
     7
 48
0.0075766763254639
370
     0
100
AcDb2dPolyline
 66
     1
 10
0.0
 20
0.0
 30
0.0
  0
VERTEX
  5
216
330
215
100
AcDbEntity
  8
1
  6
Continuous
 62
     7
 48
0.0075766763254639
100
AcDbVertex
100
AcDb2dVertex
 10
1.941137960992087
 20
0.4985165585813112
 30
0.0
 40
0.003
 41
0.003
  0
VERTEX
  5
217
330
215
100
AcDbEntity
  8
1
  6
Continuous
 62
     7
 48
0.0075766763254639
100
AcDbVertex
100
AcDb2dVertex
 10
1.947959757761811
 20
0.5103322571853833
 30
0.0
 40
0.003
 41
0.003
  0
SEQEND
  5
218
330
215
100
AcDbEntity
  8
1
  6
Continuous
 62
     7
 48
0.0075766763254639
370
     0
  0
POLYLINE
  5
219
330
1F
100
AcDbEntity
  8
1
  6
Continuous
 62
     7
 48
0.0075766763254639
370
     0
100
AcDb2dPolyline
 66
     1
 10
0.0
 20
0.0
 30
0.0
  0
VERTEX
  5
21A
330
219
100
AcDbEntity
  8
1
  6
Continuous
 62
     7
 48
0.0075766763254639
100
AcDbVertex
100
AcDb2dVertex
 10
1.927281554531536
 20
0.4985165585813112
 30
0.0
 40
0.003
 41
0.003
  0
VERTEX
  5
21B
330
219
100
AcDbEntity
  8
1
  6
Continuous
 62
     7
 48
0.0075766763254639
100
AcDbVertex
100
AcDb2dVertex
 10
1.91017385937695
 20
0.5281479557894546
 30
0.0
 40
0.003
 41
0.003
  0
SEQEND
  5
21C
330
219
100
AcDbEntity
  8
1
  6
Continuous
 62
     7
 48
0.0075766763254639
370
     0
  0
POLYLINE
  5
21D
330
1F
100
AcDbEntity
  8
1
  6
Continuous
 62
     7
 48
0.0075766763254639
370
     0
100
AcDb2dPolyline
 66
     1
 10
0.0
 20
0.0
 30
0.0
  0
VERTEX
  5
21E
330
21D
100
AcDbEntity
  8
1
  6
Continuous
 62
     7
 48
0.0075766763254639
100
AcDbVertex
100
AcDb2dVertex
 10
1.903245656146674
 20
0.5281479557894541
 30
0.0
 40
0.003
 41
0.003
  0
VERTEX
  5
21F
330
21D
100
AcDbEntity
  8
1
  6
Continuous
 62
     7
 48
0.0075766763254639
100
AcDbVertex
100
AcDb2dVertex
 10
1.91017385937695
 20
0.5281479557894546
 30
0.0
 40
0.003
 41
0.003
  0
SEQEND
  5
220
330
21D
100
AcDbEntity
  8
1
  6
Continuous
 62
     7
 48
0.0075766763254639
370
     0
  0
POLYLINE
  5
221
330
1F
100
AcDbEntity
  8
1
  6
Continuous
 62
     7
 48
0.0075766763254639
370
     0
100
AcDb2dPolyline
 66
     1
 10
0.0
 20
0.0
 30
0.0
  0
VERTEX
  5
222
330
221
100
AcDbEntity
  8
1
  6
Continuous
 62
     7
 48
0.0075766763254639
100
AcDbVertex
100
AcDb2dVertex
 10
1.927281554531536
 20
0.4985165585813112
 30
0.0
 40
0.003
 41
0.003
  0
VERTEX
  5
223
330
221
100
AcDbEntity
  8
1
  6
Continuous
 62
     7
 48
0.0075766763254639
100
AcDbVertex
100
AcDb2dVertex
 10
1.941137960992087
 20
0.4985165585813112
 30
0.0
 40
0.003
 41
0.003
  0
SEQEND
  5
224
330
221
100
AcDbEntity
  8
1
  6
Continuous
 62
     7
 48
0.0075766763254639
370
     0
  0
POLYLINE
  5
225
330
1F
100
AcDbEntity
  8
1
  6
Continuous
 62
     7
 48
0.0075766763254639
370
     0
100
AcDb2dPolyline
 66
     1
 10
0.0
 20
0.0
 30
0.0
  0
VERTEX
  5
226
330
225
100
AcDbEntity
  8
1
  6
Continuous
 62
     7
 48
0.0075766763254639
100
AcDbVertex
100
AcDb2dVertex
 10
1.947959757761811
 20
0.5103322571853833
 30
0.0
 40
0.003
 41
0.003
  0
VERTEX
  5
227
330
225
100
AcDbEntity
  8
1
  6
Continuous
 62
     7
 48
0.0075766763254639
100
AcDbVertex
100
AcDb2dVertex
 10
1.958245656146674
 20
0.5281479557894546
 30
0.0
 40
0.003
 41
0.003
  0
SEQEND
  5
228
330
225
100
AcDbEntity
  8
1
  6
Continuous
 62
     7
 48
0.0075766763254639
370
     0
  0
POLYLINE
  5
229
330
1F
100
AcDbEntity
  8
1
  6
Continuous
 62
     7
 48
0.0075766763254639
370
     0
100
AcDb2dPolyline
 66
     1
 10
0.0
 20
0.0
 30
0.0
  0
VERTEX
  5
22A
330
229
100
AcDbEntity
  8
1
  6
Continuous
 62
     7
 48
0.0075766763254639
100
AcDbVertex
100
AcDb2dVertex
 10
1.982281554531535
 20
0.4985165585813112
 30
0.0
 40
0.003
 41
0.003
  0
VERTEX
  5
22B
330
229
100
AcDbEntity
  8
1
  6
Continuous
 62
     7
 48
0.0075766763254639
100
AcDbVertex
100
AcDb2dVertex
 10
1.965173859376949
 20
0.5281479557894546
 30
0.0
 40
0.003
 41
0.003
  0
SEQEND
  5
22C
330
229
100
AcDbEntity
  8
1
  6
Continuous
 62
     7
 48
0.0075766763254639
370
     0
  0
POLYLINE
  5
22D
330
1F
100
AcDbEntity
  8
1
  6
Continuous
 62
     7
 48
0.0075766763254639
370
     0
100
AcDb2dPolyline
 66
     1
 10
0.0
 20
0.0
 30
0.0
  0
VERTEX
  5
22E
330
22D
100
AcDbEntity
  8
1
  6
Continuous
 62
     7
 48
0.0075766763254639
100
AcDbVertex
100
AcDb2dVertex
 10
1.958245656146674
 20
0.5281479557894546
 30
0.0
 40
0.003
 41
0.003
  0
VERTEX
  5
22F
330
22D
100
AcDbEntity
  8
1
  6
Continuous
 62
     7
 48
0.0075766763254639
100
AcDbVertex
100
AcDb2dVertex
 10
1.965173859376949
 20
0.5281479557894546
 30
0.0
 40
0.003
 41
0.003
  0
SEQEND
  5
230
330
22D
100
AcDbEntity
  8
1
  6
Continuous
 62
     7
 48
0.0075766763254639
370
     0
  0
POLYLINE
  5
231
330
1F
100
AcDbEntity
  8
1
  6
Continuous
 62
     7
 48
0.0075766763254639
370
     0
100
AcDb2dPolyline
 66
     1
 10
0.0
 20
0.0
 30
0.0
  0
VERTEX
  5
232
330
231
100
AcDbEntity
  8
1
  6
Continuous
 62
     7
 48
0.0075766763254639
100
AcDbVertex
100
AcDb2dVertex
 10
1.982281554531535
 20
0.4985165585813112
 30
0.0
 40
0.003
 41
0.003
  0
VERTEX
  5
233
330
231
100
AcDbEntity
  8
1
  6
Continuous
 62
     7
 48
0.0075766763254639
100
AcDbVertex
100
AcDb2dVertex
 10
1.996137960992087
 20
0.4985165585813112
 30
0.0
 40
0.003
 41
0.003
  0
SEQEND
  5
234
330
231
100
AcDbEntity
  8
1
  6
Continuous
 62
     7
 48
0.0075766763254639
370
     0
  0
POLYLINE
  5
235
330
1F
100
AcDbEntity
  8
1
  6
Continuous
 62
     7
 48
0.0075766763254639
370
     0
100
AcDb2dPolyline
 66
     1
 10
0.0
 20
0.0
 30
0.0
  0
VERTEX
  5
236
330
235
100
AcDbEntity
  8
1
  6
Continuous
 62
     7
 48
0.0075766763254639
100
AcDbVertex
100
AcDb2dVertex
 10
1.776358160772878
 20
0.4981351613731673
 30
0.0
 40
0.003
 41
0.003
  0
VERTEX
  5
237
330
235
100
AcDbEntity
  8
1
  6
Continuous
 62
     7
 48
0.0075766763254639
100
AcDbVertex
100
AcDb2dVertex
 10
1.783179957542602
 20
0.5099508599772395
 30
0.0
 40
0.003
 41
0.003
  0
SEQEND
  5
238
330
235
100
AcDbEntity
  8
1
  6
Continuous
 62
     7
 48
0.0075766763254639
370
     0
  0
POLYLINE
  5
239
330
1F
100
AcDbEntity
  8
1
  6
Continuous
 62
     7
 48
0.0075766763254639
370
     0
100
AcDb2dPolyline
 66
     1
 10
0.0
 20
0.0
 30
0.0
  0
VERTEX
  5
23A
330
239
100
AcDbEntity
  8
1
  6
Continuous
 62
     7
 48
0.0075766763254639
100
AcDbVertex
100
AcDb2dVertex
 10
1.762501754312326
 20
0.4981351613731673
 30
0.0
 40
0.003
 41
0.003
  0
VERTEX
  5
23B
330
239
100
AcDbEntity
  8
1
  6
Continuous
 62
     7
 48
0.0075766763254639
100
AcDbVertex
100
AcDb2dVertex
 10
1.776358160772878
 20
0.4981351613731673
 30
0.0
 40
0.003
 41
0.003
  0
SEQEND
  5
23C
330
239
100
AcDbEntity
  8
1
  6
Continuous
 62
     7
 48
0.0075766763254639
370
     0
  0
POLYLINE
  5
23D
330
1F
100
AcDbEntity
  8
1
  6
Continuous
 62
     7
 48
0.0075766763254639
370
     0
100
AcDb2dPolyline
 66
     1
 10
0.0
 20
0.0
 30
0.0
  0
VERTEX
  5
23E
330
23D
100
AcDbEntity
  8
1
  6
Continuous
 62
     7
 48
0.0075766763254639
100
AcDbVertex
100
AcDb2dVertex
 10
1.783179957542602
 20
0.5099508599772395
 30
0.0
 40
0.003
 41
0.003
  0
VERTEX
  5
23F
330
23D
100
AcDbEntity
  8
1
  6
Continuous
 62
     7
 48
0.0075766763254639
100
AcDbVertex
100
AcDb2dVertex
 10
1.793465855927465
 20
0.5277665585813107
 30
0.0
 40
0.003
 41
0.003
  0
SEQEND
  5
240
330
23D
100
AcDbEntity
  8
1
  6
Continuous
 62
     7
 48
0.0075766763254639
370
     0
  0
POLYLINE
  5
241
330
1F
100
AcDbEntity
  8
1
  6
Continuous
 62
     7
 48
0.0075766763254639
370
     0
100
AcDb2dPolyline
 66
     1
 10
0.0
 20
0.0
 30
0.0
  0
VERTEX
  5
242
330
241
100
AcDbEntity
  8
1
  6
Continuous
 62
     7
 48
0.0075766763254639
100
AcDbVertex
100
AcDb2dVertex
 10
1.793465855927465
 20
0.5277665585813107
 30
0.0
 40
0.003
 41
0.003
  0
VERTEX
  5
243
330
241
100
AcDbEntity
  8
1
  6
Continuous
 62
     7
 48
0.0075766763254639
100
AcDbVertex
100
AcDb2dVertex
 10
1.80039405915774
 20
0.5277665585813107
 30
0.0
 40
0.003
 41
0.003
  0
SEQEND
  5
244
330
241
100
AcDbEntity
  8
1
  6
Continuous
 62
     7
 48
0.0075766763254639
370
     0
  0
POLYLINE
  5
245
330
1F
100
AcDbEntity
  8
1
  6
Continuous
 62
     7
 48
0.0075766763254639
370
     0
100
AcDb2dPolyline
 66
     1
 10
0.0
 20
0.0
 30
0.0
  0
VERTEX
  5
246
330
245
100
AcDbEntity
  8
1
  6
Continuous
 62
     7
 48
0.0075766763254639
100
AcDbVertex
100
AcDb2dVertex
 10
1.762501754312326
 20
0.4981351613731673
 30
0.0
 40
0.003
 41
0.003
  0
VERTEX
  5
247
330
245
100
AcDbEntity
  8
1
  6
Continuous
 62
     7
 48
0.0075766763254639
100
AcDbVertex
100
AcDb2dVertex
 10
1.761645587085769
 20
0.4996180865093411
 30
0.0
 40
0.003
 41
0.003
  0
SEQEND
  5
248
330
245
100
AcDbEntity
  8
1
  6
Continuous
 62
     7
 48
0.0075766763254639
370
     0
  0
POLYLINE
  5
249
330
1F
100
AcDbEntity
  8
1
  6
Continuous
 62
     7
 48
0.0075766763254639
370
     0
100
AcDb2dPolyline
 66
     1
 10
0.0
 20
0.0
 30
0.0
  0
VERTEX
  5
24A
330
249
100
AcDbEntity
  8
1
  6
Continuous
 62
     7
 48
0.0075766763254639
100
AcDbVertex
100
AcDb2dVertex
 10
1.749709757761811
 20
0.4876822571853821
 30
0.0
 40
0.003
 41
0.003
  0
VERTEX
  5
24B
330
249
100
AcDbEntity
  8
1
  6
Continuous
 62
     7
 48
0.0075766763254639
100
AcDbVertex
100
AcDb2dVertex
 10
1.761645587085769
 20
0.4996180865093411
 30
0.0
 40
0.003
 41
0.003
  0
SEQEND
  5
24C
330
249
100
AcDbEntity
  8
1
  6
Continuous
 62
     7
 48
0.0075766763254639
370
     0
  0
POLYLINE
  5
24D
330
1F
100
AcDbEntity
  8
1
  6
Continuous
 62
     7
 48
0.0075766763254639
370
     0
100
AcDb2dPolyline
 66
     1
 10
0.0
 20
0.0
 30
0.0
  0
VERTEX
  5
24E
330
24D
100
AcDbEntity
  8
1
  6
Continuous
 62
     7
 48
0.0075766763254639
100
AcDbVertex
100
AcDb2dVertex
 10
1.996137960992087
 20
0.4985165585813112
 30
0.0
 40
0.003
 41
0.003
  0
VERTEX
  5
24F
330
24D
100
AcDbEntity
  8
1
  6
Continuous
 62
     7
 48
0.0075766763254639
100
AcDbVertex
100
AcDb2dVertex
 10
1.996773928437855
 20
0.4996180865093403
 30
0.0
 40
0.003
 41
0.003
  0
SEQEND
  5
250
330
24D
100
AcDbEntity
  8
1
  6
Continuous
 62
     7
 48
0.0075766763254639
370
     0
  0
POLYLINE
  5
251
330
1F
100
AcDbEntity
  8
1
  6
Continuous
 62
     7
 48
0.0075766763254639
370
     0
100
AcDb2dPolyline
 66
     1
 10
0.0
 20
0.0
 30
0.0
  0
VERTEX
  5
252
330
251
100
AcDbEntity
  8
1
  6
Continuous
 62
     7
 48
0.0075766763254639
100
AcDbVertex
100
AcDb2dVertex
 10
2.00670975776181
 20
0.4896822571853844
 30
0.0
 40
0.003
 41
0.003
  0
VERTEX
  5
253
330
251
100
AcDbEntity
  8
1
  6
Continuous
 62
     7
 48
0.0075766763254639
100
AcDbVertex
100
AcDb2dVertex
 10
1.996773928437855
 20
0.4996180865093403
 30
0.0
 40
0.003
 41
0.003
  0
SEQEND
  5
254
330
251
100
AcDbEntity
  8
1
  6
Continuous
 62
     7
 48
0.0075766763254639
370
     0
  0
POLYLINE
  5
255
330
1F
100
AcDbEntity
  8
1
  6
Continuous
 62
     7
 48
0.0075766763254639
370
     0
100
AcDb2dPolyline
 66
     1
 10
0.0
 20
0.0
 30
0.0
  0
VERTEX
  5
256
330
255
100
AcDbEntity
  8
1
  6
Continuous
 62
     7
 48
0.0075766763254639
100
AcDbVertex
100
AcDb2dVertex
 10
1.803437960992088
 20
0.0008479557894537
 30
0.0
 40
0.003
 41
0.003
  0
VERTEX
  5
257
330
255
100
AcDbEntity
  8
1
  6
Continuous
 62
     7
 48
0.0075766763254639
100
AcDbVertex
100
AcDb2dVertex
 10
1.810259757761812
 20
-0.0109677428146182
 30
0.0
 40
0.003
 41
0.003
  0
SEQEND
  5
258
330
255
100
AcDbEntity
  8
1
  6
Continuous
 62
     7
 48
0.0075766763254639
370
     0
  0
POLYLINE
  5
259
330
1F
100
AcDbEntity
  8
1
  6
Continuous
 62
     7
 48
0.0075766763254639
370
     0
100
AcDb2dPolyline
 66
     1
 10
0.0
 20
0.0
 30
0.0
  0
VERTEX
  5
25A
330
259
100
AcDbEntity
  8
1
  6
Continuous
 62
     7
 48
0.0075766763254639
100
AcDbVertex
100
AcDb2dVertex
 10
1.789581554531536
 20
0.0008479557894537
 30
0.0
 40
0.003
 41
0.003
  0
VERTEX
  5
25B
330
259
100
AcDbEntity
  8
1
  6
Continuous
 62
     7
 48
0.0075766763254639
100
AcDbVertex
100
AcDb2dVertex
 10
1.803437960992088
 20
0.0008479557894537
 30
0.0
 40
0.003
 41
0.003
  0
SEQEND
  5
25C
330
259
100
AcDbEntity
  8
1
  6
Continuous
 62
     7
 48
0.0075766763254639
370
     0
  0
POLYLINE
  5
25D
330
1F
100
AcDbEntity
  8
1
  6
Continuous
 62
     7
 48
0.0075766763254639
370
     0
100
AcDb2dPolyline
 66
     1
 10
0.0
 20
0.0
 30
0.0
  0
VERTEX
  5
25E
330
25D
100
AcDbEntity
  8
1
  6
Continuous
 62
     7
 48
0.0075766763254639
100
AcDbVertex
100
AcDb2dVertex
 10
1.810259757761812
 20
-0.0109677428146182
 30
0.0
 40
0.003
 41
0.003
  0
VERTEX
  5
25F
330
25D
100
AcDbEntity
  8
1
  6
Continuous
 62
     7
 48
0.0075766763254639
100
AcDbVertex
100
AcDb2dVertex
 10
1.820545656146674
 20
-0.0287834414186895
 30
0.0
 40
0.003
 41
0.003
  0
SEQEND
  5
260
330
25D
100
AcDbEntity
  8
1
  6
Continuous
 62
     7
 48
0.0075766763254639
370
     0
  0
POLYLINE
  5
261
330
1F
100
AcDbEntity
  8
1
  6
Continuous
 62
     7
 48
0.0075766763254639
370
     0
100
AcDb2dPolyline
 66
     1
 10
0.0
 20
0.0
 30
0.0
  0
VERTEX
  5
262
330
261
100
AcDbEntity
  8
1
  6
Continuous
 62
     7
 48
0.0075766763254639
100
AcDbVertex
100
AcDb2dVertex
 10
1.858437960992087
 20
0.0008479557894537
 30
0.0
 40
0.003
 41
0.003
  0
VERTEX
  5
263
330
261
100
AcDbEntity
  8
1
  6
Continuous
 62
     7
 48
0.0075766763254639
100
AcDbVertex
100
AcDb2dVertex
 10
1.865259757761812
 20
-0.0109677428146182
 30
0.0
 40
0.003
 41
0.003
  0
SEQEND
  5
264
330
261
100
AcDbEntity
  8
1
  6
Continuous
 62
     7
 48
0.0075766763254639
370
     0
  0
POLYLINE
  5
265
330
1F
100
AcDbEntity
  8
1
  6
Continuous
 62
     7
 48
0.0075766763254639
370
     0
100
AcDb2dPolyline
 66
     1
 10
0.0
 20
0.0
 30
0.0
  0
VERTEX
  5
266
330
265
100
AcDbEntity
  8
1
  6
Continuous
 62
     7
 48
0.0075766763254639
100
AcDbVertex
100
AcDb2dVertex
 10
1.844581554531536
 20
0.0008479557894537
 30
0.0
 40
0.003
 41
0.003
  0
VERTEX
  5
267
330
265
100
AcDbEntity
  8
1
  6
Continuous
 62
     7
 48
0.0075766763254639
100
AcDbVertex
100
AcDb2dVertex
 10
1.82747385937695
 20
-0.0287834414186895
 30
0.0
 40
0.003
 41
0.003
  0
SEQEND
  5
268
330
265
100
AcDbEntity
  8
1
  6
Continuous
 62
     7
 48
0.0075766763254639
370
     0
  0
POLYLINE
  5
269
330
1F
100
AcDbEntity
  8
1
  6
Continuous
 62
     7
 48
0.0075766763254639
370
     0
100
AcDb2dPolyline
 66
     1
 10
0.0
 20
0.0
 30
0.0
  0
VERTEX
  5
26A
330
269
100
AcDbEntity
  8
1
  6
Continuous
 62
     7
 48
0.0075766763254639
100
AcDbVertex
100
AcDb2dVertex
 10
1.820545656146674
 20
-0.0287834414186895
 30
0.0
 40
0.003
 41
0.003
  0
VERTEX
  5
26B
330
269
100
AcDbEntity
  8
1
  6
Continuous
 62
     7
 48
0.0075766763254639
100
AcDbVertex
100
AcDb2dVertex
 10
1.82747385937695
 20
-0.0287834414186895
 30
0.0
 40
0.003
 41
0.003
  0
SEQEND
  5
26C
330
269
100
AcDbEntity
  8
1
  6
Continuous
 62
     7
 48
0.0075766763254639
370
     0
  0
POLYLINE
  5
26D
330
1F
100
AcDbEntity
  8
1
  6
Continuous
 62
     7
 48
0.0075766763254639
370
     0
100
AcDb2dPolyline
 66
     1
 10
0.0
 20
0.0
 30
0.0
  0
VERTEX
  5
26E
330
26D
100
AcDbEntity
  8
1
  6
Continuous
 62
     7
 48
0.0075766763254639
100
AcDbVertex
100
AcDb2dVertex
 10
1.844581554531536
 20
0.0008479557894537
 30
0.0
 40
0.003
 41
0.003
  0
VERTEX
  5
26F
330
26D
100
AcDbEntity
  8
1
  6
Continuous
 62
     7
 48
0.0075766763254639
100
AcDbVertex
100
AcDb2dVertex
 10
1.858437960992087
 20
0.0008479557894537
 30
0.0
 40
0.003
 41
0.003
  0
SEQEND
  5
270
330
26D
100
AcDbEntity
  8
1
  6
Continuous
 62
     7
 48
0.0075766763254639
370
     0
  0
POLYLINE
  5
271
330
1F
100
AcDbEntity
  8
1
  6
Continuous
 62
     7
 48
0.0075766763254639
370
     0
100
AcDb2dPolyline
 66
     1
 10
0.0
 20
0.0
 30
0.0
  0
VERTEX
  5
272
330
271
100
AcDbEntity
  8
1
  6
Continuous
 62
     7
 48
0.0075766763254639
100
AcDbVertex
100
AcDb2dVertex
 10
1.865259757761812
 20
-0.0109677428146182
 30
0.0
 40
0.003
 41
0.003
  0
VERTEX
  5
273
330
271
100
AcDbEntity
  8
1
  6
Continuous
 62
     7
 48
0.0075766763254639
100
AcDbVertex
100
AcDb2dVertex
 10
1.875545656146673
 20
-0.0287834414186892
 30
0.0
 40
0.003
 41
0.003
  0
SEQEND
  5
274
330
271
100
AcDbEntity
  8
1
  6
Continuous
 62
     7
 48
0.0075766763254639
370
     0
  0
POLYLINE
  5
275
330
1F
100
AcDbEntity
  8
1
  6
Continuous
 62
     7
 48
0.0075766763254639
370
     0
100
AcDb2dPolyline
 66
     1
 10
0.0
 20
0.0
 30
0.0
  0
VERTEX
  5
276
330
275
100
AcDbEntity
  8
1
  6
Continuous
 62
     7
 48
0.0075766763254639
100
AcDbVertex
100
AcDb2dVertex
 10
1.913437960992086
 20
0.0008479557894537
 30
0.0
 40
0.003
 41
0.003
  0
VERTEX
  5
277
330
275
100
AcDbEntity
  8
1
  6
Continuous
 62
     7
 48
0.0075766763254639
100
AcDbVertex
100
AcDb2dVertex
 10
1.920259757761811
 20
-0.0109677428146182
 30
0.0
 40
0.003
 41
0.003
  0
SEQEND
  5
278
330
275
100
AcDbEntity
  8
1
  6
Continuous
 62
     7
 48
0.0075766763254639
370
     0
  0
POLYLINE
  5
279
330
1F
100
AcDbEntity
  8
1
  6
Continuous
 62
     7
 48
0.0075766763254639
370
     0
100
AcDb2dPolyline
 66
     1
 10
0.0
 20
0.0
 30
0.0
  0
VERTEX
  5
27A
330
279
100
AcDbEntity
  8
1
  6
Continuous
 62
     7
 48
0.0075766763254639
100
AcDbVertex
100
AcDb2dVertex
 10
1.899581554531536
 20
0.0008479557894537
 30
0.0
 40
0.003
 41
0.003
  0
VERTEX
  5
27B
330
279
100
AcDbEntity
  8
1
  6
Continuous
 62
     7
 48
0.0075766763254639
100
AcDbVertex
100
AcDb2dVertex
 10
1.882473859376949
 20
-0.0287834414186895
 30
0.0
 40
0.003
 41
0.003
  0
SEQEND
  5
27C
330
279
100
AcDbEntity
  8
1
  6
Continuous
 62
     7
 48
0.0075766763254639
370
     0
  0
POLYLINE
  5
27D
330
1F
100
AcDbEntity
  8
1
  6
Continuous
 62
     7
 48
0.0075766763254639
370
     0
100
AcDb2dPolyline
 66
     1
 10
0.0
 20
0.0
 30
0.0
  0
VERTEX
  5
27E
330
27D
100
AcDbEntity
  8
1
  6
Continuous
 62
     7
 48
0.0075766763254639
100
AcDbVertex
100
AcDb2dVertex
 10
1.875545656146673
 20
-0.0287834414186892
 30
0.0
 40
0.003
 41
0.003
  0
VERTEX
  5
27F
330
27D
100
AcDbEntity
  8
1
  6
Continuous
 62
     7
 48
0.0075766763254639
100
AcDbVertex
100
AcDb2dVertex
 10
1.882473859376949
 20
-0.0287834414186895
 30
0.0
 40
0.003
 41
0.003
  0
SEQEND
  5
280
330
27D
100
AcDbEntity
  8
1
  6
Continuous
 62
     7
 48
0.0075766763254639
370
     0
  0
POLYLINE
  5
281
330
1F
100
AcDbEntity
  8
1
  6
Continuous
 62
     7
 48
0.0075766763254639
370
     0
100
AcDb2dPolyline
 66
     1
 10
0.0
 20
0.0
 30
0.0
  0
VERTEX
  5
282
330
281
100
AcDbEntity
  8
1
  6
Continuous
 62
     7
 48
0.0075766763254639
100
AcDbVertex
100
AcDb2dVertex
 10
1.899581554531536
 20
0.0008479557894537
 30
0.0
 40
0.003
 41
0.003
  0
VERTEX
  5
283
330
281
100
AcDbEntity
  8
1
  6
Continuous
 62
     7
 48
0.0075766763254639
100
AcDbVertex
100
AcDb2dVertex
 10
1.913437960992086
 20
0.0008479557894537
 30
0.0
 40
0.003
 41
0.003
  0
SEQEND
  5
284
330
281
100
AcDbEntity
  8
1
  6
Continuous
 62
     7
 48
0.0075766763254639
370
     0
  0
POLYLINE
  5
285
330
1F
100
AcDbEntity
  8
1
  6
Continuous
 62
     7
 48
0.0075766763254639
370
     0
100
AcDb2dPolyline
 66
     1
 10
0.0
 20
0.0
 30
0.0
  0
VERTEX
  5
286
330
285
100
AcDbEntity
  8
1
  6
Continuous
 62
     7
 48
0.0075766763254639
100
AcDbVertex
100
AcDb2dVertex
 10
1.920259757761811
 20
-0.0109677428146182
 30
0.0
 40
0.003
 41
0.003
  0
VERTEX
  5
287
330
285
100
AcDbEntity
  8
1
  6
Continuous
 62
     7
 48
0.0075766763254639
100
AcDbVertex
100
AcDb2dVertex
 10
1.930545656146674
 20
-0.0287834414186895
 30
0.0
 40
0.003
 41
0.003
  0
SEQEND
  5
288
330
285
100
AcDbEntity
  8
1
  6
Continuous
 62
     7
 48
0.0075766763254639
370
     0
  0
POLYLINE
  5
289
330
1F
100
AcDbEntity
  8
1
  6
Continuous
 62
     7
 48
0.0075766763254639
370
     0
100
AcDb2dPolyline
 66
     1
 10
0.0
 20
0.0
 30
0.0
  0
VERTEX
  5
28A
330
289
100
AcDbEntity
  8
1
  6
Continuous
 62
     7
 48
0.0075766763254639
100
AcDbVertex
100
AcDb2dVertex
 10
1.954581554531535
 20
0.0008479557894537
 30
0.0
 40
0.003
 41
0.003
  0
VERTEX
  5
28B
330
289
100
AcDbEntity
  8
1
  6
Continuous
 62
     7
 48
0.0075766763254639
100
AcDbVertex
100
AcDb2dVertex
 10
1.937473859376949
 20
-0.0287834414186895
 30
0.0
 40
0.003
 41
0.003
  0
SEQEND
  5
28C
330
289
100
AcDbEntity
  8
1
  6
Continuous
 62
     7
 48
0.0075766763254639
370
     0
  0
POLYLINE
  5
28D
330
1F
100
AcDbEntity
  8
1
  6
Continuous
 62
     7
 48
0.0075766763254639
370
     0
100
AcDb2dPolyline
 66
     1
 10
0.0
 20
0.0
 30
0.0
  0
VERTEX
  5
28E
330
28D
100
AcDbEntity
  8
1
  6
Continuous
 62
     7
 48
0.0075766763254639
100
AcDbVertex
100
AcDb2dVertex
 10
1.930545656146674
 20
-0.0287834414186895
 30
0.0
 40
0.003
 41
0.003
  0
VERTEX
  5
28F
330
28D
100
AcDbEntity
  8
1
  6
Continuous
 62
     7
 48
0.0075766763254639
100
AcDbVertex
100
AcDb2dVertex
 10
1.937473859376949
 20
-0.0287834414186895
 30
0.0
 40
0.003
 41
0.003
  0
SEQEND
  5
290
330
28D
100
AcDbEntity
  8
1
  6
Continuous
 62
     7
 48
0.0075766763254639
370
     0
  0
POLYLINE
  5
291
330
1F
100
AcDbEntity
  8
1
  6
Continuous
 62
     7
 48
0.0075766763254639
370
     0
100
AcDb2dPolyline
 66
     1
 10
0.0
 20
0.0
 30
0.0
  0
VERTEX
  5
292
330
291
100
AcDbEntity
  8
1
  6
Continuous
 62
     7
 48
0.0075766763254639
100
AcDbVertex
100
AcDb2dVertex
 10
1.954581554531535
 20
0.0008479557894537
 30
0.0
 40
0.003
 41
0.003
  0
VERTEX
  5
293
330
291
100
AcDbEntity
  8
1
  6
Continuous
 62
     7
 48
0.0075766763254639
100
AcDbVertex
100
AcDb2dVertex
 10
1.968437960992087
 20
0.0008479557894537
 30
0.0
 40
0.003
 41
0.003
  0
SEQEND
  5
294
330
291
100
AcDbEntity
  8
1
  6
Continuous
 62
     7
 48
0.0075766763254639
370
     0
  0
POLYLINE
  5
295
330
1F
100
AcDbEntity
  8
1
  6
Continuous
 62
     7
 48
0.0075766763254639
370
     0
100
AcDb2dPolyline
 66
     1
 10
0.0
 20
0.0
 30
0.0
  0
VERTEX
  5
296
330
295
100
AcDbEntity
  8
1
  6
Continuous
 62
     7
 48
0.0075766763254639
100
AcDbVertex
100
AcDb2dVertex
 10
1.749709757761811
 20
0.0116822571853831
 30
0.0
 40
0.003
 41
0.003
  0
VERTEX
  5
297
330
295
100
AcDbEntity
  8
1
  6
Continuous
 62
     7
 48
0.0075766763254639
100
AcDbVertex
100
AcDb2dVertex
 10
1.778953093562454
 20
-0.0175610786152597
 30
0.0
 40
0.003
 41
0.003
  0
SEQEND
  5
298
330
295
100
AcDbEntity
  8
1
  6
Continuous
 62
     7
 48
0.0075766763254639
370
     0
  0
POLYLINE
  5
299
330
1F
100
AcDbEntity
  8
1
  6
Continuous
 62
     7
 48
0.0075766763254639
370
     0
100
AcDb2dPolyline
 66
     1
 10
0.0
 20
0.0
 30
0.0
  0
VERTEX
  5
29A
330
299
100
AcDbEntity
  8
1
  6
Continuous
 62
     7
 48
0.0075766763254639
100
AcDbVertex
100
AcDb2dVertex
 10
1.789581554531536
 20
0.0008479557894537
 30
0.0
 40
0.003
 41
0.003
  0
VERTEX
  5
29B
330
299
100
AcDbEntity
  8
1
  6
Continuous
 62
     7
 48
0.0075766763254639
100
AcDbVertex
100
AcDb2dVertex
 10
1.778953093562454
 20
-0.0175610786152597
 30
0.0
 40
0.003
 41
0.003
  0
SEQEND
  5
29C
330
299
100
AcDbEntity
  8
1
  6
Continuous
 62
     7
 48
0.0075766763254639
370
     0
  0
POLYLINE
  5
29D
330
1F
100
AcDbEntity
  8
1
  6
Continuous
 62
     7
 48
0.0075766763254639
370
     0
100
AcDb2dPolyline
 66
     1
 10
0.0
 20
0.0
 30
0.0
  0
VERTEX
  5
29E
330
29D
100
AcDbEntity
  8
1
  6
Continuous
 62
     7
 48
0.0075766763254639
100
AcDbVertex
100
AcDb2dVertex
 10
1.968437960992087
 20
0.0008479557894537
 30
0.0
 40
0.003
 41
0.003
  0
VERTEX
  5
29F
330
29D
100
AcDbEntity
  8
1
  6
Continuous
 62
     7
 48
0.0075766763254639
100
AcDbVertex
100
AcDb2dVertex
 10
1.975259757761811
 20
-0.0109677428146182
 30
0.0
 40
0.003
 41
0.003
  0
SEQEND
  5
2A0
330
29D
100
AcDbEntity
  8
1
  6
Continuous
 62
     7
 48
0.0075766763254639
370
     0
  0
POLYLINE
  5
2A1
330
1F
100
AcDbEntity
  8
1
  6
Continuous
 62
     7
 48
0.0075766763254639
370
     0
100
AcDb2dPolyline
 66
     1
 10
0.0
 20
0.0
 30
0.0
  0
VERTEX
  5
2A2
330
2A1
100
AcDbEntity
  8
1
  6
Continuous
 62
     7
 48
0.0075766763254639
100
AcDbVertex
100
AcDb2dVertex
 10
1.975259757761811
 20
-0.0109677428146182
 30
0.0
 40
0.003
 41
0.003
  0
VERTEX
  5
2A3
330
2A1
100
AcDbEntity
  8
1
  6
Continuous
 62
     7
 48
0.0075766763254639
100
AcDbVertex
100
AcDb2dVertex
 10
1.979212832122682
 20
-0.0178146684537452
 30
0.0
 40
0.003
 41
0.003
  0
SEQEND
  5
2A4
330
2A1
100
AcDbEntity
  8
1
  6
Continuous
 62
     7
 48
0.0075766763254639
370
     0
  0
POLYLINE
  5
2A5
330
1F
100
AcDbEntity
  8
1
  6
Continuous
 62
     7
 48
0.0075766763254639
370
     0
100
AcDb2dPolyline
 66
     1
 10
0.0
 20
0.0
 30
0.0
  0
VERTEX
  5
2A6
330
2A5
100
AcDbEntity
  8
1
  6
Continuous
 62
     7
 48
0.0075766763254639
100
AcDbVertex
100
AcDb2dVertex
 10
2.00670975776181
 20
0.0096822571853838
 30
0.0
 40
0.003
 41
0.003
  0
VERTEX
  5
2A7
330
2A5
100
AcDbEntity
  8
1
  6
Continuous
 62
     7
 48
0.0075766763254639
100
AcDbVertex
100
AcDb2dVertex
 10
1.979212832122682
 20
-0.0178146684537452
 30
0.0
 40
0.003
 41
0.003
  0
SEQEND
  5
2A8
330
2A5
100
AcDbEntity
  8
1
  6
Continuous
 62
     7
 48
0.0075766763254639
370
     0
  0
LINE
  5
2A9
330
1F
100
AcDbEntity
  8
1
  6
CENTER
 62
    94
420
    43520
 48
0.075
370
     0
100
AcDbLine
 10
1.509589718366813
 20
0.2496822571853831
 30
0.0
 11
0.7850370441283797
 21
0.2496822571853831
 31
0.0
  0
LINE
  5
2AA
330
1F
100
AcDbEntity
  8
1
  6
CENTER
 62
    94
420
    43520
 48
0.075
370
     0
100
AcDbLine
 10
1.145762389340758
 20
0.6034157197903531
 30
0.0
 11
1.145762389340758
 21
-0.1064783743334303
 31
0.0
  0
POLYLINE
  5
2AB
330
1F
100
AcDbEntity
  8
1
  6
Continuous
 62
     7
 48
0.0075766763254639
370
     0
100
AcDb2dPolyline
 66
     1
 10
0.0
 20
0.0
 30
0.0
 70
   129
  0
VERTEX
  5
2AC
330
2AB
100
AcDbEntity
  8
1
  6
Continuous
 62
     7
 48
0.0075766763254639
100
AcDbVertex
100
AcDb2dVertex
 10
1.273262286592598
 20
0.1760701571853828
 30
0.0
 40
0.003
 41
0.003
  0
VERTEX
  5
2AD
330
2AB
100
AcDbEntity
  8
1
  6
Continuous
 62
     7
 48
0.0075766763254639
100
AcDbVertex
100
AcDb2dVertex
 10
1.273262286592598
 20
0.3232943571853828
 30
0.0
 40
0.003
 41
0.003
  0
VERTEX
  5
2AE
330
2AB
100
AcDbEntity
  8
1
  6
Continuous
 62
     7
 48
0.0075766763254639
100
AcDbVertex
100
AcDb2dVertex
 10
1.145762389340757
 20
0.3969064571853828
 30
0.0
 40
0.003
 41
0.003
  0
VERTEX
  5
2AF
330
2AB
100
AcDbEntity
  8
1
  6
Continuous
 62
     7
 48
0.0075766763254639
100
AcDbVertex
100
AcDb2dVertex
 10
1.018262492088916
 20
0.3232943571853831
 30
0.0
 40
0.003
 41
0.003
  0
VERTEX
  5
2B0
330
2AB
100
AcDbEntity
  8
1
  6
Continuous
 62
     7
 48
0.0075766763254639
100
AcDbVertex
100
AcDb2dVertex
 10
1.018262492088916
 20
0.1760701571853829
 30
0.0
 40
0.003
 41
0.003
  0
VERTEX
  5
2B1
330
2AB
100
AcDbEntity
  8
1
  6
Continuous
 62
     7
 48
0.0075766763254639
100
AcDbVertex
100
AcDb2dVertex
 10
1.145762389340757
 20
0.1024580571853828
 30
0.0
 40
0.003
 41
0.003
  0
VERTEX
  5
2B2
330
2AB
100
AcDbEntity
  8
1
  6
Continuous
 62
     7
 48
0.0075766763254639
100
AcDbVertex
100
AcDb2dVertex
 10
1.273262286592598
 20
0.1760701571853828
 30
0.0
 40
0.003
 41
0.003
  0
SEQEND
  5
2B3
330
2AB
100
AcDbEntity
  8
1
  6
Continuous
 62
     7
 48
0.0075766763254639
370
     0
  0
POLYLINE
  5
2B4
330
1F
100
AcDbEntity
  8
1
  6
Continuous
 62
     7
 48
0.0075766763254639
370
     0
100
AcDb2dPolyline
 66
     1
 10
0.0
 20
0.0
 30
0.0
  0
VERTEX
  5
2B5
330
2B4
100
AcDbEntity
  8
1
  6
Continuous
 62
     7
100
AcDbVertex
100
AcDb2dVertex
 10
1.145762389340758
 20
0.4046822571853831
 30
0.0
 40
0.003
 41
0.003
 42
0.9999999999999999
  0
VERTEX
  5
2B6
330
2B4
100
AcDbEntity
  8
1
  6
Continuous
 62
     7
100
AcDbVertex
100
AcDb2dVertex
 10
1.145762389340757
 20
0.094682257185383
 30
0.0
 40
0.003
 41
0.003
 42
0.9999999999999999
  0
VERTEX
  5
2B7
330
2B4
100
AcDbEntity
  8
1
  6
Continuous
 62
     7
100
AcDbVertex
100
AcDb2dVertex
 10
1.145762389340758
 20
0.4046822571853831
 30
0.0
 40
0.003
 41
0.003
  0
SEQEND
  5
2B8
330
2B4
100
AcDbEntity
  8
1
  6
Continuous
 62
     7
 48
0.0075766763254639
370
     0
  0
POLYLINE
  5
2B9
330
1F
100
AcDbEntity
  8
1
  6
Continuous
 62
     7
 48
0.0075766763254639
370
     0
100
AcDb2dPolyline
 66
     1
 10
0.0
 20
0.0
 30
0.0
  0
VERTEX
  5
2BA
330
2B9
100
AcDbEntity
  8
1
  6
Continuous
 62
     7
100
AcDbVertex
100
AcDb2dVertex
 10
1.145762389340758
 20
0.5896822571853834
 30
0.0
 40
0.003
 41
0.003
 42
1.0
  0
VERTEX
  5
2BB
330
2B9
100
AcDbEntity
  8
1
  6
Continuous
 62
     7
100
AcDbVertex
100
AcDb2dVertex
 10
1.145762389340757
 20
-0.0903177428146172
 30
0.0
 40
0.003
 41
0.003
 42
1.0
  0
VERTEX
  5
2BC
330
2B9
100
AcDbEntity
  8
1
  6
Continuous
 62
     7
100
AcDbVertex
100
AcDb2dVertex
 10
1.145762389340758
 20
0.5896822571853834
 30
0.0
 40
0.003
 41
0.003
  0
SEQEND
  5
2BD
330
2B9
100
AcDbEntity
  8
1
  6
Continuous
 62
     7
 48
0.0075766763254639
370
     0
  0
DIMENSION
  5
2BE
330
1F
100
AcDbEntity
  8
1
  6
Continuous
 62
     7
 48
0.0000363854061997
370
     0
100
AcDbDimension
  2
*D2
 10
1.273262286592598
 20
0.666757139675703
 30
0.0
 11
1.145762389340757
 21
0.7079294730090364
 31
0.0
 70
    32
 71
     5
 42
0.2549997945036819
  3
Standard
100
AcDbAlignedDimension
 13
1.018262492088916
 23
0.3232943571853831
 33
0.0
 14
1.273262286592598
 24
0.3232943571853828
 34
0.0
100
AcDbRotatedDimension
1001
ACAD
1000
DSTYLE
1002
{
1070
   172
1070
     1
1070
    77
1070
     1
1070
   280
1070
     0
1070
   279
1070
     0
1070
    74
1070
     0
1070
    73
1070
     0
1070
   174
1070
     0
1070
   147
1040
0.0108
1070
    42
1040
0.0154722941176471
1070
   290
1070
     0
1070
   340
1005
2BF
1070
    78
1070
     0
1070
   272
1070
     3
1070
    71
1070
     0
1070
     3
1000
<> HEX KEY
1070
   146
1040
1.0
1070
   140
1040
0.026
1070
   271
1070
     3
1070
    41
1040
0.026
1070
   342
1005
0
1070
   173
1070
     0
1070
   277
1070
     5
1070
    44
1040
0.0077365294117647
1002
}
  0
DIMENSION
  5
2CD
330
1F
100
AcDbEntity
  8
1
  6
Continuous
 62
     7
 48
0.0000363854061997
370
     0
100
AcDbDimension
  2
*D3
 10
2.09970975776181
 20
0.666757139675703
 30
0.0
 11
1.92470975776181
 21
0.6908301396757031
 31
0.0
 70
    32
 71
     5
 42
0.3500000000000001
  3
Standard
100
AcDbAlignedDimension
 13
1.74970975776181
 23
0.4876822571853834
 33
0.0
 14
2.09970975776181
 24
0.5796822571853838
 34
0.0
100
AcDbRotatedDimension
1001
ACAD
1000
DSTYLE
1002
{
1070
   172
1070
     1
1070
    77
1070
     1
1070
   280
1070
     0
1070
   279
1070
     0
1070
    74
1070
     0
1070
    73
1070
     0
1070
   174
1070
     0
1070
   147
1040
0.0108
1070
    42
1040
0.0154722941176471
1070
   290
1070
     0
1070
   340
1005
2BF
1070
    78
1070
     0
1070
   272
1070
     3
1070
    71
1070
     0
1070
   146
1040
1.0
1070
   140
1040
0.026
1070
   271
1070
     3
1070
    41
1040
0.026
1070
   342
1005
0
1070
   173
1070
     0
1070
   277
1070
     2
1070
    44
1040
0.0077365294117647
1002
}
  0
DIMENSION
  5
2DA
330
1F
100
AcDbEntity
  8
1
  6
Continuous
 62
     7
 48
0.0000363854061997
370
     0
100
AcDbDimension
  2
*D4
 10
2.20470975776181
 20
0.7447571396757032
 30
0.0
 11
1.977209757761811
 21
0.7688301396757032
 31
0.0
 70
    32
 71
     5
 42
0.4549999999999987
  3
Standard
100
AcDbAlignedDimension
 13
1.749709757761811
 23
0.4876822571853821
 33
0.0
 14
2.20470975776181
 24
0.5296822571853834
 34
0.0
100
AcDbRotatedDimension
1001
ACAD
1000
DSTYLE
1002
{
1070
   172
1070
     1
1070
    77
1070
     1
1070
   280
1070
     0
1070
   279
1070
     0
1070
    74
1070
     0
1070
    73
1070
     0
1070
   174
1070
     0
1070
   147
1040
0.0108
1070
    42
1040
0.026
1070
   290
1070
     0
1070
   340
1005
2BF
1070
    78
1070
     0
1070
   272
1070
     3
1070
    71
1070
     0
1070
   146
1040
1.0
1070
   140
1040
0.026
1070
   271
1070
     3
1070
    41
1040
0.026
1070
   342
1005
0
1070
   173
1070
     0
1070
   277
1070
     2
1070
    44
1040
0.0077365294117647
1002
}
  0
DIMENSION
  5
2E7
330
1F
100
AcDbEntity
  8
1
  6
Continuous
 62
     7
 48
0.0000363854061997
370
     0
100
AcDbDimension
  2
*D5
 10
2.30870975776181
 20
0.5896822571853837
 30
0.0
 11
2.28392175776181
 21
0.2496822571853836
 31
0.0
 70
    32
 71
     5
 42
0.6800000000000002
  3
Standard
100
AcDbAlignedDimension
 13
2.14470975776181
 23
-0.0903177428146165
 33
0.0
 14
2.14470975776181
 24
0.5896822571853837
 34
0.0
 50
90.0
100
AcDbRotatedDimension
1001
ACAD
1000
DSTYLE
1002
{
1070
   172
1070
     1
1070
    77
1070
     1
1070
   280
1070
     0
1070
   279
1070
     0
1070
    74
1070
     0
1070
    73
1070
     0
1070
   174
1070
     0
1070
   147
1040
0.0108
1070
    42
1040
0.03
1070
   290
1070
     0
1070
   340
1005
2BF
1070
    78
1070
     0
1070
   272
1070
     3
1070
    71
1070
     0
1070
     3
1000
Ø<>
1070
   146
1040
1.0
1070
   140
1040
0.026
1070
   271
1070
     3
1070
    41
1040
0.026
1070
   342
1005
0
1070
   173
1070
     0
1070
   277
1070
     2
1070
    44
1040
0.0077365294117647
1002
}
  0
POLYLINE
  5
2F4
330
1F
100
AcDbEntity
  8
1
  6
Continuous
 62
     7
 48
0.0075766763254639
370
     0
100
AcDb2dPolyline
 66
     1
 10
0.0
 20
0.0
 30
0.0
  0
VERTEX
  5
2F5
330
2F4
100
AcDbEntity
  8
1
  6
Continuous
 62
     7
100
AcDbVertex
100
AcDb2dVertex
 10
2.09970975776181
 20
0.5301822571853839
 30
0.0
 40
0.003
 41
0.003
 42
0.9999999999999999
  0
VERTEX
  5
2F6
330
2F4
100
AcDbEntity
  8
1
  6
Continuous
 62
     7
100
AcDbVertex
100
AcDb2dVertex
 10
2.01870975776181
 20
0.5301822571853839
 30
0.0
 40
0.003
 41
0.003
 42
0.9999999999999999
  0
VERTEX
  5
2F7
330
2F4
100
AcDbEntity
  8
1
  6
Continuous
 62
     7
100
AcDbVertex
100
AcDb2dVertex
 10
2.09970975776181
 20
0.5301822571853839
 30
0.0
 40
0.003
 41
0.003
  0
SEQEND
  5
2F8
330
2F4
100
AcDbEntity
  8
1
  6
Continuous
 62
     7
 48
0.0075766763254639
370
     0
  0
POLYLINE
  5
2F9
330
1F
100
AcDbEntity
  8
1
  6
Continuous
 62
     7
 48
0.0075766763254639
370
     0
100
AcDb2dPolyline
 66
     1
 10
0.0
 20
0.0
 30
0.0
  0
VERTEX
  5
2FA
330
2F9
100
AcDbEntity
  8
1
  6
Continuous
 62
     7
100
AcDbVertex
100
AcDb2dVertex
 10
2.09970975776181
 20
-0.0308177428146162
 30
0.0
 40
0.003
 41
0.003
 42
0.9999999999999999
  0
VERTEX
  5
2FB
330
2F9
100
AcDbEntity
  8
1
  6
Continuous
 62
     7
100
AcDbVertex
100
AcDb2dVertex
 10
2.01870975776181
 20
-0.0308177428146162
 30
0.0
 40
0.003
 41
0.003
 42
0.9999999999999999
  0
VERTEX
  5
2FC
330
2F9
100
AcDbEntity
  8
1
  6
Continuous
 62
     7
100
AcDbVertex
100
AcDb2dVertex
 10
2.09970975776181
 20
-0.0308177428146162
 30
0.0
 40
0.003
 41
0.003
  0
SEQEND
  5
2FD
330
2F9
100
AcDbEntity
  8
1
  6
Continuous
 62
     7
 48
0.0075766763254639
370
     0
  0
HATCH
  5
2FE
330
1F
100
AcDbEntity
  8
1
  6
Continuous
 62
     7
 48
0.0018192703099865
370
     0
100
AcDbHatch
 10
0.0
 20
0.0
 30
0.0
210
0.0
220
0.0
230
1.0
  2
SOLID
 70
     1
 71
     0
 91
        1
 92
        3
 72
     0
 73
     1
 93
       42
 10
2.092672428121608
 20
0.5529967195369607
 10
2.095698996911858
 20
0.5477545486196451
 10
2.097910456396149
 20
0.5421198417490256
 10
2.099257406223928
 20
0.5362184689655188
 10
2.09970975776181
 20
0.5301822571853839
 10
2.099257406223928
 20
0.5241460454052488
 10
2.097910456396149
 20
0.5182446726217422
 10
2.095698996911858
 20
0.5126099657511225
 10
2.092672428121608
 20
0.5073677948338071
 10
2.088898358570918
 20
0.5026352613056615
 10
2.084461094737089
 20
0.4985180821454286
 10
2.07945975776181
 20
0.4951082283321139
 10
2.074006069248649
 20
0.4924818703652937
 10
2.068221855587041
 20
0.4906976767420199
 10
2.06223632655206
 20
0.489795503399546
 10
2.05618318897156
 20
0.489795503399546
 10
2.050197659936579
 20
0.4906976767420199
 10
2.044413446274971
 20
0.4924818703652937
 10
2.03895975776181
 20
0.4951082283321139
 10
2.033958420786531
 20
0.4985180821454286
 10
2.029521156952702
 20
0.5026352613056615
 10
2.025747087402012
 20
0.5073677948338071
 10
2.022720518611762
 20
0.5126099657511228
 10
2.020509059127471
 20
0.5182446726217422
 10
2.019162109299692
 20
0.5241460454052488
 10
2.01870975776181
 20
0.5301822571853839
 10
2.019162109299692
 20
0.5362184689655188
 10
2.020509059127471
 20
0.5421198417490256
 10
2.022720518611762
 20
0.5477545486196451
 10
2.025747087402012
 20
0.5529967195369607
 10
2.029521156952702
 20
0.5577292530651061
 10
2.033958420786531
 20
0.5618464322253393
 10
2.03895975776181
 20
0.5652562860386537
 10
2.044413446274971
 20
0.5678826440054742
 10
2.050197659936579
 20
0.5696668376287478
 10
2.05618318897156
 20
0.5705690109712216
 10
2.06223632655206
 20
0.5705690109712216
 10
2.068221855587041
 20
0.5696668376287478
 10
2.074006069248649
 20
0.5678826440054742
 10
2.07945975776181
 20
0.5652562860386537
 10
2.084461094737089
 20
0.5618464322253393
 10
2.088898358570918
 20
0.5577292530651061
 97
        0
 75
     0
 76
     1
 98
        1
 10
0.0
 20
0.0
  0
HATCH
  5
2FF
330
1F
100
AcDbEntity
  8
1
  6
Continuous
 62
     7
 48
0.0018192703099865
370
     0
100
AcDbHatch
 10
0.0
 20
0.0
 30
0.0
210
0.0
220
0.0
230
1.0
  2
SOLID
 70
     1
 71
     0
 91
        1
 92
        3
 72
     0
 73
     1
 93
       43
 10
2.095698996911858
 20
-0.0132454513803551
 10
2.097910456396149
 20
-0.0188801582509746
 10
2.099257406223928
 20
-0.024781531034481
 10
2.09970975776181
 20
-0.0308177428146162
 10
2.099257406223928
 20
-0.0368539545947513
 10
2.097910456396149
 20
-0.0427553273782579
 10
2.095698996911858
 20
-0.0483900342488774
 10
2.092672428121608
 20
-0.053632205166193
 10
2.088898358570918
 20
-0.0583647386943385
 10
2.084461094737089
 20
-0.0624819178545714
 10
2.07945975776181
 20
-0.065891771667886
 10
2.074006069248649
 20
-0.0685181296347065
 10
2.068221855587041
 20
-0.07030232325798
 10
2.06223632655206
 20
-0.071204496600454
 10
2.05618318897156
 20
-0.071204496600454
 10
2.050197659936579
 20
-0.07030232325798
 10
2.044413446274971
 20
-0.0685181296347065
 10
2.03895975776181
 20
-0.065891771667886
 10
2.033958420786531
 20
-0.0624819178545714
 10
2.029521156952702
 20
-0.0583647386943385
 10
2.025747087402012
 20
-0.0536322051661929
 10
2.022720518611762
 20
-0.0483900342488774
 10
2.020509059127471
 20
-0.0427553273782579
 10
2.019162109299692
 20
-0.0368539545947513
 10
2.01870975776181
 20
-0.0308177428146162
 10
2.019162109299692
 20
-0.0247815310344812
 10
2.020509059127471
 20
-0.0188801582509746
 10
2.022720518611762
 20
-0.0132454513803551
 10
2.025747087402012
 20
-0.0080032804630394
 10
2.029521156952702
 20
-0.0032707469348939
 10
2.033958420786531
 20
0.0008464322253391
 10
2.03895975776181
 20
0.0042562860386537
 10
2.044413446274971
 20
0.0068826440054742
 10
2.050197659936579
 20
0.0086668376287477
 10
2.05618318897156
 20
0.0095690109712217
 10
2.05920975776181
 20
0.0096822571853838
 10
2.06223632655206
 20
0.0095690109712217
 10
2.068221855587041
 20
0.0086668376287477
 10
2.074006069248649
 20
0.0068826440054742
 10
2.07945975776181
 20
0.0042562860386537
 10
2.084461094737089
 20
0.0008464322253391
 10
2.088898358570918
 20
-0.0032707469348938
 10
2.092672428121608
 20
-0.0080032804630394
 97
        0
 75
     0
 76
     1
 98
        1
 10
0.0
 20
0.0
  0
LINE
  5
300
330
1F
100
AcDbEntity
  8
1
  6
Continuous
 62
     7
 48
0.0005821664991957
370
     0
100
AcDbLine
 10
2.030631162831022
 20
-0.0593946736364779
 30
0.0
 11
1.949631162831022
 21
-0.1403946736364783
 31
0.0
  0
TEXT
  5
301
330
1F
100
AcDbEntity
  8
1
  6
DASHED
 62
     7
370
     0
100
AcDbText
 10
1.920063279738984
 20
-0.1729865567285123
 30
0.0
 40
0.0269999999999999
  1
2
  7
DC_TEXTSTYLE5
 72
     1
 11
1.930539279738984
 21
-0.1729865567285123
 31
0.0
100
AcDbText
  0
CIRCLE
  5
302
330
1F
100
AcDbEntity
  8
1
  6
Continuous
 62
     7
 48
0.0005821664991957
370
     0
100
AcDbCircle
 10
1.930539279738985
 20
-0.1594865567285151
 30
0.0
 40
0.0270000000000001
  0
LINE
  5
303
330
1F
100
AcDbEntity
  8
1
  6
CENTER
 62
    94
420
    43520
 48
0.075
370
     0
100
AcDbLine
 10
1.723709757761811
 20
0.2496822571853836
 30
0.0
 11
2.23070975776181
 21
0.2496822571853836
 31
0.0
  0
TEXT
  5
304
330
1F
100
AcDbEntity
  8
1
  6
DASHED
 62
     5
420
      255
370
     0
100
AcDbText
 10
1.98616621019759
 20
0.6777204546165893
 30
0.0
 40
0.0269999999999999
  1
(8.9mm)
  7
DC_TEXTSTYLE5
 72
     1
 11
2.056312210197589
 21
0.6777204546165893
 31
0.0
100
AcDbText
  0
TEXT
  5
305
330
1F
100
AcDbEntity
  8
1
  6
DASHED
 62
     5
420
      255
370
     0
100
AcDbText
 10
2.026587757758868
 20
0.7577571396757034
 30
0.0
 40
0.0270000000000001
  1
(11.6mm)
  7
DC_TEXTSTYLE5
 72
     1
 11
2.107209757758868
 21
0.7577571396757034
 31
0.0
100
AcDbText
  0
TEXT
  5
306
330
1F
100
AcDbEntity
  8
1
  6
DASHED
 62
     5
420
      255
370
     0
100
AcDbText
 10
2.352909757761871
 20
0.169060257185384
 30
0.0
 40
0.0269999999999999
  1
(17.3mm)
 50
90.0
  7
DC_TEXTSTYLE5
 72
     1
 11
2.352909757761871
 21
0.2496822571853836
 31
0.0
100
AcDbText
  0
CIRCLE
  5
307
330
1F
100
AcDbEntity
  8
1
  6
HIDDEN
 62
     7
 48
0.0888888888889006
370
     0
100
AcDbCircle
 10
1.145762389340758
 20
0.2496822571853831
 30
0.0
 40
0.2780843013959287
  0
CIRCLE
  5
308
330
1F
100
AcDbEntity
  8
1
  6
Continuous
 62
     7
 48
0.0005821664991957
370
     0
100
AcDbCircle
 10
1.145762389340758
 20
0.2496822571853831
 30
0.0
 40
0.1125000000000017
  0
TEXT
  5
309
330
1F
100
AcDbEntity
  8
1
  6
DASHED
 62
     5
420
      255
370
     0
100
AcDbText
 10
1.27397924876809
 20
-0.2572523412271175
 30
0.0
 40
0.027
  1
PART NET WEIGHT IS 4 GRAMS
  7
DC_TEXTSTYLE5
 72
     1
 11
1.56089474876809
 21
-0.2572523412271175
 31
0.0
100
AcDbText
  0
ENDSEC
  0
SECTION
  2
OBJECTS
  0
DICTIONARY
  5
C
330
0
100
AcDbDictionary
281
     1
  3
ACAD_DETAILVIEWSTYLE
350
34E
  3
ACAD_GROUP
350
D
  3
ACAD_IMAGE_VARS
350
99
  3
ACAD_LAYOUT
350
1A
  3
ACAD_MATERIAL
350
91
  3
ACAD_MLEADERSTYLE
350
97
  3
ACAD_MLINESTYLE
350
17
  3
ACAD_PLOTSETTINGS
350
19
  3
ACAD_PLOTSTYLENAME
350
E
  3
ACAD_SCALELIST
350
6F
  3
ACAD_SECTIONVIEWSTYLE
350
34F
  3
ACAD_TABLESTYLE
350
95
  3
ACAD_VISUALSTYLE
350
56
  3
ACDB_RECOMPOSE_DATA
350
34A
  3
AcDbVariableDictionary
350
4E
  0
DICTIONARY
  5
30A
330
8
100
AcDbDictionary
280
     1
281
     1
  3
ACAD_XREC_ROUNDTRIP
360
30B
  0
DICTIONARY
  5
34E
102
{ACAD_REACTORS
330
C
102
}
330
C
100
AcDbDictionary
281
     1
  0
DICTIONARY
  5
D
102
{ACAD_REACTORS
330
C
102
}
330
C
100
AcDbDictionary
281
     1
  0
RASTERVARIABLES
  5
99
102
{ACAD_REACTORS
330
C
102
}
330
C
100
AcDbRasterVariables
 90
        0
 70
     0
 71
     1
 72
     5
  0
DICTIONARY
  5
1A
102
{ACAD_REACTORS
330
C
102
}
330
C
100
AcDbDictionary
281
     1
  3
Layout1
350
1E
  3
Model
350
22
  0
DICTIONARY
  5
91
102
{ACAD_REACTORS
330
C
102
}
330
C
100
AcDbDictionary
281
     1
  3
ByBlock
350
93
  3
ByLayer
350
92
  3
Global
350
94
  0
DICTIONARY
  5
97
102
{ACAD_REACTORS
330
C
102
}
330
C
100
AcDbDictionary
281
     1
  3
Standard
350
98
  0
DICTIONARY
  5
17
102
{ACAD_REACTORS
330
C
102
}
330
C
100
AcDbDictionary
281
     1
  3
Standard
350
18
  0
DICTIONARY
  5
19
102
{ACAD_REACTORS
330
C
102
}
330
C
100
AcDbDictionary
281
     1
  0
ACDBDICTIONARYWDFLT
  5
E
102
{ACAD_REACTORS
330
C
102
}
330
C
100
AcDbDictionary
281
     1
  3
Normal
350
F
100
AcDbDictionaryWithDefault
340
F
  0
DICTIONARY
  5
6F
102
{ACAD_REACTORS
330
C
102
}
330
C
100
AcDbDictionary
281
     1
  3
A0
350
70
  3
A1
350
71
  3
A2
350
72
  3
A3
350
73
  3
A4
350
74
  3
A5
350
75
  3
A6
350
76
  3
A7
350
77
  3
A8
350
78
  3
A9
350
79
  3
B0
350
7A
  3
B1
350
7B
  3
B2
350
7C
  3
B3
350
7D
  3
B4
350
7E
  3
B5
350
7F
  3
B6
350
80
  3
B7
350
81
  3
B8
350
82
  3
B9
350
83
  3
C0
350
84
  3
C1
350
85
  3
C2
350
86
  3
C3
350
87
  3
C4
350
88
  3
C5
350
89
  3
C6
350
8A
  3
C7
350
8B
  3
C8
350
8C
  3
C9
350
8D
  3
D0
350
8E
  3
D1
350
8F
  3
D2
350
90
  0
DICTIONARY
  5
34F
102
{ACAD_REACTORS
330
C
102
}
330
C
100
AcDbDictionary
281
     1
  0
DICTIONARY
  5
95
102
{ACAD_REACTORS
330
C
102
}
330
C
100
AcDbDictionary
281
     1
  3
Standard
350
96
  0
DICTIONARY
  5
56
102
{ACAD_REACTORS
330
C
102
}
330
C
100
AcDbDictionary
281
     1
  3
2dWireframe
350
5B
  3
Basic
350
5E
  3
Brighten
350
62
  3
ColorChange
350
66
  3
Conceptual
350
60
  3
Dim
350
61
  3
EdgeColorOff
350
69
  3
Facepattern
350
65
  3
Flat
350
57
  3
FlatWithEdges
350
58
  3
Gouraud
350
59
  3
GouraudWithEdges
350
5A
  3
Hidden
350
5D
  3
JitterOff
350
67
  3
Linepattern
350
64
  3
OverhangOff
350
68
  3
Realistic
350
5F
  3
Shaded
350
6E
  3
Shaded with edges
350
6D
  3
Shades of Gray
350
6A
  3
Sketchy
350
6B
  3
Thicken
350
63
  3
Wireframe
350
5C
  3
X-Ray
350
6C
  0
XRECORD
  5
34A
102
{ACAD_REACTORS
330
C
102
}
330
C
100
AcDbXrecord
280
     1
 90
        1
330
96
  0
DICTIONARY
  5
4E
102
{ACAD_REACTORS
330
C
102
}
330
C
100
AcDbDictionary
281
     1
  3
CANNOSCALE
350
30C
  3
CMLEADERSTYLE
350
34C
  3
CTABLESTYLE
350
34B
  3
DIMASSOC
350
4F
  3
MSLTSCALE
350
34D
  3
XCLIPFRAME
350
30D
  0
XRECORD
  5
30B
102
{ACAD_REACTORS
330
30A
102
}
330
30A
100
AcDbXrecord
280
     1
102
VTR_0.000_0.000_1.000_1.000_VISUALSTYLE
340
5B
102
VTR_0.000_0.000_1.000_1.000_GRIDDISPLAY
 70
     3
102
VTR_0.000_0.000_1.000_1.000_GRIDMAJOR
 70
     5
102
VTR_0.000_0.000_1.000_1.000_DEFAULTLIGHTING
280
     1
102
VTR_0.000_0.000_1.000_1.000_DEFAULTLIGHTINGTYPE
 70
     1
102
VTR_0.000_0.000_1.000_1.000_BRIGHTNESS
141
0.0
102
VTR_0.000_0.000_1.000_1.000_CONTRAST
142
0.0
  0
LAYOUT
  5
1E
102
{ACAD_REACTORS
330
1A
102
}
330
1A
100
AcDbPlotSettings
  1

  2
HP DeskJet 720C v10.3
  4

  6

 40
0.0
 41
0.0
 42
0.0
 43
0.0
 44
0.0
 45
0.0
 46
0.0
 47
0.0
 48
0.0
 49
0.0
140
0.0
141
0.0
142
1.0
143
1.0
 70
   688
 72
     0
 73
     0
 74
     5
  7

 75
    16
 76
     0
 77
     2
 78
   300
147
1.0
148
0.0
149
0.0
100
AcDbLayout
  1
Layout1
 70
     1
 71
     1
 10
0.0
 20
0.0
 11
12.0
 21
9.0
 12
0.0
 22
0.0
 32
0.0
 14
1.000000000000000E+20
 24
1.000000000000000E+20
 34
1.000000000000000E+20
 15
-1.000000000000000E+20
 25
-1.000000000000000E+20
 35
-1.000000000000000E+20
146
0.0
 13
0.0
 23
0.0
 33
0.0
 16
1.0
 26
0.0
 36
0.0
 17
0.0
 27
1.0
 37
0.0
 76
     0
330
1B
  0
LAYOUT
  5
22
102
{ACAD_REACTORS
330
1A
102
}
330
1A
100
AcDbPlotSettings
  1

  2
None
  4
Custom Paper
  6

 40
0.5
 41
0.5
 42
0.5
 43
0.5
 44
296.9683333333333
 45
209.9733333333333
 46
0.2101666666665949
 47
0.0000000000000142
 48
0.0
 49
0.0
140
0.0
141
0.0
142
1.0
143
0.0112433531427827
 70
  5796
 72
     2
 73
     0
 74
     0
  7

 75
     0
 76
     0
 77
     2
 78
   300
147
88.94143831477179
148
1.661475267321566
149
1.174780492045551
100
AcDbLayout
  1
Model
 70
     1
 71
     0
 10
0.0
 20
0.0
 11
12.0
 21
9.0
 12
0.0
 22
0.0
 32
0.0
 14
0.0556978947504684
 24
-0.9043239491451145
 34
0.003
 15
3.076562017153319
 25
1.2316405818468
 35
-0.003
146
0.0
 13
0.0
 23
0.0
 33
0.0
 16
1.0
 26
0.0
 36
0.0
 17
0.0
 27
1.0
 37
0.0
 76
     0
330
1F
331
55
  0
MATERIAL
  5
93
102
{ACAD_REACTORS
330
91
102
}
102
{ACAD_XDICTIONARY
360
340
102
}
330
91
100
AcDbMaterial
  1
ByBlock
  0
MATERIAL
  5
92
102
{ACAD_REACTORS
330
91
102
}
102
{ACAD_XDICTIONARY
360
33E
102
}
330
91
100
AcDbMaterial
  1
ByLayer
  0
MATERIAL
  5
94
102
{ACAD_REACTORS
330
91
102
}
102
{ACAD_XDICTIONARY
360
342
102
}
330
91
100
AcDbMaterial
  1
Global
  0
MLEADERSTYLE
  5
98
102
{ACAD_REACTORS
330
97
102
}
102
{ACAD_XDICTIONARY
360
348
102
}
330
97
100
AcDbMLeaderStyle
170
     2
171
     1
172
     0
 90
        2
 40
0.0
 41
0.0
173
     1
 91
-1056964608
340
14
 92
       -2
290
     1
 42
0.09
291
     1
 43
0.36
  3
Standard
341
0
 44
0.18
300

342
11
174
     1
178
     6
175
     1
176
     0
 93
-1056964608
 45
0.18
292
     0
297
     0
 46
0.18
343
0
 94
-1056964608
 47
1.0
 49
1.0
140
1.0
293
     1
141
0.0
294
     1
177
     0
142
1.0
295
     0
296
     0
143
0.125
1001
ACAD_MLEADERVER
1070
     2
  0
MLINESTYLE
  5
18
102
{ACAD_REACTORS
330
17
102
}
330
17
100
AcDbMlineStyle
  2
STANDARD
 70
     0
  3

 62
   256
 51
90.0
 52
90.0
 71
     2
 49
0.5
 62
   256
  6
BYLAYER
 49
-0.5
 62
   256
  6
BYLAYER
  0
ACDBPLACEHOLDER
  5
F
102
{ACAD_REACTORS
330
E
102
}
330
E
  0
SCALE
  5
70
102
{ACAD_REACTORS
330
6F
102
}
330
6F
100
AcDbScale
 70
     0
300
1:1
140
1.0
141
1.0
290
     1
  0
SCALE
  5
71
102
{ACAD_REACTORS
330
6F
102
}
330
6F
100
AcDbScale
 70
     0
300
1:2
140
1.0
141
2.0
290
     0
  0
SCALE
  5
72
102
{ACAD_REACTORS
330
6F
102
}
330
6F
100
AcDbScale
 70
     0
300
1:4
140
1.0
141
4.0
290
     0
  0
SCALE
  5
73
102
{ACAD_REACTORS
330
6F
102
}
330
6F
100
AcDbScale
 70
     0
300
1:5
140
1.0
141
5.0
290
     0
  0
SCALE
  5
74
102
{ACAD_REACTORS
330
6F
102
}
330
6F
100
AcDbScale
 70
     0
300
1:8
140
1.0
141
8.0
290
     0
  0
SCALE
  5
75
102
{ACAD_REACTORS
330
6F
102
}
330
6F
100
AcDbScale
 70
     0
300
1:10
140
1.0
141
10.0
290
     0
  0
SCALE
  5
76
102
{ACAD_REACTORS
330
6F
102
}
330
6F
100
AcDbScale
 70
     0
300
1:16
140
1.0
141
16.0
290
     0
  0
SCALE
  5
77
102
{ACAD_REACTORS
330
6F
102
}
330
6F
100
AcDbScale
 70
     0
300
1:20
140
1.0
141
20.0
290
     0
  0
SCALE
  5
78
102
{ACAD_REACTORS
330
6F
102
}
330
6F
100
AcDbScale
 70
     0
300
1:30
140
1.0
141
30.0
290
     0
  0
SCALE
  5
79
102
{ACAD_REACTORS
330
6F
102
}
330
6F
100
AcDbScale
 70
     0
300
1:40
140
1.0
141
40.0
290
     0
  0
SCALE
  5
7A
102
{ACAD_REACTORS
330
6F
102
}
330
6F
100
AcDbScale
 70
     0
300
1:50
140
1.0
141
50.0
290
     0
  0
SCALE
  5
7B
102
{ACAD_REACTORS
330
6F
102
}
330
6F
100
AcDbScale
 70
     0
300
1:100
140
1.0
141
100.0
290
     0
  0
SCALE
  5
7C
102
{ACAD_REACTORS
330
6F
102
}
330
6F
100
AcDbScale
 70
     0
300
2:1
140
2.0
141
1.0
290
     0
  0
SCALE
  5
7D
102
{ACAD_REACTORS
330
6F
102
}
330
6F
100
AcDbScale
 70
     0
300
4:1
140
4.0
141
1.0
290
     0
  0
SCALE
  5
7E
102
{ACAD_REACTORS
330
6F
102
}
330
6F
100
AcDbScale
 70
     0
300
8:1
140
8.0
141
1.0
290
     0
  0
SCALE
  5
7F
102
{ACAD_REACTORS
330
6F
102
}
330
6F
100
AcDbScale
 70
     0
300
10:1
140
10.0
141
1.0
290
     0
  0
SCALE
  5
80
102
{ACAD_REACTORS
330
6F
102
}
330
6F
100
AcDbScale
 70
     0
300
100:1
140
100.0
141
1.0
290
     0
  0
SCALE
  5
81
102
{ACAD_REACTORS
330
6F
102
}
330
6F
100
AcDbScale
 70
     0
300
1/128" = 1'-0"
140
0.0078125
141
12.0
290
     0
  0
SCALE
  5
82
102
{ACAD_REACTORS
330
6F
102
}
330
6F
100
AcDbScale
 70
     0
300
1/64" = 1'-0"
140
0.015625
141
12.0
290
     0
  0
SCALE
  5
83
102
{ACAD_REACTORS
330
6F
102
}
330
6F
100
AcDbScale
 70
     0
300
1/32" = 1'-0"
140
0.03125
141
12.0
290
     0
  0
SCALE
  5
84
102
{ACAD_REACTORS
330
6F
102
}
330
6F
100
AcDbScale
 70
     0
300
1/16" = 1'-0"
140
0.0625
141
12.0
290
     0
  0
SCALE
  5
85
102
{ACAD_REACTORS
330
6F
102
}
330
6F
100
AcDbScale
 70
     0
300
3/32" = 1'-0"
140
0.09375
141
12.0
290
     0
  0
SCALE
  5
86
102
{ACAD_REACTORS
330
6F
102
}
330
6F
100
AcDbScale
 70
     0
300
1/8" = 1'-0"
140
0.125
141
12.0
290
     0
  0
SCALE
  5
87
102
{ACAD_REACTORS
330
6F
102
}
330
6F
100
AcDbScale
 70
     0
300
3/16" = 1'-0"
140
0.1875
141
12.0
290
     0
  0
SCALE
  5
88
102
{ACAD_REACTORS
330
6F
102
}
330
6F
100
AcDbScale
 70
     0
300
1/4" = 1'-0"
140
0.25
141
12.0
290
     0
  0
SCALE
  5
89
102
{ACAD_REACTORS
330
6F
102
}
330
6F
100
AcDbScale
 70
     0
300
3/8" = 1'-0"
140
0.375
141
12.0
290
     0
  0
SCALE
  5
8A
102
{ACAD_REACTORS
330
6F
102
}
330
6F
100
AcDbScale
 70
     0
300
1/2" = 1'-0"
140
0.5
141
12.0
290
     0
  0
SCALE
  5
8B
102
{ACAD_REACTORS
330
6F
102
}
330
6F
100
AcDbScale
 70
     0
300
3/4" = 1'-0"
140
0.75
141
12.0
290
     0
  0
SCALE
  5
8C
102
{ACAD_REACTORS
330
6F
102
}
330
6F
100
AcDbScale
 70
     0
300
1" = 1'-0"
140
1.0
141
12.0
290
     0
  0
SCALE
  5
8D
102
{ACAD_REACTORS
330
6F
102
}
330
6F
100
AcDbScale
 70
     0
300
1-1/2" = 1'-0"
140
1.5
141
12.0
290
     0
  0
SCALE
  5
8E
102
{ACAD_REACTORS
330
6F
102
}
330
6F
100
AcDbScale
 70
     0
300
3" = 1'-0"
140
3.0
141
12.0
290
     0
  0
SCALE
  5
8F
102
{ACAD_REACTORS
330
6F
102
}
330
6F
100
AcDbScale
 70
     0
300
6" = 1'-0"
140
6.0
141
12.0
290
     0
  0
SCALE
  5
90
102
{ACAD_REACTORS
330
6F
102
}
330
6F
100
AcDbScale
 70
     0
300
1'-0" = 1'-0"
140
12.0
141
12.0
290
     0
  0
TABLESTYLE
  5
96
102
{ACAD_REACTORS
330
95
102
}
102
{ACAD_XDICTIONARY
360
344
102
}
330
95
100
AcDbTableStyle
  3
Standard
 70
     0
 71
     0
 40
0.06
 41
0.06
280
     0
281
     0
  7
Standard
140
0.18
170
     2
 62
     0
 63
   257
283
     0
274
    -2
284
     1
 64
     0
275
    -2
285
     1
 65
     0
276
    -2
286
     1
 66
     0
277
    -2
287
     1
 67
     0
278
    -2
288
     1
 68
     0
279
    -2
289
     1
 69
     0
  7
Standard
140
0.25
170
     5
 62
     0
 63
   257
283
     0
274
    -2
284
     1
 64
     0
275
    -2
285
     1
 65
     0
276
    -2
286
     1
 66
     0
277
    -2
287
     1
 67
     0
278
    -2
288
     1
 68
     0
279
    -2
289
     1
 69
     0
  7
Standard
140
0.18
170
     5
 62
     0
 63
   257
283
     0
274
    -2
284
     1
 64
     0
275
    -2
285
     1
 65
     0
276
    -2
286
     1
 66
     0
277
    -2
287
     1
 67
     0
278
    -2
288
     1
 68
     0
279
    -2
289
     1
 69
     0
  0
VISUALSTYLE
  5
5B
102
{ACAD_REACTORS
330
56
102
}
102
{ACAD_XDICTIONARY
360
316
102
}
330
56
100
AcDbVisualStyle
  2
2dWireframe
 70
     4
 71
     0
 72
     2
 73
     0
 90
        0
 40
0.6
 41
30.0
 62
     5
 63
     7
421
 16777215
 74
     1
 91
        4
 64
     7
 65
   257
 75
     1
175
     1
 42
1.0
 92
        0
 66
   257
 43
1.0
 76
     1
 77
     6
 78
     2
 67
     7
 79
     5
170
     0
171
     0
290
     0
174
     0
 93
        1
 44
0.0
173
     0
291
     0
 45
0.0
1001
ACAD
1000
AcDbSavedByObjectVersion
1070
     0
  0
VISUALSTYLE
  5
5E
102
{ACAD_REACTORS
330
56
102
}
102
{ACAD_XDICTIONARY
360
31C
102
}
330
56
100
AcDbVisualStyle
  2
Basic
 70
     7
 71
     1
 72
     0
 73
     1
 90
        0
 40
0.6
 41
30.0
 62
     5
 63
     7
421
 16777215
 74
     0
 91
        4
 64
     7
 65
   257
 75
     1
175
     1
 42
1.0
 92
        8
 66
     7
 43
1.0
 76
     1
 77
     6
 78
     2
 67
     7
 79
     5
170
     0
171
     0
290
     0
174
     0
 93
        1
 44
0.0
173
     0
291
     1
 45
0.0
1001
ACAD
1000
AcDbSavedByObjectVersion
1070
     0
  0
VISUALSTYLE
  5
62
102
{ACAD_REACTORS
330
56
102
}
102
{ACAD_XDICTIONARY
360
324
102
}
330
56
100
AcDbVisualStyle
  2
Brighten
 70
    12
 71
     2
 72
     2
 73
     0
 90
        0
 40
0.6
 41
30.0
 62
     5
 63
     7
421
 16777215
 74
     1
 91
        4
 64
     7
 65
   257
 75
     1
175
     1
 42
1.0
 92
        8
 66
     7
 43
1.0
 76
     1
 77
     6
 78
     2
 67
     7
 79
     5
170
     0
171
     0
290
     0
174
     0
 93
        1
 44
50.0
173
     0
291
     1
 45
0.0
1001
ACAD
1000
AcDbSavedByObjectVersion
1070
     0
  0
VISUALSTYLE
  5
66
102
{ACAD_REACTORS
330
56
102
}
102
{ACAD_XDICTIONARY
360
32C
102
}
330
56
100
AcDbVisualStyle
  2
ColorChange
 70
    16
 71
     2
 72
     2
 73
     3
 90
        0
 40
0.6
 41
30.0
 62
     5
 63
     8
421
  8421504
 74
     1
 91
        4
 64
     7
 65
   257
 75
     1
175
     1
 42
1.0
 92
        8
 66
     8
424
  8421504
 43
1.0
 76
     1
 77
     6
 78
     2
 67
     7
 79
     5
170
     0
171
     0
290
     0
174
     0
 93
        1
 44
0.0
173
     0
291
     1
 45
0.0
1001
ACAD
1000
AcDbSavedByObjectVersion
1070
     0
  0
VISUALSTYLE
  5
60
102
{ACAD_REACTORS
330
56
102
}
102
{ACAD_XDICTIONARY
360
320
102
}
330
56
100
AcDbVisualStyle
  2
Conceptual
 70
     9
 71
     3
 72
     2
 73
     0
 90
        0
 40
0.6
 41
30.0
 62
     5
 63
     7
421
 16777215
 74
     2
 91
        2
 64
     7
 65
   257
 75
     1
175
     1
 42
179.0
 92
        8
 66
     7
 43
1.0
 76
     1
 77
     6
 78
     2
 67
     7
 79
     3
170
     0
171
     0
290
     0
174
     0
 93
        1
 44
0.0
173
     0
291
     0
 45
0.0
1001
ACAD
1000
AcDbSavedByObjectVersion
1070
     0
  0
VISUALSTYLE
  5
61
102
{ACAD_REACTORS
330
56
102
}
102
{ACAD_XDICTIONARY
360
322
102
}
330
56
100
AcDbVisualStyle
  2
Dim
 70
    11
 71
     2
 72
     2
 73
     0
 90
        0
 40
0.6
 41
30.0
 62
     5
 63
     7
421
 16777215
 74
     1
 91
        4
 64
     7
 65
   257
 75
     1
175
     1
 42
1.0
 92
        8
 66
     7
 43
1.0
 76
     1
 77
     6
 78
     2
 67
     7
 79
     5
170
     0
171
     0
290
     0
174
     0
 93
        1
 44
-50.0
173
     0
291
     1
 45
0.0
1001
ACAD
1000
AcDbSavedByObjectVersion
1070
     0
  0
VISUALSTYLE
  5
69
102
{ACAD_REACTORS
330
56
102
}
102
{ACAD_XDICTIONARY
360
332
102
}
330
56
100
AcDbVisualStyle
  2
EdgeColorOff
 70
    22
 71
     2
 72
     2
 73
     0
 90
        0
 40
0.6
 41
30.0
 62
     5
 63
     7
421
 16777215
 74
     1
 91
        4
 64
     7
 65
   257
 75
     1
175
     1
 42
1.0
 92
        8
 66
     7
 43
1.0
 76
     1
 77
     6
 78
     2
 67
     7
 79
     5
170
     0
171
     0
290
     0
174
     0
 93
        1
 44
0.0
173
     0
291
     1
 45
0.0
1001
ACAD
1000
AcDbSavedByObjectVersion
1070
     0
  0
VISUALSTYLE
  5
65
102
{ACAD_REACTORS
330
56
102
}
102
{ACAD_XDICTIONARY
360
32A
102
}
330
56
100
AcDbVisualStyle
  2
Facepattern
 70
    15
 71
     2
 72
     2
 73
     0
 90
        0
 40
0.6
 41
30.0
 62
     5
 63
     7
421
 16777215
 74
     1
 91
        4
 64
     7
 65
   257
 75
     1
175
     1
 42
1.0
 92
        8
 66
     7
 43
1.0
 76
     1
 77
     6
 78
     2
 67
     7
 79
     5
170
     0
171
     0
290
     0
174
     0
 93
        1
 44
0.0
173
     0
291
     1
 45
0.0
1001
ACAD
1000
AcDbSavedByObjectVersion
1070
     0
  0
VISUALSTYLE
  5
57
102
{ACAD_REACTORS
330
56
102
}
102
{ACAD_XDICTIONARY
360
30E
102
}
330
56
100
AcDbVisualStyle
  2
Flat
 70
     0
 71
     2
 72
     1
 73
     1
 90
        2
 40
0.6
 41
30.0
 62
     5
 63
     7
421
 16777215
 74
     0
 91
        0
 64
     7
 65
   257
 75
     1
175
     1
 42
1.0
 92
        8
 66
     7
 43
1.0
 76
     1
 77
     6
 78
     2
 67
     7
 79
     5
170
     0
171
     0
290
     0
174
     0
 93
       13
 44
0.0
173
     0
291
     1
 45
0.0
1001
ACAD
1000
AcDbSavedByObjectVersion
1070
     0
  0
VISUALSTYLE
  5
58
102
{ACAD_REACTORS
330
56
102
}
102
{ACAD_XDICTIONARY
360
310
102
}
330
56
100
AcDbVisualStyle
  2
FlatWithEdges
 70
     1
 71
     2
 72
     1
 73
     1
 90
        2
 40
0.6
 41
30.0
 62
     5
 63
     7
421
 16777215
 74
     1
 91
        0
 64
     7
 65
   257
 75
     1
175
     1
 42
1.0
 92
        0
 66
   257
 43
1.0
 76
     1
 77
     6
 78
     2
 67
     7
 79
     5
170
     0
171
     0
290
     0
174
     0
 93
       13
 44
0.0
173
     0
291
     1
 45
0.0
1001
ACAD
1000
AcDbSavedByObjectVersion
1070
     0
  0
VISUALSTYLE
  5
59
102
{ACAD_REACTORS
330
56
102
}
102
{ACAD_XDICTIONARY
360
312
102
}
330
56
100
AcDbVisualStyle
  2
Gouraud
 70
     2
 71
     2
 72
     2
 73
     1
 90
        2
 40
0.6
 41
30.0
 62
     5
 63
     7
421
 16777215
 74
     0
 91
        0
 64
     7
 65
   257
 75
     1
175
     1
 42
1.0
 92
        0
 66
     7
 43
1.0
 76
     1
 77
     6
 78
     2
 67
     7
 79
     5
170
     0
171
     0
290
     0
174
     0
 93
       13
 44
0.0
173
     0
291
     1
 45
0.0
1001
ACAD
1000
AcDbSavedByObjectVersion
1070
     0
  0
VISUALSTYLE
  5
5A
102
{ACAD_REACTORS
330
56
102
}
102
{ACAD_XDICTIONARY
360
314
102
}
330
56
100
AcDbVisualStyle
  2
GouraudWithEdges
 70
     3
 71
     2
 72
     2
 73
     1
 90
        2
 40
0.6
 41
30.0
 62
     5
 63
     7
421
 16777215
 74
     1
 91
        0
 64
     7
 65
   257
 75
     1
175
     1
 42
1.0
 92
        0
 66
   257
 43
1.0
 76
     1
 77
     6
 78
     2
 67
     7
 79
     5
170
     0
171
     0
290
     0
174
     0
 93
       13
 44
0.0
173
     0
291
     1
 45
0.0
1001
ACAD
1000
AcDbSavedByObjectVersion
1070
     0
  0
VISUALSTYLE
  5
5D
102
{ACAD_REACTORS
330
56
102
}
102
{ACAD_XDICTIONARY
360
31A
102
}
330
56
100
AcDbVisualStyle
  2
Hidden
 70
     6
 71
     1
 72
     2
 73
     2
 90
        0
 40
0.6
 41
30.0
 62
     5
 63
     7
421
 16777215
 74
     2
 91
        2
 64
     7
 65
   257
 75
     2
175
     1
 42
40.0
 92
        0
 66
   257
 43
1.0
 76
     1
 77
     6
 78
     2
 67
     7
 79
     3
170
     0
171
     0
290
     0
174
     0
 93
        1
 44
0.0
173
     0
291
     0
 45
0.0
1001
ACAD
1000
AcDbSavedByObjectVersion
1070
     0
  0
VISUALSTYLE
  5
67
102
{ACAD_REACTORS
330
56
102
}
102
{ACAD_XDICTIONARY
360
32E
102
}
330
56
100
AcDbVisualStyle
  2
JitterOff
 70
    20
 71
     2
 72
     2
 73
     0
 90
        0
 40
0.6
 41
30.0
 62
     5
 63
     7
421
 16777215
 74
     1
 91
        4
 64
     7
 65
   257
 75
     1
175
     1
 42
1.0
 92
       10
 66
     7
 43
1.0
 76
     1
 77
     6
 78
     2
 67
     7
 79
     5
170
     0
171
     0
290
     0
174
     0
 93
        1
 44
0.0
173
     0
291
     1
 45
0.0
1001
ACAD
1000
AcDbSavedByObjectVersion
1070
     0
  0
VISUALSTYLE
  5
64
102
{ACAD_REACTORS
330
56
102
}
102
{ACAD_XDICTIONARY
360
328
102
}
330
56
100
AcDbVisualStyle
  2
Linepattern
 70
    14
 71
     2
 72
     2
 73
     0
 90
        0
 40
0.6
 41
30.0
 62
     5
 63
     7
421
 16777215
 74
     1
 91
        4
 64
     7
 65
   257
 75
     7
175
     7
 42
1.0
 92
        8
 66
     7
 43
1.0
 76
     1
 77
     6
 78
     2
 67
     7
 79
     5
170
     0
171
     0
290
     0
174
     0
 93
        1
 44
0.0
173
     0
291
     1
 45
0.0
1001
ACAD
1000
AcDbSavedByObjectVersion
1070
     0
  0
VISUALSTYLE
  5
68
102
{ACAD_REACTORS
330
56
102
}
102
{ACAD_XDICTIONARY
360
330
102
}
330
56
100
AcDbVisualStyle
  2
OverhangOff
 70
    21
 71
     2
 72
     2
 73
     0
 90
        0
 40
0.6
 41
30.0
 62
     5
 63
     7
421
 16777215
 74
     1
 91
        4
 64
     7
 65
   257
 75
     1
175
     1
 42
1.0
 92
        9
 66
     7
 43
1.0
 76
     1
 77
     6
 78
     2
 67
     7
 79
     5
170
     0
171
     0
290
     0
174
     0
 93
        1
 44
0.0
173
     0
291
     1
 45
0.0
1001
ACAD
1000
AcDbSavedByObjectVersion
1070
     0
  0
VISUALSTYLE
  5
5F
102
{ACAD_REACTORS
330
56
102
}
102
{ACAD_XDICTIONARY
360
31E
102
}
330
56
100
AcDbVisualStyle
  2
Realistic
 70
     8
 71
     2
 72
     3
 73
     0
 90
        2
 40
0.6
 41
30.0
 62
     5
 63
     7
421
 16777215
 74
     0
 91
        0
 64
     7
 65
   257
 75
     1
175
     1
 42
1.0
 92
        8
 66
   257
 43
1.0
 76
     1
 77
     6
 78
     2
 67
     7
 79
     3
170
     0
171
     0
290
     0
174
     0
 93
       13
 44
0.0
173
     0
291
     0
 45
0.0
1001
ACAD
1000
AcDbSavedByObjectVersion
1070
     0
  0
VISUALSTYLE
  5
6E
102
{ACAD_REACTORS
330
56
102
}
102
{ACAD_XDICTIONARY
360
33C
102
}
330
56
100
AcDbVisualStyle
  2
Shaded
 70
    27
 71
     2
 72
     2
 73
     1
 90
        2
 40
0.6
 41
30.0
 62
     5
 63
     7
421
 16777215
 74
     0
 91
        4
 64
     7
 65
   257
 75
     1
175
     1
 42
1.0
 92
        8
 66
   257
 43
1.0
 76
     1
 77
     6
 78
     2
 67
     8
425
  7895160
 79
     3
170
     0
171
     0
290
     0
174
     0
 93
        5
 44
0.0
173
     0
291
     0
 45
0.0
1001
ACAD
1000
AcDbSavedByObjectVersion
1070
     0
  0
VISUALSTYLE
  5
6D
102
{ACAD_REACTORS
330
56
102
}
102
{ACAD_XDICTIONARY
360
33A
102
}
330
56
100
AcDbVisualStyle
  2
Shaded with edges
 70
    26
 71
     2
 72
     2
 73
     1
 90
        2
 40
0.6
 41
30.0
 62
     5
 63
     7
421
 16777215
 74
     1
 91
       10
 64
     7
 65
   257
 75
     2
175
     1
 42
1.0
 92
        8
 66
   257
 43
1.0
 76
     1
 77
     6
 78
     2
 67
     7
 79
     3
170
     0
171
     0
290
     0
174
     0
 93
        5
 44
0.0
173
     0
291
     0
 45
0.0
1001
ACAD
1000
AcDbSavedByObjectVersion
1070
     0
  0
VISUALSTYLE
  5
6A
102
{ACAD_REACTORS
330
56
102
}
102
{ACAD_XDICTIONARY
360
334
102
}
330
56
100
AcDbVisualStyle
  2
Shades of Gray
 70
    23
 71
     2
 72
     2
 73
     3
 90
        0
 40
0.6
 41
30.0
 62
     5
 63
     7
421
 16777215
 74
     2
 91
        2
 64
     7
 65
     7
 75
     1
175
     1
 42
40.0
 92
        8
 66
     7
 43
1.0
 76
     1
 77
     6
 78
     2
 67
     7
 79
     3
170
     0
171
     0
290
     0
174
     0
 93
        1
 44
0.0
173
     0
291
     0
 45
0.0
1001
ACAD
1000
AcDbSavedByObjectVersion
1070
     0
  0
VISUALSTYLE
  5
6B
102
{ACAD_REACTORS
330
56
102
}
102
{ACAD_XDICTIONARY
360
336
102
}
330
56
100
AcDbVisualStyle
  2
Sketchy
 70
    24
 71
     1
 72
     2
 73
     2
 90
        0
 40
0.6
 41
30.0
 62
     5
 63
     7
421
 16777215
 74
     2
 91
        2
 64
     7
 65
     7
 75
     1
175
     1
 42
40.0
 92
       11
 66
     7
 43
1.0
 76
     1
 77
     6
 78
     2
 67
     7
 79
     6
170
     0
171
     0
290
     0
174
     0
 93
        1
 44
0.0
173
     0
291
     0
 45
0.0
1001
ACAD
1000
AcDbSavedByObjectVersion
1070
     0
  0
VISUALSTYLE
  5
63
102
{ACAD_REACTORS
330
56
102
}
102
{ACAD_XDICTIONARY
360
326
102
}
330
56
100
AcDbVisualStyle
  2
Thicken
 70
    13
 71
     2
 72
     2
 73
     0
 90
        0
 40
0.6
 41
30.0
 62
     5
 63
     7
421
 16777215
 74
     1
 91
        4
 64
     7
 65
   257
 75
     1
175
     1
 42
1.0
 92
       12
 66
     7
 43
1.0
 76
     1
 77
     6
 78
     2
 67
     7
 79
     5
170
     0
171
     0
290
     0
174
     0
 93
        1
 44
0.0
173
     0
291
     1
 45
0.0
1001
ACAD
1000
AcDbSavedByObjectVersion
1070
     0
  0
VISUALSTYLE
  5
5C
102
{ACAD_REACTORS
330
56
102
}
102
{ACAD_XDICTIONARY
360
318
102
}
330
56
100
AcDbVisualStyle
  2
Wireframe
 70
     5
 71
     0
 72
     2
 73
     0
 90
        0
 40
0.6
 41
30.0
 62
     5
 63
     7
421
 16777215
 74
     1
 91
        4
 64
     7
 65
   257
 75
     1
175
     1
 42
1.0
 92
        0
 66
   257
 43
1.0
 76
     1
 77
     6
 78
     2
 67
     7
 79
     3
170
     0
171
     0
290
     0
174
     0
 93
        1
 44
0.0
173
     0
291
     0
 45
0.0
1001
ACAD
1000
AcDbSavedByObjectVersion
1070
     0
  0
VISUALSTYLE
  5
6C
102
{ACAD_REACTORS
330
56
102
}
102
{ACAD_XDICTIONARY
360
338
102
}
330
56
100
AcDbVisualStyle
  2
X-Ray
 70
    25
 71
     2
 72
     2
 73
     1
 90
        1
 40
0.5
 41
30.0
 62
     5
 63
     7
421
 16777215
 74
     1
 91
        0
 64
     7
 65
   257
 75
     1
175
     1
 42
1.0
 92
        8
 66
     7
 43
1.0
 76
     1
 77
     6
 78
     2
 67
     7
 79
     3
170
     0
171
     0
290
     0
174
     0
 93
       13
 44
0.0
173
     0
291
     0
 45
0.0
1001
ACAD
1000
AcDbSavedByObjectVersion
1070
     0
  0
DICTIONARYVAR
  5
30C
102
{ACAD_REACTORS
330
4E
102
}
330
4E
100
DictionaryVariables
280
     0
  1
1:1
  0
DICTIONARYVAR
  5
34C
102
{ACAD_REACTORS
330
4E
102
}
330
4E
100
DictionaryVariables
280
     0
  1
Standard
  0
DICTIONARYVAR
  5
34B
102
{ACAD_REACTORS
330
4E
102
}
330
4E
100
DictionaryVariables
280
     0
  1
Standard
  0
DICTIONARYVAR
  5
4F
102
{ACAD_REACTORS
330
4E
102
}
330
4E
100
DictionaryVariables
280
     0
  1
1
  0
DICTIONARYVAR
  5
34D
102
{ACAD_REACTORS
330
4E
102
}
330
4E
100
DictionaryVariables
280
     0
  1
0
  0
DICTIONARYVAR
  5
30D
102
{ACAD_REACTORS
330
4E
102
}
330
4E
100
DictionaryVariables
280
     0
  1
2
  0
DICTIONARY
  5
340
330
93
100
AcDbDictionary
280
     1
281
     1
  3
ACAD_XREC_ROUNDTRIP
360
341
  0
DICTIONARY
  5
33E
330
92
100
AcDbDictionary
280
     1
281
     1
  3
ACAD_XREC_ROUNDTRIP
360
33F
  0
DICTIONARY
  5
342
330
94
100
AcDbDictionary
280
     1
281
     1
  3
ACAD_XREC_ROUNDTRIP
360
343
  0
DICTIONARY
  5
348
330
98
100
AcDbDictionary
280
     1
281
     1
  3
ACAD_XREC_ROUNDTRIP
360
349
  0
DICTIONARY
  5
344
330
96
100
AcDbDictionary
280
     1
281
     1
  3
ACAD_ROUNDTRIP_2008_TABLESTYLE_CELLSTYLEMAP
360
346
  3
ACAD_XREC_ROUNDTRIP
360
345
  0
DICTIONARY
  5
316
330
5B
100
AcDbDictionary
280
     1
281
     1
  3
ACAD_XREC_ROUNDTRIP
360
317
  0
DICTIONARY
  5
31C
330
5E
100
AcDbDictionary
280
     1
281
     1
  3
ACAD_XREC_ROUNDTRIP
360
31D
  0
DICTIONARY
  5
324
330
62
100
AcDbDictionary
280
     1
281
     1
  3
ACAD_XREC_ROUNDTRIP
360
325
  0
DICTIONARY
  5
32C
330
66
100
AcDbDictionary
280
     1
281
     1
  3
ACAD_XREC_ROUNDTRIP
360
32D
  0
DICTIONARY
  5
320
330
60
100
AcDbDictionary
280
     1
281
     1
  3
ACAD_XREC_ROUNDTRIP
360
321
  0
DICTIONARY
  5
322
330
61
100
AcDbDictionary
280
     1
281
     1
  3
ACAD_XREC_ROUNDTRIP
360
323
  0
DICTIONARY
  5
332
330
69
100
AcDbDictionary
280
     1
281
     1
  3
ACAD_XREC_ROUNDTRIP
360
333
  0
DICTIONARY
  5
32A
330
65
100
AcDbDictionary
280
     1
281
     1
  3
ACAD_XREC_ROUNDTRIP
360
32B
  0
DICTIONARY
  5
30E
330
57
100
AcDbDictionary
280
     1
281
     1
  3
ACAD_XREC_ROUNDTRIP
360
30F
  0
DICTIONARY
  5
310
330
58
100
AcDbDictionary
280
     1
281
     1
  3
ACAD_XREC_ROUNDTRIP
360
311
  0
DICTIONARY
  5
312
330
59
100
AcDbDictionary
280
     1
281
     1
  3
ACAD_XREC_ROUNDTRIP
360
313
  0
DICTIONARY
  5
314
330
5A
100
AcDbDictionary
280
     1
281
     1
  3
ACAD_XREC_ROUNDTRIP
360
315
  0
DICTIONARY
  5
31A
330
5D
100
AcDbDictionary
280
     1
281
     1
  3
ACAD_XREC_ROUNDTRIP
360
31B
  0
DICTIONARY
  5
32E
330
67
100
AcDbDictionary
280
     1
281
     1
  3
ACAD_XREC_ROUNDTRIP
360
32F
  0
DICTIONARY
  5
328
330
64
100
AcDbDictionary
280
     1
281
     1
  3
ACAD_XREC_ROUNDTRIP
360
329
  0
DICTIONARY
  5
330
330
68
100
AcDbDictionary
280
     1
281
     1
  3
ACAD_XREC_ROUNDTRIP
360
331
  0
DICTIONARY
  5
31E
330
5F
100
AcDbDictionary
280
     1
281
     1
  3
ACAD_XREC_ROUNDTRIP
360
31F
  0
DICTIONARY
  5
33C
330
6E
100
AcDbDictionary
280
     1
281
     1
  3
ACAD_XREC_ROUNDTRIP
360
33D
  0
DICTIONARY
  5
33A
330
6D
100
AcDbDictionary
280
     1
281
     1
  3
ACAD_XREC_ROUNDTRIP
360
33B
  0
DICTIONARY
  5
334
330
6A
100
AcDbDictionary
280
     1
281
     1
  3
ACAD_XREC_ROUNDTRIP
360
335
  0
DICTIONARY
  5
336
330
6B
100
AcDbDictionary
280
     1
281
     1
  3
ACAD_XREC_ROUNDTRIP
360
337
  0
DICTIONARY
  5
326
330
63
100
AcDbDictionary
280
     1
281
     1
  3
ACAD_XREC_ROUNDTRIP
360
327
  0
DICTIONARY
  5
318
330
5C
100
AcDbDictionary
280
     1
281
     1
  3
ACAD_XREC_ROUNDTRIP
360
319
  0
DICTIONARY
  5
338
330
6C
100
AcDbDictionary
280
     1
281
     1
  3
ACAD_XREC_ROUNDTRIP
360
339
  0
XRECORD
  5
341
102
{ACAD_REACTORS
330
340
102
}
330
340
100
AcDbXrecord
280
     1
102
MATERIAL
148
0.0
149
0.0
149
0.0
 93
        0
 94
      127
282
     0
 72
     1
 77
     1
171
     1
175
     1
179
     1
273
     0
  0
XRECORD
  5
33F
102
{ACAD_REACTORS
330
33E
102
}
330
33E
100
AcDbXrecord
280
     1
102
MATERIAL
148
0.0
149
0.0
149
0.0
 93
        0
 94
      127
282
     0
 72
     1
 77
     1
171
     1
175
     1
179
     1
273
     0
  0
XRECORD
  5
343
102
{ACAD_REACTORS
330
342
102
}
330
342
100
AcDbXrecord
280
     1
102
MATERIAL
148
0.0
149
0.0
149
0.0
 93
        0
 94
      127
282
     0
 72
     1
 77
     1
171
     1
175
     1
179
     1
273
     0
  0
XRECORD
  5
349
102
{ACAD_REACTORS
330
348
102
}
330
348
100
AcDbXrecord
280
     1
102
ACAD_ROUNDTRIP_2010_MLEADER_STYLE
  0
CELLSTYLEMAP
  5
346
102
{ACAD_REACTORS
330
344
102
}
330
344
100
AcDbCellStyleMap
 90
        3
300
CELLSTYLE
  1
TABLEFORMAT_BEGIN
 90
        5
170
     1
 91
        0
 92
    32768
 62
   257
 93
        1
300
CONTENTFORMAT
  1
CONTENTFORMAT_BEGIN
 90
        0
 91
        0
 92
        4
 93
        0
300

 40
0.0
140
1.0
 94
        5
 62
     0
340
11
144
0.25
309
CONTENTFORMAT_END
171
     1
301
MARGIN
  1
CELLMARGIN_BEGIN
 40
0.06
 40
0.06
 40
0.06
 40
0.06
 40
0.06
 40
0.06
309
CELLMARGIN_END
 94
        6
 95
        1
302
GRIDFORMAT
  1
GRIDFORMAT_BEGIN
 90
        0
 91
        1
 62
     0
 92
       -2
340
14
 93
        0
 40
0.045
309
GRIDFORMAT_END
 95
        2
302
GRIDFORMAT
  1
GRIDFORMAT_BEGIN
 90
        0
 91
        1
 62
     0
 92
       -2
340
14
 93
        0
 40
0.045
309
GRIDFORMAT_END
 95
        4
302
GRIDFORMAT
  1
GRIDFORMAT_BEGIN
 90
        0
 91
        1
 62
     0
 92
       -2
340
14
 93
        0
 40
0.045
309
GRIDFORMAT_END
 95
        8
302
GRIDFORMAT
  1
GRIDFORMAT_BEGIN
 90
        0
 91
        1
 62
     0
 92
       -2
340
14
 93
        0
 40
0.045
309
GRIDFORMAT_END
 95
       16
302
GRIDFORMAT
  1
GRIDFORMAT_BEGIN
 90
        0
 91
        1
 62
     0
 92
       -2
340
14
 93
        0
 40
0.045
309
GRIDFORMAT_END
 95
       32
302
GRIDFORMAT
  1
GRIDFORMAT_BEGIN
 90
        0
 91
        1
 62
     0
 92
       -2
340
14
 93
        0
 40
0.045
309
GRIDFORMAT_END
309
TABLEFORMAT_END
  1
CELLSTYLE_BEGIN
 90
        1
 91
        1
300
_TITLE
309
CELLSTYLE_END
300
CELLSTYLE
  1
TABLEFORMAT_BEGIN
 90
        5
170
     1
 91
        0
 92
        0
 62
   257
 93
        1
300
CONTENTFORMAT
  1
CONTENTFORMAT_BEGIN
 90
        0
 91
        0
 92
        4
 93
        0
300

 40
0.0
140
1.0
 94
        5
 62
     0
340
11
144
0.18
309
CONTENTFORMAT_END
171
     1
301
MARGIN
  1
CELLMARGIN_BEGIN
 40
0.06
 40
0.06
 40
0.06
 40
0.06
 40
0.06
 40
0.06
309
CELLMARGIN_END
 94
        6
 95
        1
302
GRIDFORMAT
  1
GRIDFORMAT_BEGIN
 90
        0
 91
        1
 62
     0
 92
       -2
340
14
 93
        0
 40
0.045
309
GRIDFORMAT_END
 95
        2
302
GRIDFORMAT
  1
GRIDFORMAT_BEGIN
 90
        0
 91
        1
 62
     0
 92
       -2
340
14
 93
        0
 40
0.045
309
GRIDFORMAT_END
 95
        4
302
GRIDFORMAT
  1
GRIDFORMAT_BEGIN
 90
        0
 91
        1
 62
     0
 92
       -2
340
14
 93
        0
 40
0.045
309
GRIDFORMAT_END
 95
        8
302
GRIDFORMAT
  1
GRIDFORMAT_BEGIN
 90
        0
 91
        1
 62
     0
 92
       -2
340
14
 93
        0
 40
0.045
309
GRIDFORMAT_END
 95
       16
302
GRIDFORMAT
  1
GRIDFORMAT_BEGIN
 90
        0
 91
        1
 62
     0
 92
       -2
340
14
 93
        0
 40
0.045
309
GRIDFORMAT_END
 95
       32
302
GRIDFORMAT
  1
GRIDFORMAT_BEGIN
 90
        0
 91
        1
 62
     0
 92
       -2
340
14
 93
        0
 40
0.045
309
GRIDFORMAT_END
309
TABLEFORMAT_END
  1
CELLSTYLE_BEGIN
 90
        2
 91
        1
300
_HEADER
309
CELLSTYLE_END
300
CELLSTYLE
  1
TABLEFORMAT_BEGIN
 90
        5
170
     1
 91
        0
 92
        0
 62
   257
 93
        1
300
CONTENTFORMAT
  1
CONTENTFORMAT_BEGIN
 90
        0
 91
        0
 92
        4
 93
        0
300

 40
0.0
140
1.0
 94
        2
 62
     0
340
11
144
0.18
309
CONTENTFORMAT_END
171
     1
301
MARGIN
  1
CELLMARGIN_BEGIN
 40
0.06
 40
0.06
 40
0.06
 40
0.06
 40
0.06
 40
0.06
309
CELLMARGIN_END
 94
        6
 95
        1
302
GRIDFORMAT
  1
GRIDFORMAT_BEGIN
 90
        0
 91
        1
 62
     0
 92
       -2
340
14
 93
        0
 40
0.045
309
GRIDFORMAT_END
 95
        2
302
GRIDFORMAT
  1
GRIDFORMAT_BEGIN
 90
        0
 91
        1
 62
     0
 92
       -2
340
14
 93
        0
 40
0.045
309
GRIDFORMAT_END
 95
        4
302
GRIDFORMAT
  1
GRIDFORMAT_BEGIN
 90
        0
 91
        1
 62
     0
 92
       -2
340
14
 93
        0
 40
0.045
309
GRIDFORMAT_END
 95
        8
302
GRIDFORMAT
  1
GRIDFORMAT_BEGIN
 90
        0
 91
        1
 62
     0
 92
       -2
340
14
 93
        0
 40
0.045
309
GRIDFORMAT_END
 95
       16
302
GRIDFORMAT
  1
GRIDFORMAT_BEGIN
 90
        0
 91
        1
 62
     0
 92
       -2
340
14
 93
        0
 40
0.045
309
GRIDFORMAT_END
 95
       32
302
GRIDFORMAT
  1
GRIDFORMAT_BEGIN
 90
        0
 91
        1
 62
     0
 92
       -2
340
14
 93
        0
 40
0.045
309
GRIDFORMAT_END
309
TABLEFORMAT_END
  1
CELLSTYLE_BEGIN
 90
        3
 91
        2
300
_DATA
309
CELLSTYLE_END
  0
XRECORD
  5
345
102
{ACAD_REACTORS
330
344
102
}
330
344
100
AcDbXrecord
280
     1
102
ACAD_ROUNDTRIP_PRE2007_TABLESTYLE
 90
        4
 91
        0
  1

 92
        4
 93
        0
  2

 94
        4
 95
        0
  3

  0
XRECORD
  5
317
102
{ACAD_REACTORS
330
316
102
}
330
316
100
AcDbXrecord
280
     1
102
RTVSPropertyOp0
 70
     1
102
RTVSPropertyOp1
 70
     1
102
RTVSPropertyOp2
 70
     1
102
RTVSPropertyOp3
 70
     1
102
RTVSPropertyOp4
 70
     1
102
RTVSPropertyOp5
 70
     1
102
RTVSPropertyOp6
 70
     1
102
RTVSPropertyOp7
 70
     1
102
RTVSPropertyOp8
 70
     1
102
RTVSPropertyOp9
 70
     1
102
RTVSPropertyOp10
 70
     1
102
RTVSPropertyOp11
 70
     1
102
RTVSPropertyOp12
 70
     1
102
RTVSPropertyOp13
 70
     1
102
RTVSPropertyOp14
 70
     1
102
RTVSPropertyOp15
 70
     1
102
RTVSPropertyOp16
 70
     1
102
RTVSPropertyOp17
 70
     1
102
RTVSPropertyOp18
 70
     1
102
RTVSPropertyOp19
 70
     1
102
RTVSPropertyOp20
 70
     1
102
RTVSPropertyOp21
 70
     1
102
RTVSPropertyOp22
 70
     1
102
RTVSPropertyOp23
 70
     1
102
RTVSPropertyOp24
 70
     1
102
RTVSPropertyOp25
 70
     1
102
RTVSPropertyOp26
 70
     1
102
RTVSPropertyOp27
 70
     1
102
RTVSPropertyOp28
 70
     1
102
RTVSPropertyOp29
 70
     1
102
RTVSPropertyOp30
 70
     1
102
RTVSPropertyOp31
 70
     1
102
RTVSPropertyOp32
 70
     1
102
RTVSPropertyOp33
 70
     1
102
RTVSPropertyOp34
 70
     1
102
RTVSPropertyOp35
 70
     1
102
RTVSPropertyOp36
 70
     1
102
RTVSPropertyOp37
 70
     1
102
RTVSPropertyOp38
 70
     1
102
RTVSPropertyOp39
 70
     1
102
RTVSPropertyOp40
 70
     1
102
RTVSPropertyOp41
 70
     1
102
RTVSPropertyOp42
 70
     1
102
RTVSPropertyOp43
 70
     1
102
RTVSPropertyOp44
 70
     1
102
RTVSPropertyOp45
 70
     1
102
RTVSPropertyOp46
 70
     1
102
RTVSPropertyOp47
 70
     1
102
RTVSPropertyOp48
 70
     1
102
RTVSPropertyOp49
 70
     1
102
RTVSPropertyOp50
 70
     1
102
RTVSPropertyOp51
 70
     0
102
RTVSPropertyOp52
 70
     0
102
RTVSPropertyOp53
 70
     1
102
RTVSPropertyOp54
 70
     1
102
RTVSPropertyOp55
 70
     1
102
RTVSPropertyOp56
 70
     1
102
RTVSPropertyOp57
 70
     1
102
RTVSPost2010Prop28
280
     1
102
RTVSPost2010PropOp28
 70
     1
102
RTVSPost2010Prop29
280
     1
102
RTVSPost2010PropOp29
 70
     1
102
RTVSPost2010Prop30
280
     0
102
RTVSPost2010PropOp30
 70
     1
102
RTVSPost2010Prop31
280
     0
102
RTVSPost2010PropOp31
 70
     1
102
RTVSPost2010Prop32
280
     0
102
RTVSPost2010PropOp32
 70
     1
102
RTVSPost2010Prop33
280
     0
102
RTVSPost2010PropOp33
 70
     1
102
RTVSPost2010Prop34
280
     0
102
RTVSPost2010PropOp34
 70
     1
102
RTVSPost2010Prop35
280
     0
102
RTVSPost2010PropOp35
 70
     1
102
RTVSPost2010Prop36
280
     0
102
RTVSPost2010PropOp36
 70
     1
102
RTVSPost2010Prop37
 90
       50
102
RTVSPost2010PropOp37
 70
     1
102
RTVSPost2010Prop38
140
0.0
102
RTVSPost2010PropOp38
 70
     1
102
RTVSPost2010Prop39
140
1.0
102
RTVSPost2010PropOp39
 70
     1
102
RTVSPost2010Prop40
 90
        0
102
RTVSPost2010PropOp40
 70
     1
102
RTVSPost2010Prop41ColorIndex
 90
       18
102
RTVSPost2010Prop41ColorRGB
 90
        0
102
RTVSPost2010PropOp41
 70
     1
102
RTVSPost2010Prop42
 90
       50
102
RTVSPost2010PropOp42
 70
     1
102
RTVSPost2010Prop43
 90
        3
102
RTVSPost2010PropOp43
 70
     1
102
RTVSPost2010Prop44ColorIndex
 90
        5
102
RTVSPost2010Prop44ColorRGB
 90
      255
102
RTVSPost2010PropOp44
 70
     1
102
RTVSPost2010Prop45
280
     0
102
RTVSPost2010PropOp45
 70
     1
102
RTVSPost2010Prop46
 90
       50
102
RTVSPost2010PropOp46
 70
     1
102
RTVSPost2010Prop47
 90
       50
102
RTVSPost2010PropOp47
 70
     1
102
RTVSPost2010Prop48
 90
       50
102
RTVSPost2010PropOp48
 70
     1
102
RTVSPost2010Prop49
280
     0
102
RTVSPost2010PropOp49
 70
     1
102
RTVSPost2010Prop50
 90
       50
102
RTVSPost2010PropOp50
 70
     1
102
RTVSPost2010Prop51ColorIndex
 90
      256
102
RTVSPost2010Prop51ColorRGB
 90
-16777216
102
RTVSPost2010PropOp51
 70
     0
102
RTVSPost2010Prop52
140
1.0
102
RTVSPost2010PropOp52
 70
     0
102
RTVSPost2010Prop53
 90
        2
102
RTVSPost2010PropOp53
 70
     1
102
RTVSPost2010Prop54
  1
strokes_ogs.tif
102
RTVSPost2010PropOp54
 70
     1
102
RTVSPost2010Prop55
280
     0
102
RTVSPost2010PropOp55
 70
     1
102
RTVSPost2010Prop56
140
1.0
102
RTVSPost2010PropOp56
 70
     1
102
RTVSPost2010Prop57
140
1.0
102
RTVSPost2010PropOp57
 70
     1
  0
XRECORD
  5
31D
102
{ACAD_REACTORS
330
31C
102
}
330
31C
100
AcDbXrecord
280
     1
102
RTVSPropertyOp0
 70
     1
102
RTVSPropertyOp1
 70
     1
102
RTVSPropertyOp2
 70
     1
102
RTVSPropertyOp3
 70
     1
102
RTVSPropertyOp4
 70
     1
102
RTVSPropertyOp5
 70
     1
102
RTVSPropertyOp6
 70
     1
102
RTVSPropertyOp7
 70
     1
102
RTVSPropertyOp8
 70
     1
102
RTVSPropertyOp9
 70
     1
102
RTVSPropertyOp10
 70
     1
102
RTVSPropertyOp11
 70
     1
102
RTVSPropertyOp12
 70
     1
102
RTVSPropertyOp13
 70
     1
102
RTVSPropertyOp14
 70
     1
102
RTVSPropertyOp15
 70
     1
102
RTVSPropertyOp16
 70
     1
102
RTVSPropertyOp17
 70
     1
102
RTVSPropertyOp18
 70
     1
102
RTVSPropertyOp19
 70
     1
102
RTVSPropertyOp20
 70
     1
102
RTVSPropertyOp21
 70
     1
102
RTVSPropertyOp22
 70
     1
102
RTVSPropertyOp23
 70
     1
102
RTVSPropertyOp24
 70
     1
102
RTVSPropertyOp25
 70
     1
102
RTVSPropertyOp26
 70
     1
102
RTVSPropertyOp27
 70
     1
102
RTVSPropertyOp28
 70
     1
102
RTVSPropertyOp29
 70
     1
102
RTVSPropertyOp30
 70
     1
102
RTVSPropertyOp31
 70
     1
102
RTVSPropertyOp32
 70
     1
102
RTVSPropertyOp33
 70
     1
102
RTVSPropertyOp34
 70
     1
102
RTVSPropertyOp35
 70
     1
102
RTVSPropertyOp36
 70
     1
102
RTVSPropertyOp37
 70
     1
102
RTVSPropertyOp38
 70
     1
102
RTVSPropertyOp39
 70
     1
102
RTVSPropertyOp40
 70
     1
102
RTVSPropertyOp41
 70
     1
102
RTVSPropertyOp42
 70
     1
102
RTVSPropertyOp43
 70
     1
102
RTVSPropertyOp44
 70
     1
102
RTVSPropertyOp45
 70
     1
102
RTVSPropertyOp46
 70
     1
102
RTVSPropertyOp47
 70
     1
102
RTVSPropertyOp48
 70
     1
102
RTVSPropertyOp49
 70
     1
102
RTVSPropertyOp50
 70
     1
102
RTVSPropertyOp51
 70
     0
102
RTVSPropertyOp52
 70
     0
102
RTVSPropertyOp53
 70
     1
102
RTVSPropertyOp54
 70
     1
102
RTVSPropertyOp55
 70
     1
102
RTVSPropertyOp56
 70
     1
102
RTVSPropertyOp57
 70
     1
102
RTVSPost2010Prop28
280
     0
102
RTVSPost2010PropOp28
 70
     1
102
RTVSPost2010Prop29
280
     1
102
RTVSPost2010PropOp29
 70
     1
102
RTVSPost2010Prop30
280
     1
102
RTVSPost2010PropOp30
 70
     1
102
RTVSPost2010Prop31
280
     0
102
RTVSPost2010PropOp31
 70
     1
102
RTVSPost2010Prop32
280
     0
102
RTVSPost2010PropOp32
 70
     1
102
RTVSPost2010Prop33
280
     0
102
RTVSPost2010PropOp33
 70
     1
102
RTVSPost2010Prop34
280
     0
102
RTVSPost2010PropOp34
 70
     1
102
RTVSPost2010Prop35
280
     0
102
RTVSPost2010PropOp35
 70
     1
102
RTVSPost2010Prop36
280
     0
102
RTVSPost2010PropOp36
 70
     1
102
RTVSPost2010Prop37
 90
       50
102
RTVSPost2010PropOp37
 70
     1
102
RTVSPost2010Prop38
140
0.0
102
RTVSPost2010PropOp38
 70
     1
102
RTVSPost2010Prop39
140
1.0
102
RTVSPost2010PropOp39
 70
     1
102
RTVSPost2010Prop40
 90
        0
102
RTVSPost2010PropOp40
 70
     1
102
RTVSPost2010Prop41ColorIndex
 90
       18
102
RTVSPost2010Prop41ColorRGB
 90
        0
102
RTVSPost2010PropOp41
 70
     1
102
RTVSPost2010Prop42
 90
       50
102
RTVSPost2010PropOp42
 70
     1
102
RTVSPost2010Prop43
 90
        3
102
RTVSPost2010PropOp43
 70
     1
102
RTVSPost2010Prop44ColorIndex
 90
        5
102
RTVSPost2010Prop44ColorRGB
 90
      255
102
RTVSPost2010PropOp44
 70
     1
102
RTVSPost2010Prop45
280
     0
102
RTVSPost2010PropOp45
 70
     1
102
RTVSPost2010Prop46
 90
       50
102
RTVSPost2010PropOp46
 70
     1
102
RTVSPost2010Prop47
 90
       50
102
RTVSPost2010PropOp47
 70
     1
102
RTVSPost2010Prop48
 90
       50
102
RTVSPost2010PropOp48
 70
     1
102
RTVSPost2010Prop49
280
     0
102
RTVSPost2010PropOp49
 70
     1
102
RTVSPost2010Prop50
 90
       50
102
RTVSPost2010PropOp50
 70
     1
102
RTVSPost2010Prop51ColorIndex
 90
      256
102
RTVSPost2010Prop51ColorRGB
 90
-16777216
102
RTVSPost2010PropOp51
 70
     0
102
RTVSPost2010Prop52
140
1.0
102
RTVSPost2010PropOp52
 70
     0
102
RTVSPost2010Prop53
 90
        2
102
RTVSPost2010PropOp53
 70
     1
102
RTVSPost2010Prop54
  1
strokes_ogs.tif
102
RTVSPost2010PropOp54
 70
     1
102
RTVSPost2010Prop55
280
     0
102
RTVSPost2010PropOp55
 70
     1
102
RTVSPost2010Prop56
140
1.0
102
RTVSPost2010PropOp56
 70
     1
102
RTVSPost2010Prop57
140
1.0
102
RTVSPost2010PropOp57
 70
     1
  0
XRECORD
  5
325
102
{ACAD_REACTORS
330
324
102
}
330
324
100
AcDbXrecord
280
     1
102
RTVSPropertyOp0
 70
     1
102
RTVSPropertyOp1
 70
     1
102
RTVSPropertyOp2
 70
     1
102
RTVSPropertyOp3
 70
     1
102
RTVSPropertyOp4
 70
     1
102
RTVSPropertyOp5
 70
     1
102
RTVSPropertyOp6
 70
     1
102
RTVSPropertyOp7
 70
     1
102
RTVSPropertyOp8
 70
     1
102
RTVSPropertyOp9
 70
     1
102
RTVSPropertyOp10
 70
     1
102
RTVSPropertyOp11
 70
     1
102
RTVSPropertyOp12
 70
     1
102
RTVSPropertyOp13
 70
     1
102
RTVSPropertyOp14
 70
     1
102
RTVSPropertyOp15
 70
     1
102
RTVSPropertyOp16
 70
     1
102
RTVSPropertyOp17
 70
     1
102
RTVSPropertyOp18
 70
     1
102
RTVSPropertyOp19
 70
     1
102
RTVSPropertyOp20
 70
     1
102
RTVSPropertyOp21
 70
     1
102
RTVSPropertyOp22
 70
     1
102
RTVSPropertyOp23
 70
     1
102
RTVSPropertyOp24
 70
     1
102
RTVSPropertyOp25
 70
     1
102
RTVSPropertyOp26
 70
     1
102
RTVSPropertyOp27
 70
     1
102
RTVSPropertyOp28
 70
     1
102
RTVSPropertyOp29
 70
     1
102
RTVSPropertyOp30
 70
     1
102
RTVSPropertyOp31
 70
     1
102
RTVSPropertyOp32
 70
     1
102
RTVSPropertyOp33
 70
     1
102
RTVSPropertyOp34
 70
     1
102
RTVSPropertyOp35
 70
     1
102
RTVSPropertyOp36
 70
     1
102
RTVSPropertyOp37
 70
     1
102
RTVSPropertyOp38
 70
     1
102
RTVSPropertyOp39
 70
     1
102
RTVSPropertyOp40
 70
     1
102
RTVSPropertyOp41
 70
     1
102
RTVSPropertyOp42
 70
     1
102
RTVSPropertyOp43
 70
     1
102
RTVSPropertyOp44
 70
     1
102
RTVSPropertyOp45
 70
     1
102
RTVSPropertyOp46
 70
     1
102
RTVSPropertyOp47
 70
     1
102
RTVSPropertyOp48
 70
     1
102
RTVSPropertyOp49
 70
     1
102
RTVSPropertyOp50
 70
     1
102
RTVSPropertyOp51
 70
     0
102
RTVSPropertyOp52
 70
     0
102
RTVSPropertyOp53
 70
     1
102
RTVSPropertyOp54
 70
     1
102
RTVSPropertyOp55
 70
     1
102
RTVSPropertyOp56
 70
     1
102
RTVSPropertyOp57
 70
     1
102
RTVSPost2010Prop28
280
     0
102
RTVSPost2010PropOp28
 70
     1
102
RTVSPost2010Prop29
280
     1
102
RTVSPost2010PropOp29
 70
     1
102
RTVSPost2010Prop30
280
     1
102
RTVSPost2010PropOp30
 70
     1
102
RTVSPost2010Prop31
280
     0
102
RTVSPost2010PropOp31
 70
     1
102
RTVSPost2010Prop32
280
     0
102
RTVSPost2010PropOp32
 70
     1
102
RTVSPost2010Prop33
280
     0
102
RTVSPost2010PropOp33
 70
     1
102
RTVSPost2010Prop34
280
     0
102
RTVSPost2010PropOp34
 70
     1
102
RTVSPost2010Prop35
280
     0
102
RTVSPost2010PropOp35
 70
     1
102
RTVSPost2010Prop36
280
     0
102
RTVSPost2010PropOp36
 70
     1
102
RTVSPost2010Prop37
 90
       50
102
RTVSPost2010PropOp37
 70
     1
102
RTVSPost2010Prop38
140
0.0
102
RTVSPost2010PropOp38
 70
     1
102
RTVSPost2010Prop39
140
1.0
102
RTVSPost2010PropOp39
 70
     1
102
RTVSPost2010Prop40
 90
        0
102
RTVSPost2010PropOp40
 70
     1
102
RTVSPost2010Prop41ColorIndex
 90
       18
102
RTVSPost2010Prop41ColorRGB
 90
        0
102
RTVSPost2010PropOp41
 70
     1
102
RTVSPost2010Prop42
 90
       50
102
RTVSPost2010PropOp42
 70
     1
102
RTVSPost2010Prop43
 90
        3
102
RTVSPost2010PropOp43
 70
     1
102
RTVSPost2010Prop44ColorIndex
 90
        5
102
RTVSPost2010Prop44ColorRGB
 90
      255
102
RTVSPost2010PropOp44
 70
     1
102
RTVSPost2010Prop45
280
     0
102
RTVSPost2010PropOp45
 70
     1
102
RTVSPost2010Prop46
 90
       50
102
RTVSPost2010PropOp46
 70
     1
102
RTVSPost2010Prop47
 90
       50
102
RTVSPost2010PropOp47
 70
     1
102
RTVSPost2010Prop48
 90
       50
102
RTVSPost2010PropOp48
 70
     1
102
RTVSPost2010Prop49
280
     0
102
RTVSPost2010PropOp49
 70
     1
102
RTVSPost2010Prop50
 90
       50
102
RTVSPost2010PropOp50
 70
     1
102
RTVSPost2010Prop51ColorIndex
 90
      256
102
RTVSPost2010Prop51ColorRGB
 90
-16777216
102
RTVSPost2010PropOp51
 70
     0
102
RTVSPost2010Prop52
140
1.0
102
RTVSPost2010PropOp52
 70
     0
102
RTVSPost2010Prop53
 90
        2
102
RTVSPost2010PropOp53
 70
     1
102
RTVSPost2010Prop54
  1
strokes_ogs.tif
102
RTVSPost2010PropOp54
 70
     1
102
RTVSPost2010Prop55
280
     0
102
RTVSPost2010PropOp55
 70
     1
102
RTVSPost2010Prop56
140
1.0
102
RTVSPost2010PropOp56
 70
     1
102
RTVSPost2010Prop57
140
1.0
102
RTVSPost2010PropOp57
 70
     1
  0
XRECORD
  5
32D
102
{ACAD_REACTORS
330
32C
102
}
330
32C
100
AcDbXrecord
280
     1
102
RTVSPropertyOp0
 70
     1
102
RTVSPropertyOp1
 70
     1
102
RTVSPropertyOp2
 70
     1
102
RTVSPropertyOp3
 70
     1
102
RTVSPropertyOp4
 70
     1
102
RTVSPropertyOp5
 70
     1
102
RTVSPropertyOp6
 70
     1
102
RTVSPropertyOp7
 70
     1
102
RTVSPropertyOp8
 70
     1
102
RTVSPropertyOp9
 70
     1
102
RTVSPropertyOp10
 70
     1
102
RTVSPropertyOp11
 70
     1
102
RTVSPropertyOp12
 70
     1
102
RTVSPropertyOp13
 70
     1
102
RTVSPropertyOp14
 70
     1
102
RTVSPropertyOp15
 70
     1
102
RTVSPropertyOp16
 70
     1
102
RTVSPropertyOp17
 70
     1
102
RTVSPropertyOp18
 70
     1
102
RTVSPropertyOp19
 70
     1
102
RTVSPropertyOp20
 70
     1
102
RTVSPropertyOp21
 70
     1
102
RTVSPropertyOp22
 70
     1
102
RTVSPropertyOp23
 70
     1
102
RTVSPropertyOp24
 70
     1
102
RTVSPropertyOp25
 70
     1
102
RTVSPropertyOp26
 70
     1
102
RTVSPropertyOp27
 70
     1
102
RTVSPropertyOp28
 70
     1
102
RTVSPropertyOp29
 70
     1
102
RTVSPropertyOp30
 70
     1
102
RTVSPropertyOp31
 70
     1
102
RTVSPropertyOp32
 70
     1
102
RTVSPropertyOp33
 70
     1
102
RTVSPropertyOp34
 70
     1
102
RTVSPropertyOp35
 70
     1
102
RTVSPropertyOp36
 70
     1
102
RTVSPropertyOp37
 70
     1
102
RTVSPropertyOp38
 70
     1
102
RTVSPropertyOp39
 70
     1
102
RTVSPropertyOp40
 70
     1
102
RTVSPropertyOp41
 70
     1
102
RTVSPropertyOp42
 70
     1
102
RTVSPropertyOp43
 70
     1
102
RTVSPropertyOp44
 70
     1
102
RTVSPropertyOp45
 70
     1
102
RTVSPropertyOp46
 70
     1
102
RTVSPropertyOp47
 70
     1
102
RTVSPropertyOp48
 70
     1
102
RTVSPropertyOp49
 70
     1
102
RTVSPropertyOp50
 70
     1
102
RTVSPropertyOp51
 70
     0
102
RTVSPropertyOp52
 70
     0
102
RTVSPropertyOp53
 70
     1
102
RTVSPropertyOp54
 70
     1
102
RTVSPropertyOp55
 70
     1
102
RTVSPropertyOp56
 70
     1
102
RTVSPropertyOp57
 70
     1
102
RTVSPost2010Prop28
280
     0
102
RTVSPost2010PropOp28
 70
     1
102
RTVSPost2010Prop29
280
     1
102
RTVSPost2010PropOp29
 70
     1
102
RTVSPost2010Prop30
280
     1
102
RTVSPost2010PropOp30
 70
     1
102
RTVSPost2010Prop31
280
     0
102
RTVSPost2010PropOp31
 70
     1
102
RTVSPost2010Prop32
280
     0
102
RTVSPost2010PropOp32
 70
     1
102
RTVSPost2010Prop33
280
     0
102
RTVSPost2010PropOp33
 70
     1
102
RTVSPost2010Prop34
280
     0
102
RTVSPost2010PropOp34
 70
     1
102
RTVSPost2010Prop35
280
     0
102
RTVSPost2010PropOp35
 70
     1
102
RTVSPost2010Prop36
280
     0
102
RTVSPost2010PropOp36
 70
     1
102
RTVSPost2010Prop37
 90
       50
102
RTVSPost2010PropOp37
 70
     1
102
RTVSPost2010Prop38
140
0.0
102
RTVSPost2010PropOp38
 70
     1
102
RTVSPost2010Prop39
140
1.0
102
RTVSPost2010PropOp39
 70
     1
102
RTVSPost2010Prop40
 90
        0
102
RTVSPost2010PropOp40
 70
     1
102
RTVSPost2010Prop41ColorIndex
 90
       18
102
RTVSPost2010Prop41ColorRGB
 90
        0
102
RTVSPost2010PropOp41
 70
     1
102
RTVSPost2010Prop42
 90
       50
102
RTVSPost2010PropOp42
 70
     1
102
RTVSPost2010Prop43
 90
        3
102
RTVSPost2010PropOp43
 70
     1
102
RTVSPost2010Prop44ColorIndex
 90
        5
102
RTVSPost2010Prop44ColorRGB
 90
      255
102
RTVSPost2010PropOp44
 70
     1
102
RTVSPost2010Prop45
280
     0
102
RTVSPost2010PropOp45
 70
     1
102
RTVSPost2010Prop46
 90
       50
102
RTVSPost2010PropOp46
 70
     1
102
RTVSPost2010Prop47
 90
       50
102
RTVSPost2010PropOp47
 70
     1
102
RTVSPost2010Prop48
 90
       50
102
RTVSPost2010PropOp48
 70
     1
102
RTVSPost2010Prop49
280
     0
102
RTVSPost2010PropOp49
 70
     1
102
RTVSPost2010Prop50
 90
       50
102
RTVSPost2010PropOp50
 70
     1
102
RTVSPost2010Prop51ColorIndex
 90
      256
102
RTVSPost2010Prop51ColorRGB
 90
-16777216
102
RTVSPost2010PropOp51
 70
     0
102
RTVSPost2010Prop52
140
1.0
102
RTVSPost2010PropOp52
 70
     0
102
RTVSPost2010Prop53
 90
        2
102
RTVSPost2010PropOp53
 70
     1
102
RTVSPost2010Prop54
  1
strokes_ogs.tif
102
RTVSPost2010PropOp54
 70
     1
102
RTVSPost2010Prop55
280
     0
102
RTVSPost2010PropOp55
 70
     1
102
RTVSPost2010Prop56
140
1.0
102
RTVSPost2010PropOp56
 70
     1
102
RTVSPost2010Prop57
140
1.0
102
RTVSPost2010PropOp57
 70
     1
  0
XRECORD
  5
321
102
{ACAD_REACTORS
330
320
102
}
330
320
100
AcDbXrecord
280
     1
102
RTVSPropertyOp0
 70
     1
102
RTVSPropertyOp1
 70
     1
102
RTVSPropertyOp2
 70
     1
102
RTVSPropertyOp3
 70
     1
102
RTVSPropertyOp4
 70
     1
102
RTVSPropertyOp5
 70
     1
102
RTVSPropertyOp6
 70
     1
102
RTVSPropertyOp7
 70
     1
102
RTVSPropertyOp8
 70
     1
102
RTVSPropertyOp9
 70
     1
102
RTVSPropertyOp10
 70
     1
102
RTVSPropertyOp11
 70
     1
102
RTVSPropertyOp12
 70
     1
102
RTVSPropertyOp13
 70
     1
102
RTVSPropertyOp14
 70
     1
102
RTVSPropertyOp15
 70
     1
102
RTVSPropertyOp16
 70
     1
102
RTVSPropertyOp17
 70
     1
102
RTVSPropertyOp18
 70
     1
102
RTVSPropertyOp19
 70
     1
102
RTVSPropertyOp20
 70
     1
102
RTVSPropertyOp21
 70
     1
102
RTVSPropertyOp22
 70
     1
102
RTVSPropertyOp23
 70
     1
102
RTVSPropertyOp24
 70
     1
102
RTVSPropertyOp25
 70
     1
102
RTVSPropertyOp26
 70
     1
102
RTVSPropertyOp27
 70
     1
102
RTVSPropertyOp28
 70
     1
102
RTVSPropertyOp29
 70
     1
102
RTVSPropertyOp30
 70
     1
102
RTVSPropertyOp31
 70
     1
102
RTVSPropertyOp32
 70
     1
102
RTVSPropertyOp33
 70
     1
102
RTVSPropertyOp34
 70
     1
102
RTVSPropertyOp35
 70
     1
102
RTVSPropertyOp36
 70
     1
102
RTVSPropertyOp37
 70
     1
102
RTVSPropertyOp38
 70
     1
102
RTVSPropertyOp39
 70
     1
102
RTVSPropertyOp40
 70
     1
102
RTVSPropertyOp41
 70
     1
102
RTVSPropertyOp42
 70
     1
102
RTVSPropertyOp43
 70
     1
102
RTVSPropertyOp44
 70
     1
102
RTVSPropertyOp45
 70
     1
102
RTVSPropertyOp46
 70
     1
102
RTVSPropertyOp47
 70
     1
102
RTVSPropertyOp48
 70
     1
102
RTVSPropertyOp49
 70
     1
102
RTVSPropertyOp50
 70
     1
102
RTVSPropertyOp51
 70
     0
102
RTVSPropertyOp52
 70
     0
102
RTVSPropertyOp53
 70
     1
102
RTVSPropertyOp54
 70
     1
102
RTVSPropertyOp55
 70
     1
102
RTVSPropertyOp56
 70
     1
102
RTVSPropertyOp57
 70
     1
102
RTVSPost2010Prop28
280
     0
102
RTVSPost2010PropOp28
 70
     1
102
RTVSPost2010Prop29
280
     1
102
RTVSPost2010PropOp29
 70
     1
102
RTVSPost2010Prop30
280
     1
102
RTVSPost2010PropOp30
 70
     1
102
RTVSPost2010Prop31
280
     0
102
RTVSPost2010PropOp31
 70
     1
102
RTVSPost2010Prop32
280
     0
102
RTVSPost2010PropOp32
 70
     1
102
RTVSPost2010Prop33
280
     0
102
RTVSPost2010PropOp33
 70
     1
102
RTVSPost2010Prop34
280
     0
102
RTVSPost2010PropOp34
 70
     1
102
RTVSPost2010Prop35
280
     0
102
RTVSPost2010PropOp35
 70
     1
102
RTVSPost2010Prop36
280
     0
102
RTVSPost2010PropOp36
 70
     1
102
RTVSPost2010Prop37
 90
       50
102
RTVSPost2010PropOp37
 70
     1
102
RTVSPost2010Prop38
140
0.0
102
RTVSPost2010PropOp38
 70
     1
102
RTVSPost2010Prop39
140
1.0
102
RTVSPost2010PropOp39
 70
     1
102
RTVSPost2010Prop40
 90
        0
102
RTVSPost2010PropOp40
 70
     1
102
RTVSPost2010Prop41ColorIndex
 90
       18
102
RTVSPost2010Prop41ColorRGB
 90
        0
102
RTVSPost2010PropOp41
 70
     1
102
RTVSPost2010Prop42
 90
       50
102
RTVSPost2010PropOp42
 70
     1
102
RTVSPost2010Prop43
 90
        3
102
RTVSPost2010PropOp43
 70
     1
102
RTVSPost2010Prop44ColorIndex
 90
        5
102
RTVSPost2010Prop44ColorRGB
 90
      255
102
RTVSPost2010PropOp44
 70
     1
102
RTVSPost2010Prop45
280
     0
102
RTVSPost2010PropOp45
 70
     1
102
RTVSPost2010Prop46
 90
       50
102
RTVSPost2010PropOp46
 70
     1
102
RTVSPost2010Prop47
 90
       50
102
RTVSPost2010PropOp47
 70
     1
102
RTVSPost2010Prop48
 90
       50
102
RTVSPost2010PropOp48
 70
     1
102
RTVSPost2010Prop49
280
     0
102
RTVSPost2010PropOp49
 70
     1
102
RTVSPost2010Prop50
 90
       50
102
RTVSPost2010PropOp50
 70
     1
102
RTVSPost2010Prop51ColorIndex
 90
      256
102
RTVSPost2010Prop51ColorRGB
 90
-16777216
102
RTVSPost2010PropOp51
 70
     0
102
RTVSPost2010Prop52
140
1.0
102
RTVSPost2010PropOp52
 70
     0
102
RTVSPost2010Prop53
 90
        2
102
RTVSPost2010PropOp53
 70
     1
102
RTVSPost2010Prop54
  1
strokes_ogs.tif
102
RTVSPost2010PropOp54
 70
     1
102
RTVSPost2010Prop55
280
     0
102
RTVSPost2010PropOp55
 70
     1
102
RTVSPost2010Prop56
140
1.0
102
RTVSPost2010PropOp56
 70
     1
102
RTVSPost2010Prop57
140
1.0
102
RTVSPost2010PropOp57
 70
     1
  0
XRECORD
  5
323
102
{ACAD_REACTORS
330
322
102
}
330
322
100
AcDbXrecord
280
     1
102
RTVSPropertyOp0
 70
     1
102
RTVSPropertyOp1
 70
     1
102
RTVSPropertyOp2
 70
     1
102
RTVSPropertyOp3
 70
     1
102
RTVSPropertyOp4
 70
     1
102
RTVSPropertyOp5
 70
     1
102
RTVSPropertyOp6
 70
     1
102
RTVSPropertyOp7
 70
     1
102
RTVSPropertyOp8
 70
     1
102
RTVSPropertyOp9
 70
     1
102
RTVSPropertyOp10
 70
     1
102
RTVSPropertyOp11
 70
     1
102
RTVSPropertyOp12
 70
     1
102
RTVSPropertyOp13
 70
     1
102
RTVSPropertyOp14
 70
     1
102
RTVSPropertyOp15
 70
     1
102
RTVSPropertyOp16
 70
     1
102
RTVSPropertyOp17
 70
     1
102
RTVSPropertyOp18
 70
     1
102
RTVSPropertyOp19
 70
     1
102
RTVSPropertyOp20
 70
     1
102
RTVSPropertyOp21
 70
     1
102
RTVSPropertyOp22
 70
     1
102
RTVSPropertyOp23
 70
     1
102
RTVSPropertyOp24
 70
     1
102
RTVSPropertyOp25
 70
     1
102
RTVSPropertyOp26
 70
     1
102
RTVSPropertyOp27
 70
     1
102
RTVSPropertyOp28
 70
     1
102
RTVSPropertyOp29
 70
     1
102
RTVSPropertyOp30
 70
     1
102
RTVSPropertyOp31
 70
     1
102
RTVSPropertyOp32
 70
     1
102
RTVSPropertyOp33
 70
     1
102
RTVSPropertyOp34
 70
     1
102
RTVSPropertyOp35
 70
     1
102
RTVSPropertyOp36
 70
     1
102
RTVSPropertyOp37
 70
     1
102
RTVSPropertyOp38
 70
     1
102
RTVSPropertyOp39
 70
     1
102
RTVSPropertyOp40
 70
     1
102
RTVSPropertyOp41
 70
     1
102
RTVSPropertyOp42
 70
     1
102
RTVSPropertyOp43
 70
     1
102
RTVSPropertyOp44
 70
     1
102
RTVSPropertyOp45
 70
     1
102
RTVSPropertyOp46
 70
     1
102
RTVSPropertyOp47
 70
     1
102
RTVSPropertyOp48
 70
     1
102
RTVSPropertyOp49
 70
     1
102
RTVSPropertyOp50
 70
     1
102
RTVSPropertyOp51
 70
     0
102
RTVSPropertyOp52
 70
     0
102
RTVSPropertyOp53
 70
     1
102
RTVSPropertyOp54
 70
     1
102
RTVSPropertyOp55
 70
     1
102
RTVSPropertyOp56
 70
     1
102
RTVSPropertyOp57
 70
     1
102
RTVSPost2010Prop28
280
     0
102
RTVSPost2010PropOp28
 70
     1
102
RTVSPost2010Prop29
280
     1
102
RTVSPost2010PropOp29
 70
     1
102
RTVSPost2010Prop30
280
     1
102
RTVSPost2010PropOp30
 70
     1
102
RTVSPost2010Prop31
280
     0
102
RTVSPost2010PropOp31
 70
     1
102
RTVSPost2010Prop32
280
     0
102
RTVSPost2010PropOp32
 70
     1
102
RTVSPost2010Prop33
280
     0
102
RTVSPost2010PropOp33
 70
     1
102
RTVSPost2010Prop34
280
     0
102
RTVSPost2010PropOp34
 70
     1
102
RTVSPost2010Prop35
280
     0
102
RTVSPost2010PropOp35
 70
     1
102
RTVSPost2010Prop36
280
     0
102
RTVSPost2010PropOp36
 70
     1
102
RTVSPost2010Prop37
 90
       50
102
RTVSPost2010PropOp37
 70
     1
102
RTVSPost2010Prop38
140
0.0
102
RTVSPost2010PropOp38
 70
     1
102
RTVSPost2010Prop39
140
1.0
102
RTVSPost2010PropOp39
 70
     1
102
RTVSPost2010Prop40
 90
        0
102
RTVSPost2010PropOp40
 70
     1
102
RTVSPost2010Prop41ColorIndex
 90
       18
102
RTVSPost2010Prop41ColorRGB
 90
        0
102
RTVSPost2010PropOp41
 70
     1
102
RTVSPost2010Prop42
 90
       50
102
RTVSPost2010PropOp42
 70
     1
102
RTVSPost2010Prop43
 90
        3
102
RTVSPost2010PropOp43
 70
     1
102
RTVSPost2010Prop44ColorIndex
 90
        5
102
RTVSPost2010Prop44ColorRGB
 90
      255
102
RTVSPost2010PropOp44
 70
     1
102
RTVSPost2010Prop45
280
     0
102
RTVSPost2010PropOp45
 70
     1
102
RTVSPost2010Prop46
 90
       50
102
RTVSPost2010PropOp46
 70
     1
102
RTVSPost2010Prop47
 90
       50
102
RTVSPost2010PropOp47
 70
     1
102
RTVSPost2010Prop48
 90
       50
102
RTVSPost2010PropOp48
 70
     1
102
RTVSPost2010Prop49
280
     0
102
RTVSPost2010PropOp49
 70
     1
102
RTVSPost2010Prop50
 90
       50
102
RTVSPost2010PropOp50
 70
     1
102
RTVSPost2010Prop51ColorIndex
 90
      256
102
RTVSPost2010Prop51ColorRGB
 90
-16777216
102
RTVSPost2010PropOp51
 70
     0
102
RTVSPost2010Prop52
140
1.0
102
RTVSPost2010PropOp52
 70
     0
102
RTVSPost2010Prop53
 90
        2
102
RTVSPost2010PropOp53
 70
     1
102
RTVSPost2010Prop54
  1
strokes_ogs.tif
102
RTVSPost2010PropOp54
 70
     1
102
RTVSPost2010Prop55
280
     0
102
RTVSPost2010PropOp55
 70
     1
102
RTVSPost2010Prop56
140
1.0
102
RTVSPost2010PropOp56
 70
     1
102
RTVSPost2010Prop57
140
1.0
102
RTVSPost2010PropOp57
 70
     1
  0
XRECORD
  5
333
102
{ACAD_REACTORS
330
332
102
}
330
332
100
AcDbXrecord
280
     1
102
RTVSPropertyOp0
 70
     0
102
RTVSPropertyOp1
 70
     0
102
RTVSPropertyOp2
 70
     0
102
RTVSPropertyOp3
 70
     0
102
RTVSPropertyOp4
 70
     0
102
RTVSPropertyOp5
 70
     0
102
RTVSPropertyOp6
 70
     0
102
RTVSPropertyOp7
 70
     0
102
RTVSPropertyOp8
 70
     0
102
RTVSPropertyOp9
 70
     0
102
RTVSPropertyOp10
 70
     0
102
RTVSPropertyOp11
 70
     0
102
RTVSPropertyOp12
 70
     0
102
RTVSPropertyOp13
 70
     0
102
RTVSPropertyOp14
 70
     2
102
RTVSPropertyOp15
 70
     0
102
RTVSPropertyOp16
 70
     0
102
RTVSPropertyOp17
 70
     0
102
RTVSPropertyOp18
 70
     0
102
RTVSPropertyOp19
 70
     0
102
RTVSPropertyOp20
 70
     0
102
RTVSPropertyOp21
 70
     0
102
RTVSPropertyOp22
 70
     0
102
RTVSPropertyOp23
 70
     0
102
RTVSPropertyOp24
 70
     0
102
RTVSPropertyOp25
 70
     0
102
RTVSPropertyOp26
 70
     0
102
RTVSPropertyOp27
 70
     0
102
RTVSPropertyOp28
 70
     0
102
RTVSPropertyOp29
 70
     0
102
RTVSPropertyOp30
 70
     0
102
RTVSPropertyOp31
 70
     0
102
RTVSPropertyOp32
 70
     0
102
RTVSPropertyOp33
 70
     0
102
RTVSPropertyOp34
 70
     0
102
RTVSPropertyOp35
 70
     0
102
RTVSPropertyOp36
 70
     0
102
RTVSPropertyOp37
 70
     0
102
RTVSPropertyOp38
 70
     0
102
RTVSPropertyOp39
 70
     0
102
RTVSPropertyOp40
 70
     0
102
RTVSPropertyOp41
 70
     0
102
RTVSPropertyOp42
 70
     0
102
RTVSPropertyOp43
 70
     0
102
RTVSPropertyOp44
 70
     0
102
RTVSPropertyOp45
 70
     0
102
RTVSPropertyOp46
 70
     0
102
RTVSPropertyOp47
 70
     0
102
RTVSPropertyOp48
 70
     0
102
RTVSPropertyOp49
 70
     0
102
RTVSPropertyOp50
 70
     0
102
RTVSPropertyOp51
 70
     0
102
RTVSPropertyOp52
 70
     0
102
RTVSPropertyOp53
 70
     0
102
RTVSPropertyOp54
 70
     0
102
RTVSPropertyOp55
 70
     0
102
RTVSPropertyOp56
 70
     0
102
RTVSPropertyOp57
 70
     0
102
RTVSPost2010Prop28
280
     0
102
RTVSPost2010PropOp28
 70
     0
102
RTVSPost2010Prop29
280
     1
102
RTVSPost2010PropOp29
 70
     0
102
RTVSPost2010Prop30
280
     1
102
RTVSPost2010PropOp30
 70
     0
102
RTVSPost2010Prop31
280
     0
102
RTVSPost2010PropOp31
 70
     0
102
RTVSPost2010Prop32
280
     0
102
RTVSPost2010PropOp32
 70
     0
102
RTVSPost2010Prop33
280
     0
102
RTVSPost2010PropOp33
 70
     0
102
RTVSPost2010Prop34
280
     0
102
RTVSPost2010PropOp34
 70
     0
102
RTVSPost2010Prop35
280
     0
102
RTVSPost2010PropOp35
 70
     0
102
RTVSPost2010Prop36
280
     0
102
RTVSPost2010PropOp36
 70
     0
102
RTVSPost2010Prop37
 90
       50
102
RTVSPost2010PropOp37
 70
     0
102
RTVSPost2010Prop38
140
0.0
102
RTVSPost2010PropOp38
 70
     0
102
RTVSPost2010Prop39
140
1.0
102
RTVSPost2010PropOp39
 70
     0
102
RTVSPost2010Prop40
 90
        0
102
RTVSPost2010PropOp40
 70
     0
102
RTVSPost2010Prop41ColorIndex
 90
       18
102
RTVSPost2010Prop41ColorRGB
 90
        0
102
RTVSPost2010PropOp41
 70
     0
102
RTVSPost2010Prop42
 90
       50
102
RTVSPost2010PropOp42
 70
     0
102
RTVSPost2010Prop43
 90
        3
102
RTVSPost2010PropOp43
 70
     0
102
RTVSPost2010Prop44ColorIndex
 90
        5
102
RTVSPost2010Prop44ColorRGB
 90
      255
102
RTVSPost2010PropOp44
 70
     0
102
RTVSPost2010Prop45
280
     0
102
RTVSPost2010PropOp45
 70
     0
102
RTVSPost2010Prop46
 90
       50
102
RTVSPost2010PropOp46
 70
     0
102
RTVSPost2010Prop47
 90
       50
102
RTVSPost2010PropOp47
 70
     0
102
RTVSPost2010Prop48
 90
       50
102
RTVSPost2010PropOp48
 70
     0
102
RTVSPost2010Prop49
280
     0
102
RTVSPost2010PropOp49
 70
     0
102
RTVSPost2010Prop50
 90
       50
102
RTVSPost2010PropOp50
 70
     0
102
RTVSPost2010Prop51ColorIndex
 90
      256
102
RTVSPost2010Prop51ColorRGB
 90
-16777216
102
RTVSPost2010PropOp51
 70
     0
102
RTVSPost2010Prop52
140
1.0
102
RTVSPost2010PropOp52
 70
     0
102
RTVSPost2010Prop53
 90
        2
102
RTVSPost2010PropOp53
 70
     0
102
RTVSPost2010Prop54
  1
strokes_ogs.tif
102
RTVSPost2010PropOp54
 70
     0
102
RTVSPost2010Prop55
280
     0
102
RTVSPost2010PropOp55
 70
     0
102
RTVSPost2010Prop56
140
1.0
102
RTVSPost2010PropOp56
 70
     0
102
RTVSPost2010Prop57
140
1.0
102
RTVSPost2010PropOp57
 70
     0
  0
XRECORD
  5
32B
102
{ACAD_REACTORS
330
32A
102
}
330
32A
100
AcDbXrecord
280
     1
102
RTVSPropertyOp0
 70
     1
102
RTVSPropertyOp1
 70
     1
102
RTVSPropertyOp2
 70
     1
102
RTVSPropertyOp3
 70
     1
102
RTVSPropertyOp4
 70
     1
102
RTVSPropertyOp5
 70
     1
102
RTVSPropertyOp6
 70
     1
102
RTVSPropertyOp7
 70
     1
102
RTVSPropertyOp8
 70
     1
102
RTVSPropertyOp9
 70
     1
102
RTVSPropertyOp10
 70
     1
102
RTVSPropertyOp11
 70
     1
102
RTVSPropertyOp12
 70
     1
102
RTVSPropertyOp13
 70
     1
102
RTVSPropertyOp14
 70
     1
102
RTVSPropertyOp15
 70
     1
102
RTVSPropertyOp16
 70
     1
102
RTVSPropertyOp17
 70
     1
102
RTVSPropertyOp18
 70
     1
102
RTVSPropertyOp19
 70
     1
102
RTVSPropertyOp20
 70
     1
102
RTVSPropertyOp21
 70
     1
102
RTVSPropertyOp22
 70
     1
102
RTVSPropertyOp23
 70
     1
102
RTVSPropertyOp24
 70
     1
102
RTVSPropertyOp25
 70
     1
102
RTVSPropertyOp26
 70
     1
102
RTVSPropertyOp27
 70
     1
102
RTVSPropertyOp28
 70
     1
102
RTVSPropertyOp29
 70
     1
102
RTVSPropertyOp30
 70
     1
102
RTVSPropertyOp31
 70
     1
102
RTVSPropertyOp32
 70
     1
102
RTVSPropertyOp33
 70
     1
102
RTVSPropertyOp34
 70
     1
102
RTVSPropertyOp35
 70
     1
102
RTVSPropertyOp36
 70
     1
102
RTVSPropertyOp37
 70
     1
102
RTVSPropertyOp38
 70
     1
102
RTVSPropertyOp39
 70
     1
102
RTVSPropertyOp40
 70
     1
102
RTVSPropertyOp41
 70
     1
102
RTVSPropertyOp42
 70
     1
102
RTVSPropertyOp43
 70
     1
102
RTVSPropertyOp44
 70
     1
102
RTVSPropertyOp45
 70
     1
102
RTVSPropertyOp46
 70
     1
102
RTVSPropertyOp47
 70
     1
102
RTVSPropertyOp48
 70
     1
102
RTVSPropertyOp49
 70
     1
102
RTVSPropertyOp50
 70
     1
102
RTVSPropertyOp51
 70
     0
102
RTVSPropertyOp52
 70
     0
102
RTVSPropertyOp53
 70
     1
102
RTVSPropertyOp54
 70
     1
102
RTVSPropertyOp55
 70
     1
102
RTVSPropertyOp56
 70
     1
102
RTVSPropertyOp57
 70
     1
102
RTVSPost2010Prop28
280
     0
102
RTVSPost2010PropOp28
 70
     1
102
RTVSPost2010Prop29
280
     1
102
RTVSPost2010PropOp29
 70
     1
102
RTVSPost2010Prop30
280
     1
102
RTVSPost2010PropOp30
 70
     1
102
RTVSPost2010Prop31
280
     0
102
RTVSPost2010PropOp31
 70
     1
102
RTVSPost2010Prop32
280
     0
102
RTVSPost2010PropOp32
 70
     1
102
RTVSPost2010Prop33
280
     0
102
RTVSPost2010PropOp33
 70
     1
102
RTVSPost2010Prop34
280
     0
102
RTVSPost2010PropOp34
 70
     1
102
RTVSPost2010Prop35
280
     0
102
RTVSPost2010PropOp35
 70
     1
102
RTVSPost2010Prop36
280
     0
102
RTVSPost2010PropOp36
 70
     1
102
RTVSPost2010Prop37
 90
       50
102
RTVSPost2010PropOp37
 70
     1
102
RTVSPost2010Prop38
140
0.0
102
RTVSPost2010PropOp38
 70
     1
102
RTVSPost2010Prop39
140
1.0
102
RTVSPost2010PropOp39
 70
     1
102
RTVSPost2010Prop40
 90
        0
102
RTVSPost2010PropOp40
 70
     1
102
RTVSPost2010Prop41ColorIndex
 90
       18
102
RTVSPost2010Prop41ColorRGB
 90
        0
102
RTVSPost2010PropOp41
 70
     1
102
RTVSPost2010Prop42
 90
       50
102
RTVSPost2010PropOp42
 70
     1
102
RTVSPost2010Prop43
 90
        3
102
RTVSPost2010PropOp43
 70
     1
102
RTVSPost2010Prop44ColorIndex
 90
        5
102
RTVSPost2010Prop44ColorRGB
 90
      255
102
RTVSPost2010PropOp44
 70
     1
102
RTVSPost2010Prop45
280
     0
102
RTVSPost2010PropOp45
 70
     1
102
RTVSPost2010Prop46
 90
       50
102
RTVSPost2010PropOp46
 70
     1
102
RTVSPost2010Prop47
 90
       50
102
RTVSPost2010PropOp47
 70
     1
102
RTVSPost2010Prop48
 90
       50
102
RTVSPost2010PropOp48
 70
     1
102
RTVSPost2010Prop49
280
     0
102
RTVSPost2010PropOp49
 70
     1
102
RTVSPost2010Prop50
 90
       50
102
RTVSPost2010PropOp50
 70
     1
102
RTVSPost2010Prop51ColorIndex
 90
      256
102
RTVSPost2010Prop51ColorRGB
 90
-16777216
102
RTVSPost2010PropOp51
 70
     0
102
RTVSPost2010Prop52
140
1.0
102
RTVSPost2010PropOp52
 70
     0
102
RTVSPost2010Prop53
 90
        2
102
RTVSPost2010PropOp53
 70
     1
102
RTVSPost2010Prop54
  1
strokes_ogs.tif
102
RTVSPost2010PropOp54
 70
     1
102
RTVSPost2010Prop55
280
     0
102
RTVSPost2010PropOp55
 70
     1
102
RTVSPost2010Prop56
140
1.0
102
RTVSPost2010PropOp56
 70
     1
102
RTVSPost2010Prop57
140
1.0
102
RTVSPost2010PropOp57
 70
     1
  0
XRECORD
  5
30F
102
{ACAD_REACTORS
330
30E
102
}
330
30E
100
AcDbXrecord
280
     1
102
RTVSPropertyOp0
 70
     1
102
RTVSPropertyOp1
 70
     1
102
RTVSPropertyOp2
 70
     1
102
RTVSPropertyOp3
 70
     1
102
RTVSPropertyOp4
 70
     1
102
RTVSPropertyOp5
 70
     1
102
RTVSPropertyOp6
 70
     1
102
RTVSPropertyOp7
 70
     1
102
RTVSPropertyOp8
 70
     1
102
RTVSPropertyOp9
 70
     1
102
RTVSPropertyOp10
 70
     1
102
RTVSPropertyOp11
 70
     1
102
RTVSPropertyOp12
 70
     1
102
RTVSPropertyOp13
 70
     1
102
RTVSPropertyOp14
 70
     1
102
RTVSPropertyOp15
 70
     1
102
RTVSPropertyOp16
 70
     1
102
RTVSPropertyOp17
 70
     1
102
RTVSPropertyOp18
 70
     1
102
RTVSPropertyOp19
 70
     1
102
RTVSPropertyOp20
 70
     1
102
RTVSPropertyOp21
 70
     1
102
RTVSPropertyOp22
 70
     1
102
RTVSPropertyOp23
 70
     1
102
RTVSPropertyOp24
 70
     1
102
RTVSPropertyOp25
 70
     1
102
RTVSPropertyOp26
 70
     1
102
RTVSPropertyOp27
 70
     1
102
RTVSPropertyOp28
 70
     1
102
RTVSPropertyOp29
 70
     1
102
RTVSPropertyOp30
 70
     1
102
RTVSPropertyOp31
 70
     1
102
RTVSPropertyOp32
 70
     1
102
RTVSPropertyOp33
 70
     1
102
RTVSPropertyOp34
 70
     1
102
RTVSPropertyOp35
 70
     1
102
RTVSPropertyOp36
 70
     1
102
RTVSPropertyOp37
 70
     1
102
RTVSPropertyOp38
 70
     1
102
RTVSPropertyOp39
 70
     1
102
RTVSPropertyOp40
 70
     1
102
RTVSPropertyOp41
 70
     1
102
RTVSPropertyOp42
 70
     1
102
RTVSPropertyOp43
 70
     1
102
RTVSPropertyOp44
 70
     1
102
RTVSPropertyOp45
 70
     1
102
RTVSPropertyOp46
 70
     1
102
RTVSPropertyOp47
 70
     1
102
RTVSPropertyOp48
 70
     1
102
RTVSPropertyOp49
 70
     1
102
RTVSPropertyOp50
 70
     1
102
RTVSPropertyOp51
 70
     0
102
RTVSPropertyOp52
 70
     0
102
RTVSPropertyOp53
 70
     1
102
RTVSPropertyOp54
 70
     1
102
RTVSPropertyOp55
 70
     1
102
RTVSPropertyOp56
 70
     1
102
RTVSPropertyOp57
 70
     1
102
RTVSPost2010Prop28
280
     0
102
RTVSPost2010PropOp28
 70
     1
102
RTVSPost2010Prop29
280
     1
102
RTVSPost2010PropOp29
 70
     1
102
RTVSPost2010Prop30
280
     1
102
RTVSPost2010PropOp30
 70
     1
102
RTVSPost2010Prop31
280
     0
102
RTVSPost2010PropOp31
 70
     1
102
RTVSPost2010Prop32
280
     0
102
RTVSPost2010PropOp32
 70
     1
102
RTVSPost2010Prop33
280
     0
102
RTVSPost2010PropOp33
 70
     1
102
RTVSPost2010Prop34
280
     0
102
RTVSPost2010PropOp34
 70
     1
102
RTVSPost2010Prop35
280
     0
102
RTVSPost2010PropOp35
 70
     1
102
RTVSPost2010Prop36
280
     0
102
RTVSPost2010PropOp36
 70
     1
102
RTVSPost2010Prop37
 90
       50
102
RTVSPost2010PropOp37
 70
     1
102
RTVSPost2010Prop38
140
0.0
102
RTVSPost2010PropOp38
 70
     1
102
RTVSPost2010Prop39
140
1.0
102
RTVSPost2010PropOp39
 70
     1
102
RTVSPost2010Prop40
 90
        0
102
RTVSPost2010PropOp40
 70
     1
102
RTVSPost2010Prop41ColorIndex
 90
       18
102
RTVSPost2010Prop41ColorRGB
 90
        0
102
RTVSPost2010PropOp41
 70
     1
102
RTVSPost2010Prop42
 90
       50
102
RTVSPost2010PropOp42
 70
     1
102
RTVSPost2010Prop43
 90
        3
102
RTVSPost2010PropOp43
 70
     1
102
RTVSPost2010Prop44ColorIndex
 90
        5
102
RTVSPost2010Prop44ColorRGB
 90
      255
102
RTVSPost2010PropOp44
 70
     1
102
RTVSPost2010Prop45
280
     0
102
RTVSPost2010PropOp45
 70
     1
102
RTVSPost2010Prop46
 90
       50
102
RTVSPost2010PropOp46
 70
     1
102
RTVSPost2010Prop47
 90
       50
102
RTVSPost2010PropOp47
 70
     1
102
RTVSPost2010Prop48
 90
       50
102
RTVSPost2010PropOp48
 70
     1
102
RTVSPost2010Prop49
280
     0
102
RTVSPost2010PropOp49
 70
     1
102
RTVSPost2010Prop50
 90
       50
102
RTVSPost2010PropOp50
 70
     1
102
RTVSPost2010Prop51ColorIndex
 90
      256
102
RTVSPost2010Prop51ColorRGB
 90
-16777216
102
RTVSPost2010PropOp51
 70
     0
102
RTVSPost2010Prop52
140
1.0
102
RTVSPost2010PropOp52
 70
     0
102
RTVSPost2010Prop53
 90
        2
102
RTVSPost2010PropOp53
 70
     1
102
RTVSPost2010Prop54
  1
strokes_ogs.tif
102
RTVSPost2010PropOp54
 70
     1
102
RTVSPost2010Prop55
280
     0
102
RTVSPost2010PropOp55
 70
     1
102
RTVSPost2010Prop56
140
1.0
102
RTVSPost2010PropOp56
 70
     1
102
RTVSPost2010Prop57
140
1.0
102
RTVSPost2010PropOp57
 70
     1
  0
XRECORD
  5
311
102
{ACAD_REACTORS
330
310
102
}
330
310
100
AcDbXrecord
280
     1
102
RTVSPropertyOp0
 70
     1
102
RTVSPropertyOp1
 70
     1
102
RTVSPropertyOp2
 70
     1
102
RTVSPropertyOp3
 70
     1
102
RTVSPropertyOp4
 70
     1
102
RTVSPropertyOp5
 70
     1
102
RTVSPropertyOp6
 70
     1
102
RTVSPropertyOp7
 70
     1
102
RTVSPropertyOp8
 70
     1
102
RTVSPropertyOp9
 70
     1
102
RTVSPropertyOp10
 70
     1
102
RTVSPropertyOp11
 70
     1
102
RTVSPropertyOp12
 70
     1
102
RTVSPropertyOp13
 70
     1
102
RTVSPropertyOp14
 70
     1
102
RTVSPropertyOp15
 70
     1
102
RTVSPropertyOp16
 70
     1
102
RTVSPropertyOp17
 70
     1
102
RTVSPropertyOp18
 70
     1
102
RTVSPropertyOp19
 70
     1
102
RTVSPropertyOp20
 70
     1
102
RTVSPropertyOp21
 70
     1
102
RTVSPropertyOp22
 70
     1
102
RTVSPropertyOp23
 70
     1
102
RTVSPropertyOp24
 70
     1
102
RTVSPropertyOp25
 70
     1
102
RTVSPropertyOp26
 70
     1
102
RTVSPropertyOp27
 70
     1
102
RTVSPropertyOp28
 70
     1
102
RTVSPropertyOp29
 70
     1
102
RTVSPropertyOp30
 70
     1
102
RTVSPropertyOp31
 70
     1
102
RTVSPropertyOp32
 70
     1
102
RTVSPropertyOp33
 70
     1
102
RTVSPropertyOp34
 70
     1
102
RTVSPropertyOp35
 70
     1
102
RTVSPropertyOp36
 70
     1
102
RTVSPropertyOp37
 70
     1
102
RTVSPropertyOp38
 70
     1
102
RTVSPropertyOp39
 70
     1
102
RTVSPropertyOp40
 70
     1
102
RTVSPropertyOp41
 70
     1
102
RTVSPropertyOp42
 70
     1
102
RTVSPropertyOp43
 70
     1
102
RTVSPropertyOp44
 70
     1
102
RTVSPropertyOp45
 70
     1
102
RTVSPropertyOp46
 70
     1
102
RTVSPropertyOp47
 70
     1
102
RTVSPropertyOp48
 70
     1
102
RTVSPropertyOp49
 70
     1
102
RTVSPropertyOp50
 70
     1
102
RTVSPropertyOp51
 70
     0
102
RTVSPropertyOp52
 70
     0
102
RTVSPropertyOp53
 70
     1
102
RTVSPropertyOp54
 70
     1
102
RTVSPropertyOp55
 70
     1
102
RTVSPropertyOp56
 70
     1
102
RTVSPropertyOp57
 70
     1
102
RTVSPost2010Prop28
280
     0
102
RTVSPost2010PropOp28
 70
     1
102
RTVSPost2010Prop29
280
     1
102
RTVSPost2010PropOp29
 70
     1
102
RTVSPost2010Prop30
280
     1
102
RTVSPost2010PropOp30
 70
     1
102
RTVSPost2010Prop31
280
     0
102
RTVSPost2010PropOp31
 70
     1
102
RTVSPost2010Prop32
280
     0
102
RTVSPost2010PropOp32
 70
     1
102
RTVSPost2010Prop33
280
     0
102
RTVSPost2010PropOp33
 70
     1
102
RTVSPost2010Prop34
280
     0
102
RTVSPost2010PropOp34
 70
     1
102
RTVSPost2010Prop35
280
     0
102
RTVSPost2010PropOp35
 70
     1
102
RTVSPost2010Prop36
280
     0
102
RTVSPost2010PropOp36
 70
     1
102
RTVSPost2010Prop37
 90
       50
102
RTVSPost2010PropOp37
 70
     1
102
RTVSPost2010Prop38
140
0.0
102
RTVSPost2010PropOp38
 70
     1
102
RTVSPost2010Prop39
140
1.0
102
RTVSPost2010PropOp39
 70
     1
102
RTVSPost2010Prop40
 90
        0
102
RTVSPost2010PropOp40
 70
     1
102
RTVSPost2010Prop41ColorIndex
 90
       18
102
RTVSPost2010Prop41ColorRGB
 90
        0
102
RTVSPost2010PropOp41
 70
     1
102
RTVSPost2010Prop42
 90
       50
102
RTVSPost2010PropOp42
 70
     1
102
RTVSPost2010Prop43
 90
        3
102
RTVSPost2010PropOp43
 70
     1
102
RTVSPost2010Prop44ColorIndex
 90
        5
102
RTVSPost2010Prop44ColorRGB
 90
      255
102
RTVSPost2010PropOp44
 70
     1
102
RTVSPost2010Prop45
280
     0
102
RTVSPost2010PropOp45
 70
     1
102
RTVSPost2010Prop46
 90
       50
102
RTVSPost2010PropOp46
 70
     1
102
RTVSPost2010Prop47
 90
       50
102
RTVSPost2010PropOp47
 70
     1
102
RTVSPost2010Prop48
 90
       50
102
RTVSPost2010PropOp48
 70
     1
102
RTVSPost2010Prop49
280
     0
102
RTVSPost2010PropOp49
 70
     1
102
RTVSPost2010Prop50
 90
       50
102
RTVSPost2010PropOp50
 70
     1
102
RTVSPost2010Prop51ColorIndex
 90
      256
102
RTVSPost2010Prop51ColorRGB
 90
-16777216
102
RTVSPost2010PropOp51
 70
     0
102
RTVSPost2010Prop52
140
1.0
102
RTVSPost2010PropOp52
 70
     0
102
RTVSPost2010Prop53
 90
        2
102
RTVSPost2010PropOp53
 70
     1
102
RTVSPost2010Prop54
  1
strokes_ogs.tif
102
RTVSPost2010PropOp54
 70
     1
102
RTVSPost2010Prop55
280
     0
102
RTVSPost2010PropOp55
 70
     1
102
RTVSPost2010Prop56
140
1.0
102
RTVSPost2010PropOp56
 70
     1
102
RTVSPost2010Prop57
140
1.0
102
RTVSPost2010PropOp57
 70
     1
  0
XRECORD
  5
313
102
{ACAD_REACTORS
330
312
102
}
330
312
100
AcDbXrecord
280
     1
102
RTVSPropertyOp0
 70
     1
102
RTVSPropertyOp1
 70
     1
102
RTVSPropertyOp2
 70
     1
102
RTVSPropertyOp3
 70
     1
102
RTVSPropertyOp4
 70
     1
102
RTVSPropertyOp5
 70
     1
102
RTVSPropertyOp6
 70
     1
102
RTVSPropertyOp7
 70
     1
102
RTVSPropertyOp8
 70
     1
102
RTVSPropertyOp9
 70
     1
102
RTVSPropertyOp10
 70
     1
102
RTVSPropertyOp11
 70
     1
102
RTVSPropertyOp12
 70
     1
102
RTVSPropertyOp13
 70
     1
102
RTVSPropertyOp14
 70
     1
102
RTVSPropertyOp15
 70
     1
102
RTVSPropertyOp16
 70
     1
102
RTVSPropertyOp17
 70
     1
102
RTVSPropertyOp18
 70
     1
102
RTVSPropertyOp19
 70
     1
102
RTVSPropertyOp20
 70
     1
102
RTVSPropertyOp21
 70
     1
102
RTVSPropertyOp22
 70
     1
102
RTVSPropertyOp23
 70
     1
102
RTVSPropertyOp24
 70
     1
102
RTVSPropertyOp25
 70
     1
102
RTVSPropertyOp26
 70
     1
102
RTVSPropertyOp27
 70
     1
102
RTVSPropertyOp28
 70
     1
102
RTVSPropertyOp29
 70
     1
102
RTVSPropertyOp30
 70
     1
102
RTVSPropertyOp31
 70
     1
102
RTVSPropertyOp32
 70
     1
102
RTVSPropertyOp33
 70
     1
102
RTVSPropertyOp34
 70
     1
102
RTVSPropertyOp35
 70
     1
102
RTVSPropertyOp36
 70
     1
102
RTVSPropertyOp37
 70
     1
102
RTVSPropertyOp38
 70
     1
102
RTVSPropertyOp39
 70
     1
102
RTVSPropertyOp40
 70
     1
102
RTVSPropertyOp41
 70
     1
102
RTVSPropertyOp42
 70
     1
102
RTVSPropertyOp43
 70
     1
102
RTVSPropertyOp44
 70
     1
102
RTVSPropertyOp45
 70
     1
102
RTVSPropertyOp46
 70
     1
102
RTVSPropertyOp47
 70
     1
102
RTVSPropertyOp48
 70
     1
102
RTVSPropertyOp49
 70
     1
102
RTVSPropertyOp50
 70
     1
102
RTVSPropertyOp51
 70
     0
102
RTVSPropertyOp52
 70
     0
102
RTVSPropertyOp53
 70
     1
102
RTVSPropertyOp54
 70
     1
102
RTVSPropertyOp55
 70
     1
102
RTVSPropertyOp56
 70
     1
102
RTVSPropertyOp57
 70
     1
102
RTVSPost2010Prop28
280
     0
102
RTVSPost2010PropOp28
 70
     1
102
RTVSPost2010Prop29
280
     1
102
RTVSPost2010PropOp29
 70
     1
102
RTVSPost2010Prop30
280
     1
102
RTVSPost2010PropOp30
 70
     1
102
RTVSPost2010Prop31
280
     0
102
RTVSPost2010PropOp31
 70
     1
102
RTVSPost2010Prop32
280
     0
102
RTVSPost2010PropOp32
 70
     1
102
RTVSPost2010Prop33
280
     0
102
RTVSPost2010PropOp33
 70
     1
102
RTVSPost2010Prop34
280
     0
102
RTVSPost2010PropOp34
 70
     1
102
RTVSPost2010Prop35
280
     0
102
RTVSPost2010PropOp35
 70
     1
102
RTVSPost2010Prop36
280
     0
102
RTVSPost2010PropOp36
 70
     1
102
RTVSPost2010Prop37
 90
       50
102
RTVSPost2010PropOp37
 70
     1
102
RTVSPost2010Prop38
140
0.0
102
RTVSPost2010PropOp38
 70
     1
102
RTVSPost2010Prop39
140
1.0
102
RTVSPost2010PropOp39
 70
     1
102
RTVSPost2010Prop40
 90
        0
102
RTVSPost2010PropOp40
 70
     1
102
RTVSPost2010Prop41ColorIndex
 90
       18
102
RTVSPost2010Prop41ColorRGB
 90
        0
102
RTVSPost2010PropOp41
 70
     1
102
RTVSPost2010Prop42
 90
       50
102
RTVSPost2010PropOp42
 70
     1
102
RTVSPost2010Prop43
 90
        3
102
RTVSPost2010PropOp43
 70
     1
102
RTVSPost2010Prop44ColorIndex
 90
        5
102
RTVSPost2010Prop44ColorRGB
 90
      255
102
RTVSPost2010PropOp44
 70
     1
102
RTVSPost2010Prop45
280
     0
102
RTVSPost2010PropOp45
 70
     1
102
RTVSPost2010Prop46
 90
       50
102
RTVSPost2010PropOp46
 70
     1
102
RTVSPost2010Prop47
 90
       50
102
RTVSPost2010PropOp47
 70
     1
102
RTVSPost2010Prop48
 90
       50
102
RTVSPost2010PropOp48
 70
     1
102
RTVSPost2010Prop49
280
     0
102
RTVSPost2010PropOp49
 70
     1
102
RTVSPost2010Prop50
 90
       50
102
RTVSPost2010PropOp50
 70
     1
102
RTVSPost2010Prop51ColorIndex
 90
      256
102
RTVSPost2010Prop51ColorRGB
 90
-16777216
102
RTVSPost2010PropOp51
 70
     0
102
RTVSPost2010Prop52
140
1.0
102
RTVSPost2010PropOp52
 70
     0
102
RTVSPost2010Prop53
 90
        2
102
RTVSPost2010PropOp53
 70
     1
102
RTVSPost2010Prop54
  1
strokes_ogs.tif
102
RTVSPost2010PropOp54
 70
     1
102
RTVSPost2010Prop55
280
     0
102
RTVSPost2010PropOp55
 70
     1
102
RTVSPost2010Prop56
140
1.0
102
RTVSPost2010PropOp56
 70
     1
102
RTVSPost2010Prop57
140
1.0
102
RTVSPost2010PropOp57
 70
     1
  0
XRECORD
  5
315
102
{ACAD_REACTORS
330
314
102
}
330
314
100
AcDbXrecord
280
     1
102
RTVSPropertyOp0
 70
     1
102
RTVSPropertyOp1
 70
     1
102
RTVSPropertyOp2
 70
     1
102
RTVSPropertyOp3
 70
     1
102
RTVSPropertyOp4
 70
     1
102
RTVSPropertyOp5
 70
     1
102
RTVSPropertyOp6
 70
     1
102
RTVSPropertyOp7
 70
     1
102
RTVSPropertyOp8
 70
     1
102
RTVSPropertyOp9
 70
     1
102
RTVSPropertyOp10
 70
     1
102
RTVSPropertyOp11
 70
     1
102
RTVSPropertyOp12
 70
     1
102
RTVSPropertyOp13
 70
     1
102
RTVSPropertyOp14
 70
     1
102
RTVSPropertyOp15
 70
     1
102
RTVSPropertyOp16
 70
     1
102
RTVSPropertyOp17
 70
     1
102
RTVSPropertyOp18
 70
     1
102
RTVSPropertyOp19
 70
     1
102
RTVSPropertyOp20
 70
     1
102
RTVSPropertyOp21
 70
     1
102
RTVSPropertyOp22
 70
     1
102
RTVSPropertyOp23
 70
     1
102
RTVSPropertyOp24
 70
     1
102
RTVSPropertyOp25
 70
     1
102
RTVSPropertyOp26
 70
     1
102
RTVSPropertyOp27
 70
     1
102
RTVSPropertyOp28
 70
     1
102
RTVSPropertyOp29
 70
     1
102
RTVSPropertyOp30
 70
     1
102
RTVSPropertyOp31
 70
     1
102
RTVSPropertyOp32
 70
     1
102
RTVSPropertyOp33
 70
     1
102
RTVSPropertyOp34
 70
     1
102
RTVSPropertyOp35
 70
     1
102
RTVSPropertyOp36
 70
     1
102
RTVSPropertyOp37
 70
     1
102
RTVSPropertyOp38
 70
     1
102
RTVSPropertyOp39
 70
     1
102
RTVSPropertyOp40
 70
     1
102
RTVSPropertyOp41
 70
     1
102
RTVSPropertyOp42
 70
     1
102
RTVSPropertyOp43
 70
     1
102
RTVSPropertyOp44
 70
     1
102
RTVSPropertyOp45
 70
     1
102
RTVSPropertyOp46
 70
     1
102
RTVSPropertyOp47
 70
     1
102
RTVSPropertyOp48
 70
     1
102
RTVSPropertyOp49
 70
     1
102
RTVSPropertyOp50
 70
     1
102
RTVSPropertyOp51
 70
     0
102
RTVSPropertyOp52
 70
     0
102
RTVSPropertyOp53
 70
     1
102
RTVSPropertyOp54
 70
     1
102
RTVSPropertyOp55
 70
     1
102
RTVSPropertyOp56
 70
     1
102
RTVSPropertyOp57
 70
     1
102
RTVSPost2010Prop28
280
     0
102
RTVSPost2010PropOp28
 70
     1
102
RTVSPost2010Prop29
280
     1
102
RTVSPost2010PropOp29
 70
     1
102
RTVSPost2010Prop30
280
     1
102
RTVSPost2010PropOp30
 70
     1
102
RTVSPost2010Prop31
280
     0
102
RTVSPost2010PropOp31
 70
     1
102
RTVSPost2010Prop32
280
     0
102
RTVSPost2010PropOp32
 70
     1
102
RTVSPost2010Prop33
280
     0
102
RTVSPost2010PropOp33
 70
     1
102
RTVSPost2010Prop34
280
     0
102
RTVSPost2010PropOp34
 70
     1
102
RTVSPost2010Prop35
280
     0
102
RTVSPost2010PropOp35
 70
     1
102
RTVSPost2010Prop36
280
     0
102
RTVSPost2010PropOp36
 70
     1
102
RTVSPost2010Prop37
 90
       50
102
RTVSPost2010PropOp37
 70
     1
102
RTVSPost2010Prop38
140
0.0
102
RTVSPost2010PropOp38
 70
     1
102
RTVSPost2010Prop39
140
1.0
102
RTVSPost2010PropOp39
 70
     1
102
RTVSPost2010Prop40
 90
        0
102
RTVSPost2010PropOp40
 70
     1
102
RTVSPost2010Prop41ColorIndex
 90
       18
102
RTVSPost2010Prop41ColorRGB
 90
        0
102
RTVSPost2010PropOp41
 70
     1
102
RTVSPost2010Prop42
 90
       50
102
RTVSPost2010PropOp42
 70
     1
102
RTVSPost2010Prop43
 90
        3
102
RTVSPost2010PropOp43
 70
     1
102
RTVSPost2010Prop44ColorIndex
 90
        5
102
RTVSPost2010Prop44ColorRGB
 90
      255
102
RTVSPost2010PropOp44
 70
     1
102
RTVSPost2010Prop45
280
     0
102
RTVSPost2010PropOp45
 70
     1
102
RTVSPost2010Prop46
 90
       50
102
RTVSPost2010PropOp46
 70
     1
102
RTVSPost2010Prop47
 90
       50
102
RTVSPost2010PropOp47
 70
     1
102
RTVSPost2010Prop48
 90
       50
102
RTVSPost2010PropOp48
 70
     1
102
RTVSPost2010Prop49
280
     0
102
RTVSPost2010PropOp49
 70
     1
102
RTVSPost2010Prop50
 90
       50
102
RTVSPost2010PropOp50
 70
     1
102
RTVSPost2010Prop51ColorIndex
 90
      256
102
RTVSPost2010Prop51ColorRGB
 90
-16777216
102
RTVSPost2010PropOp51
 70
     0
102
RTVSPost2010Prop52
140
1.0
102
RTVSPost2010PropOp52
 70
     0
102
RTVSPost2010Prop53
 90
        2
102
RTVSPost2010PropOp53
 70
     1
102
RTVSPost2010Prop54
  1
strokes_ogs.tif
102
RTVSPost2010PropOp54
 70
     1
102
RTVSPost2010Prop55
280
     0
102
RTVSPost2010PropOp55
 70
     1
102
RTVSPost2010Prop56
140
1.0
102
RTVSPost2010PropOp56
 70
     1
102
RTVSPost2010Prop57
140
1.0
102
RTVSPost2010PropOp57
 70
     1
  0
XRECORD
  5
31B
102
{ACAD_REACTORS
330
31A
102
}
330
31A
100
AcDbXrecord
280
     1
102
RTVSPropertyOp0
 70
     1
102
RTVSPropertyOp1
 70
     1
102
RTVSPropertyOp2
 70
     1
102
RTVSPropertyOp3
 70
     1
102
RTVSPropertyOp4
 70
     1
102
RTVSPropertyOp5
 70
     1
102
RTVSPropertyOp6
 70
     1
102
RTVSPropertyOp7
 70
     1
102
RTVSPropertyOp8
 70
     1
102
RTVSPropertyOp9
 70
     1
102
RTVSPropertyOp10
 70
     1
102
RTVSPropertyOp11
 70
     1
102
RTVSPropertyOp12
 70
     1
102
RTVSPropertyOp13
 70
     1
102
RTVSPropertyOp14
 70
     1
102
RTVSPropertyOp15
 70
     1
102
RTVSPropertyOp16
 70
     1
102
RTVSPropertyOp17
 70
     1
102
RTVSPropertyOp18
 70
     1
102
RTVSPropertyOp19
 70
     1
102
RTVSPropertyOp20
 70
     1
102
RTVSPropertyOp21
 70
     1
102
RTVSPropertyOp22
 70
     1
102
RTVSPropertyOp23
 70
     1
102
RTVSPropertyOp24
 70
     1
102
RTVSPropertyOp25
 70
     1
102
RTVSPropertyOp26
 70
     1
102
RTVSPropertyOp27
 70
     1
102
RTVSPropertyOp28
 70
     1
102
RTVSPropertyOp29
 70
     1
102
RTVSPropertyOp30
 70
     1
102
RTVSPropertyOp31
 70
     1
102
RTVSPropertyOp32
 70
     1
102
RTVSPropertyOp33
 70
     1
102
RTVSPropertyOp34
 70
     1
102
RTVSPropertyOp35
 70
     1
102
RTVSPropertyOp36
 70
     1
102
RTVSPropertyOp37
 70
     1
102
RTVSPropertyOp38
 70
     1
102
RTVSPropertyOp39
 70
     1
102
RTVSPropertyOp40
 70
     1
102
RTVSPropertyOp41
 70
     1
102
RTVSPropertyOp42
 70
     1
102
RTVSPropertyOp43
 70
     1
102
RTVSPropertyOp44
 70
     1
102
RTVSPropertyOp45
 70
     1
102
RTVSPropertyOp46
 70
     1
102
RTVSPropertyOp47
 70
     1
102
RTVSPropertyOp48
 70
     1
102
RTVSPropertyOp49
 70
     1
102
RTVSPropertyOp50
 70
     1
102
RTVSPropertyOp51
 70
     0
102
RTVSPropertyOp52
 70
     0
102
RTVSPropertyOp53
 70
     1
102
RTVSPropertyOp54
 70
     1
102
RTVSPropertyOp55
 70
     1
102
RTVSPropertyOp56
 70
     1
102
RTVSPropertyOp57
 70
     1
102
RTVSPost2010Prop28
280
     0
102
RTVSPost2010PropOp28
 70
     1
102
RTVSPost2010Prop29
280
     1
102
RTVSPost2010PropOp29
 70
     1
102
RTVSPost2010Prop30
280
     1
102
RTVSPost2010PropOp30
 70
     1
102
RTVSPost2010Prop31
280
     0
102
RTVSPost2010PropOp31
 70
     1
102
RTVSPost2010Prop32
280
     0
102
RTVSPost2010PropOp32
 70
     1
102
RTVSPost2010Prop33
280
     0
102
RTVSPost2010PropOp33
 70
     1
102
RTVSPost2010Prop34
280
     0
102
RTVSPost2010PropOp34
 70
     1
102
RTVSPost2010Prop35
280
     0
102
RTVSPost2010PropOp35
 70
     1
102
RTVSPost2010Prop36
280
     0
102
RTVSPost2010PropOp36
 70
     1
102
RTVSPost2010Prop37
 90
       50
102
RTVSPost2010PropOp37
 70
     1
102
RTVSPost2010Prop38
140
0.0
102
RTVSPost2010PropOp38
 70
     1
102
RTVSPost2010Prop39
140
1.0
102
RTVSPost2010PropOp39
 70
     1
102
RTVSPost2010Prop40
 90
        0
102
RTVSPost2010PropOp40
 70
     1
102
RTVSPost2010Prop41ColorIndex
 90
       18
102
RTVSPost2010Prop41ColorRGB
 90
        0
102
RTVSPost2010PropOp41
 70
     1
102
RTVSPost2010Prop42
 90
       50
102
RTVSPost2010PropOp42
 70
     1
102
RTVSPost2010Prop43
 90
        3
102
RTVSPost2010PropOp43
 70
     1
102
RTVSPost2010Prop44ColorIndex
 90
        5
102
RTVSPost2010Prop44ColorRGB
 90
      255
102
RTVSPost2010PropOp44
 70
     1
102
RTVSPost2010Prop45
280
     0
102
RTVSPost2010PropOp45
 70
     1
102
RTVSPost2010Prop46
 90
       50
102
RTVSPost2010PropOp46
 70
     1
102
RTVSPost2010Prop47
 90
       50
102
RTVSPost2010PropOp47
 70
     1
102
RTVSPost2010Prop48
 90
       50
102
RTVSPost2010PropOp48
 70
     1
102
RTVSPost2010Prop49
280
     0
102
RTVSPost2010PropOp49
 70
     1
102
RTVSPost2010Prop50
 90
       50
102
RTVSPost2010PropOp50
 70
     1
102
RTVSPost2010Prop51ColorIndex
 90
      256
102
RTVSPost2010Prop51ColorRGB
 90
-16777216
102
RTVSPost2010PropOp51
 70
     0
102
RTVSPost2010Prop52
140
1.0
102
RTVSPost2010PropOp52
 70
     0
102
RTVSPost2010Prop53
 90
        2
102
RTVSPost2010PropOp53
 70
     1
102
RTVSPost2010Prop54
  1
strokes_ogs.tif
102
RTVSPost2010PropOp54
 70
     1
102
RTVSPost2010Prop55
280
     0
102
RTVSPost2010PropOp55
 70
     1
102
RTVSPost2010Prop56
140
1.0
102
RTVSPost2010PropOp56
 70
     1
102
RTVSPost2010Prop57
140
1.0
102
RTVSPost2010PropOp57
 70
     1
  0
XRECORD
  5
32F
102
{ACAD_REACTORS
330
32E
102
}
330
32E
100
AcDbXrecord
280
     1
102
RTVSPropertyOp0
 70
     0
102
RTVSPropertyOp1
 70
     0
102
RTVSPropertyOp2
 70
     0
102
RTVSPropertyOp3
 70
     0
102
RTVSPropertyOp4
 70
     0
102
RTVSPropertyOp5
 70
     0
102
RTVSPropertyOp6
 70
     0
102
RTVSPropertyOp7
 70
     0
102
RTVSPropertyOp8
 70
     0
102
RTVSPropertyOp9
 70
     0
102
RTVSPropertyOp10
 70
     0
102
RTVSPropertyOp11
 70
     0
102
RTVSPropertyOp12
 70
     0
102
RTVSPropertyOp13
 70
     0
102
RTVSPropertyOp14
 70
     2
102
RTVSPropertyOp15
 70
     0
102
RTVSPropertyOp16
 70
     0
102
RTVSPropertyOp17
 70
     0
102
RTVSPropertyOp18
 70
     0
102
RTVSPropertyOp19
 70
     0
102
RTVSPropertyOp20
 70
     0
102
RTVSPropertyOp21
 70
     0
102
RTVSPropertyOp22
 70
     0
102
RTVSPropertyOp23
 70
     0
102
RTVSPropertyOp24
 70
     0
102
RTVSPropertyOp25
 70
     0
102
RTVSPropertyOp26
 70
     0
102
RTVSPropertyOp27
 70
     0
102
RTVSPropertyOp28
 70
     0
102
RTVSPropertyOp29
 70
     0
102
RTVSPropertyOp30
 70
     0
102
RTVSPropertyOp31
 70
     0
102
RTVSPropertyOp32
 70
     0
102
RTVSPropertyOp33
 70
     0
102
RTVSPropertyOp34
 70
     0
102
RTVSPropertyOp35
 70
     0
102
RTVSPropertyOp36
 70
     0
102
RTVSPropertyOp37
 70
     0
102
RTVSPropertyOp38
 70
     0
102
RTVSPropertyOp39
 70
     0
102
RTVSPropertyOp40
 70
     0
102
RTVSPropertyOp41
 70
     0
102
RTVSPropertyOp42
 70
     0
102
RTVSPropertyOp43
 70
     0
102
RTVSPropertyOp44
 70
     0
102
RTVSPropertyOp45
 70
     0
102
RTVSPropertyOp46
 70
     0
102
RTVSPropertyOp47
 70
     0
102
RTVSPropertyOp48
 70
     0
102
RTVSPropertyOp49
 70
     0
102
RTVSPropertyOp50
 70
     0
102
RTVSPropertyOp51
 70
     0
102
RTVSPropertyOp52
 70
     0
102
RTVSPropertyOp53
 70
     0
102
RTVSPropertyOp54
 70
     0
102
RTVSPropertyOp55
 70
     0
102
RTVSPropertyOp56
 70
     0
102
RTVSPropertyOp57
 70
     0
102
RTVSPost2010Prop28
280
     0
102
RTVSPost2010PropOp28
 70
     0
102
RTVSPost2010Prop29
280
     1
102
RTVSPost2010PropOp29
 70
     0
102
RTVSPost2010Prop30
280
     1
102
RTVSPost2010PropOp30
 70
     0
102
RTVSPost2010Prop31
280
     0
102
RTVSPost2010PropOp31
 70
     0
102
RTVSPost2010Prop32
280
     0
102
RTVSPost2010PropOp32
 70
     0
102
RTVSPost2010Prop33
280
     0
102
RTVSPost2010PropOp33
 70
     0
102
RTVSPost2010Prop34
280
     0
102
RTVSPost2010PropOp34
 70
     0
102
RTVSPost2010Prop35
280
     0
102
RTVSPost2010PropOp35
 70
     0
102
RTVSPost2010Prop36
280
     0
102
RTVSPost2010PropOp36
 70
     0
102
RTVSPost2010Prop37
 90
       50
102
RTVSPost2010PropOp37
 70
     0
102
RTVSPost2010Prop38
140
0.0
102
RTVSPost2010PropOp38
 70
     0
102
RTVSPost2010Prop39
140
1.0
102
RTVSPost2010PropOp39
 70
     0
102
RTVSPost2010Prop40
 90
        0
102
RTVSPost2010PropOp40
 70
     0
102
RTVSPost2010Prop41ColorIndex
 90
       18
102
RTVSPost2010Prop41ColorRGB
 90
        0
102
RTVSPost2010PropOp41
 70
     0
102
RTVSPost2010Prop42
 90
       50
102
RTVSPost2010PropOp42
 70
     0
102
RTVSPost2010Prop43
 90
        3
102
RTVSPost2010PropOp43
 70
     0
102
RTVSPost2010Prop44ColorIndex
 90
        5
102
RTVSPost2010Prop44ColorRGB
 90
      255
102
RTVSPost2010PropOp44
 70
     0
102
RTVSPost2010Prop45
280
     0
102
RTVSPost2010PropOp45
 70
     0
102
RTVSPost2010Prop46
 90
       50
102
RTVSPost2010PropOp46
 70
     0
102
RTVSPost2010Prop47
 90
       50
102
RTVSPost2010PropOp47
 70
     0
102
RTVSPost2010Prop48
 90
       50
102
RTVSPost2010PropOp48
 70
     0
102
RTVSPost2010Prop49
280
     0
102
RTVSPost2010PropOp49
 70
     0
102
RTVSPost2010Prop50
 90
       50
102
RTVSPost2010PropOp50
 70
     0
102
RTVSPost2010Prop51ColorIndex
 90
      256
102
RTVSPost2010Prop51ColorRGB
 90
-16777216
102
RTVSPost2010PropOp51
 70
     0
102
RTVSPost2010Prop52
140
1.0
102
RTVSPost2010PropOp52
 70
     0
102
RTVSPost2010Prop53
 90
        2
102
RTVSPost2010PropOp53
 70
     0
102
RTVSPost2010Prop54
  1
strokes_ogs.tif
102
RTVSPost2010PropOp54
 70
     0
102
RTVSPost2010Prop55
280
     0
102
RTVSPost2010PropOp55
 70
     0
102
RTVSPost2010Prop56
140
1.0
102
RTVSPost2010PropOp56
 70
     0
102
RTVSPost2010Prop57
140
1.0
102
RTVSPost2010PropOp57
 70
     0
  0
XRECORD
  5
329
102
{ACAD_REACTORS
330
328
102
}
330
328
100
AcDbXrecord
280
     1
102
RTVSPropertyOp0
 70
     1
102
RTVSPropertyOp1
 70
     1
102
RTVSPropertyOp2
 70
     1
102
RTVSPropertyOp3
 70
     1
102
RTVSPropertyOp4
 70
     1
102
RTVSPropertyOp5
 70
     1
102
RTVSPropertyOp6
 70
     1
102
RTVSPropertyOp7
 70
     1
102
RTVSPropertyOp8
 70
     1
102
RTVSPropertyOp9
 70
     1
102
RTVSPropertyOp10
 70
     1
102
RTVSPropertyOp11
 70
     1
102
RTVSPropertyOp12
 70
     1
102
RTVSPropertyOp13
 70
     1
102
RTVSPropertyOp14
 70
     1
102
RTVSPropertyOp15
 70
     1
102
RTVSPropertyOp16
 70
     1
102
RTVSPropertyOp17
 70
     1
102
RTVSPropertyOp18
 70
     1
102
RTVSPropertyOp19
 70
     1
102
RTVSPropertyOp20
 70
     1
102
RTVSPropertyOp21
 70
     1
102
RTVSPropertyOp22
 70
     1
102
RTVSPropertyOp23
 70
     1
102
RTVSPropertyOp24
 70
     1
102
RTVSPropertyOp25
 70
     1
102
RTVSPropertyOp26
 70
     1
102
RTVSPropertyOp27
 70
     1
102
RTVSPropertyOp28
 70
     1
102
RTVSPropertyOp29
 70
     1
102
RTVSPropertyOp30
 70
     1
102
RTVSPropertyOp31
 70
     1
102
RTVSPropertyOp32
 70
     1
102
RTVSPropertyOp33
 70
     1
102
RTVSPropertyOp34
 70
     1
102
RTVSPropertyOp35
 70
     1
102
RTVSPropertyOp36
 70
     1
102
RTVSPropertyOp37
 70
     1
102
RTVSPropertyOp38
 70
     1
102
RTVSPropertyOp39
 70
     1
102
RTVSPropertyOp40
 70
     1
102
RTVSPropertyOp41
 70
     1
102
RTVSPropertyOp42
 70
     1
102
RTVSPropertyOp43
 70
     1
102
RTVSPropertyOp44
 70
     1
102
RTVSPropertyOp45
 70
     1
102
RTVSPropertyOp46
 70
     1
102
RTVSPropertyOp47
 70
     1
102
RTVSPropertyOp48
 70
     1
102
RTVSPropertyOp49
 70
     1
102
RTVSPropertyOp50
 70
     1
102
RTVSPropertyOp51
 70
     0
102
RTVSPropertyOp52
 70
     0
102
RTVSPropertyOp53
 70
     1
102
RTVSPropertyOp54
 70
     1
102
RTVSPropertyOp55
 70
     1
102
RTVSPropertyOp56
 70
     1
102
RTVSPropertyOp57
 70
     1
102
RTVSPost2010Prop28
280
     0
102
RTVSPost2010PropOp28
 70
     1
102
RTVSPost2010Prop29
280
     1
102
RTVSPost2010PropOp29
 70
     1
102
RTVSPost2010Prop30
280
     1
102
RTVSPost2010PropOp30
 70
     1
102
RTVSPost2010Prop31
280
     0
102
RTVSPost2010PropOp31
 70
     1
102
RTVSPost2010Prop32
280
     0
102
RTVSPost2010PropOp32
 70
     1
102
RTVSPost2010Prop33
280
     0
102
RTVSPost2010PropOp33
 70
     1
102
RTVSPost2010Prop34
280
     0
102
RTVSPost2010PropOp34
 70
     1
102
RTVSPost2010Prop35
280
     0
102
RTVSPost2010PropOp35
 70
     1
102
RTVSPost2010Prop36
280
     0
102
RTVSPost2010PropOp36
 70
     1
102
RTVSPost2010Prop37
 90
       50
102
RTVSPost2010PropOp37
 70
     1
102
RTVSPost2010Prop38
140
0.0
102
RTVSPost2010PropOp38
 70
     1
102
RTVSPost2010Prop39
140
1.0
102
RTVSPost2010PropOp39
 70
     1
102
RTVSPost2010Prop40
 90
        0
102
RTVSPost2010PropOp40
 70
     1
102
RTVSPost2010Prop41ColorIndex
 90
       18
102
RTVSPost2010Prop41ColorRGB
 90
        0
102
RTVSPost2010PropOp41
 70
     1
102
RTVSPost2010Prop42
 90
       50
102
RTVSPost2010PropOp42
 70
     1
102
RTVSPost2010Prop43
 90
        3
102
RTVSPost2010PropOp43
 70
     1
102
RTVSPost2010Prop44ColorIndex
 90
        5
102
RTVSPost2010Prop44ColorRGB
 90
      255
102
RTVSPost2010PropOp44
 70
     1
102
RTVSPost2010Prop45
280
     0
102
RTVSPost2010PropOp45
 70
     1
102
RTVSPost2010Prop46
 90
       50
102
RTVSPost2010PropOp46
 70
     1
102
RTVSPost2010Prop47
 90
       50
102
RTVSPost2010PropOp47
 70
     1
102
RTVSPost2010Prop48
 90
       50
102
RTVSPost2010PropOp48
 70
     1
102
RTVSPost2010Prop49
280
     0
102
RTVSPost2010PropOp49
 70
     1
102
RTVSPost2010Prop50
 90
       50
102
RTVSPost2010PropOp50
 70
     1
102
RTVSPost2010Prop51ColorIndex
 90
      256
102
RTVSPost2010Prop51ColorRGB
 90
-16777216
102
RTVSPost2010PropOp51
 70
     0
102
RTVSPost2010Prop52
140
1.0
102
RTVSPost2010PropOp52
 70
     0
102
RTVSPost2010Prop53
 90
        2
102
RTVSPost2010PropOp53
 70
     1
102
RTVSPost2010Prop54
  1
strokes_ogs.tif
102
RTVSPost2010PropOp54
 70
     1
102
RTVSPost2010Prop55
280
     0
102
RTVSPost2010PropOp55
 70
     1
102
RTVSPost2010Prop56
140
1.0
102
RTVSPost2010PropOp56
 70
     1
102
RTVSPost2010Prop57
140
1.0
102
RTVSPost2010PropOp57
 70
     1
  0
XRECORD
  5
331
102
{ACAD_REACTORS
330
330
102
}
330
330
100
AcDbXrecord
280
     1
102
RTVSPropertyOp0
 70
     0
102
RTVSPropertyOp1
 70
     0
102
RTVSPropertyOp2
 70
     0
102
RTVSPropertyOp3
 70
     0
102
RTVSPropertyOp4
 70
     0
102
RTVSPropertyOp5
 70
     0
102
RTVSPropertyOp6
 70
     0
102
RTVSPropertyOp7
 70
     0
102
RTVSPropertyOp8
 70
     0
102
RTVSPropertyOp9
 70
     0
102
RTVSPropertyOp10
 70
     0
102
RTVSPropertyOp11
 70
     0
102
RTVSPropertyOp12
 70
     0
102
RTVSPropertyOp13
 70
     0
102
RTVSPropertyOp14
 70
     2
102
RTVSPropertyOp15
 70
     0
102
RTVSPropertyOp16
 70
     0
102
RTVSPropertyOp17
 70
     0
102
RTVSPropertyOp18
 70
     0
102
RTVSPropertyOp19
 70
     0
102
RTVSPropertyOp20
 70
     0
102
RTVSPropertyOp21
 70
     0
102
RTVSPropertyOp22
 70
     0
102
RTVSPropertyOp23
 70
     0
102
RTVSPropertyOp24
 70
     0
102
RTVSPropertyOp25
 70
     0
102
RTVSPropertyOp26
 70
     0
102
RTVSPropertyOp27
 70
     0
102
RTVSPropertyOp28
 70
     0
102
RTVSPropertyOp29
 70
     0
102
RTVSPropertyOp30
 70
     0
102
RTVSPropertyOp31
 70
     0
102
RTVSPropertyOp32
 70
     0
102
RTVSPropertyOp33
 70
     0
102
RTVSPropertyOp34
 70
     0
102
RTVSPropertyOp35
 70
     0
102
RTVSPropertyOp36
 70
     0
102
RTVSPropertyOp37
 70
     0
102
RTVSPropertyOp38
 70
     0
102
RTVSPropertyOp39
 70
     0
102
RTVSPropertyOp40
 70
     0
102
RTVSPropertyOp41
 70
     0
102
RTVSPropertyOp42
 70
     0
102
RTVSPropertyOp43
 70
     0
102
RTVSPropertyOp44
 70
     0
102
RTVSPropertyOp45
 70
     0
102
RTVSPropertyOp46
 70
     0
102
RTVSPropertyOp47
 70
     0
102
RTVSPropertyOp48
 70
     0
102
RTVSPropertyOp49
 70
     0
102
RTVSPropertyOp50
 70
     0
102
RTVSPropertyOp51
 70
     0
102
RTVSPropertyOp52
 70
     0
102
RTVSPropertyOp53
 70
     0
102
RTVSPropertyOp54
 70
     0
102
RTVSPropertyOp55
 70
     0
102
RTVSPropertyOp56
 70
     0
102
RTVSPropertyOp57
 70
     0
102
RTVSPost2010Prop28
280
     0
102
RTVSPost2010PropOp28
 70
     0
102
RTVSPost2010Prop29
280
     1
102
RTVSPost2010PropOp29
 70
     0
102
RTVSPost2010Prop30
280
     1
102
RTVSPost2010PropOp30
 70
     0
102
RTVSPost2010Prop31
280
     0
102
RTVSPost2010PropOp31
 70
     0
102
RTVSPost2010Prop32
280
     0
102
RTVSPost2010PropOp32
 70
     0
102
RTVSPost2010Prop33
280
     0
102
RTVSPost2010PropOp33
 70
     0
102
RTVSPost2010Prop34
280
     0
102
RTVSPost2010PropOp34
 70
     0
102
RTVSPost2010Prop35
280
     0
102
RTVSPost2010PropOp35
 70
     0
102
RTVSPost2010Prop36
280
     0
102
RTVSPost2010PropOp36
 70
     0
102
RTVSPost2010Prop37
 90
       50
102
RTVSPost2010PropOp37
 70
     0
102
RTVSPost2010Prop38
140
0.0
102
RTVSPost2010PropOp38
 70
     0
102
RTVSPost2010Prop39
140
1.0
102
RTVSPost2010PropOp39
 70
     0
102
RTVSPost2010Prop40
 90
        0
102
RTVSPost2010PropOp40
 70
     0
102
RTVSPost2010Prop41ColorIndex
 90
       18
102
RTVSPost2010Prop41ColorRGB
 90
        0
102
RTVSPost2010PropOp41
 70
     0
102
RTVSPost2010Prop42
 90
       50
102
RTVSPost2010PropOp42
 70
     0
102
RTVSPost2010Prop43
 90
        3
102
RTVSPost2010PropOp43
 70
     0
102
RTVSPost2010Prop44ColorIndex
 90
        5
102
RTVSPost2010Prop44ColorRGB
 90
      255
102
RTVSPost2010PropOp44
 70
     0
102
RTVSPost2010Prop45
280
     0
102
RTVSPost2010PropOp45
 70
     0
102
RTVSPost2010Prop46
 90
       50
102
RTVSPost2010PropOp46
 70
     0
102
RTVSPost2010Prop47
 90
       50
102
RTVSPost2010PropOp47
 70
     0
102
RTVSPost2010Prop48
 90
       50
102
RTVSPost2010PropOp48
 70
     0
102
RTVSPost2010Prop49
280
     0
102
RTVSPost2010PropOp49
 70
     0
102
RTVSPost2010Prop50
 90
       50
102
RTVSPost2010PropOp50
 70
     0
102
RTVSPost2010Prop51ColorIndex
 90
      256
102
RTVSPost2010Prop51ColorRGB
 90
-16777216
102
RTVSPost2010PropOp51
 70
     0
102
RTVSPost2010Prop52
140
1.0
102
RTVSPost2010PropOp52
 70
     0
102
RTVSPost2010Prop53
 90
        2
102
RTVSPost2010PropOp53
 70
     0
102
RTVSPost2010Prop54
  1
strokes_ogs.tif
102
RTVSPost2010PropOp54
 70
     0
102
RTVSPost2010Prop55
280
     0
102
RTVSPost2010PropOp55
 70
     0
102
RTVSPost2010Prop56
140
1.0
102
RTVSPost2010PropOp56
 70
     0
102
RTVSPost2010Prop57
140
1.0
102
RTVSPost2010PropOp57
 70
     0
  0
XRECORD
  5
31F
102
{ACAD_REACTORS
330
31E
102
}
330
31E
100
AcDbXrecord
280
     1
102
RTVSPropertyOp0
 70
     1
102
RTVSPropertyOp1
 70
     1
102
RTVSPropertyOp2
 70
     1
102
RTVSPropertyOp3
 70
     1
102
RTVSPropertyOp4
 70
     1
102
RTVSPropertyOp5
 70
     1
102
RTVSPropertyOp6
 70
     1
102
RTVSPropertyOp7
 70
     1
102
RTVSPropertyOp8
 70
     1
102
RTVSPropertyOp9
 70
     1
102
RTVSPropertyOp10
 70
     1
102
RTVSPropertyOp11
 70
     1
102
RTVSPropertyOp12
 70
     1
102
RTVSPropertyOp13
 70
     1
102
RTVSPropertyOp14
 70
     1
102
RTVSPropertyOp15
 70
     1
102
RTVSPropertyOp16
 70
     1
102
RTVSPropertyOp17
 70
     1
102
RTVSPropertyOp18
 70
     1
102
RTVSPropertyOp19
 70
     1
102
RTVSPropertyOp20
 70
     1
102
RTVSPropertyOp21
 70
     1
102
RTVSPropertyOp22
 70
     1
102
RTVSPropertyOp23
 70
     1
102
RTVSPropertyOp24
 70
     1
102
RTVSPropertyOp25
 70
     1
102
RTVSPropertyOp26
 70
     1
102
RTVSPropertyOp27
 70
     1
102
RTVSPropertyOp28
 70
     1
102
RTVSPropertyOp29
 70
     1
102
RTVSPropertyOp30
 70
     1
102
RTVSPropertyOp31
 70
     1
102
RTVSPropertyOp32
 70
     1
102
RTVSPropertyOp33
 70
     1
102
RTVSPropertyOp34
 70
     1
102
RTVSPropertyOp35
 70
     1
102
RTVSPropertyOp36
 70
     1
102
RTVSPropertyOp37
 70
     1
102
RTVSPropertyOp38
 70
     1
102
RTVSPropertyOp39
 70
     1
102
RTVSPropertyOp40
 70
     1
102
RTVSPropertyOp41
 70
     1
102
RTVSPropertyOp42
 70
     1
102
RTVSPropertyOp43
 70
     1
102
RTVSPropertyOp44
 70
     1
102
RTVSPropertyOp45
 70
     1
102
RTVSPropertyOp46
 70
     1
102
RTVSPropertyOp47
 70
     1
102
RTVSPropertyOp48
 70
     1
102
RTVSPropertyOp49
 70
     1
102
RTVSPropertyOp50
 70
     1
102
RTVSPropertyOp51
 70
     0
102
RTVSPropertyOp52
 70
     0
102
RTVSPropertyOp53
 70
     1
102
RTVSPropertyOp54
 70
     1
102
RTVSPropertyOp55
 70
     1
102
RTVSPropertyOp56
 70
     1
102
RTVSPropertyOp57
 70
     1
102
RTVSPost2010Prop28
280
     0
102
RTVSPost2010PropOp28
 70
     1
102
RTVSPost2010Prop29
280
     1
102
RTVSPost2010PropOp29
 70
     1
102
RTVSPost2010Prop30
280
     1
102
RTVSPost2010PropOp30
 70
     1
102
RTVSPost2010Prop31
280
     0
102
RTVSPost2010PropOp31
 70
     1
102
RTVSPost2010Prop32
280
     0
102
RTVSPost2010PropOp32
 70
     1
102
RTVSPost2010Prop33
280
     0
102
RTVSPost2010PropOp33
 70
     1
102
RTVSPost2010Prop34
280
     0
102
RTVSPost2010PropOp34
 70
     1
102
RTVSPost2010Prop35
280
     0
102
RTVSPost2010PropOp35
 70
     1
102
RTVSPost2010Prop36
280
     0
102
RTVSPost2010PropOp36
 70
     1
102
RTVSPost2010Prop37
 90
       50
102
RTVSPost2010PropOp37
 70
     1
102
RTVSPost2010Prop38
140
0.0
102
RTVSPost2010PropOp38
 70
     1
102
RTVSPost2010Prop39
140
1.0
102
RTVSPost2010PropOp39
 70
     1
102
RTVSPost2010Prop40
 90
        0
102
RTVSPost2010PropOp40
 70
     1
102
RTVSPost2010Prop41ColorIndex
 90
       18
102
RTVSPost2010Prop41ColorRGB
 90
        0
102
RTVSPost2010PropOp41
 70
     1
102
RTVSPost2010Prop42
 90
       50
102
RTVSPost2010PropOp42
 70
     1
102
RTVSPost2010Prop43
 90
        3
102
RTVSPost2010PropOp43
 70
     1
102
RTVSPost2010Prop44ColorIndex
 90
        5
102
RTVSPost2010Prop44ColorRGB
 90
      255
102
RTVSPost2010PropOp44
 70
     1
102
RTVSPost2010Prop45
280
     0
102
RTVSPost2010PropOp45
 70
     1
102
RTVSPost2010Prop46
 90
       50
102
RTVSPost2010PropOp46
 70
     1
102
RTVSPost2010Prop47
 90
       50
102
RTVSPost2010PropOp47
 70
     1
102
RTVSPost2010Prop48
 90
       50
102
RTVSPost2010PropOp48
 70
     1
102
RTVSPost2010Prop49
280
     0
102
RTVSPost2010PropOp49
 70
     1
102
RTVSPost2010Prop50
 90
       50
102
RTVSPost2010PropOp50
 70
     1
102
RTVSPost2010Prop51ColorIndex
 90
      256
102
RTVSPost2010Prop51ColorRGB
 90
-16777216
102
RTVSPost2010PropOp51
 70
     0
102
RTVSPost2010Prop52
140
1.0
102
RTVSPost2010PropOp52
 70
     0
102
RTVSPost2010Prop53
 90
        2
102
RTVSPost2010PropOp53
 70
     1
102
RTVSPost2010Prop54
  1
strokes_ogs.tif
102
RTVSPost2010PropOp54
 70
     1
102
RTVSPost2010Prop55
280
     0
102
RTVSPost2010PropOp55
 70
     1
102
RTVSPost2010Prop56
140
1.0
102
RTVSPost2010PropOp56
 70
     1
102
RTVSPost2010Prop57
140
1.0
102
RTVSPost2010PropOp57
 70
     1
  0
XRECORD
  5
33D
102
{ACAD_REACTORS
330
33C
102
}
330
33C
100
AcDbXrecord
280
     1
102
RTVSPropertyOp0
 70
     1
102
RTVSPropertyOp1
 70
     1
102
RTVSPropertyOp2
 70
     1
102
RTVSPropertyOp3
 70
     1
102
RTVSPropertyOp4
 70
     1
102
RTVSPropertyOp5
 70
     1
102
RTVSPropertyOp6
 70
     1
102
RTVSPropertyOp7
 70
     1
102
RTVSPropertyOp8
 70
     1
102
RTVSPropertyOp9
 70
     1
102
RTVSPropertyOp10
 70
     1
102
RTVSPropertyOp11
 70
     1
102
RTVSPropertyOp12
 70
     1
102
RTVSPropertyOp13
 70
     1
102
RTVSPropertyOp14
 70
     1
102
RTVSPropertyOp15
 70
     1
102
RTVSPropertyOp16
 70
     1
102
RTVSPropertyOp17
 70
     1
102
RTVSPropertyOp18
 70
     1
102
RTVSPropertyOp19
 70
     1
102
RTVSPropertyOp20
 70
     1
102
RTVSPropertyOp21
 70
     1
102
RTVSPropertyOp22
 70
     1
102
RTVSPropertyOp23
 70
     1
102
RTVSPropertyOp24
 70
     1
102
RTVSPropertyOp25
 70
     1
102
RTVSPropertyOp26
 70
     1
102
RTVSPropertyOp27
 70
     1
102
RTVSPropertyOp28
 70
     1
102
RTVSPropertyOp29
 70
     1
102
RTVSPropertyOp30
 70
     1
102
RTVSPropertyOp31
 70
     1
102
RTVSPropertyOp32
 70
     1
102
RTVSPropertyOp33
 70
     1
102
RTVSPropertyOp34
 70
     1
102
RTVSPropertyOp35
 70
     1
102
RTVSPropertyOp36
 70
     1
102
RTVSPropertyOp37
 70
     1
102
RTVSPropertyOp38
 70
     1
102
RTVSPropertyOp39
 70
     1
102
RTVSPropertyOp40
 70
     1
102
RTVSPropertyOp41
 70
     1
102
RTVSPropertyOp42
 70
     1
102
RTVSPropertyOp43
 70
     1
102
RTVSPropertyOp44
 70
     1
102
RTVSPropertyOp45
 70
     1
102
RTVSPropertyOp46
 70
     1
102
RTVSPropertyOp47
 70
     1
102
RTVSPropertyOp48
 70
     1
102
RTVSPropertyOp49
 70
     1
102
RTVSPropertyOp50
 70
     1
102
RTVSPropertyOp51
 70
     0
102
RTVSPropertyOp52
 70
     0
102
RTVSPropertyOp53
 70
     1
102
RTVSPropertyOp54
 70
     1
102
RTVSPropertyOp55
 70
     1
102
RTVSPropertyOp56
 70
     1
102
RTVSPropertyOp57
 70
     1
102
RTVSPost2010Prop28
280
     0
102
RTVSPost2010PropOp28
 70
     1
102
RTVSPost2010Prop29
280
     1
102
RTVSPost2010PropOp29
 70
     1
102
RTVSPost2010Prop30
280
     1
102
RTVSPost2010PropOp30
 70
     1
102
RTVSPost2010Prop31
280
     0
102
RTVSPost2010PropOp31
 70
     1
102
RTVSPost2010Prop32
280
     0
102
RTVSPost2010PropOp32
 70
     1
102
RTVSPost2010Prop33
280
     0
102
RTVSPost2010PropOp33
 70
     1
102
RTVSPost2010Prop34
280
     0
102
RTVSPost2010PropOp34
 70
     1
102
RTVSPost2010Prop35
280
     0
102
RTVSPost2010PropOp35
 70
     1
102
RTVSPost2010Prop36
280
     0
102
RTVSPost2010PropOp36
 70
     1
102
RTVSPost2010Prop37
 90
       50
102
RTVSPost2010PropOp37
 70
     1
102
RTVSPost2010Prop38
140
0.0
102
RTVSPost2010PropOp38
 70
     1
102
RTVSPost2010Prop39
140
1.0
102
RTVSPost2010PropOp39
 70
     1
102
RTVSPost2010Prop40
 90
        0
102
RTVSPost2010PropOp40
 70
     1
102
RTVSPost2010Prop41ColorIndex
 90
       18
102
RTVSPost2010Prop41ColorRGB
 90
        0
102
RTVSPost2010PropOp41
 70
     1
102
RTVSPost2010Prop42
 90
       50
102
RTVSPost2010PropOp42
 70
     1
102
RTVSPost2010Prop43
 90
        3
102
RTVSPost2010PropOp43
 70
     1
102
RTVSPost2010Prop44ColorIndex
 90
        5
102
RTVSPost2010Prop44ColorRGB
 90
      255
102
RTVSPost2010PropOp44
 70
     1
102
RTVSPost2010Prop45
280
     0
102
RTVSPost2010PropOp45
 70
     1
102
RTVSPost2010Prop46
 90
       50
102
RTVSPost2010PropOp46
 70
     1
102
RTVSPost2010Prop47
 90
       50
102
RTVSPost2010PropOp47
 70
     1
102
RTVSPost2010Prop48
 90
       50
102
RTVSPost2010PropOp48
 70
     1
102
RTVSPost2010Prop49
280
     0
102
RTVSPost2010PropOp49
 70
     1
102
RTVSPost2010Prop50
 90
       50
102
RTVSPost2010PropOp50
 70
     1
102
RTVSPost2010Prop51ColorIndex
 90
      256
102
RTVSPost2010Prop51ColorRGB
 90
-16777216
102
RTVSPost2010PropOp51
 70
     0
102
RTVSPost2010Prop52
140
1.0
102
RTVSPost2010PropOp52
 70
     0
102
RTVSPost2010Prop53
 90
        2
102
RTVSPost2010PropOp53
 70
     1
102
RTVSPost2010Prop54
  1
strokes_ogs.tif
102
RTVSPost2010PropOp54
 70
     1
102
RTVSPost2010Prop55
280
     0
102
RTVSPost2010PropOp55
 70
     1
102
RTVSPost2010Prop56
140
1.0
102
RTVSPost2010PropOp56
 70
     1
102
RTVSPost2010Prop57
140
1.0
102
RTVSPost2010PropOp57
 70
     1
  0
XRECORD
  5
33B
102
{ACAD_REACTORS
330
33A
102
}
330
33A
100
AcDbXrecord
280
     1
102
RTVSPropertyOp0
 70
     1
102
RTVSPropertyOp1
 70
     1
102
RTVSPropertyOp2
 70
     1
102
RTVSPropertyOp3
 70
     1
102
RTVSPropertyOp4
 70
     1
102
RTVSPropertyOp5
 70
     1
102
RTVSPropertyOp6
 70
     1
102
RTVSPropertyOp7
 70
     1
102
RTVSPropertyOp8
 70
     1
102
RTVSPropertyOp9
 70
     1
102
RTVSPropertyOp10
 70
     1
102
RTVSPropertyOp11
 70
     1
102
RTVSPropertyOp12
 70
     1
102
RTVSPropertyOp13
 70
     1
102
RTVSPropertyOp14
 70
     1
102
RTVSPropertyOp15
 70
     1
102
RTVSPropertyOp16
 70
     1
102
RTVSPropertyOp17
 70
     1
102
RTVSPropertyOp18
 70
     1
102
RTVSPropertyOp19
 70
     1
102
RTVSPropertyOp20
 70
     1
102
RTVSPropertyOp21
 70
     1
102
RTVSPropertyOp22
 70
     1
102
RTVSPropertyOp23
 70
     1
102
RTVSPropertyOp24
 70
     1
102
RTVSPropertyOp25
 70
     1
102
RTVSPropertyOp26
 70
     1
102
RTVSPropertyOp27
 70
     1
102
RTVSPropertyOp28
 70
     1
102
RTVSPropertyOp29
 70
     1
102
RTVSPropertyOp30
 70
     1
102
RTVSPropertyOp31
 70
     1
102
RTVSPropertyOp32
 70
     1
102
RTVSPropertyOp33
 70
     1
102
RTVSPropertyOp34
 70
     1
102
RTVSPropertyOp35
 70
     1
102
RTVSPropertyOp36
 70
     1
102
RTVSPropertyOp37
 70
     1
102
RTVSPropertyOp38
 70
     1
102
RTVSPropertyOp39
 70
     1
102
RTVSPropertyOp40
 70
     1
102
RTVSPropertyOp41
 70
     1
102
RTVSPropertyOp42
 70
     1
102
RTVSPropertyOp43
 70
     1
102
RTVSPropertyOp44
 70
     1
102
RTVSPropertyOp45
 70
     1
102
RTVSPropertyOp46
 70
     1
102
RTVSPropertyOp47
 70
     1
102
RTVSPropertyOp48
 70
     1
102
RTVSPropertyOp49
 70
     1
102
RTVSPropertyOp50
 70
     1
102
RTVSPropertyOp51
 70
     0
102
RTVSPropertyOp52
 70
     0
102
RTVSPropertyOp53
 70
     1
102
RTVSPropertyOp54
 70
     1
102
RTVSPropertyOp55
 70
     1
102
RTVSPropertyOp56
 70
     1
102
RTVSPropertyOp57
 70
     1
102
RTVSPost2010Prop28
280
     0
102
RTVSPost2010PropOp28
 70
     1
102
RTVSPost2010Prop29
280
     1
102
RTVSPost2010PropOp29
 70
     1
102
RTVSPost2010Prop30
280
     1
102
RTVSPost2010PropOp30
 70
     1
102
RTVSPost2010Prop31
280
     0
102
RTVSPost2010PropOp31
 70
     1
102
RTVSPost2010Prop32
280
     0
102
RTVSPost2010PropOp32
 70
     1
102
RTVSPost2010Prop33
280
     0
102
RTVSPost2010PropOp33
 70
     1
102
RTVSPost2010Prop34
280
     0
102
RTVSPost2010PropOp34
 70
     1
102
RTVSPost2010Prop35
280
     0
102
RTVSPost2010PropOp35
 70
     1
102
RTVSPost2010Prop36
280
     0
102
RTVSPost2010PropOp36
 70
     1
102
RTVSPost2010Prop37
 90
       50
102
RTVSPost2010PropOp37
 70
     1
102
RTVSPost2010Prop38
140
0.0
102
RTVSPost2010PropOp38
 70
     1
102
RTVSPost2010Prop39
140
1.0
102
RTVSPost2010PropOp39
 70
     1
102
RTVSPost2010Prop40
 90
        0
102
RTVSPost2010PropOp40
 70
     1
102
RTVSPost2010Prop41ColorIndex
 90
       18
102
RTVSPost2010Prop41ColorRGB
 90
        0
102
RTVSPost2010PropOp41
 70
     1
102
RTVSPost2010Prop42
 90
       50
102
RTVSPost2010PropOp42
 70
     1
102
RTVSPost2010Prop43
 90
        3
102
RTVSPost2010PropOp43
 70
     1
102
RTVSPost2010Prop44ColorIndex
 90
        5
102
RTVSPost2010Prop44ColorRGB
 90
      255
102
RTVSPost2010PropOp44
 70
     1
102
RTVSPost2010Prop45
280
     0
102
RTVSPost2010PropOp45
 70
     1
102
RTVSPost2010Prop46
 90
       50
102
RTVSPost2010PropOp46
 70
     1
102
RTVSPost2010Prop47
 90
       50
102
RTVSPost2010PropOp47
 70
     1
102
RTVSPost2010Prop48
 90
       50
102
RTVSPost2010PropOp48
 70
     1
102
RTVSPost2010Prop49
280
     0
102
RTVSPost2010PropOp49
 70
     1
102
RTVSPost2010Prop50
 90
       50
102
RTVSPost2010PropOp50
 70
     1
102
RTVSPost2010Prop51ColorIndex
 90
      256
102
RTVSPost2010Prop51ColorRGB
 90
-16777216
102
RTVSPost2010PropOp51
 70
     0
102
RTVSPost2010Prop52
140
1.0
102
RTVSPost2010PropOp52
 70
     0
102
RTVSPost2010Prop53
 90
        2
102
RTVSPost2010PropOp53
 70
     1
102
RTVSPost2010Prop54
  1
strokes_ogs.tif
102
RTVSPost2010PropOp54
 70
     1
102
RTVSPost2010Prop55
280
     0
102
RTVSPost2010PropOp55
 70
     1
102
RTVSPost2010Prop56
140
1.0
102
RTVSPost2010PropOp56
 70
     1
102
RTVSPost2010Prop57
140
1.0
102
RTVSPost2010PropOp57
 70
     1
  0
XRECORD
  5
335
102
{ACAD_REACTORS
330
334
102
}
330
334
100
AcDbXrecord
280
     1
102
RTVSPropertyOp0
 70
     1
102
RTVSPropertyOp1
 70
     1
102
RTVSPropertyOp2
 70
     1
102
RTVSPropertyOp3
 70
     1
102
RTVSPropertyOp4
 70
     1
102
RTVSPropertyOp5
 70
     1
102
RTVSPropertyOp6
 70
     1
102
RTVSPropertyOp7
 70
     1
102
RTVSPropertyOp8
 70
     1
102
RTVSPropertyOp9
 70
     1
102
RTVSPropertyOp10
 70
     1
102
RTVSPropertyOp11
 70
     1
102
RTVSPropertyOp12
 70
     1
102
RTVSPropertyOp13
 70
     1
102
RTVSPropertyOp14
 70
     1
102
RTVSPropertyOp15
 70
     1
102
RTVSPropertyOp16
 70
     1
102
RTVSPropertyOp17
 70
     1
102
RTVSPropertyOp18
 70
     1
102
RTVSPropertyOp19
 70
     1
102
RTVSPropertyOp20
 70
     1
102
RTVSPropertyOp21
 70
     1
102
RTVSPropertyOp22
 70
     1
102
RTVSPropertyOp23
 70
     1
102
RTVSPropertyOp24
 70
     1
102
RTVSPropertyOp25
 70
     1
102
RTVSPropertyOp26
 70
     1
102
RTVSPropertyOp27
 70
     1
102
RTVSPropertyOp28
 70
     1
102
RTVSPropertyOp29
 70
     1
102
RTVSPropertyOp30
 70
     1
102
RTVSPropertyOp31
 70
     1
102
RTVSPropertyOp32
 70
     1
102
RTVSPropertyOp33
 70
     1
102
RTVSPropertyOp34
 70
     1
102
RTVSPropertyOp35
 70
     1
102
RTVSPropertyOp36
 70
     1
102
RTVSPropertyOp37
 70
     1
102
RTVSPropertyOp38
 70
     1
102
RTVSPropertyOp39
 70
     1
102
RTVSPropertyOp40
 70
     1
102
RTVSPropertyOp41
 70
     1
102
RTVSPropertyOp42
 70
     1
102
RTVSPropertyOp43
 70
     1
102
RTVSPropertyOp44
 70
     1
102
RTVSPropertyOp45
 70
     1
102
RTVSPropertyOp46
 70
     1
102
RTVSPropertyOp47
 70
     1
102
RTVSPropertyOp48
 70
     1
102
RTVSPropertyOp49
 70
     1
102
RTVSPropertyOp50
 70
     1
102
RTVSPropertyOp51
 70
     0
102
RTVSPropertyOp52
 70
     0
102
RTVSPropertyOp53
 70
     1
102
RTVSPropertyOp54
 70
     1
102
RTVSPropertyOp55
 70
     1
102
RTVSPropertyOp56
 70
     1
102
RTVSPropertyOp57
 70
     1
102
RTVSPost2010Prop28
280
     0
102
RTVSPost2010PropOp28
 70
     1
102
RTVSPost2010Prop29
280
     1
102
RTVSPost2010PropOp29
 70
     1
102
RTVSPost2010Prop30
280
     1
102
RTVSPost2010PropOp30
 70
     1
102
RTVSPost2010Prop31
280
     0
102
RTVSPost2010PropOp31
 70
     1
102
RTVSPost2010Prop32
280
     0
102
RTVSPost2010PropOp32
 70
     1
102
RTVSPost2010Prop33
280
     0
102
RTVSPost2010PropOp33
 70
     1
102
RTVSPost2010Prop34
280
     0
102
RTVSPost2010PropOp34
 70
     1
102
RTVSPost2010Prop35
280
     0
102
RTVSPost2010PropOp35
 70
     1
102
RTVSPost2010Prop36
280
     0
102
RTVSPost2010PropOp36
 70
     1
102
RTVSPost2010Prop37
 90
       50
102
RTVSPost2010PropOp37
 70
     1
102
RTVSPost2010Prop38
140
0.0
102
RTVSPost2010PropOp38
 70
     1
102
RTVSPost2010Prop39
140
1.0
102
RTVSPost2010PropOp39
 70
     1
102
RTVSPost2010Prop40
 90
        0
102
RTVSPost2010PropOp40
 70
     1
102
RTVSPost2010Prop41ColorIndex
 90
       18
102
RTVSPost2010Prop41ColorRGB
 90
        0
102
RTVSPost2010PropOp41
 70
     1
102
RTVSPost2010Prop42
 90
       50
102
RTVSPost2010PropOp42
 70
     1
102
RTVSPost2010Prop43
 90
        3
102
RTVSPost2010PropOp43
 70
     1
102
RTVSPost2010Prop44ColorIndex
 90
        5
102
RTVSPost2010Prop44ColorRGB
 90
      255
102
RTVSPost2010PropOp44
 70
     1
102
RTVSPost2010Prop45
280
     0
102
RTVSPost2010PropOp45
 70
     1
102
RTVSPost2010Prop46
 90
       50
102
RTVSPost2010PropOp46
 70
     1
102
RTVSPost2010Prop47
 90
       50
102
RTVSPost2010PropOp47
 70
     1
102
RTVSPost2010Prop48
 90
       50
102
RTVSPost2010PropOp48
 70
     1
102
RTVSPost2010Prop49
280
     0
102
RTVSPost2010PropOp49
 70
     1
102
RTVSPost2010Prop50
 90
       50
102
RTVSPost2010PropOp50
 70
     1
102
RTVSPost2010Prop51ColorIndex
 90
      256
102
RTVSPost2010Prop51ColorRGB
 90
-16777216
102
RTVSPost2010PropOp51
 70
     0
102
RTVSPost2010Prop52
140
1.0
102
RTVSPost2010PropOp52
 70
     0
102
RTVSPost2010Prop53
 90
        2
102
RTVSPost2010PropOp53
 70
     1
102
RTVSPost2010Prop54
  1
strokes_ogs.tif
102
RTVSPost2010PropOp54
 70
     1
102
RTVSPost2010Prop55
280
     0
102
RTVSPost2010PropOp55
 70
     1
102
RTVSPost2010Prop56
140
1.0
102
RTVSPost2010PropOp56
 70
     1
102
RTVSPost2010Prop57
140
1.0
102
RTVSPost2010PropOp57
 70
     1
  0
XRECORD
  5
337
102
{ACAD_REACTORS
330
336
102
}
330
336
100
AcDbXrecord
280
     1
102
RTVSPropertyOp0
 70
     1
102
RTVSPropertyOp1
 70
     1
102
RTVSPropertyOp2
 70
     1
102
RTVSPropertyOp3
 70
     1
102
RTVSPropertyOp4
 70
     1
102
RTVSPropertyOp5
 70
     1
102
RTVSPropertyOp6
 70
     1
102
RTVSPropertyOp7
 70
     1
102
RTVSPropertyOp8
 70
     1
102
RTVSPropertyOp9
 70
     1
102
RTVSPropertyOp10
 70
     1
102
RTVSPropertyOp11
 70
     1
102
RTVSPropertyOp12
 70
     1
102
RTVSPropertyOp13
 70
     1
102
RTVSPropertyOp14
 70
     1
102
RTVSPropertyOp15
 70
     1
102
RTVSPropertyOp16
 70
     1
102
RTVSPropertyOp17
 70
     1
102
RTVSPropertyOp18
 70
     1
102
RTVSPropertyOp19
 70
     1
102
RTVSPropertyOp20
 70
     1
102
RTVSPropertyOp21
 70
     1
102
RTVSPropertyOp22
 70
     1
102
RTVSPropertyOp23
 70
     1
102
RTVSPropertyOp24
 70
     1
102
RTVSPropertyOp25
 70
     1
102
RTVSPropertyOp26
 70
     1
102
RTVSPropertyOp27
 70
     1
102
RTVSPropertyOp28
 70
     1
102
RTVSPropertyOp29
 70
     1
102
RTVSPropertyOp30
 70
     1
102
RTVSPropertyOp31
 70
     1
102
RTVSPropertyOp32
 70
     1
102
RTVSPropertyOp33
 70
     1
102
RTVSPropertyOp34
 70
     1
102
RTVSPropertyOp35
 70
     1
102
RTVSPropertyOp36
 70
     1
102
RTVSPropertyOp37
 70
     1
102
RTVSPropertyOp38
 70
     1
102
RTVSPropertyOp39
 70
     1
102
RTVSPropertyOp40
 70
     1
102
RTVSPropertyOp41
 70
     1
102
RTVSPropertyOp42
 70
     1
102
RTVSPropertyOp43
 70
     1
102
RTVSPropertyOp44
 70
     1
102
RTVSPropertyOp45
 70
     1
102
RTVSPropertyOp46
 70
     1
102
RTVSPropertyOp47
 70
     1
102
RTVSPropertyOp48
 70
     1
102
RTVSPropertyOp49
 70
     1
102
RTVSPropertyOp50
 70
     1
102
RTVSPropertyOp51
 70
     0
102
RTVSPropertyOp52
 70
     0
102
RTVSPropertyOp53
 70
     1
102
RTVSPropertyOp54
 70
     1
102
RTVSPropertyOp55
 70
     1
102
RTVSPropertyOp56
 70
     1
102
RTVSPropertyOp57
 70
     1
102
RTVSPost2010Prop28
280
     0
102
RTVSPost2010PropOp28
 70
     1
102
RTVSPost2010Prop29
280
     1
102
RTVSPost2010PropOp29
 70
     1
102
RTVSPost2010Prop30
280
     1
102
RTVSPost2010PropOp30
 70
     1
102
RTVSPost2010Prop31
280
     0
102
RTVSPost2010PropOp31
 70
     1
102
RTVSPost2010Prop32
280
     0
102
RTVSPost2010PropOp32
 70
     1
102
RTVSPost2010Prop33
280
     0
102
RTVSPost2010PropOp33
 70
     1
102
RTVSPost2010Prop34
280
     0
102
RTVSPost2010PropOp34
 70
     1
102
RTVSPost2010Prop35
280
     0
102
RTVSPost2010PropOp35
 70
     1
102
RTVSPost2010Prop36
280
     0
102
RTVSPost2010PropOp36
 70
     1
102
RTVSPost2010Prop37
 90
       50
102
RTVSPost2010PropOp37
 70
     1
102
RTVSPost2010Prop38
140
0.0
102
RTVSPost2010PropOp38
 70
     1
102
RTVSPost2010Prop39
140
1.0
102
RTVSPost2010PropOp39
 70
     1
102
RTVSPost2010Prop40
 90
        0
102
RTVSPost2010PropOp40
 70
     1
102
RTVSPost2010Prop41ColorIndex
 90
       18
102
RTVSPost2010Prop41ColorRGB
 90
        0
102
RTVSPost2010PropOp41
 70
     1
102
RTVSPost2010Prop42
 90
       50
102
RTVSPost2010PropOp42
 70
     1
102
RTVSPost2010Prop43
 90
        3
102
RTVSPost2010PropOp43
 70
     1
102
RTVSPost2010Prop44ColorIndex
 90
        5
102
RTVSPost2010Prop44ColorRGB
 90
      255
102
RTVSPost2010PropOp44
 70
     1
102
RTVSPost2010Prop45
280
     0
102
RTVSPost2010PropOp45
 70
     1
102
RTVSPost2010Prop46
 90
       50
102
RTVSPost2010PropOp46
 70
     1
102
RTVSPost2010Prop47
 90
       50
102
RTVSPost2010PropOp47
 70
     1
102
RTVSPost2010Prop48
 90
       50
102
RTVSPost2010PropOp48
 70
     1
102
RTVSPost2010Prop49
280
     0
102
RTVSPost2010PropOp49
 70
     1
102
RTVSPost2010Prop50
 90
       50
102
RTVSPost2010PropOp50
 70
     1
102
RTVSPost2010Prop51ColorIndex
 90
      256
102
RTVSPost2010Prop51ColorRGB
 90
-16777216
102
RTVSPost2010PropOp51
 70
     0
102
RTVSPost2010Prop52
140
1.0
102
RTVSPost2010PropOp52
 70
     0
102
RTVSPost2010Prop53
 90
        2
102
RTVSPost2010PropOp53
 70
     1
102
RTVSPost2010Prop54
  1
strokes_ogs.tif
102
RTVSPost2010PropOp54
 70
     1
102
RTVSPost2010Prop55
280
     0
102
RTVSPost2010PropOp55
 70
     1
102
RTVSPost2010Prop56
140
1.0
102
RTVSPost2010PropOp56
 70
     1
102
RTVSPost2010Prop57
140
1.0
102
RTVSPost2010PropOp57
 70
     1
  0
XRECORD
  5
327
102
{ACAD_REACTORS
330
326
102
}
330
326
100
AcDbXrecord
280
     1
102
RTVSPropertyOp0
 70
     1
102
RTVSPropertyOp1
 70
     1
102
RTVSPropertyOp2
 70
     1
102
RTVSPropertyOp3
 70
     1
102
RTVSPropertyOp4
 70
     1
102
RTVSPropertyOp5
 70
     1
102
RTVSPropertyOp6
 70
     1
102
RTVSPropertyOp7
 70
     1
102
RTVSPropertyOp8
 70
     1
102
RTVSPropertyOp9
 70
     1
102
RTVSPropertyOp10
 70
     1
102
RTVSPropertyOp11
 70
     1
102
RTVSPropertyOp12
 70
     1
102
RTVSPropertyOp13
 70
     1
102
RTVSPropertyOp14
 70
     1
102
RTVSPropertyOp15
 70
     1
102
RTVSPropertyOp16
 70
     1
102
RTVSPropertyOp17
 70
     1
102
RTVSPropertyOp18
 70
     1
102
RTVSPropertyOp19
 70
     1
102
RTVSPropertyOp20
 70
     1
102
RTVSPropertyOp21
 70
     1
102
RTVSPropertyOp22
 70
     1
102
RTVSPropertyOp23
 70
     1
102
RTVSPropertyOp24
 70
     1
102
RTVSPropertyOp25
 70
     1
102
RTVSPropertyOp26
 70
     1
102
RTVSPropertyOp27
 70
     1
102
RTVSPropertyOp28
 70
     1
102
RTVSPropertyOp29
 70
     1
102
RTVSPropertyOp30
 70
     1
102
RTVSPropertyOp31
 70
     1
102
RTVSPropertyOp32
 70
     1
102
RTVSPropertyOp33
 70
     1
102
RTVSPropertyOp34
 70
     1
102
RTVSPropertyOp35
 70
     1
102
RTVSPropertyOp36
 70
     1
102
RTVSPropertyOp37
 70
     1
102
RTVSPropertyOp38
 70
     1
102
RTVSPropertyOp39
 70
     1
102
RTVSPropertyOp40
 70
     1
102
RTVSPropertyOp41
 70
     1
102
RTVSPropertyOp42
 70
     1
102
RTVSPropertyOp43
 70
     1
102
RTVSPropertyOp44
 70
     1
102
RTVSPropertyOp45
 70
     1
102
RTVSPropertyOp46
 70
     1
102
RTVSPropertyOp47
 70
     1
102
RTVSPropertyOp48
 70
     1
102
RTVSPropertyOp49
 70
     1
102
RTVSPropertyOp50
 70
     1
102
RTVSPropertyOp51
 70
     0
102
RTVSPropertyOp52
 70
     0
102
RTVSPropertyOp53
 70
     1
102
RTVSPropertyOp54
 70
     1
102
RTVSPropertyOp55
 70
     1
102
RTVSPropertyOp56
 70
     1
102
RTVSPropertyOp57
 70
     1
102
RTVSPost2010Prop28
280
     0
102
RTVSPost2010PropOp28
 70
     1
102
RTVSPost2010Prop29
280
     1
102
RTVSPost2010PropOp29
 70
     1
102
RTVSPost2010Prop30
280
     1
102
RTVSPost2010PropOp30
 70
     1
102
RTVSPost2010Prop31
280
     0
102
RTVSPost2010PropOp31
 70
     1
102
RTVSPost2010Prop32
280
     0
102
RTVSPost2010PropOp32
 70
     1
102
RTVSPost2010Prop33
280
     0
102
RTVSPost2010PropOp33
 70
     1
102
RTVSPost2010Prop34
280
     0
102
RTVSPost2010PropOp34
 70
     1
102
RTVSPost2010Prop35
280
     0
102
RTVSPost2010PropOp35
 70
     1
102
RTVSPost2010Prop36
280
     0
102
RTVSPost2010PropOp36
 70
     1
102
RTVSPost2010Prop37
 90
       50
102
RTVSPost2010PropOp37
 70
     1
102
RTVSPost2010Prop38
140
0.0
102
RTVSPost2010PropOp38
 70
     1
102
RTVSPost2010Prop39
140
1.0
102
RTVSPost2010PropOp39
 70
     1
102
RTVSPost2010Prop40
 90
        0
102
RTVSPost2010PropOp40
 70
     1
102
RTVSPost2010Prop41ColorIndex
 90
       18
102
RTVSPost2010Prop41ColorRGB
 90
        0
102
RTVSPost2010PropOp41
 70
     1
102
RTVSPost2010Prop42
 90
       50
102
RTVSPost2010PropOp42
 70
     1
102
RTVSPost2010Prop43
 90
        3
102
RTVSPost2010PropOp43
 70
     1
102
RTVSPost2010Prop44ColorIndex
 90
        5
102
RTVSPost2010Prop44ColorRGB
 90
      255
102
RTVSPost2010PropOp44
 70
     1
102
RTVSPost2010Prop45
280
     0
102
RTVSPost2010PropOp45
 70
     1
102
RTVSPost2010Prop46
 90
       50
102
RTVSPost2010PropOp46
 70
     1
102
RTVSPost2010Prop47
 90
       50
102
RTVSPost2010PropOp47
 70
     1
102
RTVSPost2010Prop48
 90
       50
102
RTVSPost2010PropOp48
 70
     1
102
RTVSPost2010Prop49
280
     0
102
RTVSPost2010PropOp49
 70
     1
102
RTVSPost2010Prop50
 90
       50
102
RTVSPost2010PropOp50
 70
     1
102
RTVSPost2010Prop51ColorIndex
 90
      256
102
RTVSPost2010Prop51ColorRGB
 90
-16777216
102
RTVSPost2010PropOp51
 70
     0
102
RTVSPost2010Prop52
140
1.0
102
RTVSPost2010PropOp52
 70
     0
102
RTVSPost2010Prop53
 90
        2
102
RTVSPost2010PropOp53
 70
     1
102
RTVSPost2010Prop54
  1
strokes_ogs.tif
102
RTVSPost2010PropOp54
 70
     1
102
RTVSPost2010Prop55
280
     0
102
RTVSPost2010PropOp55
 70
     1
102
RTVSPost2010Prop56
140
1.0
102
RTVSPost2010PropOp56
 70
     1
102
RTVSPost2010Prop57
140
1.0
102
RTVSPost2010PropOp57
 70
     1
  0
XRECORD
  5
319
102
{ACAD_REACTORS
330
318
102
}
330
318
100
AcDbXrecord
280
     1
102
RTVSPropertyOp0
 70
     1
102
RTVSPropertyOp1
 70
     1
102
RTVSPropertyOp2
 70
     1
102
RTVSPropertyOp3
 70
     1
102
RTVSPropertyOp4
 70
     1
102
RTVSPropertyOp5
 70
     1
102
RTVSPropertyOp6
 70
     1
102
RTVSPropertyOp7
 70
     1
102
RTVSPropertyOp8
 70
     1
102
RTVSPropertyOp9
 70
     1
102
RTVSPropertyOp10
 70
     1
102
RTVSPropertyOp11
 70
     1
102
RTVSPropertyOp12
 70
     1
102
RTVSPropertyOp13
 70
     1
102
RTVSPropertyOp14
 70
     1
102
RTVSPropertyOp15
 70
     1
102
RTVSPropertyOp16
 70
     1
102
RTVSPropertyOp17
 70
     1
102
RTVSPropertyOp18
 70
     1
102
RTVSPropertyOp19
 70
     1
102
RTVSPropertyOp20
 70
     1
102
RTVSPropertyOp21
 70
     1
102
RTVSPropertyOp22
 70
     1
102
RTVSPropertyOp23
 70
     1
102
RTVSPropertyOp24
 70
     1
102
RTVSPropertyOp25
 70
     1
102
RTVSPropertyOp26
 70
     1
102
RTVSPropertyOp27
 70
     1
102
RTVSPropertyOp28
 70
     1
102
RTVSPropertyOp29
 70
     1
102
RTVSPropertyOp30
 70
     1
102
RTVSPropertyOp31
 70
     1
102
RTVSPropertyOp32
 70
     1
102
RTVSPropertyOp33
 70
     1
102
RTVSPropertyOp34
 70
     1
102
RTVSPropertyOp35
 70
     1
102
RTVSPropertyOp36
 70
     1
102
RTVSPropertyOp37
 70
     1
102
RTVSPropertyOp38
 70
     1
102
RTVSPropertyOp39
 70
     1
102
RTVSPropertyOp40
 70
     1
102
RTVSPropertyOp41
 70
     1
102
RTVSPropertyOp42
 70
     1
102
RTVSPropertyOp43
 70
     1
102
RTVSPropertyOp44
 70
     1
102
RTVSPropertyOp45
 70
     1
102
RTVSPropertyOp46
 70
     1
102
RTVSPropertyOp47
 70
     1
102
RTVSPropertyOp48
 70
     1
102
RTVSPropertyOp49
 70
     1
102
RTVSPropertyOp50
 70
     1
102
RTVSPropertyOp51
 70
     0
102
RTVSPropertyOp52
 70
     0
102
RTVSPropertyOp53
 70
     1
102
RTVSPropertyOp54
 70
     1
102
RTVSPropertyOp55
 70
     1
102
RTVSPropertyOp56
 70
     1
102
RTVSPropertyOp57
 70
     1
102
RTVSPost2010Prop28
280
     0
102
RTVSPost2010PropOp28
 70
     1
102
RTVSPost2010Prop29
280
     1
102
RTVSPost2010PropOp29
 70
     1
102
RTVSPost2010Prop30
280
     1
102
RTVSPost2010PropOp30
 70
     1
102
RTVSPost2010Prop31
280
     0
102
RTVSPost2010PropOp31
 70
     1
102
RTVSPost2010Prop32
280
     0
102
RTVSPost2010PropOp32
 70
     1
102
RTVSPost2010Prop33
280
     0
102
RTVSPost2010PropOp33
 70
     1
102
RTVSPost2010Prop34
280
     0
102
RTVSPost2010PropOp34
 70
     1
102
RTVSPost2010Prop35
280
     0
102
RTVSPost2010PropOp35
 70
     1
102
RTVSPost2010Prop36
280
     0
102
RTVSPost2010PropOp36
 70
     1
102
RTVSPost2010Prop37
 90
       50
102
RTVSPost2010PropOp37
 70
     1
102
RTVSPost2010Prop38
140
0.0
102
RTVSPost2010PropOp38
 70
     1
102
RTVSPost2010Prop39
140
1.0
102
RTVSPost2010PropOp39
 70
     1
102
RTVSPost2010Prop40
 90
        0
102
RTVSPost2010PropOp40
 70
     1
102
RTVSPost2010Prop41ColorIndex
 90
       18
102
RTVSPost2010Prop41ColorRGB
 90
        0
102
RTVSPost2010PropOp41
 70
     1
102
RTVSPost2010Prop42
 90
       50
102
RTVSPost2010PropOp42
 70
     1
102
RTVSPost2010Prop43
 90
        3
102
RTVSPost2010PropOp43
 70
     1
102
RTVSPost2010Prop44ColorIndex
 90
        5
102
RTVSPost2010Prop44ColorRGB
 90
      255
102
RTVSPost2010PropOp44
 70
     1
102
RTVSPost2010Prop45
280
     0
102
RTVSPost2010PropOp45
 70
     1
102
RTVSPost2010Prop46
 90
       50
102
RTVSPost2010PropOp46
 70
     1
102
RTVSPost2010Prop47
 90
       50
102
RTVSPost2010PropOp47
 70
     1
102
RTVSPost2010Prop48
 90
       50
102
RTVSPost2010PropOp48
 70
     1
102
RTVSPost2010Prop49
280
     0
102
RTVSPost2010PropOp49
 70
     1
102
RTVSPost2010Prop50
 90
       50
102
RTVSPost2010PropOp50
 70
     1
102
RTVSPost2010Prop51ColorIndex
 90
      256
102
RTVSPost2010Prop51ColorRGB
 90
-16777216
102
RTVSPost2010PropOp51
 70
     0
102
RTVSPost2010Prop52
140
1.0
102
RTVSPost2010PropOp52
 70
     0
102
RTVSPost2010Prop53
 90
        2
102
RTVSPost2010PropOp53
 70
     1
102
RTVSPost2010Prop54
  1
strokes_ogs.tif
102
RTVSPost2010PropOp54
 70
     1
102
RTVSPost2010Prop55
280
     0
102
RTVSPost2010PropOp55
 70
     1
102
RTVSPost2010Prop56
140
1.0
102
RTVSPost2010PropOp56
 70
     1
102
RTVSPost2010Prop57
140
1.0
102
RTVSPost2010PropOp57
 70
     1
  0
XRECORD
  5
339
102
{ACAD_REACTORS
330
338
102
}
330
338
100
AcDbXrecord
280
     1
102
RTVSPropertyOp0
 70
     1
102
RTVSPropertyOp1
 70
     1
102
RTVSPropertyOp2
 70
     1
102
RTVSPropertyOp3
 70
     1
102
RTVSPropertyOp4
 70
     1
102
RTVSPropertyOp5
 70
     1
102
RTVSPropertyOp6
 70
     1
102
RTVSPropertyOp7
 70
     1
102
RTVSPropertyOp8
 70
     1
102
RTVSPropertyOp9
 70
     1
102
RTVSPropertyOp10
 70
     1
102
RTVSPropertyOp11
 70
     1
102
RTVSPropertyOp12
 70
     1
102
RTVSPropertyOp13
 70
     1
102
RTVSPropertyOp14
 70
     1
102
RTVSPropertyOp15
 70
     1
102
RTVSPropertyOp16
 70
     1
102
RTVSPropertyOp17
 70
     1
102
RTVSPropertyOp18
 70
     1
102
RTVSPropertyOp19
 70
     1
102
RTVSPropertyOp20
 70
     1
102
RTVSPropertyOp21
 70
     1
102
RTVSPropertyOp22
 70
     1
102
RTVSPropertyOp23
 70
     1
102
RTVSPropertyOp24
 70
     1
102
RTVSPropertyOp25
 70
     1
102
RTVSPropertyOp26
 70
     1
102
RTVSPropertyOp27
 70
     1
102
RTVSPropertyOp28
 70
     1
102
RTVSPropertyOp29
 70
     1
102
RTVSPropertyOp30
 70
     1
102
RTVSPropertyOp31
 70
     1
102
RTVSPropertyOp32
 70
     1
102
RTVSPropertyOp33
 70
     1
102
RTVSPropertyOp34
 70
     1
102
RTVSPropertyOp35
 70
     1
102
RTVSPropertyOp36
 70
     1
102
RTVSPropertyOp37
 70
     1
102
RTVSPropertyOp38
 70
     1
102
RTVSPropertyOp39
 70
     1
102
RTVSPropertyOp40
 70
     1
102
RTVSPropertyOp41
 70
     1
102
RTVSPropertyOp42
 70
     1
102
RTVSPropertyOp43
 70
     1
102
RTVSPropertyOp44
 70
     1
102
RTVSPropertyOp45
 70
     1
102
RTVSPropertyOp46
 70
     1
102
RTVSPropertyOp47
 70
     1
102
RTVSPropertyOp48
 70
     1
102
RTVSPropertyOp49
 70
     1
102
RTVSPropertyOp50
 70
     1
102
RTVSPropertyOp51
 70
     0
102
RTVSPropertyOp52
 70
     0
102
RTVSPropertyOp53
 70
     1
102
RTVSPropertyOp54
 70
     1
102
RTVSPropertyOp55
 70
     1
102
RTVSPropertyOp56
 70
     1
102
RTVSPropertyOp57
 70
     1
102
RTVSPost2010Prop28
280
     0
102
RTVSPost2010PropOp28
 70
     1
102
RTVSPost2010Prop29
280
     1
102
RTVSPost2010PropOp29
 70
     1
102
RTVSPost2010Prop30
280
     1
102
RTVSPost2010PropOp30
 70
     1
102
RTVSPost2010Prop31
280
     0
102
RTVSPost2010PropOp31
 70
     1
102
RTVSPost2010Prop32
280
     0
102
RTVSPost2010PropOp32
 70
     1
102
RTVSPost2010Prop33
280
     0
102
RTVSPost2010PropOp33
 70
     1
102
RTVSPost2010Prop34
280
     0
102
RTVSPost2010PropOp34
 70
     1
102
RTVSPost2010Prop35
280
     0
102
RTVSPost2010PropOp35
 70
     1
102
RTVSPost2010Prop36
280
     0
102
RTVSPost2010PropOp36
 70
     1
102
RTVSPost2010Prop37
 90
       50
102
RTVSPost2010PropOp37
 70
     1
102
RTVSPost2010Prop38
140
0.0
102
RTVSPost2010PropOp38
 70
     1
102
RTVSPost2010Prop39
140
1.0
102
RTVSPost2010PropOp39
 70
     1
102
RTVSPost2010Prop40
 90
        0
102
RTVSPost2010PropOp40
 70
     1
102
RTVSPost2010Prop41ColorIndex
 90
       18
102
RTVSPost2010Prop41ColorRGB
 90
        0
102
RTVSPost2010PropOp41
 70
     1
102
RTVSPost2010Prop42
 90
       50
102
RTVSPost2010PropOp42
 70
     1
102
RTVSPost2010Prop43
 90
        3
102
RTVSPost2010PropOp43
 70
     1
102
RTVSPost2010Prop44ColorIndex
 90
        5
102
RTVSPost2010Prop44ColorRGB
 90
      255
102
RTVSPost2010PropOp44
 70
     1
102
RTVSPost2010Prop45
280
     0
102
RTVSPost2010PropOp45
 70
     1
102
RTVSPost2010Prop46
 90
       50
102
RTVSPost2010PropOp46
 70
     1
102
RTVSPost2010Prop47
 90
       50
102
RTVSPost2010PropOp47
 70
     1
102
RTVSPost2010Prop48
 90
       50
102
RTVSPost2010PropOp48
 70
     1
102
RTVSPost2010Prop49
280
     0
102
RTVSPost2010PropOp49
 70
     1
102
RTVSPost2010Prop50
 90
       50
102
RTVSPost2010PropOp50
 70
     1
102
RTVSPost2010Prop51ColorIndex
 90
      256
102
RTVSPost2010Prop51ColorRGB
 90
-16777216
102
RTVSPost2010PropOp51
 70
     0
102
RTVSPost2010Prop52
140
1.0
102
RTVSPost2010PropOp52
 70
     0
102
RTVSPost2010Prop53
 90
        2
102
RTVSPost2010PropOp53
 70
     1
102
RTVSPost2010Prop54
  1
strokes_ogs.tif
102
RTVSPost2010PropOp54
 70
     1
102
RTVSPost2010Prop55
280
     0
102
RTVSPost2010PropOp55
 70
     1
102
RTVSPost2010Prop56
140
1.0
102
RTVSPost2010PropOp56
 70
     1
102
RTVSPost2010Prop57
140
1.0
102
RTVSPost2010PropOp57
 70
     1
  0
ENDSEC
  0
EOF
