  0
SECTION
  2
HEADER
  9
$ACADVER
  1
AC1018
  9
$ACADMAINTVER
 70
     0
  9
$DWGCODEPAGE
  3
ANSI_1252
  9
$INSBASE
 10
0.0
 20
0.0
 30
0.0
  9
$EXTMIN
 10
0.046414912292057
 20
-0.7536032909542622
 30
0.0025
  9
$EXTMAX
 10
2.5638016809611
 20
1.026367151539
 30
-0.0025
  9
$LIMMIN
 10
0.0
 20
0.0
  9
$LIMMAX
 10
12.0
 20
9.0
  9
$ORTHOMODE
 70
     0
  9
$REGENMODE
 70
     1
  9
$FILLMODE
 70
     1
  9
$QTEXTMODE
 70
     0
  9
$MIRRTEXT
 70
     1
  9
$LTSCALE
 40
1.0
  9
$ATTMODE
 70
     1
  9
$TEXTSIZE
 40
0.2
  9
$TRACEWID
 40
0.05
  9
$TEXTSTYLE
  7
Simplex
  9
$CLAYER
  8
0
  9
$CELTYPE
  6
ByLayer
  9
$CECOLOR
 62
   256
  9
$CELTSCALE
 40
1.0
  9
$DISPSILH
 70
     0
  9
$DIMSCALE
 40
1.0
  9
$DIMASZ
 40
0.18
  9
$DIMEXO
 40
0.0625
  9
$DIMDLI
 40
0.38
  9
$DIMRND
 40
0.0
  9
$DIMDLE
 40
0.0
  9
$DIMEXE
 40
0.18
  9
$DIMTP
 40
0.0
  9
$DIMTM
 40
0.0
  9
$DIMTXT
 40
0.18
  9
$DIMCEN
 40
0.09
  9
$DIMTSZ
 40
0.0
  9
$DIMTOL
 70
     0
  9
$DIMLIM
 70
     0
  9
$DIMTIH
 70
     1
  9
$DIMTOH
 70
     1
  9
$DIMSE1
 70
     0
  9
$DIMSE2
 70
     0
  9
$DIMTAD
 70
     0
  9
$DIMZIN
 70
     0
  9
$DIMBLK
  1

  9
$DIMASO
 70
     1
  9
$DIMSHO
 70
     1
  9
$DIMPOST
  1

  9
$DIMAPOST
  1

  9
$DIMALT
 70
     0
  9
$DIMALTD
 70
     2
  9
$DIMALTF
 40
25.4
  9
$DIMLFAC
 40
1.0
  9
$DIMTOFL
 70
     0
  9
$DIMTVP
 40
0.0
  9
$DIMTIX
 70
     0
  9
$DIMSOXD
 70
     0
  9
$DIMSAH
 70
     0
  9
$DIMBLK1
  1

  9
$DIMBLK2
  1

  9
$DIMSTYLE
  2
Standard
  9
$DIMCLRD
 70
     0
  9
$DIMCLRE
 70
     0
  9
$DIMCLRT
 70
     0
  9
$DIMTFAC
 40
1.0
  9
$DIMGAP
 40
0.09
  9
$DIMJUST
 70
     0
  9
$DIMSD1
 70
     0
  9
$DIMSD2
 70
     0
  9
$DIMTOLJ
 70
     1
  9
$DIMTZIN
 70
     0
  9
$DIMALTZ
 70
     0
  9
$DIMALTTZ
 70
     0
  9
$DIMUPT
 70
     0
  9
$DIMDEC
 70
     4
  9
$DIMTDEC
 70
     4
  9
$DIMALTU
 70
     2
  9
$DIMALTTD
 70
     2
  9
$DIMTXSTY
  7
Standard
  9
$DIMAUNIT
 70
     0
  9
$DIMADEC
 70
     0
  9
$DIMALTRND
 40
0.0
  9
$DIMAZIN
 70
     0
  9
$DIMDSEP
 70
    46
  9
$DIMATFIT
 70
     3
  9
$DIMFRAC
 70
     0
  9
$DIMLDRBLK
  1

  9
$DIMLUNIT
 70
     2
  9
$DIMLWD
 70
    -2
  9
$DIMLWE
 70
    -2
  9
$DIMTMOVE
 70
     0
  9
$LUNITS
 70
     2
  9
$LUPREC
 70
     4
  9
$SKETCHINC
 40
0.1
  9
$FILLETRAD
 40
0.5
  9
$AUNITS
 70
     0
  9
$AUPREC
 70
     0
  9
$MENU
  1
.
  9
$ELEVATION
 40
0.0
  9
$PELEVATION
 40
0.0
  9
$THICKNESS
 40
0.0
  9
$LIMCHECK
 70
     0
  9
$CHAMFERA
 40
0.5
  9
$CHAMFERB
 40
0.5
  9
$CHAMFERC
 40
1.0
  9
$CHAMFERD
 40
0.0
  9
$SKPOLY
 70
     0
  9
$TDCREATE
 40
2452381.314152083
  9
$TDUCREATE
 40
2452380.897485417
  9
$TDUPDATE
 40
2457966.336485185
  9
$TDUUPDATE
 40
2457965.919818519
  9
$TDINDWG
 40
0.0040921296
  9
$TDUSRTIMER
 40
0.0040921296
  9
$USRTIMER
 70
     1
  9
$ANGBASE
 50
0.0
  9
$ANGDIR
 70
     0
  9
$PDMODE
 70
     0
  9
$PDSIZE
 40
0.0
  9
$PLINEWID
 40
0.0
  9
$SPLFRAME
 70
     0
  9
$SPLINETYPE
 70
     6
  9
$SPLINESEGS
 70
     8
  9
$HANDSEED
  5
305
  9
$SURFTAB1
 70
     6
  9
$SURFTAB2
 70
     6
  9
$SURFTYPE
 70
     6
  9
$SURFU
 70
     6
  9
$SURFV
 70
     6
  9
$UCSBASE
  2

  9
$UCSNAME
  2

  9
$UCSORG
 10
0.0
 20
0.0
 30
0.0
  9
$UCSXDIR
 10
1.0
 20
0.0
 30
0.0
  9
$UCSYDIR
 10
0.0
 20
1.0
 30
0.0
  9
$UCSORTHOREF
  2

  9
$UCSORTHOVIEW
 70
     0
  9
$UCSORGTOP
 10
0.0
 20
0.0
 30
0.0
  9
$UCSORGBOTTOM
 10
0.0
 20
0.0
 30
0.0
  9
$UCSORGLEFT
 10
0.0
 20
0.0
 30
0.0
  9
$UCSORGRIGHT
 10
0.0
 20
0.0
 30
0.0
  9
$UCSORGFRONT
 10
0.0
 20
0.0
 30
0.0
  9
$UCSORGBACK
 10
0.0
 20
0.0
 30
0.0
  9
$PUCSBASE
  2

  9
$PUCSNAME
  2

  9
$PUCSORG
 10
0.0
 20
0.0
 30
0.0
  9
$PUCSXDIR
 10
1.0
 20
0.0
 30
0.0
  9
$PUCSYDIR
 10
0.0
 20
1.0
 30
0.0
  9
$PUCSORTHOREF
  2

  9
$PUCSORTHOVIEW
 70
     0
  9
$PUCSORGTOP
 10
0.0
 20
0.0
 30
0.0
  9
$PUCSORGBOTTOM
 10
0.0
 20
0.0
 30
0.0
  9
$PUCSORGLEFT
 10
0.0
 20
0.0
 30
0.0
  9
$PUCSORGRIGHT
 10
0.0
 20
0.0
 30
0.0
  9
$PUCSORGFRONT
 10
0.0
 20
0.0
 30
0.0
  9
$PUCSORGBACK
 10
0.0
 20
0.0
 30
0.0
  9
$USERI1
 70
     0
  9
$USERI2
 70
     0
  9
$USERI3
 70
     0
  9
$USERI4
 70
     0
  9
$USERI5
 70
     0
  9
$USERR1
 40
0.0
  9
$USERR2
 40
0.0
  9
$USERR3
 40
0.0
  9
$USERR4
 40
0.0
  9
$USERR5
 40
0.0
  9
$WORLDVIEW
 70
     1
  9
$SHADEDGE
 70
     3
  9
$SHADEDIF
 70
    70
  9
$TILEMODE
 70
     1
  9
$MAXACTVP
 70
    64
  9
$PINSBASE
 10
0.0
 20
0.0
 30
0.0
  9
$PLIMCHECK
 70
     0
  9
$PEXTMIN
 10
1.000000000000000E+20
 20
1.000000000000000E+20
 30
1.000000000000000E+20
  9
$PEXTMAX
 10
-1.000000000000000E+20
 20
-1.000000000000000E+20
 30
-1.000000000000000E+20
  9
$PLIMMIN
 10
0.0
 20
0.0
  9
$PLIMMAX
 10
12.0
 20
9.0
  9
$UNITMODE
 70
     0
  9
$VISRETAIN
 70
     1
  9
$PLINEGEN
 70
     0
  9
$PSLTSCALE
 70
     1
  9
$TREEDEPTH
 70
  3020
  9
$CMLSTYLE
  2
Standard
  9
$CMLJUST
 70
     0
  9
$CMLSCALE
 40
1.0
  9
$PROXYGRAPHICS
 70
     1
  9
$MEASUREMENT
 70
     0
  9
$CELWEIGHT
370
    -1
  9
$ENDCAPS
280
     0
  9
$JOINSTYLE
280
     0
  9
$LWDISPLAY
290
     1
  9
$INSUNITS
 70
     0
  9
$HYPERLINKBASE
  1

  9
$STYLESHEET
  1

  9
$XEDIT
290
     1
  9
$CEPSNTYPE
380
     0
  9
$PSTYLEMODE
290
     1
  9
$FINGERPRINTGUID
  2
{2DA8D5D2-0A6F-4433-BE9F-7C818D36D6ED}
  9
$VERSIONGUID
  2
{A098EE71-2063-4C44-BF23-3920F6FD3DB3}
  9
$EXTNAMES
290
     1
  9
$PSVPSCALE
 40
0.0
  9
$OLESTARTUP
290
     0
  9
$SORTENTS
280
   127
  9
$INDEXCTL
280
     0
  9
$HIDETEXT
280
     1
  9
$XCLIPFRAME
290
     0
  9
$HALOGAP
280
     0
  9
$OBSCOLOR
 70
   257
  9
$OBSLTYPE
280
     0
  9
$INTERSECTIONDISPLAY
280
     0
  9
$INTERSECTIONCOLOR
 70
   257
  9
$DIMASSOC
280
     1
  9
$PROJECTNAME
  1

  0
ENDSEC
  0
SECTION
  2
CLASSES
  0
CLASS
  1
ACDBDICTIONARYWDFLT
  2
AcDbDictionaryWithDefault
  3
ObjectDBX Classes
 90
        0
 91
        4
280
     0
281
     0
  0
CLASS
  1
ACDBPLACEHOLDER
  2
AcDbPlaceHolder
  3
ObjectDBX Classes
 90
        0
 91
        1
280
     0
281
     0
  0
CLASS
  1
LAYOUT
  2
AcDbLayout
  3
ObjectDBX Classes
 90
        0
 91
        1
280
     0
281
     0
  0
CLASS
  1
DICTIONARYVAR
  2
AcDbDictionaryVar
  3
ObjectDBX Classes
 90
        0
 91
        4
280
     0
281
     0
  0
CLASS
  1
VISUALSTYLE
  2
AcDbVisualStyle
  3
ObjectDBX Classes
 90
     4095
 91
        4
280
     0
281
     0
  0
CLASS
  1
SCALE
  2
AcDbScale
  3
ObjectDBX Classes
 90
     1153
 91
        4
280
     0
281
     0
  0
CLASS
  1
MATERIAL
  2
AcDbMaterial
  3
ObjectDBX Classes
 90
     1153
 91
        4
280
     0
281
     0
  0
CLASS
  1
TABLESTYLE
  2
AcDbTableStyle
  3
ObjectDBX Classes
 90
     4095
 91
        4
280
     0
281
     0
  0
CLASS
  1
MLEADERSTYLE
  2
AcDbMLeaderStyle
  3
ACDB_MLEADERSTYLE_CLASS
 90
     4095
 91
        4
280
     0
281
     0
  0
CLASS
  1
RASTERVARIABLES
  2
AcDbRasterVariables
  3
ISM
 90
        0
 91
        4
280
     0
281
     0
  0
CLASS
  1
SUN
  2
AcDbSun
  3
SCENEOE
 90
     1153
 91
        4
280
     0
281
     0
  0
CLASS
  1
CELLSTYLEMAP
  2
AcDbCellStyleMap
  3
ObjectDBX Classes
 90
     1152
 91
        4
280
     0
281
     0
  0
ENDSEC
  0
SECTION
  2
TABLES
  0
TABLE
  2
VPORT
  5
8
102
{ACAD_XDICTIONARY
360
2BF
102
}
330
0
100
AcDbSymbolTable
 70
     2
  0
VPORT
  5
55
330
8
100
AcDbSymbolTableRecord
100
AcDbViewportTableRecord
  2
*Active
 70
     0
 10
0.0
 20
0.0
 11
1.0
 21
1.0
 12
0.0
 22
0.0
 13
0.0
 23
0.0
 14
0.5
 24
0.5
 15
0.5
 25
0.5
 16
0.0
 26
0.0
 36
1.0
 17
1.305108296626578
 27
0.136381930292369
 37
0.0
 40
1.957967486742587
 41
1.414285714285714
 42
50.0
 43
0.0
 44
0.0
 50
0.0
 51
0.0
 71
     8
 72
   100
 73
     1
 74
     3
 75
     0
 76
     0
 77
     0
 78
     0
281
     0
 65
     1
110
0.0
120
0.0
130
0.0
111
1.0
121
0.0
131
0.0
112
0.0
122
1.0
132
0.0
 79
     0
146
0.0
  0
ENDTAB
  0
TABLE
  2
LTYPE
  5
5
330
0
100
AcDbSymbolTable
 70
    25
  0
LTYPE
  5
14
330
5
100
AcDbSymbolTableRecord
100
AcDbLinetypeTableRecord
  2
ByBlock
 70
     0
  3

 72
    65
 73
     0
 40
0.0
  0
LTYPE
  5
15
330
5
100
AcDbSymbolTableRecord
100
AcDbLinetypeTableRecord
  2
ByLayer
 70
     0
  3

 72
    65
 73
     0
 40
0.0
  0
LTYPE
  5
16
330
5
100
AcDbSymbolTableRecord
100
AcDbLinetypeTableRecord
  2
Continuous
 70
     0
  3
Solid line
 72
    65
 73
     0
 40
0.0
  0
LTYPE
  5
2D
330
5
100
AcDbSymbolTableRecord
100
AcDbLinetypeTableRecord
  2
BORDER
 70
     0
  3
Border __ __ . __ __ . __ __ . __ __ . __ __ .
 72
    65
 73
     6
 40
1.75
 49
0.5
 74
     0
 49
-0.25
 74
     0
 49
0.5
 74
     0
 49
-0.25
 74
     0
 49
0.0
 74
     0
 49
-0.25
 74
     0
  0
LTYPE
  5
2E
330
5
100
AcDbSymbolTableRecord
100
AcDbLinetypeTableRecord
  2
BORDER2
 70
     0
  3
Border (.5x) __.__.__.__.__.__.__.__.__.__.__.
 72
    65
 73
     6
 40
0.875
 49
0.25
 74
     0
 49
-0.125
 74
     0
 49
0.25
 74
     0
 49
-0.125
 74
     0
 49
0.0
 74
     0
 49
-0.125
 74
     0
  0
LTYPE
  5
2F
330
5
100
AcDbSymbolTableRecord
100
AcDbLinetypeTableRecord
  2
BORDERX2
 70
     0
  3
Border (2x) ____  ____  .  ____  ____  .  ___
 72
    65
 73
     6
 40
3.5
 49
1.0
 74
     0
 49
-0.5
 74
     0
 49
1.0
 74
     0
 49
-0.5
 74
     0
 49
0.0
 74
     0
 49
-0.5
 74
     0
  0
LTYPE
  5
30
330
5
100
AcDbSymbolTableRecord
100
AcDbLinetypeTableRecord
  2
CENTER
 70
     0
  3
Center ____ _ ____ _ ____ _ ____ _ ____ _ ____
 72
    65
 73
     4
 40
2.0
 49
1.25
 74
     0
 49
-0.25
 74
     0
 49
0.25
 74
     0
 49
-0.25
 74
     0
  0
LTYPE
  5
31
330
5
100
AcDbSymbolTableRecord
100
AcDbLinetypeTableRecord
  2
CENTER2
 70
     0
  3
Center (.5x) ___ _ ___ _ ___ _ ___ _ ___ _ ___
 72
    65
 73
     4
 40
1.125
 49
0.75
 74
     0
 49
-0.125
 74
     0
 49
0.125
 74
     0
 49
-0.125
 74
     0
  0
LTYPE
  5
32
330
5
100
AcDbSymbolTableRecord
100
AcDbLinetypeTableRecord
  2
CENTERX2
 70
     0
  3
Center (2x) ________  __  ________  __  _____
 72
    65
 73
     4
 40
4.0
 49
2.5
 74
     0
 49
-0.5
 74
     0
 49
0.5
 74
     0
 49
-0.5
 74
     0
  0
LTYPE
  5
33
330
5
100
AcDbSymbolTableRecord
100
AcDbLinetypeTableRecord
  2
DASHDOT
 70
     0
  3
Dash dot __ . __ . __ . __ . __ . __ . __ . __
 72
    65
 73
     4
 40
1.0
 49
0.5
 74
     0
 49
-0.25
 74
     0
 49
0.0
 74
     0
 49
-0.25
 74
     0
  0
LTYPE
  5
34
330
5
100
AcDbSymbolTableRecord
100
AcDbLinetypeTableRecord
  2
DASHDOT2
 70
     0
  3
Dash dot (.5x) _._._._._._._._._._._._._._._.
 72
    65
 73
     4
 40
0.5
 49
0.25
 74
     0
 49
-0.125
 74
     0
 49
0.0
 74
     0
 49
-0.125
 74
     0
  0
LTYPE
  5
35
330
5
100
AcDbSymbolTableRecord
100
AcDbLinetypeTableRecord
  2
DASHDOTX2
 70
     0
  3
Dash dot (2x) ____  .  ____  .  ____  .  ___
 72
    65
 73
     4
 40
2.0
 49
1.0
 74
     0
 49
-0.5
 74
     0
 49
0.0
 74
     0
 49
-0.5
 74
     0
  0
LTYPE
  5
36
330
5
100
AcDbSymbolTableRecord
100
AcDbLinetypeTableRecord
  2
DASHED
 70
     0
  3
Dashed __ __ __ __ __ __ __ __ __ __ __ __ __ _
 72
    65
 73
     2
 40
0.75
 49
0.5
 74
     0
 49
-0.25
 74
     0
  0
LTYPE
  5
37
330
5
100
AcDbSymbolTableRecord
100
AcDbLinetypeTableRecord
  2
DASHED2
 70
     0
  3
Dashed (.5x) _ _ _ _ _ _ _ _ _ _ _ _ _ _ _ _ _
 72
    65
 73
     2
 40
0.375
 49
0.25
 74
     0
 49
-0.125
 74
     0
  0
LTYPE
  5
38
330
5
100
AcDbSymbolTableRecord
100
AcDbLinetypeTableRecord
  2
DASHEDX2
 70
     0
  3
Dashed (2x) ____  ____  ____  ____  ____  ___
 72
    65
 73
     2
 40
1.5
 49
1.0
 74
     0
 49
-0.5
 74
     0
  0
LTYPE
  5
39
330
5
100
AcDbSymbolTableRecord
100
AcDbLinetypeTableRecord
  2
DIVIDE
 70
     0
  3
Divide ____ . . ____ . . ____ . . ____ . . ____
 72
    65
 73
     6
 40
1.25
 49
0.5
 74
     0
 49
-0.25
 74
     0
 49
0.0
 74
     0
 49
-0.25
 74
     0
 49
0.0
 74
     0
 49
-0.25
 74
     0
  0
LTYPE
  5
3A
330
5
100
AcDbSymbolTableRecord
100
AcDbLinetypeTableRecord
  2
DIVIDE2
 70
     0
  3
Divide (.5x) __..__..__..__..__..__..__..__.._
 72
    65
 73
     6
 40
0.625
 49
0.25
 74
     0
 49
-0.125
 74
     0
 49
0.0
 74
     0
 49
-0.125
 74
     0
 49
0.0
 74
     0
 49
-0.125
 74
     0
  0
LTYPE
  5
3B
330
5
100
AcDbSymbolTableRecord
100
AcDbLinetypeTableRecord
  2
DIVIDEX2
 70
     0
  3
Divide (2x) ________  .  .  ________  .  .  _
 72
    65
 73
     6
 40
2.5
 49
1.0
 74
     0
 49
-0.5
 74
     0
 49
0.0
 74
     0
 49
-0.5
 74
     0
 49
0.0
 74
     0
 49
-0.5
 74
     0
  0
LTYPE
  5
3C
330
5
100
AcDbSymbolTableRecord
100
AcDbLinetypeTableRecord
  2
DOT
 70
     0
  3
Dot . . . . . . . . . . . . . . . . . . . . . .
 72
    65
 73
     2
 40
0.25
 49
0.0
 74
     0
 49
-0.25
 74
     0
  0
LTYPE
  5
3D
330
5
100
AcDbSymbolTableRecord
100
AcDbLinetypeTableRecord
  2
DOT2
 70
     0
  3
Dot (.5x) .....................................
 72
    65
 73
     2
 40
0.125
 49
0.0
 74
     0
 49
-0.125
 74
     0
  0
LTYPE
  5
3E
330
5
100
AcDbSymbolTableRecord
100
AcDbLinetypeTableRecord
  2
DOTX2
 70
     0
  3
Dot (2x) .  .  .  .  .  .  .  .  .  .  .  .  . 
 72
    65
 73
     2
 40
0.5
 49
0.0
 74
     0
 49
-0.5
 74
     0
  0
LTYPE
  5
3F
330
5
100
AcDbSymbolTableRecord
100
AcDbLinetypeTableRecord
  2
HIDDEN
 70
     0
  3
Hidden __ __ __ __ __ __ __ __ __ __ __ __ __ _
 72
    65
 73
     2
 40
0.375
 49
0.25
 74
     0
 49
-0.125
 74
     0
  0
LTYPE
  5
40
330
5
100
AcDbSymbolTableRecord
100
AcDbLinetypeTableRecord
  2
HIDDEN2
 70
     0
  3
Hidden (.5x) _ _ _ _ _ _ _ _ _ _ _ _ _ _ _ _ _
 72
    65
 73
     2
 40
0.1875
 49
0.125
 74
     0
 49
-0.0625
 74
     0
  0
LTYPE
  5
41
330
5
100
AcDbSymbolTableRecord
100
AcDbLinetypeTableRecord
  2
HIDDENX2
 70
     0
  3
Hidden (2x) ____ ____ ____ ____ ____ ____ ____
 72
    65
 73
     2
 40
0.75
 49
0.5
 74
     0
 49
-0.25
 74
     0
  0
LTYPE
  5
42
330
5
100
AcDbSymbolTableRecord
100
AcDbLinetypeTableRecord
  2
PHANTOM
 70
     0
  3
Phantom ______  __  __  ______  __  __  ______
 72
    65
 73
     6
 40
2.5
 49
1.25
 74
     0
 49
-0.25
 74
     0
 49
0.25
 74
     0
 49
-0.25
 74
     0
 49
0.25
 74
     0
 49
-0.25
 74
     0
  0
LTYPE
  5
43
330
5
100
AcDbSymbolTableRecord
100
AcDbLinetypeTableRecord
  2
PHANTOM2
 70
     0
  3
Phantom (.5x) ___ _ _ ___ _ _ ___ _ _ ___ _ _
 72
    65
 73
     6
 40
1.25
 49
0.625
 74
     0
 49
-0.125
 74
     0
 49
0.125
 74
     0
 49
-0.125
 74
     0
 49
0.125
 74
     0
 49
-0.125
 74
     0
  0
LTYPE
  5
44
330
5
100
AcDbSymbolTableRecord
100
AcDbLinetypeTableRecord
  2
PHANTOMX2
 70
     0
  3
Phantom (2x) ____________    ____    ____   _
 72
    65
 73
     6
 40
5.0
 49
2.5
 74
     0
 49
-0.5
 74
     0
 49
0.5
 74
     0
 49
-0.5
 74
     0
 49
0.5
 74
     0
 49
-0.5
 74
     0
  0
ENDTAB
  0
TABLE
  2
LAYER
  5
2
330
0
100
AcDbSymbolTable
 70
     4
  0
LAYER
  5
10
330
2
100
AcDbSymbolTableRecord
100
AcDbLayerTableRecord
  2
0
 70
     0
 62
     7
  6
Continuous
370
    -3
390
F
  0
LAYER
  5
9B
330
2
100
AcDbSymbolTableRecord
100
AcDbLayerTableRecord
  2
1
 70
     0
 62
     7
  6
Continuous
370
     0
390
F
  0
LAYER
  5
9C
330
2
100
AcDbSymbolTableRecord
100
AcDbLayerTableRecord
  2
3
 70
     0
 62
     7
  6
Continuous
370
     0
390
F
  0
LAYER
  5
23A
330
2
100
AcDbSymbolTableRecord
100
AcDbLayerTableRecord
  2
Defpoints
 70
     0
 62
     7
  6
Continuous
290
     0
370
    -3
390
F
  0
ENDTAB
  0
TABLE
  2
STYLE
  5
3
330
0
100
AcDbSymbolTable
 70
     8
  0
STYLE
  5
11
330
3
100
AcDbSymbolTableRecord
100
AcDbTextStyleTableRecord
  2
Standard
 70
     0
 40
0.0
 41
1.0
 50
0.0
 71
     0
 42
0.2
  3
txt
  4

  0
STYLE
  5
2C
330
3
100
AcDbSymbolTableRecord
100
AcDbTextStyleTableRecord
  2

 70
     1
 40
0.0
 41
1.0
 50
0.0
 71
     0
 42
0.2
  3
ltypeshp.shx
  4

  0
STYLE
  5
4A
330
3
100
AcDbSymbolTableRecord
100
AcDbTextStyleTableRecord
  2
Simplex
 70
     0
 40
0.0
 41
1.0
 50
0.0
 71
     0
 42
0.2
  3
simplex.shx
  4

  0
STYLE
  5
4B
330
3
100
AcDbSymbolTableRecord
100
AcDbTextStyleTableRecord
  2
BigFont
 70
     0
 40
0.0
 41
1.0
 50
0.0
 71
     0
 42
0.2
  3
simplex.shx
  4
bigfont.shx
  0
STYLE
  5
E0
330
3
100
AcDbSymbolTableRecord
100
AcDbTextStyleTableRecord
  2
DC_TEXTSTYLE4
 70
     0
 40
0.2
 41
1.0
 50
0.0
 71
     0
 42
0.2
  3
arialbi.ttf
  4

1001
ACAD
1000
Arial
1071
 50331682
  0
STYLE
  5
E5
330
3
100
AcDbSymbolTableRecord
100
AcDbTextStyleTableRecord
  2
DC_TEXTSTYLE5
 70
     0
 40
0.2
 41
1.0
 50
0.0
 71
     0
 42
0.2
  3
arial.ttf
  4

1001
ACAD
1000
Arial
1071
       34
  0
STYLE
  5
106
330
3
100
AcDbSymbolTableRecord
100
AcDbTextStyleTableRecord
  2
DC_TEXTSTYLE6
 70
     0
 40
0.2
 41
1.0
 50
0.0
 71
     0
 42
0.2
  3
timesbd.ttf
  4

1001
ACAD
1000
Times New Roman
1071
 33554450
  0
STYLE
  5
239
330
3
100
AcDbSymbolTableRecord
100
AcDbTextStyleTableRecord
  2
DC_TEXTSTYLE7
 70
     0
 40
0.022
 41
1.0
 50
0.0
 71
     0
 42
0.2
  3
arial.ttf
  4

1001
ACAD
1000
Arial
1071
        4
  0
ENDTAB
  0
TABLE
  2
VIEW
  5
6
330
0
100
AcDbSymbolTable
 70
     0
  0
ENDTAB
  0
TABLE
  2
UCS
  5
7
330
0
100
AcDbSymbolTable
 70
     0
  0
ENDTAB
  0
TABLE
  2
APPID
  5
9
330
0
100
AcDbSymbolTable
 70
     2
  0
APPID
  5
12
330
9
100
AcDbSymbolTableRecord
100
AcDbRegAppTableRecord
  2
ACAD
 70
     0
  0
APPID
  5
2FC
330
9
100
AcDbSymbolTableRecord
100
AcDbRegAppTableRecord
  2
ACAD_MLEADERVER
 70
     0
  0
ENDTAB
  0
TABLE
  2
DIMSTYLE
  5
A
330
0
100
AcDbSymbolTable
 70
     1
100
AcDbDimStyleTable
  0
DIMSTYLE
105
27
102
{ACAD_REACTORS
330
238
330
2AF
102
}
330
A
100
AcDbSymbolTableRecord
100
AcDbDimStyleTableRecord
  2
Standard
 70
     0
178
     0
340
11
  0
ENDTAB
  0
TABLE
  2
BLOCK_RECORD
  5
1
330
0
100
AcDbSymbolTable
 70
     4
  0
BLOCK_RECORD
  5
1F
330
1
100
AcDbSymbolTableRecord
100
AcDbBlockTableRecord
  2
*Model_Space
340
22
  0
BLOCK_RECORD
  5
1B
330
1
100
AcDbSymbolTableRecord
100
AcDbBlockTableRecord
  2
*Paper_Space
340
1E
  0
BLOCK_RECORD
  5
9D
330
1
100
AcDbSymbolTableRecord
100
AcDbBlockTableRecord
  2
1
340
0
  0
BLOCK_RECORD
  5
23B
330
1
100
AcDbSymbolTableRecord
100
AcDbBlockTableRecord
  2
*D2
340
0
  0
BLOCK_RECORD
  5
2B0
330
1
100
AcDbSymbolTableRecord
100
AcDbBlockTableRecord
  2
*D3
340
0
  0
ENDTAB
  0
ENDSEC
  0
SECTION
  2
BLOCKS
  0
BLOCK
  5
20
330
1F
100
AcDbEntity
  8
0
100
AcDbBlockBegin
  2
*Model_Space
 70
     0
 10
0.0
 20
0.0
 30
0.0
  3
*Model_Space
  1

  0
ENDBLK
  5
21
330
1F
100
AcDbEntity
  8
0
100
AcDbBlockEnd
  0
BLOCK
  5
1C
330
1B
100
AcDbEntity
 67
     1
  8
0
100
AcDbBlockBegin
  2
*Paper_Space
 70
     0
 10
0.0
 20
0.0
 30
0.0
  3
*Paper_Space
  1

  0
ENDBLK
  5
1D
330
1B
100
AcDbEntity
 67
     1
  8
0
100
AcDbBlockEnd
  0
BLOCK
  5
D3
330
9D
100
AcDbEntity
  8
0
100
AcDbBlockBegin
  2
1
 70
     0
 10
1.478942457607437
 20
0.020671912198904
 30
0.0
  3
1
  1

  0
POLYLINE
  5
9E
330
9D
100
AcDbEntity
  8
1
  6
Continuous
 62
     7
 48
0.0005556045817787
370
     0
100
AcDb2dPolyline
 66
     1
 10
0.0
 20
0.0
 30
0.0
  0
VERTEX
  5
9F
330
9E
100
AcDbEntity
  8
1
  6
Continuous
 62
     7
 48
0.0005556045817787
100
AcDbVertex
100
AcDb2dVertex
 10
1.396943432635869
 20
-0.0251554708960393
 30
0.0
 40
10.68042001817828
 41
10.68042001817828
  0
VERTEX
  5
A0
330
9E
100
AcDbEntity
  8
1
  6
Continuous
 62
     7
 48
0.0005556045817787
100
AcDbVertex
100
AcDb2dVertex
 10
1.396943432635869
 20
-0.0251554708960393
 30
0.0
 40
10.68042001817828
 41
10.68042001817828
  0
SEQEND
  5
A1
330
9E
100
AcDbEntity
  8
1
  6
Continuous
 62
     7
 48
0.0005556045817787
370
     0
  0
POLYLINE
  5
A2
330
9D
100
AcDbEntity
  8
1
  6
Continuous
 62
     7
 48
0.0005556045817787
370
     0
100
AcDb2dPolyline
 66
     1
 10
0.0
 20
0.0
 30
0.0
  0
VERTEX
  5
A3
330
A2
100
AcDbEntity
  8
1
  6
Continuous
 62
     7
 48
0.0005556045817787
100
AcDbVertex
100
AcDb2dVertex
 10
1.541805493646465
 20
-0.0352153362439974
 30
0.0
 40
10.68042001817828
 41
10.68042001817828
  0
VERTEX
  5
A4
330
A2
100
AcDbEntity
  8
1
  6
Continuous
 62
     7
 48
0.0005556045817787
100
AcDbVertex
100
AcDb2dVertex
 10
1.528455601430259
 20
-0.0251554708960394
 30
0.0
 40
10.68042001817828
 41
10.68042001817828
  0
SEQEND
  5
A5
330
A2
100
AcDbEntity
  8
1
  6
Continuous
 62
     7
 48
0.0005556045817787
370
     0
  0
POLYLINE
  5
A6
330
9D
100
AcDbEntity
  8
1
  6
Continuous
 62
     7
 48
0.0005556045817787
370
     0
100
AcDb2dPolyline
 66
     1
 10
0.0
 20
0.0
 30
0.0
  0
VERTEX
  5
A7
330
A6
100
AcDbEntity
  8
1
  6
Continuous
 62
     7
 48
0.0005556045817787
100
AcDbVertex
100
AcDb2dVertex
 10
1.400967378775053
 20
-0.0251554708960393
 30
0.0
 40
10.68042001817828
 41
10.68042001817828
  0
VERTEX
  5
A8
330
A6
100
AcDbEntity
  8
1
  6
Continuous
 62
     7
 48
0.0005556045817787
100
AcDbVertex
100
AcDb2dVertex
 10
1.396943432635869
 20
-0.0211315247568564
 30
0.0
 40
10.68042001817828
 41
10.68042001817828
  0
SEQEND
  5
A9
330
A6
100
AcDbEntity
  8
1
  6
Continuous
 62
     7
 48
0.0005556045817787
370
     0
  0
POLYLINE
  5
AA
330
9D
100
AcDbEntity
  8
1
  6
Continuous
 62
     7
 48
0.0005556045817787
370
     0
100
AcDb2dPolyline
 66
     1
 10
0.0
 20
0.0
 30
0.0
  0
VERTEX
  5
AB
330
AA
100
AcDbEntity
  8
1
  6
Continuous
 62
     7
 48
0.0005556045817787
100
AcDbVertex
100
AcDb2dVertex
 10
1.541805493646465
 20
0.0392276673308919
 30
0.0
 40
10.68042001817828
 41
10.68042001817828
  0
VERTEX
  5
AC
330
AA
100
AcDbEntity
  8
1
  6
Continuous
 62
     7
 48
0.0005556045817787
100
AcDbVertex
100
AcDb2dVertex
 10
1.396943432635869
 20
0.0392276673308919
 30
0.0
 40
10.68042001817828
 41
10.68042001817828
  0
SEQEND
  5
AD
330
AA
100
AcDbEntity
  8
1
  6
Continuous
 62
     7
 48
0.0005556045817787
370
     0
  0
POLYLINE
  5
AE
330
9D
100
AcDbEntity
  8
1
  6
Continuous
 62
     7
 48
0.0005556045817787
370
     0
100
AcDb2dPolyline
 66
     1
 10
0.0
 20
0.0
 30
0.0
  0
VERTEX
  5
AF
330
AE
100
AcDbEntity
  8
1
  6
Continuous
 62
     7
 48
0.0005556045817787
100
AcDbVertex
100
AcDb2dVertex
 10
1.541805493646465
 20
0.0814791017923155
 30
0.0
 40
10.68042001817828
 41
10.68042001817828
  0
VERTEX
  5
B0
330
AE
100
AcDbEntity
  8
1
  6
Continuous
 62
     7
 48
0.0005556045817787
100
AcDbVertex
100
AcDb2dVertex
 10
1.528455601430259
 20
0.0714192364443575
 30
0.0
 40
10.68042001817828
 41
10.68042001817828
  0
SEQEND
  5
B1
330
AE
100
AcDbEntity
  8
1
  6
Continuous
 62
     7
 48
0.0005556045817787
370
     0
  0
POLYLINE
  5
B2
330
9D
100
AcDbEntity
  8
1
  6
Continuous
 62
     7
 48
0.0005556045817787
370
     0
100
AcDb2dPolyline
 66
     1
 10
0.0
 20
0.0
 30
0.0
  0
VERTEX
  5
B3
330
B2
100
AcDbEntity
  8
1
  6
Continuous
 62
     7
 48
0.0005556045817787
100
AcDbVertex
100
AcDb2dVertex
 10
1.400967378775053
 20
0.0714192364443575
 30
0.0
 40
10.68042001817828
 41
10.68042001817828
  0
VERTEX
  5
B4
330
B2
100
AcDbEntity
  8
1
  6
Continuous
 62
     7
 48
0.0005556045817787
100
AcDbVertex
100
AcDb2dVertex
 10
1.396943432635869
 20
0.0673952903051746
 30
0.0
 40
10.68042001817828
 41
10.68042001817828
  0
SEQEND
  5
B5
330
B2
100
AcDbEntity
  8
1
  6
Continuous
 62
     7
 48
0.0005556045817787
370
     0
  0
POLYLINE
  5
B6
330
9D
100
AcDbEntity
  8
1
  6
Continuous
 62
     7
 48
0.0005556045817787
370
     0
100
AcDb2dPolyline
 66
     1
 10
0.0
 20
0.0
 30
0.0
  0
VERTEX
  5
B7
330
B6
100
AcDbEntity
  8
1
  6
Continuous
 62
     7
 48
0.0005556045817787
100
AcDbVertex
100
AcDb2dVertex
 10
1.541805493646465
 20
0.0070360982174262
 30
0.0
 40
10.68042001817828
 41
10.68042001817828
  0
VERTEX
  5
B8
330
B6
100
AcDbEntity
  8
1
  6
Continuous
 62
     7
 48
0.0005556045817787
100
AcDbVertex
100
AcDb2dVertex
 10
1.396943432635869
 20
0.0070360982174262
 30
0.0
 40
10.68042001817828
 41
10.68042001817828
  0
SEQEND
  5
B9
330
B6
100
AcDbEntity
  8
1
  6
Continuous
 62
     7
 48
0.0005556045817787
370
     0
  0
POLYLINE
  5
BA
330
9D
100
AcDbEntity
  8
1
  6
Continuous
 62
     7
 48
0.0005556045817787
370
     0
100
AcDb2dPolyline
 66
     1
 10
0.0
 20
0.0
 30
0.0
  0
VERTEX
  5
BB
330
BA
100
AcDbEntity
  8
1
  6
Continuous
 62
     7
 48
0.0005556045817787
100
AcDbVertex
100
AcDb2dVertex
 10
1.537781547507282
 20
0.0392276673308919
 30
0.0
 40
10.68042001817828
 41
10.68042001817828
  0
VERTEX
  5
BC
330
BA
100
AcDbEntity
  8
1
  6
Continuous
 62
     7
 48
0.0005556045817787
100
AcDbVertex
100
AcDb2dVertex
 10
1.400967378775053
 20
0.0392276673308918
 30
0.0
 40
10.68042001817828
 41
10.68042001817828
  0
SEQEND
  5
BD
330
BA
100
AcDbEntity
  8
1
  6
Continuous
 62
     7
 48
0.0005556045817787
370
     0
  0
POLYLINE
  5
BE
330
9D
100
AcDbEntity
  8
1
  6
Continuous
 62
     7
 48
0.0005556045817787
370
     0
100
AcDb2dPolyline
 66
     1
 10
0.0
 20
0.0
 30
0.0
  0
VERTEX
  5
BF
330
BE
100
AcDbEntity
  8
1
  6
Continuous
 62
     7
 48
0.0005556045817787
100
AcDbVertex
100
AcDb2dVertex
 10
1.541805493646465
 20
-0.0352153362439974
 30
0.0
 40
10.68042001817828
 41
10.68042001817828
  0
VERTEX
  5
C0
330
BE
100
AcDbEntity
  8
1
  6
Continuous
 62
     7
 48
0.0005556045817787
100
AcDbVertex
100
AcDb2dVertex
 10
1.541805493646465
 20
0.0814791017923159
 30
0.0
 40
10.68042001817828
 41
10.68042001817828
  0
SEQEND
  5
C1
330
BE
100
AcDbEntity
  8
1
  6
Continuous
 62
     7
 48
0.0005556045817787
370
     0
  0
POLYLINE
  5
C2
330
9D
100
AcDbEntity
  8
1
  6
Continuous
 62
     7
 48
0.0005556045817787
370
     0
100
AcDb2dPolyline
 66
     1
 10
0.0
 20
0.0
 30
0.0
 70
   128
  0
VERTEX
  5
C3
330
C2
100
AcDbEntity
  8
1
  6
Continuous
 62
     7
 48
0.0005556045817787
100
AcDbVertex
100
AcDb2dVertex
 10
1.528455601430259
 20
0.0714192364443575
 30
0.0
 40
10.68042001817828
 41
10.68042001817828
  0
VERTEX
  5
C4
330
C2
100
AcDbEntity
  8
1
  6
Continuous
 62
     7
 48
0.0005556045817787
100
AcDbVertex
100
AcDb2dVertex
 10
1.400967378775053
 20
0.0714192364443575
 30
0.0
 40
10.68042001817828
 41
10.68042001817828
  0
VERTEX
  5
C5
330
C2
100
AcDbEntity
  8
1
  6
Continuous
 62
     7
 48
0.0005556045817787
100
AcDbVertex
100
AcDb2dVertex
 10
1.396943432635869
 20
0.0673952903051745
 30
0.0
 40
10.68042001817828
 41
10.68042001817828
  0
SEQEND
  5
C6
330
C2
100
AcDbEntity
  8
1
  6
Continuous
 62
     7
 48
0.0005556045817787
370
     0
  0
POLYLINE
  5
C7
330
9D
100
AcDbEntity
  8
1
  6
Continuous
 62
     7
 48
0.0005556045817787
370
     0
100
AcDb2dPolyline
 66
     1
 10
0.0
 20
0.0
 30
0.0
 70
   128
  0
VERTEX
  5
C8
330
C7
100
AcDbEntity
  8
1
  6
Continuous
 62
     7
 48
0.0005556045817787
100
AcDbVertex
100
AcDb2dVertex
 10
1.528455601430259
 20
-0.0251554708960394
 30
0.0
 40
10.68042001817828
 41
10.68042001817828
  0
VERTEX
  5
C9
330
C7
100
AcDbEntity
  8
1
  6
Continuous
 62
     7
 48
0.0005556045817787
100
AcDbVertex
100
AcDb2dVertex
 10
1.400967378775053
 20
-0.0251554708960393
 30
0.0
 40
10.68042001817828
 41
10.68042001817828
  0
VERTEX
  5
CA
330
C7
100
AcDbEntity
  8
1
  6
Continuous
 62
     7
 48
0.0005556045817787
100
AcDbVertex
100
AcDb2dVertex
 10
1.396943432635869
 20
-0.0211315247568564
 30
0.0
 40
10.68042001817828
 41
10.68042001817828
  0
SEQEND
  5
CB
330
C7
100
AcDbEntity
  8
1
  6
Continuous
 62
     7
 48
0.0005556045817787
370
     0
  0
POLYLINE
  5
CC
330
9D
100
AcDbEntity
  8
1
  6
Continuous
 62
     7
 48
0.0005556045817787
370
     0
100
AcDb2dPolyline
 66
     1
 10
0.0
 20
0.0
 30
0.0
  0
VERTEX
  5
CD
330
CC
100
AcDbEntity
  8
1
  6
Continuous
 62
     7
 48
0.0005556045817787
100
AcDbVertex
100
AcDb2dVertex
 10
1.396943432635869
 20
-0.0211315247568564
 30
0.0
 40
10.68042001817828
 41
10.68042001817828
  0
VERTEX
  5
CE
330
CC
100
AcDbEntity
  8
1
  6
Continuous
 62
     7
 48
0.0005556045817787
100
AcDbVertex
100
AcDb2dVertex
 10
1.396943432635869
 20
0.0673952903051745
 30
0.0
 40
10.68042001817828
 41
10.68042001817828
  0
SEQEND
  5
CF
330
CC
100
AcDbEntity
  8
1
  6
Continuous
 62
     7
 48
0.0005556045817787
370
     0
  0
HATCH
  5
D0
330
9D
100
AcDbEntity
  8
1
  6
Continuous
 62
     7
 48
0.0015160585916554
370
     0
100
AcDbHatch
 10
0.0
 20
0.0
 30
0.0
210
0.0
220
0.0
230
1.0
  2
DC_ANSI31
 70
     0
 71
     0
 91
        1
 92
        3
 72
     0
 73
     1
 93
        6
 10
1.541805493646465
 20
0.0392276673308919
 10
1.396943432635869
 20
0.0392276673308919
 10
1.396943432635869
 20
0.0673952903051736
 10
1.400967378775053
 20
0.0714192364443575
 10
1.528455601430261
 20
0.0714192364443575
 10
1.541805493646465
 20
0.081479101792316
 97
        0
 75
     0
 76
     2
 52
0.0
 41
50.0
 77
     0
 78
     1
 53
45.0
 43
0.0
 44
0.0
 45
-0.0107201531083565
 46
0.0107201531083565
 79
     1
 49
3.032117183310781
 98
        1
 10
0.0
 20
0.0
  0
HATCH
  5
D1
330
9D
100
AcDbEntity
  8
1
  6
Continuous
 62
     7
 48
0.0015160585916554
370
     0
100
AcDbHatch
 10
0.0
 20
0.0
 30
0.0
210
0.0
220
0.0
230
1.0
  2
DC_ANSI31
 70
     0
 71
     0
 91
        1
 92
        3
 72
     0
 73
     1
 93
        6
 10
1.541805493646465
 20
-0.0352153362439973
 10
1.528455601430259
 20
-0.0251554708960393
 10
1.400967378775053
 20
-0.0251554708960394
 10
1.396943432635869
 20
-0.0211315247568558
 10
1.396943432635869
 20
0.0070360982174262
 10
1.541805493646465
 20
0.0070360982174262
 97
        0
 75
     0
 76
     2
 52
0.0
 41
50.0
 77
     0
 78
     1
 53
45.0
 43
0.0
 44
0.0
 45
-0.0107201531083565
 46
0.0107201531083565
 79
     1
 49
3.032117183310781
 98
        1
 10
0.0
 20
0.0
  0
LINE
  5
D2
330
9D
100
AcDbEntity
  8
1
  6
Continuous
 62
     7
 48
0.0004851387493297
370
     0
100
AcDbLine
 10
1.396943432635869
 20
0.023131882774159
 30
0.0
 11
1.541805493646465
 21
0.0231318827741592
 31
0.0
  0
ENDBLK
  5
D4
330
9D
100
AcDbEntity
  8
0
100
AcDbBlockEnd
  0
BLOCK
  5
23C
330
23B
100
AcDbEntity
  8
0
100
AcDbBlockBegin
  2
*D2
 70
     1
 10
0.0
 20
0.0
 30
0.0
  3
*D2
  1

  0
LINE
  5
23E
330
23B
100
AcDbEntity
  8
1
  6
Continuous
 62
     0
 48
0.0000303211718331
370
    -2
100
AcDbLine
 10
0.9443398401262333
 20
0.5195607533485554
 30
0.0
 11
0.9443398401262333
 21
0.6645492265487976
 31
0.0
  0
LINE
  5
23F
330
23B
100
AcDbEntity
  8
1
  6
Continuous
 62
     0
 48
0.0000303211718331
370
    -2
100
AcDbLine
 10
1.752339840126233
 20
0.3715607533485553
 30
0.0
 11
1.752339840126233
 21
0.6645492265487976
 31
0.0
  0
LINE
  5
240
330
23B
100
AcDbEntity
  8
1
  6
Continuous
 62
     0
 48
0.0000303211718331
370
    -2
100
AcDbLine
 10
0.9663398401262333
 20
0.6565485598821309
 30
0.0
 11
1.730339840126233
 21
0.6565485598821309
 31
0.0
  0
SOLID
  5
241
330
23B
100
AcDbEntity
  8
1
 62
     0
100
AcDbTrace
 10
0.9663398401262333
 20
0.6602152265487976
 30
0.0
 11
0.9663398401262333
 21
0.6528818932154642
 31
0.0
 12
0.9443398401262333
 22
0.6565485598821309
 32
0.0
 13
0.9443398401262333
 23
0.6565485598821309
 33
0.0
  0
SOLID
  5
242
330
23B
100
AcDbEntity
  8
1
 62
     0
100
AcDbTrace
 10
1.730339840126233
 20
0.6528818932154642
 30
0.0
 11
1.730339840126233
 21
0.6602152265487976
 31
0.0
 12
1.752339840126233
 22
0.6565485598821309
 32
0.0
 13
1.752339840126233
 23
0.6565485598821309
 33
0.0
  0
MTEXT
  5
243
330
23B
100
AcDbEntity
  8
1
 62
     0
370
     0
100
AcDbMText
 10
1.348339840126233
 20
0.6788785598821309
 30
0.0
 40
0.022
 41
0.0
 71
     5
 72
     1
  1
\A1;0.808
  7
DC_TEXTSTYLE7
 73
     1
 44
1.0
  0
POINT
  5
244
330
23B
100
AcDbEntity
  8
Defpoints
 62
     0
100
AcDbPoint
 10
0.9443398401262333
 20
0.5035606422374443
 30
0.0
  0
POINT
  5
245
330
23B
100
AcDbEntity
  8
Defpoints
 62
     0
100
AcDbPoint
 10
1.752339840126233
 20
0.3555606422374442
 30
0.0
  0
POINT
  5
246
330
23B
100
AcDbEntity
  8
Defpoints
 62
     0
100
AcDbPoint
 10
1.752339840126233
 20
0.6565485598821309
 30
0.0
  0
ENDBLK
  5
23D
330
23B
100
AcDbEntity
  8
0
100
AcDbBlockEnd
  0
BLOCK
  5
2B1
330
2B0
100
AcDbEntity
  8
0
100
AcDbBlockBegin
  2
*D3
 70
     1
 10
0.0
 20
0.0
 30
0.0
  3
*D3
  1

  0
LINE
  5
2B3
330
2B0
100
AcDbEntity
  8
1
  6
Continuous
 62
     0
 48
0.0000303211718331
370
    -2
100
AcDbLine
 10
0.9458688401262335
 20
-0.1554393577625082
 30
0.0
 11
0.8497938401236792
 21
-0.1554393577621586
 31
0.0
  0
LINE
  5
2B4
330
2B0
100
AcDbEntity
  8
1
  6
Continuous
 62
     0
 48
0.0000303211718331
370
    -2
100
AcDbLine
 10
0.9458688401262332
 20
0.5465606422374918
 30
0.0
 11
0.8497938401262332
 21
0.5465606422378414
 31
0.0
  0
LINE
  5
2B5
330
2B0
100
AcDbEntity
  8
1
  6
Continuous
 62
     0
 48
0.0000303211718331
370
    -2
100
AcDbLine
 10
0.8563398401237448
 20
-0.1374393577621824
 30
0.0
 11
0.8563398401261677
 21
0.5285606422378175
 31
0.0
  0
SOLID
  5
2B6
330
2B0
100
AcDbEntity
  8
1
 62
     0
100
AcDbTrace
 10
0.8533398401237448
 20
-0.1374393577621715
 30
0.0
 11
0.8593398401237448
 21
-0.1374393577621933
 31
0.0
 12
0.8563398401236793
 22
-0.1554393577621824
 32
0.0
 13
0.8563398401236793
 23
-0.1554393577621824
 33
0.0
  0
SOLID
  5
2B7
330
2B0
100
AcDbEntity
  8
1
 62
     0
100
AcDbTrace
 10
0.8593398401261677
 20
0.5285606422378066
 30
0.0
 11
0.8533398401261677
 21
0.5285606422378284
 31
0.0
 12
0.8563398401262332
 22
0.5465606422378175
 32
0.0
 13
0.8563398401262332
 23
0.5465606422378175
 33
0.0
  0
MTEXT
  5
2B8
330
2B0
100
AcDbEntity
  8
1
 62
     0
370
     0
100
AcDbMText
 10
0.8354228401249563
 20
0.1955606422378937
 30
0.0
 40
0.022
 41
0.0
 71
     5
 72
     1
  1
\A1;HEX TIP Ø0.702
  7
DC_TEXTSTYLE7
 11
3.638115449925513E-12
 21
1.0
 31
0.0
 73
     1
 44
1.0
  0
POINT
  5
2B9
330
2B0
100
AcDbEntity
  8
Defpoints
 62
     0
100
AcDbPoint
 10
0.9589598401262335
 20
-0.1554393577625558
 30
0.0
  0
POINT
  5
2BA
330
2B0
100
AcDbEntity
  8
Defpoints
 62
     0
100
AcDbPoint
 10
0.9589598401262331
 20
0.5465606422374442
 30
0.0
  0
POINT
  5
2BB
330
2B0
100
AcDbEntity
  8
Defpoints
 62
     0
100
AcDbPoint
 10
0.8563398401262332
 20
0.5465606422378175
 30
0.0
  0
ENDBLK
  5
2B2
330
2B0
100
AcDbEntity
  8
0
100
AcDbBlockEnd
  0
ENDSEC
  0
SECTION
  2
ENTITIES
  0
LINE
  5
D5
330
1F
100
AcDbEntity
  8
1
  6
Continuous
 62
     7
 48
0.0004851387493297
370
     0
100
AcDbLine
 10
0.046414912292057
 20
-0.7536032909542622
 30
0.0
 11
2.5638016809611
 21
-0.7536032909542622
 31
0.0
  0
LINE
  5
D6
330
1F
100
AcDbEntity
  8
1
  6
Continuous
 62
     7
 48
0.0004851387493297
370
     0
100
AcDbLine
 10
0.046414912292057
 20
-0.7536032909542622
 30
0.0
 11
0.046414912292057
 21
1.026367151539
 31
0.0
  0
LINE
  5
D7
330
1F
100
AcDbEntity
  8
1
  6
Continuous
 62
     7
 48
0.0004851387493297
370
     0
100
AcDbLine
 10
2.5638016809611
 20
-0.7536032909542622
 30
0.0
 11
2.5638016809611
 21
1.026367151539
 31
0.0
  0
LINE
  5
D8
330
1F
100
AcDbEntity
  8
1
  6
Continuous
 62
     7
 48
0.0004851387493297
370
     0
100
AcDbLine
 10
2.5638016809611
 20
1.026367151539
 30
0.0
 11
0.046414912292057
 21
1.026367151539
 31
0.0
  0
POLYLINE
  5
D9
330
1F
100
AcDbEntity
  8
1
  6
Continuous
 62
     7
 48
0.0004851387493297
370
     0
100
AcDb2dPolyline
 66
     1
 10
0.0
 20
0.0
 30
0.0
 70
   128
  0
VERTEX
  5
DA
330
D9
100
AcDbEntity
  8
1
  6
Continuous
 62
     7
 48
0.0004851387493297
100
AcDbVertex
100
AcDb2dVertex
 10
2.012858448760804
 20
-0.7362165222852194
 30
0.0
  0
VERTEX
  5
DB
330
D9
100
AcDbEntity
  8
1
  6
Continuous
 62
     7
 48
0.0004851387493297
100
AcDbVertex
100
AcDb2dVertex
 10
2.012858448760804
 20
-0.6684081244759522
 30
0.0
  0
VERTEX
  5
DC
330
D9
100
AcDbEntity
  8
1
  6
Continuous
 62
     7
 48
0.0004851387493297
100
AcDbVertex
100
AcDb2dVertex
 10
0.0638016809610997
 20
-0.6684081244759521
 30
0.0
  0
SEQEND
  5
DD
330
D9
100
AcDbEntity
  8
1
  6
Continuous
 62
     7
 48
0.0004851387493297
370
     0
  0
LINE
  5
DE
330
1F
100
AcDbEntity
  8
1
  6
Continuous
 62
     7
 48
0.0004851387493297
370
     0
100
AcDbLine
 10
1.531842626801315
 20
-0.600599726666685
 30
0.0
 11
1.531842626801315
 21
-0.7362165222852195
 31
0.0
  0
LINE
  5
DF
330
1F
100
AcDbEntity
  8
1
  6
Continuous
 62
     7
 48
0.0004851387493297
370
     0
100
AcDbLine
 10
1.050826804841826
 20
-0.6005997266666854
 30
0.0
 11
1.050826804841826
 21
-0.7362165222852195
 31
0.0
  0
TEXT
  5
E1
330
1F
100
AcDbEntity
  8
1
  6
Continuous
 62
     1
420
 16711680
370
     0
100
AcDbText
 10
0.0970180579534683
 20
-0.65662804332704
 30
0.0
 40
0.0339041989046336
  1
SPEED
  7
DC_TEXTSTYLE4
100
AcDbText
  0
TEXT
  5
E2
330
1F
100
AcDbEntity
  8
1
  6
Continuous
 62
     5
420
      255
370
     0
100
AcDbText
 10
0.2595083812952359
 20
-0.6569500093826052
 30
0.0
 40
0.0339041989046336
  1
FLOW
  7
DC_TEXTSTYLE4
100
AcDbText
  0
TEXT
  5
E3
330
1F
100
AcDbEntity
  8
1
  6
Continuous
 62
     7
370
     0
100
AcDbText
 10
0.4112829416788926
 20
-0.6571148573858391
 30
0.0
 40
0.0339041989046336
  1
PRODUCTS PTY LTD
  7
DC_TEXTSTYLE4
100
AcDbText
  0
LINE
  5
E4
330
1F
100
AcDbEntity
  8
1
  6
Continuous
 62
     7
 48
0.0004851387493297
370
     0
100
AcDbLine
 10
0.9232378601450255
 20
-0.6005997266666854
 30
0.0
 11
0.9232378601450255
 21
-0.6684081244759522
 31
0.0
  0
TEXT
  5
E6
330
1F
100
AcDbEntity
  8
1
  6
Continuous
 62
     7
370
     0
100
AcDbText
 10
0.9453085323800525
 20
-0.6317443665996375
 30
0.0
 40
0.0169520994523168
  1
MAX 3D
  7
DC_TEXTSTYLE5
100
AcDbText
  0
TEXT
  5
E7
330
1F
100
AcDbEntity
  8
1
  6
Continuous
 62
     7
370
     0
100
AcDbText
 10
0.9656670073080361
 20
-0.6612930838103791
 30
0.0
 40
0.0169520994523168
  1
V14
  7
DC_TEXTSTYLE5
100
AcDbText
  0
LINE
  5
E8
330
1F
100
AcDbEntity
  8
1
  6
Continuous
 62
     7
 48
0.0004851387493297
370
     0
100
AcDbLine
 10
1.050826804841826
 20
-0.6684081244759522
 30
0.0
 11
1.050826804841826
 21
-0.6684081244759522
 31
0.0
  0
LINE
  5
E9
330
1F
100
AcDbEntity
  8
1
  6
Continuous
 62
     7
 48
0.0004851387493297
370
     0
100
AcDbLine
 10
1.531842626801315
 20
-0.6684081244759522
 30
0.0
 11
1.531842626801315
 21
-0.6684081244759522
 31
0.0
  0
TEXT
  5
EA
330
1F
100
AcDbEntity
  8
1
  6
Continuous
 62
     7
370
     0
100
AcDbText
 10
1.067778904294143
 20
-0.6514560250236354
 30
0.0
 40
0.0296661740415543
  1
Drg No: 806-06
  7
DC_TEXTSTYLE5
100
AcDbText
  0
ARC
  5
EB
330
1F
100
AcDbEntity
  8
1
  6
Continuous
 62
     7
 48
0.0004851387493297
370
     0
100
AcDbCircle
 10
0.0638025078927805
 20
1.008979555938277
 30
0.0
 40
0.0000008269316805
100
AcDbArc
 50
90.0
 51
180.0
  0
LINE
  5
EC
330
1F
100
AcDbEntity
  8
1
  6
Continuous
 62
     7
 48
0.0004851387493297
370
     0
100
AcDbLine
 10
0.0638025078927805
 20
1.008980382869958
 30
0.0
 11
2.546414085360377
 21
1.008980382869958
 31
0.0
  0
LINE
  5
ED
330
1F
100
AcDbEntity
  8
1
  6
Continuous
 62
     7
 48
0.0004851387493297
370
     0
100
AcDbLine
 10
2.546414912292057
 20
1.008979555938277
 30
0.0
 11
2.546414912292057
 21
-0.736215695353539
 31
0.0
  0
LINE
  5
EE
330
1F
100
AcDbEntity
  8
1
  6
Continuous
 62
     7
 48
0.0004851387493297
370
     0
100
AcDbLine
 10
2.546414085360377
 20
-0.7362165222852194
 30
0.0
 11
0.0638025078927802
 21
-0.7362165222852194
 31
0.0
  0
ARC
  5
EF
330
1F
100
AcDbEntity
  8
1
  6
Continuous
 62
     7
 48
0.0004851387493297
370
     0
100
AcDbCircle
 10
0.0638025078927805
 20
-0.7362156953535387
 30
0.0
 40
0.0000008269316806
100
AcDbArc
 50
180.0
 51
269.9999999778843
  0
LINE
  5
F0
330
1F
100
AcDbEntity
  8
1
  6
Continuous
 62
     7
 48
0.0004851387493297
370
     0
100
AcDbLine
 10
0.0638016809610999
 20
-0.7362156953535387
 30
0.0
 11
0.0638016809610999
 21
1.008979555938277
 31
0.0
  0
LINE
  5
F1
330
1F
100
AcDbEntity
  8
1
  6
Continuous
 62
     7
 48
0.0004851387493297
370
     0
100
AcDbLine
 10
1.305108296626579
 20
1.008980382869958
 30
0.0
 11
1.305108296626579
 21
1.026367151539
 31
0.0
  0
LINE
  5
F2
330
1F
100
AcDbEntity
  8
1
  6
Continuous
 62
     7
 48
0.0004851387493297
370
     0
100
AcDbLine
 10
2.546414912292057
 20
0.2041903281016358
 30
0.0
 11
2.5638016809611
 21
0.2041903281016355
 31
0.0
  0
LINE
  5
F3
330
1F
100
AcDbEntity
  8
1
  6
Continuous
 62
     7
 48
0.0004851387493297
370
     0
100
AcDbLine
 10
0.0638016809610996
 20
0.2041903281016355
 30
0.0
 11
0.046414912292057
 21
0.2041903281016355
 31
0.0
  0
POLYLINE
  5
F4
330
1F
100
AcDbEntity
  8
1
  6
Continuous
 62
     7
 48
0.0004851387493297
370
     0
100
AcDb2dPolyline
 66
     1
 10
0.0
 20
0.0
 30
0.0
 70
   128
  0
VERTEX
  5
F5
330
F4
100
AcDbEntity
  8
1
  6
Continuous
 62
     7
 48
0.0004851387493297
100
AcDbVertex
100
AcDb2dVertex
 10
2.012858448760804
 20
-0.6684081244759522
 30
0.0
  0
VERTEX
  5
F6
330
F4
100
AcDbEntity
  8
1
  6
Continuous
 62
     7
 48
0.0004851387493297
100
AcDbVertex
100
AcDb2dVertex
 10
2.012858448760804
 20
-0.600599726666685
 30
0.0
  0
VERTEX
  5
F7
330
F4
100
AcDbEntity
  8
1
  6
Continuous
 62
     7
 48
0.0004851387493297
100
AcDbVertex
100
AcDb2dVertex
 10
0.0638016809610997
 20
-0.6005997266666853
 30
0.0
  0
SEQEND
  5
F8
330
F4
100
AcDbEntity
  8
1
  6
Continuous
 62
     7
 48
0.0004851387493297
370
     0
  0
POLYLINE
  5
F9
330
1F
100
AcDbEntity
  8
1
  6
Continuous
 62
     7
 48
0.0002425693746649
370
     0
100
AcDb2dPolyline
 66
     1
 10
0.0
 20
0.0
 30
0.0
 70
   128
  0
VERTEX
  5
FA
330
F9
100
AcDbEntity
  8
1
  6
Continuous
 62
     7
 48
0.0002425693746649
100
AcDbVertex
100
AcDb2dVertex
 10
0.0638016809611001
 20
0.9600545272108193
 30
0.0
  0
VERTEX
  5
FB
330
F9
100
AcDbEntity
  8
1
  6
Continuous
 62
     7
 48
0.0002425693746649
100
AcDbVertex
100
AcDb2dVertex
 10
0.3706238143176153
 20
0.9600545272108189
 30
0.0
  0
VERTEX
  5
FC
330
F9
100
AcDbEntity
  8
1
  6
Continuous
 62
     7
 48
0.0002425693746649
100
AcDbVertex
100
AcDb2dVertex
 10
0.3706238143176153
 20
1.008980382869958
 30
0.0
  0
SEQEND
  5
FD
330
F9
100
AcDbEntity
  8
1
  6
Continuous
 62
     7
 48
0.0002425693746649
370
     0
  0
POLYLINE
  5
FE
330
1F
100
AcDbEntity
  8
1
  6
Continuous
 62
     7
 48
0.0024256937466486
370
     0
100
AcDb2dPolyline
 66
     1
 10
0.0
 20
0.0
 30
0.0
 70
   128
  0
VERTEX
  5
FF
330
FE
100
AcDbEntity
  8
1
  6
Continuous
 62
     7
 48
0.0024256937466486
100
AcDbVertex
100
AcDb2dVertex
 10
2.457426407357203
 20
1.008979721324613
 30
0.0
  0
VERTEX
  5
100
330
FE
100
AcDbEntity
  8
1
  6
Continuous
 62
     7
 48
0.0024256937466486
100
AcDbVertex
100
AcDb2dVertex
 10
2.457426407357203
 20
0.9548978574290793
 30
0.0
  0
VERTEX
  5
101
330
FE
100
AcDbEntity
  8
1
  6
Continuous
 62
     7
 48
0.0024256937466486
100
AcDbVertex
100
AcDb2dVertex
 10
2.546414085360376
 20
0.9548978574290793
 30
0.0
  0
SEQEND
  5
102
330
FE
100
AcDbEntity
  8
1
  6
Continuous
 62
     7
 48
0.0024256937466486
370
     0
  0
LINE
  5
103
330
1F
100
AcDbEntity
  8
1
  6
Continuous
 62
     7
 48
0.0004851387493297
370
     0
100
AcDbLine
 10
2.012858448760804
 20
-0.600599726666685
 30
0.0
 11
2.546414912292057
 21
-0.600599726666685
 31
0.0
  0
TEXT
  5
104
330
1F
100
AcDbEntity
  8
1
  6
Continuous
 62
     7
370
     0
100
AcDbText
 10
1.548794726253632
 20
-0.6514560250236354
 30
0.0
 40
0.0296661740415543
  1
Drg Date: 26/07/2017
  7
DC_TEXTSTYLE5
100
AcDbText
  0
TEXT
  5
105
330
1F
100
AcDbEntity
  8
1
  6
Continuous
 62
     5
420
      255
370
     0
100
AcDbText
 10
0.0702671199137529
 20
0.9706761027729588
 30
0.0
 40
0.022074241502217
  1
-6 AN FLARE PLUG
  7
DC_TEXTSTYLE5
100
AcDbText
  0
TEXT
  5
107
330
1F
100
AcDbEntity
  8
1
  6
DASHED
 62
     1
420
 16711680
370
     0
100
AcDbText
 10
2.480447025245823
 20
0.9657142302081837
 30
0.0
 40
0.0237298096148829
  1
A4
 41
1.000000000000003
  7
DC_TEXTSTYLE6
 72
     1
 11
2.50192024635879
 21
0.9657142302081837
 31
0.0
100
AcDbText
  0
LINE
  5
108
330
1F
100
AcDbEntity
  8
1
  6
Continuous
 62
     7
 48
0.0014486245019833
370
     0
100
AcDbLine
 10
2.457426407357203
 20
0.9548978574290793
 30
0.0
 11
2.306517316448112
 21
0.9548978574290793
 31
0.0
  0
LINE
  5
109
330
1F
100
AcDbEntity
  8
1
  6
CENTER
 62
    94
420
    37376
 48
0.0363636363636364
370
     0
100
AcDbLine
 10
2.35779137130211
 20
0.9819387893768462
 30
0.0
 11
2.317858354418299
 21
0.9819387893768462
 31
0.0
  0
POLYLINE
  5
10A
330
1F
100
AcDbEntity
  8
1
  6
Continuous
 62
     7
 48
0.0014486245019833
370
     0
100
AcDb2dPolyline
 66
     1
 10
0.0
 20
0.0
 30
0.0
  0
VERTEX
  5
10B
330
10A
100
AcDbEntity
  8
1
  6
Continuous
 62
     7
 48
0.0014486245019833
100
AcDbVertex
100
AcDb2dVertex
 10
2.439244589175386
 20
0.9964842439223008
 30
0.0
 40
0.0023
 41
0.0023
  0
VERTEX
  5
10C
330
10A
100
AcDbEntity
  8
1
  6
Continuous
 62
     7
 48
0.0014486245019833
100
AcDbVertex
100
AcDb2dVertex
 10
2.439244589175386
 20
0.9673933348313917
 30
0.0
 40
0.0023
 41
0.0023
  0
SEQEND
  5
10D
330
10A
100
AcDbEntity
  8
1
  6
Continuous
 62
     7
 48
0.0014486245019833
370
     0
  0
POLYLINE
  5
10E
330
1F
100
AcDbEntity
  8
1
  6
Continuous
 62
     7
 48
0.0014486245019833
370
     0
100
AcDb2dPolyline
 66
     1
 10
0.0
 20
0.0
 30
0.0
  0
VERTEX
  5
10F
330
10E
100
AcDbEntity
  8
1
  6
Continuous
 62
     7
 48
0.0014486245019833
100
AcDbVertex
100
AcDb2dVertex
 10
2.384699134629931
 20
0.9910296984677552
 30
0.0
 40
0.0023
 41
0.0023
  0
VERTEX
  5
110
330
10E
100
AcDbEntity
  8
1
  6
Continuous
 62
     7
 48
0.0014486245019833
100
AcDbVertex
100
AcDb2dVertex
 10
2.384699134629931
 20
0.9728478802859369
 30
0.0
 40
0.0023
 41
0.0023
  0
SEQEND
  5
111
330
10E
100
AcDbEntity
  8
1
  6
Continuous
 62
     7
 48
0.0014486245019833
370
     0
  0
POLYLINE
  5
112
330
1F
100
AcDbEntity
  8
1
  6
Continuous
 62
     7
 48
0.0014486245019833
370
     0
100
AcDb2dPolyline
 66
     1
 10
0.0
 20
0.0
 30
0.0
  0
VERTEX
  5
113
330
112
100
AcDbEntity
  8
1
  6
Continuous
 62
     7
 48
0.0014486245019833
100
AcDbVertex
100
AcDb2dVertex
 10
2.384699134629931
 20
0.9910296984677552
 30
0.0
 40
0.0023
 41
0.0023
  0
VERTEX
  5
114
330
112
100
AcDbEntity
  8
1
  6
Continuous
 62
     7
 48
0.0014486245019833
100
AcDbVertex
100
AcDb2dVertex
 10
2.439244589175386
 20
0.9964842439223008
 30
0.0
 40
0.0023
 41
0.0023
  0
SEQEND
  5
115
330
112
100
AcDbEntity
  8
1
  6
Continuous
 62
     7
 48
0.0014486245019833
370
     0
  0
POLYLINE
  5
116
330
1F
100
AcDbEntity
  8
1
  6
Continuous
 62
     7
 48
0.0014486245019833
370
     0
100
AcDb2dPolyline
 66
     1
 10
0.0
 20
0.0
 30
0.0
  0
VERTEX
  5
117
330
116
100
AcDbEntity
  8
1
  6
Continuous
 62
     7
 48
0.0014486245019833
100
AcDbVertex
100
AcDb2dVertex
 10
2.384699134629931
 20
0.9728478802859369
 30
0.0
 40
0.0023
 41
0.0023
  0
VERTEX
  5
118
330
116
100
AcDbEntity
  8
1
  6
Continuous
 62
     7
 48
0.0014486245019833
100
AcDbVertex
100
AcDb2dVertex
 10
2.439244589175386
 20
0.9673933348313917
 30
0.0
 40
0.0023
 41
0.0023
  0
SEQEND
  5
119
330
116
100
AcDbEntity
  8
1
  6
Continuous
 62
     7
 48
0.0014486245019833
370
     0
  0
LINE
  5
11A
330
1F
100
AcDbEntity
  8
1
  6
CENTER
 62
    94
420
    37376
 48
0.0363636363636364
370
     0
100
AcDbLine
 10
2.339244589175387
 20
1.000120607558664
 30
0.0
 11
2.339244589175387
 21
0.9637569711950281
 31
0.0
  0
LINE
  5
11B
330
1F
100
AcDbEntity
  8
1
  6
Continuous
 62
     7
 48
0.0014486245019833
370
     0
100
AcDbLine
 10
2.306517316448112
 20
0.9548978574290788
 30
0.0
 11
2.306517316448111
 21
1.008980382869957
 31
0.0
  0
LINE
  5
11C
330
1F
100
AcDbEntity
  8
1
  6
Continuous
 62
     7
 48
0.0014486245019833
370
     0
100
AcDbLine
 10
2.306517316448112
 20
0.9258069483381703
 30
0.0
 11
2.546414746905721
 21
0.9258069483381706
 31
0.0
  0
TEXT
  5
11D
330
1F
100
AcDbEntity
  8
1
  6
DASHED
 62
     7
370
     0
100
AcDbText
 10
2.313248973631518
 20
0.9301705842631931
 30
0.0
 40
0.0130909090909089
  1
3RD ANGLE PROJECTION
 41
1.000000000000007
  7
DC_TEXTSTYLE5
 72
     1
 11
2.426465700904244
 21
0.9301705842631931
 31
0.0
100
AcDbText
  0
LINE
  5
11E
330
1F
100
AcDbEntity
  8
1
  6
Continuous
 62
     7
 48
0.0014486245019833
370
     0
100
AcDbLine
 10
2.306517316448112
 20
0.9548978574290788
 30
0.0
 11
2.306517316448112
 21
0.9258069483381703
 31
0.0
  0
TEXT
  5
11F
330
1F
100
AcDbEntity
  8
1
  6
Continuous
 62
     7
370
     0
100
AcDbText
 10
1.390957365058286
 20
-0.5913689574459156
 30
0.0
 40
0.0184615384415384
  1
MK #
 41
1.0
  7
DC_TEXTSTYLE4
100
AcDbText
  0
TEXT
  5
120
330
1F
100
AcDbEntity
  8
1
  6
Continuous
 62
     7
370
     0
100
AcDbText
 10
1.469599394348208
 20
-0.5913689574459156
 30
0.0
 40
0.0184615384415384
  1
QTY
 41
1.000000000000001
  7
DC_TEXTSTYLE4
100
AcDbText
  0
TEXT
  5
121
330
1F
100
AcDbEntity
  8
1
  6
Continuous
 62
     7
370
     0
100
AcDbText
 10
1.541073396022085
 20
-0.5913689574459156
 30
0.0
 40
0.0184615384415384
  1
PART #
 41
0.9999999999999998
  7
DC_TEXTSTYLE4
100
AcDbText
  0
TEXT
  5
122
330
1F
100
AcDbEntity
  8
1
  6
Continuous
 62
     7
370
     0
100
AcDbText
 10
1.703234850205478
 20
-0.5913689574459153
 30
0.0
 40
0.0184615384415384
  1
DESCRIPTION
 41
0.9999999999999997
  7
DC_TEXTSTYLE4
100
AcDbText
  0
TEXT
  5
123
330
1F
100
AcDbEntity
  8
1
  6
Continuous
 62
     7
370
     0
100
AcDbText
 10
2.022089217981573
 20
-0.5913689574459156
 30
0.0
 40
0.0184615384415384
  1
MATERIAL
 41
0.9999999999999992
  7
DC_TEXTSTYLE4
100
AcDbText
  0
TEXT
  5
124
330
1F
100
AcDbEntity
  8
1
  6
Continuous
 62
     7
370
     0
100
AcDbText
 10
1.411238074438451
 20
-0.5544458805628386
 30
0.0
 40
0.0184615384415385
  1
1
 41
1.000000000000003
  7
DC_TEXTSTYLE5
100
AcDbText
  0
TEXT
  5
125
330
1F
100
AcDbEntity
  8
1
  6
Continuous
 62
     7
370
     0
100
AcDbText
 10
1.489880103728372
 20
-0.5544458805628386
 30
0.0
 40
0.0184615384415385
  1
1
 41
1.000000000000004
  7
DC_TEXTSTYLE5
100
AcDbText
  0
TEXT
  5
126
330
1F
100
AcDbEntity
  8
1
  6
Continuous
 62
     7
370
     0
100
AcDbText
 10
1.541073396022085
 20
-0.5544458805628386
 30
0.0
 40
0.0184615384415385
  1
806-06
 41
1.000000000000003
  7
DC_TEXTSTYLE5
100
AcDbText
  0
TEXT
  5
127
330
1F
100
AcDbEntity
  8
1
  6
Continuous
 62
     7
370
     0
100
AcDbText
 10
1.703234850205478
 20
-0.5544458805628385
 30
0.0
 40
0.0184615384415385
  1
AN FLARE PLUG
 41
0.9999999999999997
  7
DC_TEXTSTYLE5
100
AcDbText
  0
TEXT
  5
128
330
1F
100
AcDbEntity
  8
1
  6
Continuous
 62
     7
370
     0
100
AcDbText
 10
2.022089217981573
 20
-0.5544458805628387
 30
0.0
 40
0.0184615384415385
  1
ALLOY
 41
0.9999999999999992
  7
DC_TEXTSTYLE5
100
AcDbText
  0
LINE
  5
129
330
1F
100
AcDbEntity
  8
1
  6
Continuous
 62
     7
 48
0.0014486245019833
370
     0
100
AcDbLine
 10
2.546414912292057
 20
-0.526753572900531
 30
0.0
 11
1.381726595837517
 21
-0.5267535729005313
 31
0.0
  0
LINE
  5
12A
330
1F
100
AcDbEntity
  8
1
  6
CENTER
 62
    94
420
    37376
 48
0.0363636363636364
370
     0
100
AcDbLine
 10
2.444033957446788
 20
0.9819387893768462
 30
0.0
 11
2.379347642267183
 21
0.9819387893768462
 31
0.0
  0
LINE
  5
12B
330
1F
100
AcDbEntity
  8
1
  6
Continuous
 62
     7
 48
0.0014486245019833
370
     0
100
AcDbLine
 10
1.381726595837517
 20
-0.6005997266666848
 30
0.0
 11
1.381726595837517
 21
-0.563676649783608
 31
0.0
  0
LINE
  5
12C
330
1F
100
AcDbEntity
  8
1
  6
Continuous
 62
     7
 48
0.0014486245019833
370
     0
100
AcDbLine
 10
2.546414912292057
 20
-0.600599726666685
 30
0.0
 11
2.546414912292057
 21
-0.5636766497836081
 31
0.0
  0
LINE
  5
12D
330
1F
100
AcDbEntity
  8
1
  6
Continuous
 62
     7
 48
0.0014486245019833
370
     0
100
AcDbLine
 10
1.532499995541358
 20
-0.6005997266666852
 30
0.0
 11
2.546414912292057
 21
-0.6005997266666852
 31
0.0
  0
LINE
  5
12E
330
1F
100
AcDbEntity
  8
1
  6
Continuous
 62
     7
 48
0.0014486245019833
370
     0
100
AcDbLine
 10
2.546414912292057
 20
-0.5636766497836081
 30
0.0
 11
1.381726595837517
 21
-0.5636766497836083
 31
0.0
  0
LINE
  5
12F
330
1F
100
AcDbEntity
  8
1
  6
Continuous
 62
     7
 48
0.0014486245019833
370
     0
100
AcDbLine
 10
1.381726595837517
 20
-0.563676649783608
 30
0.0
 11
1.381726595837517
 21
-0.5267535729005309
 31
0.0
  0
LINE
  5
130
330
1F
100
AcDbEntity
  8
1
  6
Continuous
 62
     7
 48
0.0014486245019833
370
     0
100
AcDbLine
 10
2.546414912292057
 20
-0.526753572900531
 30
0.0
 11
2.546414912292057
 21
-0.5636766497836081
 31
0.0
  0
LINE
  5
131
330
1F
100
AcDbEntity
  8
1
  6
Continuous
 62
     7
 48
0.0014486245019833
370
     0
100
AcDbLine
 10
1.460368625127439
 20
-0.600599726666685
 30
0.0
 11
1.460368625127439
 21
-0.563676649783608
 31
0.0
  0
LINE
  5
132
330
1F
100
AcDbEntity
  8
1
  6
Continuous
 62
     7
 48
0.0014486245019833
370
     0
100
AcDbLine
 10
1.531842626801315
 20
-0.600599726666685
 30
0.0
 11
1.531842626801315
 21
-0.563676649783608
 31
0.0
  0
LINE
  5
133
330
1F
100
AcDbEntity
  8
1
  6
Continuous
 62
     7
 48
0.0014486245019833
370
     0
100
AcDbLine
 10
1.694004080984708
 20
-0.6005997266666848
 30
0.0
 11
1.694004080984708
 21
-0.5636766497836079
 31
0.0
  0
LINE
  5
134
330
1F
100
AcDbEntity
  8
1
  6
Continuous
 62
     7
 48
0.0014486245019833
370
     0
100
AcDbLine
 10
2.012858448760804
 20
-0.600599726666685
 30
0.0
 11
2.012858448760804
 21
-0.5636766497836077
 31
0.0
  0
LINE
  5
135
330
1F
100
AcDbEntity
  8
1
  6
Continuous
 62
     7
 48
0.0014486245019833
370
     0
100
AcDbLine
 10
1.460368625127439
 20
-0.563676649783608
 30
0.0
 11
1.460368625127439
 21
-0.5267535729005312
 31
0.0
  0
LINE
  5
136
330
1F
100
AcDbEntity
  8
1
  6
Continuous
 62
     7
 48
0.0014486245019833
370
     0
100
AcDbLine
 10
1.531842626801315
 20
-0.563676649783608
 30
0.0
 11
1.531842626801315
 21
-0.5267535729005312
 31
0.0
  0
LINE
  5
137
330
1F
100
AcDbEntity
  8
1
  6
Continuous
 62
     7
 48
0.0014486245019833
370
     0
100
AcDbLine
 10
1.694004080984708
 20
-0.5636766497836079
 30
0.0
 11
1.694004080984708
 21
-0.5267535729005313
 31
0.0
  0
LINE
  5
138
330
1F
100
AcDbEntity
  8
1
  6
Continuous
 62
     7
 48
0.0014486245019833
370
     0
100
AcDbLine
 10
2.012858448760804
 20
-0.5636766497836077
 30
0.0
 11
2.012858448760804
 21
-0.526753572900531
 31
0.0
  0
TEXT
  5
139
330
1F
100
AcDbEntity
  8
1
  6
Continuous
 62
     7
370
     0
100
AcDbText
 10
2.188451871275945
 20
-0.5913689574459159
 30
0.0
 40
0.0184615384415384
  1
SURFACE CONDITION
 41
1.000000000000001
  7
DC_TEXTSTYLE4
100
AcDbText
  0
TEXT
  5
13A
330
1F
100
AcDbEntity
  8
1
  6
Continuous
 62
     7
370
     0
100
AcDbText
 10
2.188451871275945
 20
-0.5544458805628389
 30
0.0
 40
0.0184615384415385
  1
HARD COAT ANODIZED
 41
1.000000000000004
  7
DC_TEXTSTYLE5
100
AcDbText
  0
LINE
  5
13B
330
1F
100
AcDbEntity
  8
1
  6
Continuous
 62
     7
 48
0.0014486245019833
370
     0
100
AcDbLine
 10
2.179221102055176
 20
-0.6005997266666854
 30
0.0
 11
2.179221102055176
 21
-0.5636766497836083
 31
0.0
  0
LINE
  5
13C
330
1F
100
AcDbEntity
  8
1
  6
Continuous
 62
     7
 48
0.0014486245019833
370
     0
100
AcDbLine
 10
2.179221102055176
 20
-0.5636766497836083
 30
0.0
 11
2.179221102055176
 21
-0.5267535729005315
 31
0.0
  0
LINE
  5
13D
330
1F
100
AcDbEntity
  8
1
  6
Continuous
 62
     7
 48
0.0014486245019833
370
     0
100
AcDbLine
 10
2.546414912292057
 20
-0.526753572900531
 30
0.0
 11
1.381726595837517
 21
-0.5267535729005313
 31
0.0
  0
LINE
  5
13E
330
1F
100
AcDbEntity
  8
1
  6
Continuous
 62
     7
 48
0.0014486245019833
370
     0
100
AcDbLine
 10
2.546414912292057
 20
-0.4898304960174541
 30
0.0
 11
2.546414912292057
 21
-0.526753572900531
 31
0.0
  0
LINE
  5
13F
330
1F
100
AcDbEntity
  8
1
  6
Continuous
 62
     7
 48
0.0004851387493297
370
     0
100
AcDbLine
 10
0.5319518367676479
 20
-0.7362165222852195
 30
0.0
 11
0.5319518367676479
 21
-0.6684081244759521
 31
0.0
  0
TEXT
  5
140
330
1F
100
AcDbEntity
  8
1
  6
Continuous
 62
     7
370
     0
100
AcDbText
 10
1.548794726253632
 20
-0.7192644228329023
 30
0.0
 40
0.0296661740415543
  1
.
  7
DC_TEXTSTYLE5
100
AcDbText
  0
TEXT
  5
141
330
1F
100
AcDbEntity
  8
1
  6
Continuous
 62
    94
420
    37376
370
     0
100
AcDbText
 10
1.067778904294143
 20
-0.7192644228329027
 30
0.0
 40
0.0296661740415543
  1
.
  7
DC_TEXTSTYLE5
100
AcDbText
  0
TEXT
  5
142
330
1F
100
AcDbEntity
  8
1
  6
Continuous
 62
    94
420
    37376
370
     0
100
AcDbText
 10
0.5489039362199647
 20
-0.7192644228329027
 30
0.0
 40
0.0296661740415543
  1
.
  7
DC_TEXTSTYLE5
100
AcDbText
  0
TEXT
  5
143
330
1F
100
AcDbEntity
  8
1
  6
Continuous
 62
    94
420
    37376
370
     0
100
AcDbText
 10
0.0972712106490074
 20
-0.7192644228329025
 30
0.0
 40
0.0296661740415543
  1
.
  7
DC_TEXTSTYLE5
100
AcDbText
  0
ARC
  5
144
330
1F
100
AcDbEntity
  8
1
  6
Continuous
 62
     7
 48
0.0004851387493297
370
     0
100
AcDbCircle
 10
2.546414085360376
 20
1.008979721324613
 30
0.0
 40
0.0000006615453443
100
AcDbArc
 50
0.0
 51
89.99999996153788
  0
POLYLINE
  5
145
330
1F
100
AcDbEntity
  8
1
  6
Continuous
 62
     7
 48
0.0014486245019833
370
     0
100
AcDb2dPolyline
 66
     1
 10
0.0
 20
0.0
 30
0.0
 70
   129
  0
VERTEX
  5
146
330
145
100
AcDbEntity
  8
1
  6
Continuous
 62
     7
 48
0.0014486245019833
100
AcDbVertex
100
AcDb2dVertex
 10
2.353790043720842
 20
0.9819387893768462
 30
0.0
 40
0.0023
 41
0.0023
  0
VERTEX
  5
147
330
145
100
AcDbEntity
  8
1
  6
Continuous
 62
     7
 48
0.0014486245019833
100
AcDbVertex
100
AcDb2dVertex
 10
2.353569065582838
 20
0.9844645810520016
 30
0.0
 40
0.0023
 41
0.0023
  0
VERTEX
  5
148
330
145
100
AcDbEntity
  8
1
  6
Continuous
 62
     7
 48
0.0014486245019833
100
AcDbVertex
100
AcDb2dVertex
 10
2.352912845477728
 20
0.9869136278252196
 30
0.0
 40
0.0023
 41
0.0023
  0
VERTEX
  5
149
330
145
100
AcDbEntity
  8
1
  6
Continuous
 62
     7
 48
0.0014486245019833
100
AcDbVertex
100
AcDb2dVertex
 10
2.351841322321342
 20
0.9892115166495736
 30
0.0
 40
0.0023
 41
0.0023
  0
VERTEX
  5
14A
330
145
100
AcDbEntity
  8
1
  6
Continuous
 62
     7
 48
0.0014486245019833
100
AcDbVertex
100
AcDb2dVertex
 10
2.350387053802572
 20
0.9912884273359233
 30
0.0
 40
0.0023
 41
0.0023
  0
VERTEX
  5
14B
330
145
100
AcDbEntity
  8
1
  6
Continuous
 62
     7
 48
0.0014486245019833
100
AcDbVertex
100
AcDb2dVertex
 10
2.348594227134464
 20
0.9930812540040316
 30
0.0
 40
0.0023
 41
0.0023
  0
VERTEX
  5
14C
330
145
100
AcDbEntity
  8
1
  6
Continuous
 62
     7
 48
0.0014486245019833
100
AcDbVertex
100
AcDb2dVertex
 10
2.346517316448114
 20
0.994535522522802
 30
0.0
 40
0.0023
 41
0.0023
  0
VERTEX
  5
14D
330
145
100
AcDbEntity
  8
1
  6
Continuous
 62
     7
 48
0.0014486245019833
100
AcDbVertex
100
AcDb2dVertex
 10
2.34421942762376
 20
0.995607045679187
 30
0.0
 40
0.0023
 41
0.0023
  0
VERTEX
  5
14E
330
145
100
AcDbEntity
  8
1
  6
Continuous
 62
     7
 48
0.0014486245019833
100
AcDbVertex
100
AcDb2dVertex
 10
2.341770380850542
 20
0.9962632657842968
 30
0.0
 40
0.0023
 41
0.0023
  0
VERTEX
  5
14F
330
145
100
AcDbEntity
  8
1
  6
Continuous
 62
     7
 48
0.0014486245019833
100
AcDbVertex
100
AcDb2dVertex
 10
2.339244589175387
 20
0.9964842439223011
 30
0.0
 40
0.0023
 41
0.0023
  0
VERTEX
  5
150
330
145
100
AcDbEntity
  8
1
  6
Continuous
 62
     7
 48
0.0014486245019833
100
AcDbVertex
100
AcDb2dVertex
 10
2.336718797500231
 20
0.9962632657842968
 30
0.0
 40
0.0023
 41
0.0023
  0
VERTEX
  5
151
330
145
100
AcDbEntity
  8
1
  6
Continuous
 62
     7
 48
0.0014486245019833
100
AcDbVertex
100
AcDb2dVertex
 10
2.334269750727012
 20
0.995607045679187
 30
0.0
 40
0.0023
 41
0.0023
  0
VERTEX
  5
152
330
145
100
AcDbEntity
  8
1
  6
Continuous
 62
     7
 48
0.0014486245019833
100
AcDbVertex
100
AcDb2dVertex
 10
2.331971861902659
 20
0.994535522522802
 30
0.0
 40
0.0023
 41
0.0023
  0
VERTEX
  5
153
330
145
100
AcDbEntity
  8
1
  6
Continuous
 62
     7
 48
0.0014486245019833
100
AcDbVertex
100
AcDb2dVertex
 10
2.329894951216309
 20
0.9930812540040316
 30
0.0
 40
0.0023
 41
0.0023
  0
VERTEX
  5
154
330
145
100
AcDbEntity
  8
1
  6
Continuous
 62
     7
 48
0.0014486245019833
100
AcDbVertex
100
AcDb2dVertex
 10
2.328102124548201
 20
0.9912884273359233
 30
0.0
 40
0.0023
 41
0.0023
  0
VERTEX
  5
155
330
145
100
AcDbEntity
  8
1
  6
Continuous
 62
     7
 48
0.0014486245019833
100
AcDbVertex
100
AcDb2dVertex
 10
2.32664785602943
 20
0.9892115166495736
 30
0.0
 40
0.0023
 41
0.0023
  0
VERTEX
  5
156
330
145
100
AcDbEntity
  8
1
  6
Continuous
 62
     7
 48
0.0014486245019833
100
AcDbVertex
100
AcDb2dVertex
 10
2.325576332873045
 20
0.9869136278252196
 30
0.0
 40
0.0023
 41
0.0023
  0
VERTEX
  5
157
330
145
100
AcDbEntity
  8
1
  6
Continuous
 62
     7
 48
0.0014486245019833
100
AcDbVertex
100
AcDb2dVertex
 10
2.324920112767935
 20
0.9844645810520016
 30
0.0
 40
0.0023
 41
0.0023
  0
VERTEX
  5
158
330
145
100
AcDbEntity
  8
1
  6
Continuous
 62
     7
 48
0.0014486245019833
100
AcDbVertex
100
AcDb2dVertex
 10
2.324699134629931
 20
0.9819387893768462
 30
0.0
 40
0.0023
 41
0.0023
  0
VERTEX
  5
159
330
145
100
AcDbEntity
  8
1
  6
Continuous
 62
     7
 48
0.0014486245019833
100
AcDbVertex
100
AcDb2dVertex
 10
2.324920112767935
 20
0.9794129977016908
 30
0.0
 40
0.0023
 41
0.0023
  0
VERTEX
  5
15A
330
145
100
AcDbEntity
  8
1
  6
Continuous
 62
     7
 48
0.0014486245019833
100
AcDbVertex
100
AcDb2dVertex
 10
2.325576332873045
 20
0.9769639509284728
 30
0.0
 40
0.0023
 41
0.0023
  0
VERTEX
  5
15B
330
145
100
AcDbEntity
  8
1
  6
Continuous
 62
     7
 48
0.0014486245019833
100
AcDbVertex
100
AcDb2dVertex
 10
2.32664785602943
 20
0.9746660621041188
 30
0.0
 40
0.0023
 41
0.0023
  0
VERTEX
  5
15C
330
145
100
AcDbEntity
  8
1
  6
Continuous
 62
     7
 48
0.0014486245019833
100
AcDbVertex
100
AcDb2dVertex
 10
2.328102124548201
 20
0.972589151417769
 30
0.0
 40
0.0023
 41
0.0023
  0
VERTEX
  5
15D
330
145
100
AcDbEntity
  8
1
  6
Continuous
 62
     7
 48
0.0014486245019833
100
AcDbVertex
100
AcDb2dVertex
 10
2.329894951216309
 20
0.9707963247496608
 30
0.0
 40
0.0023
 41
0.0023
  0
VERTEX
  5
15E
330
145
100
AcDbEntity
  8
1
  6
Continuous
 62
     7
 48
0.0014486245019833
100
AcDbVertex
100
AcDb2dVertex
 10
2.331971861902659
 20
0.9693420562308904
 30
0.0
 40
0.0023
 41
0.0023
  0
VERTEX
  5
15F
330
145
100
AcDbEntity
  8
1
  6
Continuous
 62
     7
 48
0.0014486245019833
100
AcDbVertex
100
AcDb2dVertex
 10
2.334269750727012
 20
0.9682705330745054
 30
0.0
 40
0.0023
 41
0.0023
  0
VERTEX
  5
160
330
145
100
AcDbEntity
  8
1
  6
Continuous
 62
     7
 48
0.0014486245019833
100
AcDbVertex
100
AcDb2dVertex
 10
2.336718797500231
 20
0.9676143129693955
 30
0.0
 40
0.0023
 41
0.0023
  0
VERTEX
  5
161
330
145
100
AcDbEntity
  8
1
  6
Continuous
 62
     7
 48
0.0014486245019833
100
AcDbVertex
100
AcDb2dVertex
 10
2.339244589175387
 20
0.9673933348313912
 30
0.0
 40
0.0023
 41
0.0023
  0
VERTEX
  5
162
330
145
100
AcDbEntity
  8
1
  6
Continuous
 62
     7
 48
0.0014486245019833
100
AcDbVertex
100
AcDb2dVertex
 10
2.341770380850542
 20
0.9676143129693955
 30
0.0
 40
0.0023
 41
0.0023
  0
VERTEX
  5
163
330
145
100
AcDbEntity
  8
1
  6
Continuous
 62
     7
 48
0.0014486245019833
100
AcDbVertex
100
AcDb2dVertex
 10
2.34421942762376
 20
0.9682705330745053
 30
0.0
 40
0.0023
 41
0.0023
  0
VERTEX
  5
164
330
145
100
AcDbEntity
  8
1
  6
Continuous
 62
     7
 48
0.0014486245019833
100
AcDbVertex
100
AcDb2dVertex
 10
2.346517316448114
 20
0.9693420562308903
 30
0.0
 40
0.0023
 41
0.0023
  0
VERTEX
  5
165
330
145
100
AcDbEntity
  8
1
  6
Continuous
 62
     7
 48
0.0014486245019833
100
AcDbVertex
100
AcDb2dVertex
 10
2.348594227134464
 20
0.9707963247496607
 30
0.0
 40
0.0023
 41
0.0023
  0
VERTEX
  5
166
330
145
100
AcDbEntity
  8
1
  6
Continuous
 62
     7
 48
0.0014486245019833
100
AcDbVertex
100
AcDb2dVertex
 10
2.350387053802572
 20
0.9725891514177689
 30
0.0
 40
0.0023
 41
0.0023
  0
VERTEX
  5
167
330
145
100
AcDbEntity
  8
1
  6
Continuous
 62
     7
 48
0.0014486245019833
100
AcDbVertex
100
AcDb2dVertex
 10
2.351841322321342
 20
0.9746660621041188
 30
0.0
 40
0.0023
 41
0.0023
  0
VERTEX
  5
168
330
145
100
AcDbEntity
  8
1
  6
Continuous
 62
     7
 48
0.0014486245019833
100
AcDbVertex
100
AcDb2dVertex
 10
2.352912845477728
 20
0.9769639509284727
 30
0.0
 40
0.0023
 41
0.0023
  0
VERTEX
  5
169
330
145
100
AcDbEntity
  8
1
  6
Continuous
 62
     7
 48
0.0014486245019833
100
AcDbVertex
100
AcDb2dVertex
 10
2.353569065582838
 20
0.9794129977016907
 30
0.0
 40
0.0023
 41
0.0023
  0
VERTEX
  5
16A
330
145
100
AcDbEntity
  8
1
  6
Continuous
 62
     7
 48
0.0014486245019833
100
AcDbVertex
100
AcDb2dVertex
 10
2.353790043720842
 20
0.9819387893768462
 30
0.0
 40
0.0023
 41
0.0023
  0
SEQEND
  5
16B
330
145
100
AcDbEntity
  8
1
  6
Continuous
 62
     7
 48
0.0014486245019833
370
     0
  0
POLYLINE
  5
16C
330
1F
100
AcDbEntity
  8
1
  6
Continuous
 62
     7
 48
0.0014486245019833
370
     0
100
AcDb2dPolyline
 66
     1
 10
0.0
 20
0.0
 30
0.0
 70
   129
  0
VERTEX
  5
16D
330
16C
100
AcDbEntity
  8
1
  6
Continuous
 62
     7
 48
0.0014486245019833
100
AcDbVertex
100
AcDb2dVertex
 10
2.348335498266296
 20
0.9819387893768462
 30
0.0
 40
0.0023
 41
0.0023
  0
VERTEX
  5
16E
330
16C
100
AcDbEntity
  8
1
  6
Continuous
 62
     7
 48
0.0014486245019833
100
AcDbVertex
100
AcDb2dVertex
 10
2.348197386930043
 20
0.9835174091738184
 30
0.0
 40
0.0023
 41
0.0023
  0
VERTEX
  5
16F
330
16C
100
AcDbEntity
  8
1
  6
Continuous
 62
     7
 48
0.0014486245019833
100
AcDbVertex
100
AcDb2dVertex
 10
2.347787249364349
 20
0.9850480634070795
 30
0.0
 40
0.0023
 41
0.0023
  0
VERTEX
  5
170
330
16C
100
AcDbEntity
  8
1
  6
Continuous
 62
     7
 48
0.0014486245019833
100
AcDbVertex
100
AcDb2dVertex
 10
2.347117547391609
 20
0.9864842439223007
 30
0.0
 40
0.0023
 41
0.0023
  0
VERTEX
  5
171
330
16C
100
AcDbEntity
  8
1
  6
Continuous
 62
     7
 48
0.0014486245019833
100
AcDbVertex
100
AcDb2dVertex
 10
2.346208629567377
 20
0.9877823131012692
 30
0.0
 40
0.0023
 41
0.0023
  0
VERTEX
  5
172
330
16C
100
AcDbEntity
  8
1
  6
Continuous
 62
     7
 48
0.0014486245019833
100
AcDbVertex
100
AcDb2dVertex
 10
2.34508811289981
 20
0.9889028297688368
 30
0.0
 40
0.0023
 41
0.0023
  0
VERTEX
  5
173
330
16C
100
AcDbEntity
  8
1
  6
Continuous
 62
     7
 48
0.0014486245019833
100
AcDbVertex
100
AcDb2dVertex
 10
2.343790043720841
 20
0.9898117475930683
 30
0.0
 40
0.0023
 41
0.0023
  0
VERTEX
  5
174
330
16C
100
AcDbEntity
  8
1
  6
Continuous
 62
     7
 48
0.0014486245019833
100
AcDbVertex
100
AcDb2dVertex
 10
2.34235386320562
 20
0.990481449565809
 30
0.0
 40
0.0023
 41
0.0023
  0
VERTEX
  5
175
330
16C
100
AcDbEntity
  8
1
  6
Continuous
 62
     7
 48
0.0014486245019833
100
AcDbVertex
100
AcDb2dVertex
 10
2.340823208972358
 20
0.9908915871315025
 30
0.0
 40
0.0023
 41
0.0023
  0
VERTEX
  5
176
330
16C
100
AcDbEntity
  8
1
  6
Continuous
 62
     7
 48
0.0014486245019833
100
AcDbVertex
100
AcDb2dVertex
 10
2.339244589175387
 20
0.9910296984677552
 30
0.0
 40
0.0023
 41
0.0023
  0
VERTEX
  5
177
330
16C
100
AcDbEntity
  8
1
  6
Continuous
 62
     7
 48
0.0014486245019833
100
AcDbVertex
100
AcDb2dVertex
 10
2.337665969378414
 20
0.9908915871315025
 30
0.0
 40
0.0023
 41
0.0023
  0
VERTEX
  5
178
330
16C
100
AcDbEntity
  8
1
  6
Continuous
 62
     7
 48
0.0014486245019833
100
AcDbVertex
100
AcDb2dVertex
 10
2.336135315145153
 20
0.990481449565809
 30
0.0
 40
0.0023
 41
0.0023
  0
VERTEX
  5
179
330
16C
100
AcDbEntity
  8
1
  6
Continuous
 62
     7
 48
0.0014486245019833
100
AcDbVertex
100
AcDb2dVertex
 10
2.334699134629932
 20
0.9898117475930683
 30
0.0
 40
0.0023
 41
0.0023
  0
VERTEX
  5
17A
330
16C
100
AcDbEntity
  8
1
  6
Continuous
 62
     7
 48
0.0014486245019833
100
AcDbVertex
100
AcDb2dVertex
 10
2.333401065450963
 20
0.9889028297688368
 30
0.0
 40
0.0023
 41
0.0023
  0
VERTEX
  5
17B
330
16C
100
AcDbEntity
  8
1
  6
Continuous
 62
     7
 48
0.0014486245019833
100
AcDbVertex
100
AcDb2dVertex
 10
2.332280548783396
 20
0.9877823131012692
 30
0.0
 40
0.0023
 41
0.0023
  0
VERTEX
  5
17C
330
16C
100
AcDbEntity
  8
1
  6
Continuous
 62
     7
 48
0.0014486245019833
100
AcDbVertex
100
AcDb2dVertex
 10
2.331371630959164
 20
0.9864842439223007
 30
0.0
 40
0.0023
 41
0.0023
  0
VERTEX
  5
17D
330
16C
100
AcDbEntity
  8
1
  6
Continuous
 62
     7
 48
0.0014486245019833
100
AcDbVertex
100
AcDb2dVertex
 10
2.330701928986423
 20
0.9850480634070795
 30
0.0
 40
0.0023
 41
0.0023
  0
VERTEX
  5
17E
330
16C
100
AcDbEntity
  8
1
  6
Continuous
 62
     7
 48
0.0014486245019833
100
AcDbVertex
100
AcDb2dVertex
 10
2.33029179142073
 20
0.9835174091738184
 30
0.0
 40
0.0023
 41
0.0023
  0
VERTEX
  5
17F
330
16C
100
AcDbEntity
  8
1
  6
Continuous
 62
     7
 48
0.0014486245019833
100
AcDbVertex
100
AcDb2dVertex
 10
2.330153680084477
 20
0.9819387893768462
 30
0.0
 40
0.0023
 41
0.0023
  0
VERTEX
  5
180
330
16C
100
AcDbEntity
  8
1
  6
Continuous
 62
     7
 48
0.0014486245019833
100
AcDbVertex
100
AcDb2dVertex
 10
2.33029179142073
 20
0.9803601695798742
 30
0.0
 40
0.0023
 41
0.0023
  0
VERTEX
  5
181
330
16C
100
AcDbEntity
  8
1
  6
Continuous
 62
     7
 48
0.0014486245019833
100
AcDbVertex
100
AcDb2dVertex
 10
2.330701928986423
 20
0.9788295153466129
 30
0.0
 40
0.0023
 41
0.0023
  0
VERTEX
  5
182
330
16C
100
AcDbEntity
  8
1
  6
Continuous
 62
     7
 48
0.0014486245019833
100
AcDbVertex
100
AcDb2dVertex
 10
2.331371630959164
 20
0.9773933348313917
 30
0.0
 40
0.0023
 41
0.0023
  0
VERTEX
  5
183
330
16C
100
AcDbEntity
  8
1
  6
Continuous
 62
     7
 48
0.0014486245019833
100
AcDbVertex
100
AcDb2dVertex
 10
2.332280548783396
 20
0.9760952656524231
 30
0.0
 40
0.0023
 41
0.0023
  0
VERTEX
  5
184
330
16C
100
AcDbEntity
  8
1
  6
Continuous
 62
     7
 48
0.0014486245019833
100
AcDbVertex
100
AcDb2dVertex
 10
2.333401065450963
 20
0.9749747489848556
 30
0.0
 40
0.0023
 41
0.0023
  0
VERTEX
  5
185
330
16C
100
AcDbEntity
  8
1
  6
Continuous
 62
     7
 48
0.0014486245019833
100
AcDbVertex
100
AcDb2dVertex
 10
2.334699134629932
 20
0.9740658311606241
 30
0.0
 40
0.0023
 41
0.0023
  0
VERTEX
  5
186
330
16C
100
AcDbEntity
  8
1
  6
Continuous
 62
     7
 48
0.0014486245019833
100
AcDbVertex
100
AcDb2dVertex
 10
2.336135315145153
 20
0.9733961291878834
 30
0.0
 40
0.0023
 41
0.0023
  0
VERTEX
  5
187
330
16C
100
AcDbEntity
  8
1
  6
Continuous
 62
     7
 48
0.0014486245019833
100
AcDbVertex
100
AcDb2dVertex
 10
2.337665969378414
 20
0.9729859916221898
 30
0.0
 40
0.0023
 41
0.0023
  0
VERTEX
  5
188
330
16C
100
AcDbEntity
  8
1
  6
Continuous
 62
     7
 48
0.0014486245019833
100
AcDbVertex
100
AcDb2dVertex
 10
2.339244589175387
 20
0.9728478802859372
 30
0.0
 40
0.0023
 41
0.0023
  0
VERTEX
  5
189
330
16C
100
AcDbEntity
  8
1
  6
Continuous
 62
     7
 48
0.0014486245019833
100
AcDbVertex
100
AcDb2dVertex
 10
2.340823208972358
 20
0.9729859916221898
 30
0.0
 40
0.0023
 41
0.0023
  0
VERTEX
  5
18A
330
16C
100
AcDbEntity
  8
1
  6
Continuous
 62
     7
 48
0.0014486245019833
100
AcDbVertex
100
AcDb2dVertex
 10
2.34235386320562
 20
0.9733961291878834
 30
0.0
 40
0.0023
 41
0.0023
  0
VERTEX
  5
18B
330
16C
100
AcDbEntity
  8
1
  6
Continuous
 62
     7
 48
0.0014486245019833
100
AcDbVertex
100
AcDb2dVertex
 10
2.343790043720841
 20
0.9740658311606241
 30
0.0
 40
0.0023
 41
0.0023
  0
VERTEX
  5
18C
330
16C
100
AcDbEntity
  8
1
  6
Continuous
 62
     7
 48
0.0014486245019833
100
AcDbVertex
100
AcDb2dVertex
 10
2.34508811289981
 20
0.9749747489848556
 30
0.0
 40
0.0023
 41
0.0023
  0
VERTEX
  5
18D
330
16C
100
AcDbEntity
  8
1
  6
Continuous
 62
     7
 48
0.0014486245019833
100
AcDbVertex
100
AcDb2dVertex
 10
2.346208629567377
 20
0.9760952656524231
 30
0.0
 40
0.0023
 41
0.0023
  0
VERTEX
  5
18E
330
16C
100
AcDbEntity
  8
1
  6
Continuous
 62
     7
 48
0.0014486245019833
100
AcDbVertex
100
AcDb2dVertex
 10
2.347117547391609
 20
0.9773933348313917
 30
0.0
 40
0.0023
 41
0.0023
  0
VERTEX
  5
18F
330
16C
100
AcDbEntity
  8
1
  6
Continuous
 62
     7
 48
0.0014486245019833
100
AcDbVertex
100
AcDb2dVertex
 10
2.347787249364349
 20
0.9788295153466129
 30
0.0
 40
0.0023
 41
0.0023
  0
VERTEX
  5
190
330
16C
100
AcDbEntity
  8
1
  6
Continuous
 62
     7
 48
0.0014486245019833
100
AcDbVertex
100
AcDb2dVertex
 10
2.348197386930043
 20
0.980360169579874
 30
0.0
 40
0.0023
 41
0.0023
  0
VERTEX
  5
191
330
16C
100
AcDbEntity
  8
1
  6
Continuous
 62
     7
 48
0.0014486245019833
100
AcDbVertex
100
AcDb2dVertex
 10
2.348335498266296
 20
0.9819387893768462
 30
0.0
 40
0.0023
 41
0.0023
  0
SEQEND
  5
192
330
16C
100
AcDbEntity
  8
1
  6
Continuous
 62
     7
 48
0.0014486245019833
370
     0
  0
TEXT
  5
193
330
1F
100
AcDbEntity
  8
1
  6
DASHED
 62
     7
370
     0
100
AcDbText
 10
2.044862752777362
 20
-0.6889718137441722
 30
0.0
 40
0.0375
  1
-6 AN FLARE PLUG
 41
1.000000000000003
  7
DC_TEXTSTYLE5
 72
     1
 11
2.281937752777363
 21
-0.6889718137441722
 31
0.0
100
AcDbText
  0
TEXT
  5
194
330
1F
100
AcDbEntity
  8
1
  6
DASHED
 62
     7
370
     0
100
AcDbText
 10
1.255799840126235
 20
0.5813106422374457
 30
0.0
 40
0.0224999999999999
  1
1
  7
DC_TEXTSTYLE5
 72
     1
 11
1.264529840126235
 21
0.5813106422374457
 31
0.0
100
AcDbText
  0
CIRCLE
  5
195
330
1F
100
AcDbEntity
  8
1
  6
Continuous
 62
     7
 48
0.0004851387493297
370
     0
100
AcDbCircle
 10
1.264529840126234
 20
0.5925606422374445
 30
0.0
 40
0.0225
  0
TEXT
  5
196
330
1F
100
AcDbEntity
  8
1
  6
DASHED
 62
     5
420
      255
370
     0
100
AcDbText
 10
1.097204874292852
 20
-0.2641096183778572
 30
0.0
 40
0.0224999999999999
  1
PART NET WEIGHT IS 7 GRAMS
  7
DC_TEXTSTYLE5
 72
     1
 11
1.336301124292851
 21
-0.2641096183778572
 31
0.0
100
AcDbText
  0
LINE
  5
197
330
1F
100
AcDbEntity
  8
1
  6
Continuous
 62
     7
 48
0.0004851387493297
370
     0
100
AcDbLine
 10
1.197029840126234
 20
0.5250606422374444
 30
0.0
 11
1.248619937549536
 21
0.5766507396607471
 31
0.0
  0
LINE
  5
198
330
1F
100
AcDbEntity
  8
3
  6
CENTER
 62
    94
420
    43520
 48
0.063
370
     0
100
AcDbLine
 10
1.78238468488335
 20
0.1955606422374441
 30
0.0
 11
0.9185754995557376
 21
0.1955606422374441
 31
0.0
  0
POLYLINE
  5
199
330
1F
100
AcDbEntity
  8
3
  6
Continuous
 62
     7
 48
0.0063138969378866
370
     0
100
AcDb2dPolyline
 66
     1
 10
0.0
 20
0.0
 30
0.0
  0
VERTEX
  5
19A
330
199
100
AcDbEntity
  8
3
  6
Continuous
 62
     7
 48
0.0063138969378866
100
AcDbVertex
100
AcDb2dVertex
 10
1.752339840126233
 20
0.1955606422374441
 30
0.0
 40
0.0025
 41
0.0025
  0
VERTEX
  5
19B
330
199
100
AcDbEntity
  8
3
  6
Continuous
 62
     7
 48
0.0063138969378866
100
AcDbVertex
100
AcDb2dVertex
 10
1.752339840126233
 20
0.0355606422374443
 30
0.0
 40
0.0025
 41
0.0025
  0
SEQEND
  5
19C
330
199
100
AcDbEntity
  8
3
  6
Continuous
 62
     7
 48
0.0063138969378866
370
     0
  0
LINE
  5
19D
330
1F
100
AcDbEntity
  8
3
  6
HIDDEN
 62
     7
 48
0.063
370
     0
100
AcDbLine
 10
1.747339840126233
 20
0.0465606422374443
 30
0.0
 11
1.202339840126233
 21
0.0465606422374443
 31
0.0
  0
POLYLINE
  5
19E
330
1F
100
AcDbEntity
  8
3
  6
Continuous
 62
     7
 48
0.0063138969378866
370
     0
100
AcDb2dPolyline
 66
     1
 10
0.0
 20
0.0
 30
0.0
  0
VERTEX
  5
19F
330
19E
100
AcDbEntity
  8
3
  6
Continuous
 62
     7
 48
0.0063138969378866
100
AcDbVertex
100
AcDb2dVertex
 10
1.297339840126233
 20
-0.0444393577625557
 30
0.0
 40
0.0025
 41
0.0025
  0
VERTEX
  5
1A0
330
19E
100
AcDbEntity
  8
3
  6
Continuous
 62
     7
 48
0.0063138969378866
100
AcDbVertex
100
AcDb2dVertex
 10
1.214339840126233
 20
-0.0444393577625557
 30
0.0
 40
0.0025
 41
0.0025
  0
SEQEND
  5
1A1
330
19E
100
AcDbEntity
  8
3
  6
Continuous
 62
     7
 48
0.0063138969378866
370
     0
  0
POLYLINE
  5
1A2
330
1F
100
AcDbEntity
  8
3
  6
Continuous
 62
     7
 48
0.0063138969378866
370
     0
100
AcDb2dPolyline
 66
     1
 10
0.0
 20
0.0
 30
0.0
  0
VERTEX
  5
1A3
330
1A2
100
AcDbEntity
  8
3
  6
Continuous
 62
     7
100
AcDbVertex
100
AcDb2dVertex
 10
1.214339840126233
 20
-0.0444393577625557
 30
0.0
 40
0.0025
 41
0.0025
 42
0.414213562373095
  0
VERTEX
  5
1A4
330
1A2
100
AcDbEntity
  8
3
  6
Continuous
 62
     7
100
AcDbVertex
100
AcDb2dVertex
 10
1.204339840126234
 20
-0.0544393577625558
 30
0.0
 40
0.0025
 41
0.0025
  0
SEQEND
  5
1A5
330
1A2
100
AcDbEntity
  8
3
  6
Continuous
 62
     7
 48
0.0063138969378866
370
     0
  0
POLYLINE
  5
1A6
330
1F
100
AcDbEntity
  8
3
  6
Continuous
 62
     7
 48
0.0063138969378866
370
     0
100
AcDb2dPolyline
 66
     1
 10
0.0
 20
0.0
 30
0.0
  0
VERTEX
  5
1A7
330
1A6
100
AcDbEntity
  8
3
  6
Continuous
 62
     7
 48
0.0063138969378866
100
AcDbVertex
100
AcDb2dVertex
 10
1.752339840126233
 20
0.1955606422374441
 30
0.0
 40
0.0025
 41
0.0025
  0
VERTEX
  5
1A8
330
1A6
100
AcDbEntity
  8
3
  6
Continuous
 62
     7
 48
0.0063138969378866
100
AcDbVertex
100
AcDb2dVertex
 10
1.752339840126233
 20
0.3555606422374442
 30
0.0
 40
0.0025
 41
0.0025
  0
SEQEND
  5
1A9
330
1A6
100
AcDbEntity
  8
3
  6
Continuous
 62
     7
 48
0.0063138969378866
370
     0
  0
LINE
  5
1AA
330
1F
100
AcDbEntity
  8
3
  6
HIDDEN
 62
     7
 48
0.063
370
     0
100
AcDbLine
 10
1.747339840126233
 20
0.3445606422374442
 30
0.0
 11
1.202339840126233
 21
0.3445606422374442
 31
0.0
  0
POLYLINE
  5
1AB
330
1F
100
AcDbEntity
  8
3
  6
Continuous
 62
     7
 48
0.0063138969378866
370
     0
100
AcDb2dPolyline
 66
     1
 10
0.0
 20
0.0
 30
0.0
  0
VERTEX
  5
1AC
330
1AB
100
AcDbEntity
  8
3
  6
Continuous
 62
     7
 48
0.0063138969378866
100
AcDbVertex
100
AcDb2dVertex
 10
1.297339840126233
 20
0.4355606422374443
 30
0.0
 40
0.0025
 41
0.0025
  0
VERTEX
  5
1AD
330
1AB
100
AcDbEntity
  8
3
  6
Continuous
 62
     7
 48
0.0063138969378866
100
AcDbVertex
100
AcDb2dVertex
 10
1.214339840126233
 20
0.4355606422374446
 30
0.0
 40
0.0025
 41
0.0025
  0
SEQEND
  5
1AE
330
1AB
100
AcDbEntity
  8
3
  6
Continuous
 62
     7
 48
0.0063138969378866
370
     0
  0
POLYLINE
  5
1AF
330
1F
100
AcDbEntity
  8
3
  6
Continuous
 62
     7
 48
0.0063138969378866
370
     0
100
AcDb2dPolyline
 66
     1
 10
0.0
 20
0.0
 30
0.0
  0
VERTEX
  5
1B0
330
1AF
100
AcDbEntity
  8
3
  6
Continuous
 62
     7
100
AcDbVertex
100
AcDb2dVertex
 10
1.204339840126234
 20
0.4455606422374442
 30
0.0
 40
0.0025
 41
0.0025
 42
0.414213562373095
  0
VERTEX
  5
1B1
330
1AF
100
AcDbEntity
  8
3
  6
Continuous
 62
     7
100
AcDbVertex
100
AcDb2dVertex
 10
1.214339840126233
 20
0.4355606422374446
 30
0.0
 40
0.0025
 41
0.0025
  0
SEQEND
  5
1B2
330
1AF
100
AcDbEntity
  8
3
  6
Continuous
 62
     7
 48
0.0063138969378866
370
     0
  0
POLYLINE
  5
1B3
330
1F
100
AcDbEntity
  8
3
  6
Continuous
 62
     7
 48
0.0063138969378866
370
     0
100
AcDb2dPolyline
 66
     1
 10
0.0
 20
0.0
 30
0.0
  0
VERTEX
  5
1B4
330
1B3
100
AcDbEntity
  8
3
  6
Continuous
 62
     7
 48
0.0063138969378866
100
AcDbVertex
100
AcDb2dVertex
 10
1.648639840126234
 20
0.4335606422374442
 30
0.0
 40
0.0025
 41
0.0025
  0
VERTEX
  5
1B5
330
1B3
100
AcDbEntity
  8
3
  6
Continuous
 62
     7
 48
0.0063138969378866
100
AcDbVertex
100
AcDb2dVertex
 10
1.752339840126233
 20
0.3555606422374442
 30
0.0
 40
0.0025
 41
0.0025
  0
SEQEND
  5
1B6
330
1B3
100
AcDbEntity
  8
3
  6
Continuous
 62
     7
 48
0.0063138969378866
370
     0
  0
POLYLINE
  5
1B7
330
1F
100
AcDbEntity
  8
3
  6
Continuous
 62
     7
 48
0.0063138969378866
370
     0
100
AcDb2dPolyline
 66
     1
 10
0.0
 20
0.0
 30
0.0
  0
VERTEX
  5
1B8
330
1B7
100
AcDbEntity
  8
3
  6
Continuous
 62
     7
 48
0.0063138969378866
100
AcDbVertex
100
AcDb2dVertex
 10
1.554339840126233
 20
0.4335606422374442
 30
0.0
 40
0.0025
 41
0.0025
  0
VERTEX
  5
1B9
330
1B7
100
AcDbEntity
  8
3
  6
Continuous
 62
     7
 48
0.0063138969378866
100
AcDbVertex
100
AcDb2dVertex
 10
1.648639840126234
 20
0.4335606422374442
 30
0.0
 40
0.0025
 41
0.0025
  0
SEQEND
  5
1BA
330
1B7
100
AcDbEntity
  8
3
  6
Continuous
 62
     7
 48
0.0063138969378866
370
     0
  0
POLYLINE
  5
1BB
330
1F
100
AcDbEntity
  8
3
  6
Continuous
 62
     7
 48
0.0063138969378866
370
     0
100
AcDb2dPolyline
 66
     1
 10
0.0
 20
0.0
 30
0.0
  0
VERTEX
  5
1BC
330
1BB
100
AcDbEntity
  8
3
  6
Continuous
 62
     7
 48
0.0063138969378866
100
AcDbVertex
100
AcDb2dVertex
 10
1.204339840126233
 20
-0.0544393577625558
 30
0.0
 40
0.0025
 41
0.0025
  0
VERTEX
  5
1BD
330
1BB
100
AcDbEntity
  8
3
  6
Continuous
 62
     7
 48
0.0063138969378866
100
AcDbVertex
100
AcDb2dVertex
 10
1.204339840126233
 20
-0.1124393577625558
 30
0.0
 40
0.0025
 41
0.0025
  0
SEQEND
  5
1BE
330
1BB
100
AcDbEntity
  8
3
  6
Continuous
 62
     7
 48
0.0063138969378866
370
     0
  0
POLYLINE
  5
1BF
330
1F
100
AcDbEntity
  8
3
  6
Continuous
 62
     7
 48
0.0063138969378866
370
     0
100
AcDb2dPolyline
 66
     1
 10
0.0
 20
0.0
 30
0.0
  0
VERTEX
  5
1C0
330
1BF
100
AcDbEntity
  8
3
  6
Continuous
 62
     7
 48
0.0063138969378866
100
AcDbVertex
100
AcDb2dVertex
 10
1.204339840126233
 20
0.4455606422374442
 30
0.0
 40
0.0025
 41
0.0025
  0
VERTEX
  5
1C1
330
1BF
100
AcDbEntity
  8
3
  6
Continuous
 62
     7
 48
0.0063138969378866
100
AcDbVertex
100
AcDb2dVertex
 10
1.204339840126233
 20
0.5035606422374443
 30
0.0
 40
0.0025
 41
0.0025
  0
SEQEND
  5
1C2
330
1BF
100
AcDbEntity
  8
3
  6
Continuous
 62
     7
 48
0.0063138969378866
370
     0
  0
POLYLINE
  5
1C3
330
1F
100
AcDbEntity
  8
3
  6
Continuous
 62
     7
 48
0.0063138969378866
370
     0
100
AcDb2dPolyline
 66
     1
 10
0.0
 20
0.0
 30
0.0
  0
VERTEX
  5
1C4
330
1C3
100
AcDbEntity
  8
3
  6
Continuous
 62
     7
 48
0.0063138969378866
100
AcDbVertex
100
AcDb2dVertex
 10
1.204339840126233
 20
-0.1124393577625558
 30
0.0
 40
0.0025
 41
0.0025
  0
VERTEX
  5
1C5
330
1C3
100
AcDbEntity
  8
3
  6
Continuous
 62
     7
 48
0.0063138969378866
100
AcDbVertex
100
AcDb2dVertex
 10
1.189719840126233
 20
-0.1554393577625558
 30
0.0
 40
0.0025
 41
0.0025
  0
SEQEND
  5
1C6
330
1C3
100
AcDbEntity
  8
3
  6
Continuous
 62
     7
 48
0.0063138969378866
370
     0
  0
POLYLINE
  5
1C7
330
1F
100
AcDbEntity
  8
3
  6
Continuous
 62
     7
 48
0.0063138969378866
370
     0
100
AcDb2dPolyline
 66
     1
 10
0.0
 20
0.0
 30
0.0
  0
VERTEX
  5
1C8
330
1C7
100
AcDbEntity
  8
3
  6
Continuous
 62
     7
 48
0.0063138969378866
100
AcDbVertex
100
AcDb2dVertex
 10
1.204339840126233
 20
0.5035606422374443
 30
0.0
 40
0.0025
 41
0.0025
  0
VERTEX
  5
1C9
330
1C7
100
AcDbEntity
  8
3
  6
Continuous
 62
     7
 48
0.0063138969378866
100
AcDbVertex
100
AcDb2dVertex
 10
1.189719840126233
 20
0.5465606422374442
 30
0.0
 40
0.0025
 41
0.0025
  0
SEQEND
  5
1CA
330
1C7
100
AcDbEntity
  8
3
  6
Continuous
 62
     7
 48
0.0063138969378866
370
     0
  0
POLYLINE
  5
1CB
330
1F
100
AcDbEntity
  8
3
  6
Continuous
 62
     7
 48
0.0063138969378866
370
     0
100
AcDb2dPolyline
 66
     1
 10
0.0
 20
0.0
 30
0.0
  0
VERTEX
  5
1CC
330
1CB
100
AcDbEntity
  8
3
  6
Continuous
 62
     7
 48
0.0063138969378866
100
AcDbVertex
100
AcDb2dVertex
 10
0.9443398401262333
 20
-0.1124393577625558
 30
0.0
 40
0.0025
 41
0.0025
  0
VERTEX
  5
1CD
330
1CB
100
AcDbEntity
  8
3
  6
Continuous
 62
     7
 48
0.0063138969378866
100
AcDbVertex
100
AcDb2dVertex
 10
0.9443398401262333
 20
0.5035606422374443
 30
0.0
 40
0.0025
 41
0.0025
  0
SEQEND
  5
1CE
330
1CB
100
AcDbEntity
  8
3
  6
Continuous
 62
     7
 48
0.0063138969378866
370
     0
  0
LINE
  5
1CF
330
1F
100
AcDbEntity
  8
3
  6
HIDDEN
 62
     7
 48
0.063
370
     0
100
AcDbLine
 10
1.152339840126233
 20
0.1955606422374443
 30
0.0
 11
1.202339840126233
 21
0.0465606422374443
 31
0.0
  0
LINE
  5
1D0
330
1F
100
AcDbEntity
  8
3
  6
HIDDEN
 62
     7
 48
0.063
370
     0
100
AcDbLine
 10
1.152339840126233
 20
0.1955606422374443
 30
0.0
 11
1.202339840126233
 21
0.3445606422374442
 31
0.0
  0
LINE
  5
1D1
330
1F
100
AcDbEntity
  8
1
  6
HIDDEN
 62
     7
 48
0.063
370
     0
100
AcDbLine
 10
1.752339840126233
 20
0.0415606422374441
 30
0.0
 11
1.747339840126233
 21
0.0465606422374443
 31
0.0
  0
LINE
  5
1D2
330
1F
100
AcDbEntity
  8
1
  6
HIDDEN
 62
     7
 48
0.063
370
     0
100
AcDbLine
 10
1.752339840126233
 20
0.3495606422374442
 30
0.0
 11
1.747339840126233
 21
0.3445606422374442
 31
0.0
  0
POLYLINE
  5
1D3
330
1F
100
AcDbEntity
  8
1
  6
Continuous
 62
     7
 48
0.0063138969378866
370
     0
100
AcDb2dPolyline
 66
     1
 10
0.0
 20
0.0
 30
0.0
  0
VERTEX
  5
1D4
330
1D3
100
AcDbEntity
  8
1
  6
Continuous
 62
     7
 48
0.0063138969378866
100
AcDbVertex
100
AcDb2dVertex
 10
0.9589598401262331
 20
0.5465606422374442
 30
0.0
 40
0.0025
 41
0.0025
  0
VERTEX
  5
1D5
330
1D3
100
AcDbEntity
  8
1
  6
Continuous
 62
     7
 48
0.0063138969378866
100
AcDbVertex
100
AcDb2dVertex
 10
1.189719840126233
 20
0.5465606422374442
 30
0.0
 40
0.0025
 41
0.0025
  0
SEQEND
  5
1D6
330
1D3
100
AcDbEntity
  8
1
  6
Continuous
 62
     7
 48
0.0063138969378866
370
     0
  0
POLYLINE
  5
1D7
330
1F
100
AcDbEntity
  8
1
  6
Continuous
 62
     7
 48
0.0063138969378866
370
     0
100
AcDb2dPolyline
 66
     1
 10
0.0
 20
0.0
 30
0.0
  0
VERTEX
  5
1D8
330
1D7
100
AcDbEntity
  8
1
  6
Continuous
 62
     7
 48
0.0063138969378866
100
AcDbVertex
100
AcDb2dVertex
 10
0.9589598401262335
 20
-0.1554393577625558
 30
0.0
 40
0.0025
 41
0.0025
  0
VERTEX
  5
1D9
330
1D7
100
AcDbEntity
  8
1
  6
Continuous
 62
     7
 48
0.0063138969378866
100
AcDbVertex
100
AcDb2dVertex
 10
1.189719840126233
 20
-0.1554393577625558
 30
0.0
 40
0.0025
 41
0.0025
  0
SEQEND
  5
1DA
330
1D7
100
AcDbEntity
  8
1
  6
Continuous
 62
     7
 48
0.0063138969378866
370
     0
  0
POLYLINE
  5
1DB
330
1F
100
AcDbEntity
  8
3
  6
Continuous
 62
     7
 48
0.0063138969378866
370
     0
100
AcDb2dPolyline
 66
     1
 10
0.0
 20
0.0
 30
0.0
  0
VERTEX
  5
1DC
330
1DB
100
AcDbEntity
  8
3
  6
Continuous
 62
     7
 48
0.0063138969378866
100
AcDbVertex
100
AcDb2dVertex
 10
0.9443398401262333
 20
0.5035606422374443
 30
0.0
 40
0.0025
 41
0.0025
  0
VERTEX
  5
1DD
330
1DB
100
AcDbEntity
  8
3
  6
Continuous
 62
     7
 48
0.0063138969378866
100
AcDbVertex
100
AcDb2dVertex
 10
0.9589598401262331
 20
0.5465606422374442
 30
0.0
 40
0.0025
 41
0.0025
  0
SEQEND
  5
1DE
330
1DB
100
AcDbEntity
  8
3
  6
Continuous
 62
     7
 48
0.0063138969378866
370
     0
  0
POLYLINE
  5
1DF
330
1F
100
AcDbEntity
  8
3
  6
Continuous
 62
     7
 48
0.0063138969378866
370
     0
100
AcDb2dPolyline
 66
     1
 10
0.0
 20
0.0
 30
0.0
  0
VERTEX
  5
1E0
330
1DF
100
AcDbEntity
  8
3
  6
Continuous
 62
     7
 48
0.0063138969378866
100
AcDbVertex
100
AcDb2dVertex
 10
0.9443398401262333
 20
-0.1124393577625558
 30
0.0
 40
0.0025
 41
0.0025
  0
VERTEX
  5
1E1
330
1DF
100
AcDbEntity
  8
3
  6
Continuous
 62
     7
 48
0.0063138969378866
100
AcDbVertex
100
AcDb2dVertex
 10
0.9589598401262335
 20
-0.1554393577625558
 30
0.0
 40
0.0025
 41
0.0025
  0
SEQEND
  5
1E2
330
1DF
100
AcDbEntity
  8
3
  6
Continuous
 62
     7
 48
0.0063138969378866
370
     0
  0
ARC
  5
1E3
330
1F
100
AcDbEntity
  8
1
  6
HIDDEN
 62
     7
 48
0.063
370
     0
100
AcDbCircle
 10
-0.2765925904365724
 20
0.1955606422374443
 30
0.0
 40
1.25
100
AcDbArc
 50
347.6196709859834
 51
12.38032901401657
  0
POLYLINE
  5
1E4
330
1F
100
AcDbEntity
  8
3
  6
Continuous
 62
     7
 48
0.0063138969378866
370
     0
100
AcDb2dPolyline
 66
     1
 10
0.0
 20
0.0
 30
0.0
  0
VERTEX
  5
1E5
330
1E4
100
AcDbEntity
  8
3
  6
Continuous
 62
     7
 48
0.0063138969378866
100
AcDbVertex
100
AcDb2dVertex
 10
1.554339840126233
 20
-0.0424393577625557
 30
0.0
 40
0.0025
 41
0.0025
  0
VERTEX
  5
1E6
330
1E4
100
AcDbEntity
  8
3
  6
Continuous
 62
     7
 48
0.0063138969378866
100
AcDbVertex
100
AcDb2dVertex
 10
1.64877261861535
 20
-0.0424393577625557
 30
0.0
 40
0.0025
 41
0.0025
  0
SEQEND
  5
1E7
330
1E4
100
AcDbEntity
  8
3
  6
Continuous
 62
     7
 48
0.0063138969378866
370
     0
  0
POLYLINE
  5
1E8
330
1F
100
AcDbEntity
  8
3
  6
Continuous
 62
     7
 48
0.0063138969378866
370
     0
100
AcDb2dPolyline
 66
     1
 10
0.0
 20
0.0
 30
0.0
  0
VERTEX
  5
1E9
330
1E8
100
AcDbEntity
  8
3
  6
Continuous
 62
     7
 48
0.0063138969378866
100
AcDbVertex
100
AcDb2dVertex
 10
1.64877261861535
 20
-0.0424393577625557
 30
0.0
 40
0.0025
 41
0.0025
  0
VERTEX
  5
1EA
330
1E8
100
AcDbEntity
  8
3
  6
Continuous
 62
     7
 48
0.0063138969378866
100
AcDbVertex
100
AcDb2dVertex
 10
1.752339840126233
 20
0.0355606422374443
 30
0.0
 40
0.0025
 41
0.0025
  0
SEQEND
  5
1EB
330
1E8
100
AcDbEntity
  8
3
  6
Continuous
 62
     7
 48
0.0063138969378866
370
     0
  0
POLYLINE
  5
1EC
330
1F
100
AcDbEntity
  8
1
  6
Continuous
 62
     7
 48
0.0063138969378866
370
     0
100
AcDb2dPolyline
 66
     1
 10
0.0
 20
0.0
 30
0.0
  0
VERTEX
  5
1ED
330
1EC
100
AcDbEntity
  8
1
  6
Continuous
 62
     7
 48
0.0063138969378866
100
AcDbVertex
100
AcDb2dVertex
 10
1.376768043356509
 20
0.4423949436333725
 30
0.0
 40
0.0025
 41
0.0025
  0
VERTEX
  5
1EE
330
1EC
100
AcDbEntity
  8
1
  6
Continuous
 62
     7
 48
0.0063138969378866
100
AcDbVertex
100
AcDb2dVertex
 10
1.383589840126234
 20
0.4542106422374446
 30
0.0
 40
0.0025
 41
0.0025
  0
SEQEND
  5
1EF
330
1EC
100
AcDbEntity
  8
1
  6
Continuous
 62
     7
 48
0.0063138969378866
370
     0
  0
POLYLINE
  5
1F0
330
1F
100
AcDbEntity
  8
1
  6
Continuous
 62
     7
 48
0.0063138969378866
370
     0
100
AcDb2dPolyline
 66
     1
 10
0.0
 20
0.0
 30
0.0
  0
VERTEX
  5
1F1
330
1F0
100
AcDbEntity
  8
1
  6
Continuous
 62
     7
 48
0.0063138969378866
100
AcDbVertex
100
AcDb2dVertex
 10
1.362911636895958
 20
0.4423949436333725
 30
0.0
 40
0.0025
 41
0.0025
  0
VERTEX
  5
1F2
330
1F0
100
AcDbEntity
  8
1
  6
Continuous
 62
     7
 48
0.0063138969378866
100
AcDbVertex
100
AcDb2dVertex
 10
1.346024141522162
 20
0.4716449436333719
 30
0.0
 40
0.0025
 41
0.0025
  0
SEQEND
  5
1F3
330
1F0
100
AcDbEntity
  8
1
  6
Continuous
 62
     7
 48
0.0063138969378866
370
     0
  0
POLYLINE
  5
1F4
330
1F
100
AcDbEntity
  8
1
  6
Continuous
 62
     7
 48
0.0063138969378866
370
     0
100
AcDb2dPolyline
 66
     1
 10
0.0
 20
0.0
 30
0.0
  0
VERTEX
  5
1F5
330
1F4
100
AcDbEntity
  8
1
  6
Continuous
 62
     7
 48
0.0063138969378866
100
AcDbVertex
100
AcDb2dVertex
 10
1.362911636895958
 20
0.4423949436333725
 30
0.0
 40
0.0025
 41
0.0025
  0
VERTEX
  5
1F6
330
1F4
100
AcDbEntity
  8
1
  6
Continuous
 62
     7
 48
0.0063138969378866
100
AcDbVertex
100
AcDb2dVertex
 10
1.376768043356509
 20
0.4423949436333725
 30
0.0
 40
0.0025
 41
0.0025
  0
SEQEND
  5
1F7
330
1F4
100
AcDbEntity
  8
1
  6
Continuous
 62
     7
 48
0.0063138969378866
370
     0
  0
POLYLINE
  5
1F8
330
1F
100
AcDbEntity
  8
1
  6
Continuous
 62
     7
 48
0.0063138969378866
370
     0
100
AcDb2dPolyline
 66
     1
 10
0.0
 20
0.0
 30
0.0
  0
VERTEX
  5
1F9
330
1F8
100
AcDbEntity
  8
1
  6
Continuous
 62
     7
 48
0.0063138969378866
100
AcDbVertex
100
AcDb2dVertex
 10
1.383589840126234
 20
0.4542106422374446
 30
0.0
 40
0.0025
 41
0.0025
  0
VERTEX
  5
1FA
330
1F8
100
AcDbEntity
  8
1
  6
Continuous
 62
     7
 48
0.0063138969378866
100
AcDbVertex
100
AcDb2dVertex
 10
1.393875738511096
 20
0.4720263408415161
 30
0.0
 40
0.0025
 41
0.0025
  0
SEQEND
  5
1FB
330
1F8
100
AcDbEntity
  8
1
  6
Continuous
 62
     7
 48
0.0063138969378866
370
     0
  0
POLYLINE
  5
1FC
330
1F
100
AcDbEntity
  8
1
  6
Continuous
 62
     7
 48
0.0063138969378866
370
     0
100
AcDb2dPolyline
 66
     1
 10
0.0
 20
0.0
 30
0.0
  0
VERTEX
  5
1FD
330
1FC
100
AcDbEntity
  8
1
  6
Continuous
 62
     7
 48
0.0063138969378866
100
AcDbVertex
100
AcDb2dVertex
 10
1.431768043356509
 20
0.4423949436333725
 30
0.0
 40
0.0025
 41
0.0025
  0
VERTEX
  5
1FE
330
1FC
100
AcDbEntity
  8
1
  6
Continuous
 62
     7
 48
0.0063138969378866
100
AcDbVertex
100
AcDb2dVertex
 10
1.438589840126234
 20
0.4542106422374446
 30
0.0
 40
0.0025
 41
0.0025
  0
SEQEND
  5
1FF
330
1FC
100
AcDbEntity
  8
1
  6
Continuous
 62
     7
 48
0.0063138969378866
370
     0
  0
POLYLINE
  5
200
330
1F
100
AcDbEntity
  8
1
  6
Continuous
 62
     7
 48
0.0063138969378866
370
     0
100
AcDb2dPolyline
 66
     1
 10
0.0
 20
0.0
 30
0.0
  0
VERTEX
  5
201
330
200
100
AcDbEntity
  8
1
  6
Continuous
 62
     7
 48
0.0063138969378866
100
AcDbVertex
100
AcDb2dVertex
 10
1.417911636895959
 20
0.4423949436333725
 30
0.0
 40
0.0025
 41
0.0025
  0
VERTEX
  5
202
330
200
100
AcDbEntity
  8
1
  6
Continuous
 62
     7
 48
0.0063138969378866
100
AcDbVertex
100
AcDb2dVertex
 10
1.400803941741372
 20
0.4720263408415161
 30
0.0
 40
0.0025
 41
0.0025
  0
SEQEND
  5
203
330
200
100
AcDbEntity
  8
1
  6
Continuous
 62
     7
 48
0.0063138969378866
370
     0
  0
POLYLINE
  5
204
330
1F
100
AcDbEntity
  8
1
  6
Continuous
 62
     7
 48
0.0063138969378866
370
     0
100
AcDb2dPolyline
 66
     1
 10
0.0
 20
0.0
 30
0.0
  0
VERTEX
  5
205
330
204
100
AcDbEntity
  8
1
  6
Continuous
 62
     7
 48
0.0063138969378866
100
AcDbVertex
100
AcDb2dVertex
 10
1.393875738511096
 20
0.4720263408415161
 30
0.0
 40
0.0025
 41
0.0025
  0
VERTEX
  5
206
330
204
100
AcDbEntity
  8
1
  6
Continuous
 62
     7
 48
0.0063138969378866
100
AcDbVertex
100
AcDb2dVertex
 10
1.400803941741372
 20
0.4720263408415161
 30
0.0
 40
0.0025
 41
0.0025
  0
SEQEND
  5
207
330
204
100
AcDbEntity
  8
1
  6
Continuous
 62
     7
 48
0.0063138969378866
370
     0
  0
POLYLINE
  5
208
330
1F
100
AcDbEntity
  8
1
  6
Continuous
 62
     7
 48
0.0063138969378866
370
     0
100
AcDb2dPolyline
 66
     1
 10
0.0
 20
0.0
 30
0.0
  0
VERTEX
  5
209
330
208
100
AcDbEntity
  8
1
  6
Continuous
 62
     7
 48
0.0063138969378866
100
AcDbVertex
100
AcDb2dVertex
 10
1.417911636895959
 20
0.4423949436333725
 30
0.0
 40
0.0025
 41
0.0025
  0
VERTEX
  5
20A
330
208
100
AcDbEntity
  8
1
  6
Continuous
 62
     7
 48
0.0063138969378866
100
AcDbVertex
100
AcDb2dVertex
 10
1.431768043356509
 20
0.4423949436333725
 30
0.0
 40
0.0025
 41
0.0025
  0
SEQEND
  5
20B
330
208
100
AcDbEntity
  8
1
  6
Continuous
 62
     7
 48
0.0063138969378866
370
     0
  0
POLYLINE
  5
20C
330
1F
100
AcDbEntity
  8
1
  6
Continuous
 62
     7
 48
0.0063138969378866
370
     0
100
AcDb2dPolyline
 66
     1
 10
0.0
 20
0.0
 30
0.0
  0
VERTEX
  5
20D
330
20C
100
AcDbEntity
  8
1
  6
Continuous
 62
     7
 48
0.0063138969378866
100
AcDbVertex
100
AcDb2dVertex
 10
1.438589840126234
 20
0.4542106422374446
 30
0.0
 40
0.0025
 41
0.0025
  0
VERTEX
  5
20E
330
20C
100
AcDbEntity
  8
1
  6
Continuous
 62
     7
 48
0.0063138969378866
100
AcDbVertex
100
AcDb2dVertex
 10
1.448875738511096
 20
0.4720263408415154
 30
0.0
 40
0.0025
 41
0.0025
  0
SEQEND
  5
20F
330
20C
100
AcDbEntity
  8
1
  6
Continuous
 62
     7
 48
0.0063138969378866
370
     0
  0
POLYLINE
  5
210
330
1F
100
AcDbEntity
  8
1
  6
Continuous
 62
     7
 48
0.0063138969378866
370
     0
100
AcDb2dPolyline
 66
     1
 10
0.0
 20
0.0
 30
0.0
  0
VERTEX
  5
211
330
210
100
AcDbEntity
  8
1
  6
Continuous
 62
     7
 48
0.0063138969378866
100
AcDbVertex
100
AcDb2dVertex
 10
1.486768043356509
 20
0.4423949436333725
 30
0.0
 40
0.0025
 41
0.0025
  0
VERTEX
  5
212
330
210
100
AcDbEntity
  8
1
  6
Continuous
 62
     7
 48
0.0063138969378866
100
AcDbVertex
100
AcDb2dVertex
 10
1.493589840126233
 20
0.4542106422374446
 30
0.0
 40
0.0025
 41
0.0025
  0
SEQEND
  5
213
330
210
100
AcDbEntity
  8
1
  6
Continuous
 62
     7
 48
0.0063138969378866
370
     0
  0
POLYLINE
  5
214
330
1F
100
AcDbEntity
  8
1
  6
Continuous
 62
     7
 48
0.0063138969378866
370
     0
100
AcDb2dPolyline
 66
     1
 10
0.0
 20
0.0
 30
0.0
  0
VERTEX
  5
215
330
214
100
AcDbEntity
  8
1
  6
Continuous
 62
     7
 48
0.0063138969378866
100
AcDbVertex
100
AcDb2dVertex
 10
1.472911636895958
 20
0.4423949436333725
 30
0.0
 40
0.0025
 41
0.0025
  0
VERTEX
  5
216
330
214
100
AcDbEntity
  8
1
  6
Continuous
 62
     7
 48
0.0063138969378866
100
AcDbVertex
100
AcDb2dVertex
 10
1.455803941741372
 20
0.4720263408415161
 30
0.0
 40
0.0025
 41
0.0025
  0
SEQEND
  5
217
330
214
100
AcDbEntity
  8
1
  6
Continuous
 62
     7
 48
0.0063138969378866
370
     0
  0
POLYLINE
  5
218
330
1F
100
AcDbEntity
  8
1
  6
Continuous
 62
     7
 48
0.0063138969378866
370
     0
100
AcDb2dPolyline
 66
     1
 10
0.0
 20
0.0
 30
0.0
  0
VERTEX
  5
219
330
218
100
AcDbEntity
  8
1
  6
Continuous
 62
     7
 48
0.0063138969378866
100
AcDbVertex
100
AcDb2dVertex
 10
1.448875738511096
 20
0.4720263408415154
 30
0.0
 40
0.0025
 41
0.0025
  0
VERTEX
  5
21A
330
218
100
AcDbEntity
  8
1
  6
Continuous
 62
     7
 48
0.0063138969378866
100
AcDbVertex
100
AcDb2dVertex
 10
1.455803941741372
 20
0.4720263408415161
 30
0.0
 40
0.0025
 41
0.0025
  0
SEQEND
  5
21B
330
218
100
AcDbEntity
  8
1
  6
Continuous
 62
     7
 48
0.0063138969378866
370
     0
  0
POLYLINE
  5
21C
330
1F
100
AcDbEntity
  8
1
  6
Continuous
 62
     7
 48
0.0063138969378866
370
     0
100
AcDb2dPolyline
 66
     1
 10
0.0
 20
0.0
 30
0.0
  0
VERTEX
  5
21D
330
21C
100
AcDbEntity
  8
1
  6
Continuous
 62
     7
 48
0.0063138969378866
100
AcDbVertex
100
AcDb2dVertex
 10
1.472911636895958
 20
0.4423949436333725
 30
0.0
 40
0.0025
 41
0.0025
  0
VERTEX
  5
21E
330
21C
100
AcDbEntity
  8
1
  6
Continuous
 62
     7
 48
0.0063138969378866
100
AcDbVertex
100
AcDb2dVertex
 10
1.486768043356509
 20
0.4423949436333725
 30
0.0
 40
0.0025
 41
0.0025
  0
SEQEND
  5
21F
330
21C
100
AcDbEntity
  8
1
  6
Continuous
 62
     7
 48
0.0063138969378866
370
     0
  0
POLYLINE
  5
220
330
1F
100
AcDbEntity
  8
1
  6
Continuous
 62
     7
 48
0.0063138969378866
370
     0
100
AcDb2dPolyline
 66
     1
 10
0.0
 20
0.0
 30
0.0
  0
VERTEX
  5
221
330
220
100
AcDbEntity
  8
1
  6
Continuous
 62
     7
 48
0.0063138969378866
100
AcDbVertex
100
AcDb2dVertex
 10
1.493589840126233
 20
0.4542106422374446
 30
0.0
 40
0.0025
 41
0.0025
  0
VERTEX
  5
222
330
220
100
AcDbEntity
  8
1
  6
Continuous
 62
     7
 48
0.0063138969378866
100
AcDbVertex
100
AcDb2dVertex
 10
1.503875738511096
 20
0.4720263408415161
 30
0.0
 40
0.0025
 41
0.0025
  0
SEQEND
  5
223
330
220
100
AcDbEntity
  8
1
  6
Continuous
 62
     7
 48
0.0063138969378866
370
     0
  0
POLYLINE
  5
224
330
1F
100
AcDbEntity
  8
1
  6
Continuous
 62
     7
 48
0.0063138969378866
370
     0
100
AcDb2dPolyline
 66
     1
 10
0.0
 20
0.0
 30
0.0
  0
VERTEX
  5
225
330
224
100
AcDbEntity
  8
1
  6
Continuous
 62
     7
 48
0.0063138969378866
100
AcDbVertex
100
AcDb2dVertex
 10
1.527911636895958
 20
0.4423949436333725
 30
0.0
 40
0.0025
 41
0.0025
  0
VERTEX
  5
226
330
224
100
AcDbEntity
  8
1
  6
Continuous
 62
     7
 48
0.0063138969378866
100
AcDbVertex
100
AcDb2dVertex
 10
1.510803941741371
 20
0.4720263408415161
 30
0.0
 40
0.0025
 41
0.0025
  0
SEQEND
  5
227
330
224
100
AcDbEntity
  8
1
  6
Continuous
 62
     7
 48
0.0063138969378866
370
     0
  0
POLYLINE
  5
228
330
1F
100
AcDbEntity
  8
1
  6
Continuous
 62
     7
 48
0.0063138969378866
370
     0
100
AcDb2dPolyline
 66
     1
 10
0.0
 20
0.0
 30
0.0
  0
VERTEX
  5
229
330
228
100
AcDbEntity
  8
1
  6
Continuous
 62
     7
 48
0.0063138969378866
100
AcDbVertex
100
AcDb2dVertex
 10
1.503875738511096
 20
0.4720263408415161
 30
0.0
 40
0.0025
 41
0.0025
  0
VERTEX
  5
22A
330
228
100
AcDbEntity
  8
1
  6
Continuous
 62
     7
 48
0.0063138969378866
100
AcDbVertex
100
AcDb2dVertex
 10
1.510803941741371
 20
0.4720263408415161
 30
0.0
 40
0.0025
 41
0.0025
  0
SEQEND
  5
22B
330
228
100
AcDbEntity
  8
1
  6
Continuous
 62
     7
 48
0.0063138969378866
370
     0
  0
POLYLINE
  5
22C
330
1F
100
AcDbEntity
  8
1
  6
Continuous
 62
     7
 48
0.0063138969378866
370
     0
100
AcDb2dPolyline
 66
     1
 10
0.0
 20
0.0
 30
0.0
  0
VERTEX
  5
22D
330
22C
100
AcDbEntity
  8
1
  6
Continuous
 62
     7
 48
0.0063138969378866
100
AcDbVertex
100
AcDb2dVertex
 10
1.3219882431373
 20
0.4420135464252288
 30
0.0
 40
0.0025
 41
0.0025
  0
VERTEX
  5
22E
330
22C
100
AcDbEntity
  8
1
  6
Continuous
 62
     7
 48
0.0063138969378866
100
AcDbVertex
100
AcDb2dVertex
 10
1.328810039907024
 20
0.4538292450293009
 30
0.0
 40
0.0025
 41
0.0025
  0
SEQEND
  5
22F
330
22C
100
AcDbEntity
  8
1
  6
Continuous
 62
     7
 48
0.0063138969378866
370
     0
  0
POLYLINE
  5
230
330
1F
100
AcDbEntity
  8
1
  6
Continuous
 62
     7
 48
0.0063138969378866
370
     0
100
AcDb2dPolyline
 66
     1
 10
0.0
 20
0.0
 30
0.0
  0
VERTEX
  5
231
330
230
100
AcDbEntity
  8
1
  6
Continuous
 62
     7
 48
0.0063138969378866
100
AcDbVertex
100
AcDb2dVertex
 10
1.328810039907024
 20
0.4538292450293009
 30
0.0
 40
0.0025
 41
0.0025
  0
VERTEX
  5
232
330
230
100
AcDbEntity
  8
1
  6
Continuous
 62
     7
 48
0.0063138969378866
100
AcDbVertex
100
AcDb2dVertex
 10
1.339095938291887
 20
0.4716449436333719
 30
0.0
 40
0.0025
 41
0.0025
  0
SEQEND
  5
233
330
230
100
AcDbEntity
  8
1
  6
Continuous
 62
     7
 48
0.0063138969378866
370
     0
  0
POLYLINE
  5
234
330
1F
100
AcDbEntity
  8
1
  6
Continuous
 62
     7
 48
0.0063138969378866
370
     0
100
AcDb2dPolyline
 66
     1
 10
0.0
 20
0.0
 30
0.0
  0
VERTEX
  5
235
330
234
100
AcDbEntity
  8
1
  6
Continuous
 62
     7
 48
0.0063138969378866
100
AcDbVertex
100
AcDb2dVertex
 10
1.339095938291887
 20
0.4716449436333719
 30
0.0
 40
0.0025
 41
0.0025
  0
VERTEX
  5
236
330
234
100
AcDbEntity
  8
1
  6
Continuous
 62
     7
 48
0.0063138969378866
100
AcDbVertex
100
AcDb2dVertex
 10
1.346024141522162
 20
0.4716449436333719
 30
0.0
 40
0.0025
 41
0.0025
  0
SEQEND
  5
237
330
234
100
AcDbEntity
  8
1
  6
Continuous
 62
     7
 48
0.0063138969378866
370
     0
  0
DIMENSION
  5
238
330
1F
100
AcDbEntity
  8
1
  6
Continuous
 62
     7
 48
0.0000303211718331
370
     0
100
AcDbDimension
  2
*D2
 10
1.752339840126233
 20
0.6565485598821309
 30
0.0
 11
1.348339840126233
 21
0.6788785598821309
 31
0.0
 70
    32
 71
     5
 42
0.8079999999999998
  3
Standard
100
AcDbAlignedDimension
 13
0.9443398401262333
 23
0.5035606422374443
 33
0.0
 14
1.752339840126233
 24
0.3555606422374442
 34
0.0
100
AcDbRotatedDimension
1001
ACAD
1000
DSTYLE
1002
{
1070
   172
1070
     1
1070
    77
1070
     1
1070
   280
1070
     0
1070
   279
1070
     0
1070
    74
1070
     0
1070
    73
1070
     0
1070
   174
1070
     0
1070
   147
1040
0.011099
1070
    42
1040
0.0160001111111111
1070
   290
1070
     0
1070
   340
1005
239
1070
    78
1070
     0
1070
   272
1070
     3
1070
    71
1070
     0
1070
   146
1040
1.0
1070
   140
1040
0.022
1070
   271
1070
     3
1070
    41
1040
0.022
1070
   342
1005
0
1070
   173
1070
     0
1070
   277
1070
     2
1070
    44
1040
0.0080006666666667
1002
}
  0
POLYLINE
  5
247
330
1F
100
AcDbEntity
  8
1
  6
Continuous
 62
     7
 48
0.0063138969378866
370
     0
100
AcDb2dPolyline
 66
     1
 10
0.0
 20
0.0
 30
0.0
  0
VERTEX
  5
248
330
247
100
AcDbEntity
  8
1
  6
Continuous
 62
     7
 48
0.0063138969378866
100
AcDbVertex
100
AcDb2dVertex
 10
1.308131836676748
 20
0.4420135464252288
 30
0.0
 40
0.0025
 41
0.0025
  0
VERTEX
  5
249
330
247
100
AcDbEntity
  8
1
  6
Continuous
 62
     7
 48
0.0063138969378866
100
AcDbVertex
100
AcDb2dVertex
 10
1.3219882431373
 20
0.4420135464252288
 30
0.0
 40
0.0025
 41
0.0025
  0
SEQEND
  5
24A
330
247
100
AcDbEntity
  8
1
  6
Continuous
 62
     7
 48
0.0063138969378866
370
     0
  0
POLYLINE
  5
24B
330
1F
100
AcDbEntity
  8
1
  6
Continuous
 62
     7
 48
0.0063138969378866
370
     0
100
AcDb2dPolyline
 66
     1
 10
0.0
 20
0.0
 30
0.0
  0
VERTEX
  5
24C
330
24B
100
AcDbEntity
  8
1
  6
Continuous
 62
     7
 48
0.0063138969378866
100
AcDbVertex
100
AcDb2dVertex
 10
1.527911636895958
 20
0.4423949436333725
 30
0.0
 40
0.0025
 41
0.0025
  0
VERTEX
  5
24D
330
24B
100
AcDbEntity
  8
1
  6
Continuous
 62
     7
 48
0.0063138969378866
100
AcDbVertex
100
AcDb2dVertex
 10
1.541768043356509
 20
0.4423949436333725
 30
0.0
 40
0.0025
 41
0.0025
  0
SEQEND
  5
24E
330
24B
100
AcDbEntity
  8
1
  6
Continuous
 62
     7
 48
0.0063138969378866
370
     0
  0
POLYLINE
  5
24F
330
1F
100
AcDbEntity
  8
1
  6
Continuous
 62
     7
 48
0.0063138969378866
370
     0
100
AcDb2dPolyline
 66
     1
 10
0.0
 20
0.0
 30
0.0
  0
VERTEX
  5
250
330
24F
100
AcDbEntity
  8
1
  6
Continuous
 62
     7
 48
0.0063138969378866
100
AcDbVertex
100
AcDb2dVertex
 10
1.541768043356509
 20
0.4423949436333725
 30
0.0
 40
0.0025
 41
0.0025
  0
VERTEX
  5
251
330
24F
100
AcDbEntity
  8
1
  6
Continuous
 62
     7
 48
0.0063138969378866
100
AcDbVertex
100
AcDb2dVertex
 10
1.543136061609845
 20
0.4447644207538324
 30
0.0
 40
0.0025
 41
0.0025
  0
SEQEND
  5
252
330
24F
100
AcDbEntity
  8
1
  6
Continuous
 62
     7
 48
0.0063138969378866
370
     0
  0
POLYLINE
  5
253
330
1F
100
AcDbEntity
  8
1
  6
Continuous
 62
     7
 48
0.0063138969378866
370
     0
100
AcDb2dPolyline
 66
     1
 10
0.0
 20
0.0
 30
0.0
  0
VERTEX
  5
254
330
253
100
AcDbEntity
  8
1
  6
Continuous
 62
     7
 48
0.0063138969378866
100
AcDbVertex
100
AcDb2dVertex
 10
1.554339840126233
 20
0.4335606422374442
 30
0.0
 40
0.0025
 41
0.0025
  0
VERTEX
  5
255
330
253
100
AcDbEntity
  8
1
  6
Continuous
 62
     7
 48
0.0063138969378866
100
AcDbVertex
100
AcDb2dVertex
 10
1.543136061609845
 20
0.4447644207538324
 30
0.0
 40
0.0025
 41
0.0025
  0
SEQEND
  5
256
330
253
100
AcDbEntity
  8
1
  6
Continuous
 62
     7
 48
0.0063138969378866
370
     0
  0
POLYLINE
  5
257
330
1F
100
AcDbEntity
  8
1
  6
Continuous
 62
     7
 48
0.0063138969378866
370
     0
100
AcDb2dPolyline
 66
     1
 10
0.0
 20
0.0
 30
0.0
  0
VERTEX
  5
258
330
257
100
AcDbEntity
  8
1
  6
Continuous
 62
     7
 48
0.0063138969378866
100
AcDbVertex
100
AcDb2dVertex
 10
1.297339840126233
 20
0.4355606422374443
 30
0.0
 40
0.0025
 41
0.0025
  0
VERTEX
  5
259
330
257
100
AcDbEntity
  8
1
  6
Continuous
 62
     7
 48
0.0063138969378866
100
AcDbVertex
100
AcDb2dVertex
 10
1.306543618642622
 20
0.4447644207538328
 30
0.0
 40
0.0025
 41
0.0025
  0
SEQEND
  5
25A
330
257
100
AcDbEntity
  8
1
  6
Continuous
 62
     7
 48
0.0063138969378866
370
     0
  0
POLYLINE
  5
25B
330
1F
100
AcDbEntity
  8
1
  6
Continuous
 62
     7
 48
0.0063138969378866
370
     0
100
AcDb2dPolyline
 66
     1
 10
0.0
 20
0.0
 30
0.0
  0
VERTEX
  5
25C
330
25B
100
AcDbEntity
  8
1
  6
Continuous
 62
     7
 48
0.0063138969378866
100
AcDbVertex
100
AcDb2dVertex
 10
1.308131836676748
 20
0.4420135464252288
 30
0.0
 40
0.0025
 41
0.0025
  0
VERTEX
  5
25D
330
25B
100
AcDbEntity
  8
1
  6
Continuous
 62
     7
 48
0.0063138969378866
100
AcDbVertex
100
AcDb2dVertex
 10
1.306543618642622
 20
0.4447644207538328
 30
0.0
 40
0.0025
 41
0.0025
  0
SEQEND
  5
25E
330
25B
100
AcDbEntity
  8
1
  6
Continuous
 62
     7
 48
0.0063138969378866
370
     0
  0
POLYLINE
  5
25F
330
1F
100
AcDbEntity
  8
1
  6
Continuous
 62
     7
 48
0.0063138969378866
370
     0
100
AcDb2dPolyline
 66
     1
 10
0.0
 20
0.0
 30
0.0
  0
VERTEX
  5
260
330
25F
100
AcDbEntity
  8
1
  6
Continuous
 62
     7
 48
0.0063138969378866
100
AcDbVertex
100
AcDb2dVertex
 10
1.349068043356509
 20
-0.0512736591584841
 30
0.0
 40
0.0025
 41
0.0025
  0
VERTEX
  5
261
330
25F
100
AcDbEntity
  8
1
  6
Continuous
 62
     7
 48
0.0063138969378866
100
AcDbVertex
100
AcDb2dVertex
 10
1.355889840126234
 20
-0.0630893577625564
 30
0.0
 40
0.0025
 41
0.0025
  0
SEQEND
  5
262
330
25F
100
AcDbEntity
  8
1
  6
Continuous
 62
     7
 48
0.0063138969378866
370
     0
  0
POLYLINE
  5
263
330
1F
100
AcDbEntity
  8
1
  6
Continuous
 62
     7
 48
0.0063138969378866
370
     0
100
AcDb2dPolyline
 66
     1
 10
0.0
 20
0.0
 30
0.0
  0
VERTEX
  5
264
330
263
100
AcDbEntity
  8
1
  6
Continuous
 62
     7
 48
0.0063138969378866
100
AcDbVertex
100
AcDb2dVertex
 10
1.335211636895958
 20
-0.0512736591584841
 30
0.0
 40
0.0025
 41
0.0025
  0
VERTEX
  5
265
330
263
100
AcDbEntity
  8
1
  6
Continuous
 62
     7
 48
0.0063138969378866
100
AcDbVertex
100
AcDb2dVertex
 10
1.349068043356509
 20
-0.0512736591584841
 30
0.0
 40
0.0025
 41
0.0025
  0
SEQEND
  5
266
330
263
100
AcDbEntity
  8
1
  6
Continuous
 62
     7
 48
0.0063138969378866
370
     0
  0
POLYLINE
  5
267
330
1F
100
AcDbEntity
  8
1
  6
Continuous
 62
     7
 48
0.0063138969378866
370
     0
100
AcDb2dPolyline
 66
     1
 10
0.0
 20
0.0
 30
0.0
  0
VERTEX
  5
268
330
267
100
AcDbEntity
  8
1
  6
Continuous
 62
     7
 48
0.0063138969378866
100
AcDbVertex
100
AcDb2dVertex
 10
1.355889840126234
 20
-0.0630893577625564
 30
0.0
 40
0.0025
 41
0.0025
  0
VERTEX
  5
269
330
267
100
AcDbEntity
  8
1
  6
Continuous
 62
     7
 48
0.0063138969378866
100
AcDbVertex
100
AcDb2dVertex
 10
1.366175738511096
 20
-0.0809050563666277
 30
0.0
 40
0.0025
 41
0.0025
  0
SEQEND
  5
26A
330
267
100
AcDbEntity
  8
1
  6
Continuous
 62
     7
 48
0.0063138969378866
370
     0
  0
POLYLINE
  5
26B
330
1F
100
AcDbEntity
  8
1
  6
Continuous
 62
     7
 48
0.0063138969378866
370
     0
100
AcDb2dPolyline
 66
     1
 10
0.0
 20
0.0
 30
0.0
  0
VERTEX
  5
26C
330
26B
100
AcDbEntity
  8
1
  6
Continuous
 62
     7
 48
0.0063138969378866
100
AcDbVertex
100
AcDb2dVertex
 10
1.404068043356509
 20
-0.0512736591584841
 30
0.0
 40
0.0025
 41
0.0025
  0
VERTEX
  5
26D
330
26B
100
AcDbEntity
  8
1
  6
Continuous
 62
     7
 48
0.0063138969378866
100
AcDbVertex
100
AcDb2dVertex
 10
1.410889840126234
 20
-0.0630893577625564
 30
0.0
 40
0.0025
 41
0.0025
  0
SEQEND
  5
26E
330
26B
100
AcDbEntity
  8
1
  6
Continuous
 62
     7
 48
0.0063138969378866
370
     0
  0
POLYLINE
  5
26F
330
1F
100
AcDbEntity
  8
1
  6
Continuous
 62
     7
 48
0.0063138969378866
370
     0
100
AcDb2dPolyline
 66
     1
 10
0.0
 20
0.0
 30
0.0
  0
VERTEX
  5
270
330
26F
100
AcDbEntity
  8
1
  6
Continuous
 62
     7
 48
0.0063138969378866
100
AcDbVertex
100
AcDb2dVertex
 10
1.390211636895959
 20
-0.0512736591584841
 30
0.0
 40
0.0025
 41
0.0025
  0
VERTEX
  5
271
330
26F
100
AcDbEntity
  8
1
  6
Continuous
 62
     7
 48
0.0063138969378866
100
AcDbVertex
100
AcDb2dVertex
 10
1.373103941741372
 20
-0.0809050563666277
 30
0.0
 40
0.0025
 41
0.0025
  0
SEQEND
  5
272
330
26F
100
AcDbEntity
  8
1
  6
Continuous
 62
     7
 48
0.0063138969378866
370
     0
  0
POLYLINE
  5
273
330
1F
100
AcDbEntity
  8
1
  6
Continuous
 62
     7
 48
0.0063138969378866
370
     0
100
AcDb2dPolyline
 66
     1
 10
0.0
 20
0.0
 30
0.0
  0
VERTEX
  5
274
330
273
100
AcDbEntity
  8
1
  6
Continuous
 62
     7
 48
0.0063138969378866
100
AcDbVertex
100
AcDb2dVertex
 10
1.366175738511096
 20
-0.0809050563666277
 30
0.0
 40
0.0025
 41
0.0025
  0
VERTEX
  5
275
330
273
100
AcDbEntity
  8
1
  6
Continuous
 62
     7
 48
0.0063138969378866
100
AcDbVertex
100
AcDb2dVertex
 10
1.373103941741372
 20
-0.0809050563666277
 30
0.0
 40
0.0025
 41
0.0025
  0
SEQEND
  5
276
330
273
100
AcDbEntity
  8
1
  6
Continuous
 62
     7
 48
0.0063138969378866
370
     0
  0
POLYLINE
  5
277
330
1F
100
AcDbEntity
  8
1
  6
Continuous
 62
     7
 48
0.0063138969378866
370
     0
100
AcDb2dPolyline
 66
     1
 10
0.0
 20
0.0
 30
0.0
  0
VERTEX
  5
278
330
277
100
AcDbEntity
  8
1
  6
Continuous
 62
     7
 48
0.0063138969378866
100
AcDbVertex
100
AcDb2dVertex
 10
1.390211636895959
 20
-0.0512736591584841
 30
0.0
 40
0.0025
 41
0.0025
  0
VERTEX
  5
279
330
277
100
AcDbEntity
  8
1
  6
Continuous
 62
     7
 48
0.0063138969378866
100
AcDbVertex
100
AcDb2dVertex
 10
1.404068043356509
 20
-0.0512736591584841
 30
0.0
 40
0.0025
 41
0.0025
  0
SEQEND
  5
27A
330
277
100
AcDbEntity
  8
1
  6
Continuous
 62
     7
 48
0.0063138969378866
370
     0
  0
POLYLINE
  5
27B
330
1F
100
AcDbEntity
  8
1
  6
Continuous
 62
     7
 48
0.0063138969378866
370
     0
100
AcDb2dPolyline
 66
     1
 10
0.0
 20
0.0
 30
0.0
  0
VERTEX
  5
27C
330
27B
100
AcDbEntity
  8
1
  6
Continuous
 62
     7
 48
0.0063138969378866
100
AcDbVertex
100
AcDb2dVertex
 10
1.410889840126234
 20
-0.0630893577625564
 30
0.0
 40
0.0025
 41
0.0025
  0
VERTEX
  5
27D
330
27B
100
AcDbEntity
  8
1
  6
Continuous
 62
     7
 48
0.0063138969378866
100
AcDbVertex
100
AcDb2dVertex
 10
1.421175738511096
 20
-0.0809050563666271
 30
0.0
 40
0.0025
 41
0.0025
  0
SEQEND
  5
27E
330
27B
100
AcDbEntity
  8
1
  6
Continuous
 62
     7
 48
0.0063138969378866
370
     0
  0
POLYLINE
  5
27F
330
1F
100
AcDbEntity
  8
1
  6
Continuous
 62
     7
 48
0.0063138969378866
370
     0
100
AcDb2dPolyline
 66
     1
 10
0.0
 20
0.0
 30
0.0
  0
VERTEX
  5
280
330
27F
100
AcDbEntity
  8
1
  6
Continuous
 62
     7
 48
0.0063138969378866
100
AcDbVertex
100
AcDb2dVertex
 10
1.459068043356509
 20
-0.0512736591584841
 30
0.0
 40
0.0025
 41
0.0025
  0
VERTEX
  5
281
330
27F
100
AcDbEntity
  8
1
  6
Continuous
 62
     7
 48
0.0063138969378866
100
AcDbVertex
100
AcDb2dVertex
 10
1.465889840126233
 20
-0.0630893577625564
 30
0.0
 40
0.0025
 41
0.0025
  0
SEQEND
  5
282
330
27F
100
AcDbEntity
  8
1
  6
Continuous
 62
     7
 48
0.0063138969378866
370
     0
  0
POLYLINE
  5
283
330
1F
100
AcDbEntity
  8
1
  6
Continuous
 62
     7
 48
0.0063138969378866
370
     0
100
AcDb2dPolyline
 66
     1
 10
0.0
 20
0.0
 30
0.0
  0
VERTEX
  5
284
330
283
100
AcDbEntity
  8
1
  6
Continuous
 62
     7
 48
0.0063138969378866
100
AcDbVertex
100
AcDb2dVertex
 10
1.445211636895958
 20
-0.0512736591584841
 30
0.0
 40
0.0025
 41
0.0025
  0
VERTEX
  5
285
330
283
100
AcDbEntity
  8
1
  6
Continuous
 62
     7
 48
0.0063138969378866
100
AcDbVertex
100
AcDb2dVertex
 10
1.428103941741372
 20
-0.0809050563666277
 30
0.0
 40
0.0025
 41
0.0025
  0
SEQEND
  5
286
330
283
100
AcDbEntity
  8
1
  6
Continuous
 62
     7
 48
0.0063138969378866
370
     0
  0
POLYLINE
  5
287
330
1F
100
AcDbEntity
  8
1
  6
Continuous
 62
     7
 48
0.0063138969378866
370
     0
100
AcDb2dPolyline
 66
     1
 10
0.0
 20
0.0
 30
0.0
  0
VERTEX
  5
288
330
287
100
AcDbEntity
  8
1
  6
Continuous
 62
     7
 48
0.0063138969378866
100
AcDbVertex
100
AcDb2dVertex
 10
1.421175738511096
 20
-0.0809050563666271
 30
0.0
 40
0.0025
 41
0.0025
  0
VERTEX
  5
289
330
287
100
AcDbEntity
  8
1
  6
Continuous
 62
     7
 48
0.0063138969378866
100
AcDbVertex
100
AcDb2dVertex
 10
1.428103941741372
 20
-0.0809050563666277
 30
0.0
 40
0.0025
 41
0.0025
  0
SEQEND
  5
28A
330
287
100
AcDbEntity
  8
1
  6
Continuous
 62
     7
 48
0.0063138969378866
370
     0
  0
POLYLINE
  5
28B
330
1F
100
AcDbEntity
  8
1
  6
Continuous
 62
     7
 48
0.0063138969378866
370
     0
100
AcDb2dPolyline
 66
     1
 10
0.0
 20
0.0
 30
0.0
  0
VERTEX
  5
28C
330
28B
100
AcDbEntity
  8
1
  6
Continuous
 62
     7
 48
0.0063138969378866
100
AcDbVertex
100
AcDb2dVertex
 10
1.445211636895958
 20
-0.0512736591584841
 30
0.0
 40
0.0025
 41
0.0025
  0
VERTEX
  5
28D
330
28B
100
AcDbEntity
  8
1
  6
Continuous
 62
     7
 48
0.0063138969378866
100
AcDbVertex
100
AcDb2dVertex
 10
1.459068043356509
 20
-0.0512736591584841
 30
0.0
 40
0.0025
 41
0.0025
  0
SEQEND
  5
28E
330
28B
100
AcDbEntity
  8
1
  6
Continuous
 62
     7
 48
0.0063138969378866
370
     0
  0
POLYLINE
  5
28F
330
1F
100
AcDbEntity
  8
1
  6
Continuous
 62
     7
 48
0.0063138969378866
370
     0
100
AcDb2dPolyline
 66
     1
 10
0.0
 20
0.0
 30
0.0
  0
VERTEX
  5
290
330
28F
100
AcDbEntity
  8
1
  6
Continuous
 62
     7
 48
0.0063138969378866
100
AcDbVertex
100
AcDb2dVertex
 10
1.465889840126233
 20
-0.0630893577625564
 30
0.0
 40
0.0025
 41
0.0025
  0
VERTEX
  5
291
330
28F
100
AcDbEntity
  8
1
  6
Continuous
 62
     7
 48
0.0063138969378866
100
AcDbVertex
100
AcDb2dVertex
 10
1.476175738511096
 20
-0.0809050563666277
 30
0.0
 40
0.0025
 41
0.0025
  0
SEQEND
  5
292
330
28F
100
AcDbEntity
  8
1
  6
Continuous
 62
     7
 48
0.0063138969378866
370
     0
  0
POLYLINE
  5
293
330
1F
100
AcDbEntity
  8
1
  6
Continuous
 62
     7
 48
0.0063138969378866
370
     0
100
AcDb2dPolyline
 66
     1
 10
0.0
 20
0.0
 30
0.0
  0
VERTEX
  5
294
330
293
100
AcDbEntity
  8
1
  6
Continuous
 62
     7
 48
0.0063138969378866
100
AcDbVertex
100
AcDb2dVertex
 10
1.500211636895958
 20
-0.0512736591584841
 30
0.0
 40
0.0025
 41
0.0025
  0
VERTEX
  5
295
330
293
100
AcDbEntity
  8
1
  6
Continuous
 62
     7
 48
0.0063138969378866
100
AcDbVertex
100
AcDb2dVertex
 10
1.483103941741371
 20
-0.0809050563666277
 30
0.0
 40
0.0025
 41
0.0025
  0
SEQEND
  5
296
330
293
100
AcDbEntity
  8
1
  6
Continuous
 62
     7
 48
0.0063138969378866
370
     0
  0
POLYLINE
  5
297
330
1F
100
AcDbEntity
  8
1
  6
Continuous
 62
     7
 48
0.0063138969378866
370
     0
100
AcDb2dPolyline
 66
     1
 10
0.0
 20
0.0
 30
0.0
  0
VERTEX
  5
298
330
297
100
AcDbEntity
  8
1
  6
Continuous
 62
     7
 48
0.0063138969378866
100
AcDbVertex
100
AcDb2dVertex
 10
1.476175738511096
 20
-0.0809050563666277
 30
0.0
 40
0.0025
 41
0.0025
  0
VERTEX
  5
299
330
297
100
AcDbEntity
  8
1
  6
Continuous
 62
     7
 48
0.0063138969378866
100
AcDbVertex
100
AcDb2dVertex
 10
1.483103941741371
 20
-0.0809050563666277
 30
0.0
 40
0.0025
 41
0.0025
  0
SEQEND
  5
29A
330
297
100
AcDbEntity
  8
1
  6
Continuous
 62
     7
 48
0.0063138969378866
370
     0
  0
POLYLINE
  5
29B
330
1F
100
AcDbEntity
  8
1
  6
Continuous
 62
     7
 48
0.0063138969378866
370
     0
100
AcDb2dPolyline
 66
     1
 10
0.0
 20
0.0
 30
0.0
  0
VERTEX
  5
29C
330
29B
100
AcDbEntity
  8
1
  6
Continuous
 62
     7
 48
0.0063138969378866
100
AcDbVertex
100
AcDb2dVertex
 10
1.500211636895958
 20
-0.0512736591584841
 30
0.0
 40
0.0025
 41
0.0025
  0
VERTEX
  5
29D
330
29B
100
AcDbEntity
  8
1
  6
Continuous
 62
     7
 48
0.0063138969378866
100
AcDbVertex
100
AcDb2dVertex
 10
1.514068043356509
 20
-0.0512736591584841
 30
0.0
 40
0.0025
 41
0.0025
  0
SEQEND
  5
29E
330
29B
100
AcDbEntity
  8
1
  6
Continuous
 62
     7
 48
0.0063138969378866
370
     0
  0
POLYLINE
  5
29F
330
1F
100
AcDbEntity
  8
1
  6
Continuous
 62
     7
 48
0.0063138969378866
370
     0
100
AcDb2dPolyline
 66
     1
 10
0.0
 20
0.0
 30
0.0
  0
VERTEX
  5
2A0
330
29F
100
AcDbEntity
  8
1
  6
Continuous
 62
     7
 48
0.0063138969378866
100
AcDbVertex
100
AcDb2dVertex
 10
1.514068043356509
 20
-0.0512736591584841
 30
0.0
 40
0.0025
 41
0.0025
  0
VERTEX
  5
2A1
330
29F
100
AcDbEntity
  8
1
  6
Continuous
 62
     7
 48
0.0063138969378866
100
AcDbVertex
100
AcDb2dVertex
 10
1.525574965294674
 20
-0.0712042325941163
 30
0.0
 40
0.0025
 41
0.0025
  0
SEQEND
  5
2A2
330
29F
100
AcDbEntity
  8
1
  6
Continuous
 62
     7
 48
0.0063138969378866
370
     0
  0
POLYLINE
  5
2A3
330
1F
100
AcDbEntity
  8
1
  6
Continuous
 62
     7
 48
0.0063138969378866
370
     0
100
AcDb2dPolyline
 66
     1
 10
0.0
 20
0.0
 30
0.0
  0
VERTEX
  5
2A4
330
2A3
100
AcDbEntity
  8
1
  6
Continuous
 62
     7
 48
0.0063138969378866
100
AcDbVertex
100
AcDb2dVertex
 10
1.554339840126233
 20
-0.0424393577625557
 30
0.0
 40
0.0025
 41
0.0025
  0
VERTEX
  5
2A5
330
2A3
100
AcDbEntity
  8
1
  6
Continuous
 62
     7
 48
0.0063138969378866
100
AcDbVertex
100
AcDb2dVertex
 10
1.525574965294674
 20
-0.0712042325941163
 30
0.0
 40
0.0025
 41
0.0025
  0
SEQEND
  5
2A6
330
2A3
100
AcDbEntity
  8
1
  6
Continuous
 62
     7
 48
0.0063138969378866
370
     0
  0
POLYLINE
  5
2A7
330
1F
100
AcDbEntity
  8
1
  6
Continuous
 62
     7
 48
0.0063138969378866
370
     0
100
AcDb2dPolyline
 66
     1
 10
0.0
 20
0.0
 30
0.0
  0
VERTEX
  5
2A8
330
2A7
100
AcDbEntity
  8
1
  6
Continuous
 62
     7
 48
0.0063138969378866
100
AcDbVertex
100
AcDb2dVertex
 10
1.297339840126233
 20
-0.0444393577625559
 30
0.0
 40
0.0025
 41
0.0025
  0
VERTEX
  5
2A9
330
2A7
100
AcDbEntity
  8
1
  6
Continuous
 62
     7
 48
0.0063138969378866
100
AcDbVertex
100
AcDb2dVertex
 10
1.323851125119307
 20
-0.0709506427556294
 30
0.0
 40
0.0025
 41
0.0025
  0
SEQEND
  5
2AA
330
2A7
100
AcDbEntity
  8
1
  6
Continuous
 62
     7
 48
0.0063138969378866
370
     0
  0
POLYLINE
  5
2AB
330
1F
100
AcDbEntity
  8
1
  6
Continuous
 62
     7
 48
0.0063138969378866
370
     0
100
AcDb2dPolyline
 66
     1
 10
0.0
 20
0.0
 30
0.0
  0
VERTEX
  5
2AC
330
2AB
100
AcDbEntity
  8
1
  6
Continuous
 62
     7
 48
0.0063138969378866
100
AcDbVertex
100
AcDb2dVertex
 10
1.335211636895958
 20
-0.0512736591584841
 30
0.0
 40
0.0025
 41
0.0025
  0
VERTEX
  5
2AD
330
2AB
100
AcDbEntity
  8
1
  6
Continuous
 62
     7
 48
0.0063138969378866
100
AcDbVertex
100
AcDb2dVertex
 10
1.323851125119307
 20
-0.0709506427556294
 30
0.0
 40
0.0025
 41
0.0025
  0
SEQEND
  5
2AE
330
2AB
100
AcDbEntity
  8
1
  6
Continuous
 62
     7
 48
0.0063138969378866
370
     0
  0
DIMENSION
  5
2AF
330
1F
100
AcDbEntity
  8
1
  6
Continuous
 62
     7
 48
0.0000303211718331
370
     0
100
AcDbDimension
  2
*D3
 10
0.8563398401262332
 20
0.5465606422378175
 30
0.0
 11
0.8354228401249563
 21
0.1955606422378937
 31
0.0
 70
    32
 71
     5
 42
0.702
  3
Standard
100
AcDbAlignedDimension
 13
0.9589598401262335
 23
-0.1554393577625558
 33
0.0
 14
0.9589598401262331
 24
0.5465606422374442
 34
0.0
 50
89.99999999979156
100
AcDbRotatedDimension
1001
ACAD
1000
DSTYLE
1002
{
1070
   172
1070
     1
1070
    77
1070
     1
1070
   280
1070
     0
1070
   279
1070
     0
1070
    74
1070
     0
1070
    73
1070
     0
1070
   174
1070
     0
1070
   147
1040
0.009081
1070
    42
1040
0.013091
1070
   290
1070
     0
1070
   340
1005
239
1070
    78
1070
     0
1070
   272
1070
     3
1070
    71
1070
     0
1070
     3
1000
HEX TIP Ø<>
1070
   146
1040
1.0
1070
   140
1040
0.022
1070
   271
1070
     3
1070
    41
1040
0.018
1070
   342
1005
0
1070
   173
1070
     0
1070
   277
1070
     2
1070
    44
1040
0.006546
1002
}
  0
TEXT
  5
2BC
330
1F
100
AcDbEntity
  8
1
  6
DASHED
 62
     5
420
      255
370
     0
100
AcDbText
 10
1.391154840123674
 20
0.6653485598820886
 30
0.0
 40
0.0224999999999999
  1
(20.5mm)
  7
DC_TEXTSTYLE5
 72
     1
 11
1.458339840123674
 21
0.6653485598820886
 31
0.0
100
AcDbText
  0
TEXT
  5
2BD
330
1F
100
AcDbEntity
  8
1
  6
DASHED
 62
     5
420
      255
370
     0
100
AcDbText
 10
0.8893398401261993
 20
0.1283756422373762
 30
0.0
 40
0.0225
  1
(17.8mm)
 50
90.0
  7
DC_TEXTSTYLE5
 72
     1
 11
0.8893398401261993
 21
0.1955606422373762
 31
0.0
100
AcDbText
  0
TEXT
  5
2BE
330
1F
100
AcDbEntity
  8
1
  6
HIDDEN
 62
     7
370
     0
100
AcDbText
 10
2.115072412292057
 20
-0.5047535729007642
 30
0.0
 40
0.0225
  1
HEX AF = HEX TIP %%c / 1.125
  7
DC_TEXTSTYLE5
 72
     2
 11
2.524414912292057
 21
-0.5047535729007642
 31
0.0
100
AcDbText
  0
ENDSEC
  0
SECTION
  2
OBJECTS
  0
DICTIONARY
  5
C
330
0
100
AcDbDictionary
281
     1
  3
ACAD_DETAILVIEWSTYLE
350
303
  3
ACAD_GROUP
350
D
  3
ACAD_IMAGE_VARS
350
99
  3
ACAD_LAYOUT
350
1A
  3
ACAD_MATERIAL
350
91
  3
ACAD_MLEADERSTYLE
350
97
  3
ACAD_MLINESTYLE
350
17
  3
ACAD_PLOTSETTINGS
350
19
  3
ACAD_PLOTSTYLENAME
350
E
  3
ACAD_SCALELIST
350
6F
  3
ACAD_SECTIONVIEWSTYLE
350
304
  3
ACAD_TABLESTYLE
350
95
  3
ACAD_VISUALSTYLE
350
56
  3
ACDB_RECOMPOSE_DATA
350
2FF
  3
AcDbVariableDictionary
350
4E
  0
DICTIONARY
  5
2BF
330
8
100
AcDbDictionary
280
     1
281
     1
  3
ACAD_XREC_ROUNDTRIP
360
2C0
  0
DICTIONARY
  5
303
102
{ACAD_REACTORS
330
C
102
}
330
C
100
AcDbDictionary
281
     1
  0
DICTIONARY
  5
D
102
{ACAD_REACTORS
330
C
102
}
330
C
100
AcDbDictionary
281
     1
  0
RASTERVARIABLES
  5
99
102
{ACAD_REACTORS
330
C
102
}
330
C
100
AcDbRasterVariables
 90
        0
 70
     0
 71
     1
 72
     5
  0
DICTIONARY
  5
1A
102
{ACAD_REACTORS
330
C
102
}
330
C
100
AcDbDictionary
281
     1
  3
Layout1
350
1E
  3
Model
350
22
  0
DICTIONARY
  5
91
102
{ACAD_REACTORS
330
C
102
}
330
C
100
AcDbDictionary
281
     1
  3
ByBlock
350
93
  3
ByLayer
350
92
  3
Global
350
94
  0
DICTIONARY
  5
97
102
{ACAD_REACTORS
330
C
102
}
330
C
100
AcDbDictionary
281
     1
  3
Standard
350
98
  0
DICTIONARY
  5
17
102
{ACAD_REACTORS
330
C
102
}
330
C
100
AcDbDictionary
281
     1
  3
Standard
350
18
  0
DICTIONARY
  5
19
102
{ACAD_REACTORS
330
C
102
}
330
C
100
AcDbDictionary
281
     1
  0
ACDBDICTIONARYWDFLT
  5
E
102
{ACAD_REACTORS
330
C
102
}
330
C
100
AcDbDictionary
281
     1
  3
Normal
350
F
100
AcDbDictionaryWithDefault
340
F
  0
DICTIONARY
  5
6F
102
{ACAD_REACTORS
330
C
102
}
330
C
100
AcDbDictionary
281
     1
  3
A0
350
70
  3
A1
350
71
  3
A2
350
72
  3
A3
350
73
  3
A4
350
74
  3
A5
350
75
  3
A6
350
76
  3
A7
350
77
  3
A8
350
78
  3
A9
350
79
  3
B0
350
7A
  3
B1
350
7B
  3
B2
350
7C
  3
B3
350
7D
  3
B4
350
7E
  3
B5
350
7F
  3
B6
350
80
  3
B7
350
81
  3
B8
350
82
  3
B9
350
83
  3
C0
350
84
  3
C1
350
85
  3
C2
350
86
  3
C3
350
87
  3
C4
350
88
  3
C5
350
89
  3
C6
350
8A
  3
C7
350
8B
  3
C8
350
8C
  3
C9
350
8D
  3
D0
350
8E
  3
D1
350
8F
  3
D2
350
90
  0
DICTIONARY
  5
304
102
{ACAD_REACTORS
330
C
102
}
330
C
100
AcDbDictionary
281
     1
  0
DICTIONARY
  5
95
102
{ACAD_REACTORS
330
C
102
}
330
C
100
AcDbDictionary
281
     1
  3
Standard
350
96
  0
DICTIONARY
  5
56
102
{ACAD_REACTORS
330
C
102
}
330
C
100
AcDbDictionary
281
     1
  3
2dWireframe
350
5B
  3
Basic
350
5E
  3
Brighten
350
62
  3
ColorChange
350
66
  3
Conceptual
350
60
  3
Dim
350
61
  3
EdgeColorOff
350
69
  3
Facepattern
350
65
  3
Flat
350
57
  3
FlatWithEdges
350
58
  3
Gouraud
350
59
  3
GouraudWithEdges
350
5A
  3
Hidden
350
5D
  3
JitterOff
350
67
  3
Linepattern
350
64
  3
OverhangOff
350
68
  3
Realistic
350
5F
  3
Shaded
350
6E
  3
Shaded with edges
350
6D
  3
Shades of Gray
350
6A
  3
Sketchy
350
6B
  3
Thicken
350
63
  3
Wireframe
350
5C
  3
X-Ray
350
6C
  0
XRECORD
  5
2FF
102
{ACAD_REACTORS
330
C
102
}
330
C
100
AcDbXrecord
280
     1
 90
        1
330
96
  0
DICTIONARY
  5
4E
102
{ACAD_REACTORS
330
C
102
}
330
C
100
AcDbDictionary
281
     1
  3
CANNOSCALE
350
2C1
  3
CMLEADERSTYLE
350
301
  3
CTABLESTYLE
350
300
  3
DIMASSOC
350
4F
  3
MSLTSCALE
350
302
  3
XCLIPFRAME
350
2C2
  0
XRECORD
  5
2C0
102
{ACAD_REACTORS
330
2BF
102
}
330
2BF
100
AcDbXrecord
280
     1
102
VTR_0.000_0.000_1.000_1.000_VISUALSTYLE
340
5B
102
VTR_0.000_0.000_1.000_1.000_GRIDDISPLAY
 70
     3
102
VTR_0.000_0.000_1.000_1.000_GRIDMAJOR
 70
     5
102
VTR_0.000_0.000_1.000_1.000_DEFAULTLIGHTING
280
     1
102
VTR_0.000_0.000_1.000_1.000_DEFAULTLIGHTINGTYPE
 70
     1
102
VTR_0.000_0.000_1.000_1.000_BRIGHTNESS
141
0.0
102
VTR_0.000_0.000_1.000_1.000_CONTRAST
142
0.0
  0
LAYOUT
  5
1E
102
{ACAD_REACTORS
330
1A
102
}
330
1A
100
AcDbPlotSettings
  1

  2
HP DeskJet 720C v10.3
  4

  6

 40
0.0
 41
0.0
 42
0.0
 43
0.0
 44
0.0
 45
0.0
 46
0.0
 47
0.0
 48
0.0
 49
0.0
140
0.0
141
0.0
142
1.0
143
1.0
 70
   688
 72
     0
 73
     0
 74
     5
  7

 75
    16
 76
     0
 77
     2
 78
   300
147
1.0
148
0.0
149
0.0
100
AcDbLayout
  1
Layout1
 70
     1
 71
     1
 10
0.0
 20
0.0
 11
12.0
 21
9.0
 12
0.0
 22
0.0
 32
0.0
 14
1.000000000000000E+20
 24
1.000000000000000E+20
 34
1.000000000000000E+20
 15
-1.000000000000000E+20
 25
-1.000000000000000E+20
 35
-1.000000000000000E+20
146
0.0
 13
0.0
 23
0.0
 33
0.0
 16
1.0
 26
0.0
 36
0.0
 17
0.0
 27
1.0
 37
0.0
 76
     0
330
1B
  0
LAYOUT
  5
22
102
{ACAD_REACTORS
330
1A
102
}
330
1A
100
AcDbPlotSettings
  1

  2
None
  4
Custom Paper
  6

 40
0.5
 41
0.5
 42
0.5
 43
0.5
 44
296.9683333333333
 45
209.9733333333333
 46
0.2101666666666802
 47
0.0
 48
0.0
 49
0.0
140
0.0
141
0.0
142
1.0
143
0.0093694609523189
 70
  5796
 72
     2
 73
     0
 74
     0
  7

 75
     0
 76
     0
 77
     2
 78
   300
147
106.7297259777261
148
1.384562722767972
149
0.9789837433712933
100
AcDbLayout
  1
Model
 70
     1
 71
     0
 10
0.0
 20
0.0
 11
12.0
 21
9.0
 12
0.0
 22
0.0
 32
0.0
 14
0.046414912292057
 24
-0.7536032909542622
 34
0.0025
 15
2.5638016809611
 25
1.026367151539
 35
-0.0025
146
0.0
 13
0.0
 23
0.0
 33
0.0
 16
1.0
 26
0.0
 36
0.0
 17
0.0
 27
1.0
 37
0.0
 76
     0
330
1F
331
55
  0
MATERIAL
  5
93
102
{ACAD_REACTORS
330
91
102
}
102
{ACAD_XDICTIONARY
360
2F5
102
}
330
91
100
AcDbMaterial
  1
ByBlock
  0
MATERIAL
  5
92
102
{ACAD_REACTORS
330
91
102
}
102
{ACAD_XDICTIONARY
360
2F3
102
}
330
91
100
AcDbMaterial
  1
ByLayer
  0
MATERIAL
  5
94
102
{ACAD_REACTORS
330
91
102
}
102
{ACAD_XDICTIONARY
360
2F7
102
}
330
91
100
AcDbMaterial
  1
Global
  0
MLEADERSTYLE
  5
98
102
{ACAD_REACTORS
330
97
102
}
102
{ACAD_XDICTIONARY
360
2FD
102
}
330
97
100
AcDbMLeaderStyle
170
     2
171
     1
172
     0
 90
        2
 40
0.0
 41
0.0
173
     1
 91
-1056964608
340
14
 92
       -2
290
     1
 42
0.09
291
     1
 43
0.36
  3
Standard
341
0
 44
0.18
300

342
11
174
     1
178
     6
175
     1
176
     0
 93
-1056964608
 45
0.18
292
     0
297
     0
 46
0.18
343
0
 94
-1056964608
 47
1.0
 49
1.0
140
1.0
293
     1
141
0.0
294
     1
177
     0
142
1.0
295
     0
296
     0
143
0.125
1001
ACAD_MLEADERVER
1070
     2
  0
MLINESTYLE
  5
18
102
{ACAD_REACTORS
330
17
102
}
330
17
100
AcDbMlineStyle
  2
STANDARD
 70
     0
  3

 62
   256
 51
90.0
 52
90.0
 71
     2
 49
0.5
 62
   256
  6
BYLAYER
 49
-0.5
 62
   256
  6
BYLAYER
  0
ACDBPLACEHOLDER
  5
F
102
{ACAD_REACTORS
330
E
102
}
330
E
  0
SCALE
  5
70
102
{ACAD_REACTORS
330
6F
102
}
330
6F
100
AcDbScale
 70
     0
300
1:1
140
1.0
141
1.0
290
     1
  0
SCALE
  5
71
102
{ACAD_REACTORS
330
6F
102
}
330
6F
100
AcDbScale
 70
     0
300
1:2
140
1.0
141
2.0
290
     0
  0
SCALE
  5
72
102
{ACAD_REACTORS
330
6F
102
}
330
6F
100
AcDbScale
 70
     0
300
1:4
140
1.0
141
4.0
290
     0
  0
SCALE
  5
73
102
{ACAD_REACTORS
330
6F
102
}
330
6F
100
AcDbScale
 70
     0
300
1:5
140
1.0
141
5.0
290
     0
  0
SCALE
  5
74
102
{ACAD_REACTORS
330
6F
102
}
330
6F
100
AcDbScale
 70
     0
300
1:8
140
1.0
141
8.0
290
     0
  0
SCALE
  5
75
102
{ACAD_REACTORS
330
6F
102
}
330
6F
100
AcDbScale
 70
     0
300
1:10
140
1.0
141
10.0
290
     0
  0
SCALE
  5
76
102
{ACAD_REACTORS
330
6F
102
}
330
6F
100
AcDbScale
 70
     0
300
1:16
140
1.0
141
16.0
290
     0
  0
SCALE
  5
77
102
{ACAD_REACTORS
330
6F
102
}
330
6F
100
AcDbScale
 70
     0
300
1:20
140
1.0
141
20.0
290
     0
  0
SCALE
  5
78
102
{ACAD_REACTORS
330
6F
102
}
330
6F
100
AcDbScale
 70
     0
300
1:30
140
1.0
141
30.0
290
     0
  0
SCALE
  5
79
102
{ACAD_REACTORS
330
6F
102
}
330
6F
100
AcDbScale
 70
     0
300
1:40
140
1.0
141
40.0
290
     0
  0
SCALE
  5
7A
102
{ACAD_REACTORS
330
6F
102
}
330
6F
100
AcDbScale
 70
     0
300
1:50
140
1.0
141
50.0
290
     0
  0
SCALE
  5
7B
102
{ACAD_REACTORS
330
6F
102
}
330
6F
100
AcDbScale
 70
     0
300
1:100
140
1.0
141
100.0
290
     0
  0
SCALE
  5
7C
102
{ACAD_REACTORS
330
6F
102
}
330
6F
100
AcDbScale
 70
     0
300
2:1
140
2.0
141
1.0
290
     0
  0
SCALE
  5
7D
102
{ACAD_REACTORS
330
6F
102
}
330
6F
100
AcDbScale
 70
     0
300
4:1
140
4.0
141
1.0
290
     0
  0
SCALE
  5
7E
102
{ACAD_REACTORS
330
6F
102
}
330
6F
100
AcDbScale
 70
     0
300
8:1
140
8.0
141
1.0
290
     0
  0
SCALE
  5
7F
102
{ACAD_REACTORS
330
6F
102
}
330
6F
100
AcDbScale
 70
     0
300
10:1
140
10.0
141
1.0
290
     0
  0
SCALE
  5
80
102
{ACAD_REACTORS
330
6F
102
}
330
6F
100
AcDbScale
 70
     0
300
100:1
140
100.0
141
1.0
290
     0
  0
SCALE
  5
81
102
{ACAD_REACTORS
330
6F
102
}
330
6F
100
AcDbScale
 70
     0
300
1/128" = 1'-0"
140
0.0078125
141
12.0
290
     0
  0
SCALE
  5
82
102
{ACAD_REACTORS
330
6F
102
}
330
6F
100
AcDbScale
 70
     0
300
1/64" = 1'-0"
140
0.015625
141
12.0
290
     0
  0
SCALE
  5
83
102
{ACAD_REACTORS
330
6F
102
}
330
6F
100
AcDbScale
 70
     0
300
1/32" = 1'-0"
140
0.03125
141
12.0
290
     0
  0
SCALE
  5
84
102
{ACAD_REACTORS
330
6F
102
}
330
6F
100
AcDbScale
 70
     0
300
1/16" = 1'-0"
140
0.0625
141
12.0
290
     0
  0
SCALE
  5
85
102
{ACAD_REACTORS
330
6F
102
}
330
6F
100
AcDbScale
 70
     0
300
3/32" = 1'-0"
140
0.09375
141
12.0
290
     0
  0
SCALE
  5
86
102
{ACAD_REACTORS
330
6F
102
}
330
6F
100
AcDbScale
 70
     0
300
1/8" = 1'-0"
140
0.125
141
12.0
290
     0
  0
SCALE
  5
87
102
{ACAD_REACTORS
330
6F
102
}
330
6F
100
AcDbScale
 70
     0
300
3/16" = 1'-0"
140
0.1875
141
12.0
290
     0
  0
SCALE
  5
88
102
{ACAD_REACTORS
330
6F
102
}
330
6F
100
AcDbScale
 70
     0
300
1/4" = 1'-0"
140
0.25
141
12.0
290
     0
  0
SCALE
  5
89
102
{ACAD_REACTORS
330
6F
102
}
330
6F
100
AcDbScale
 70
     0
300
3/8" = 1'-0"
140
0.375
141
12.0
290
     0
  0
SCALE
  5
8A
102
{ACAD_REACTORS
330
6F
102
}
330
6F
100
AcDbScale
 70
     0
300
1/2" = 1'-0"
140
0.5
141
12.0
290
     0
  0
SCALE
  5
8B
102
{ACAD_REACTORS
330
6F
102
}
330
6F
100
AcDbScale
 70
     0
300
3/4" = 1'-0"
140
0.75
141
12.0
290
     0
  0
SCALE
  5
8C
102
{ACAD_REACTORS
330
6F
102
}
330
6F
100
AcDbScale
 70
     0
300
1" = 1'-0"
140
1.0
141
12.0
290
     0
  0
SCALE
  5
8D
102
{ACAD_REACTORS
330
6F
102
}
330
6F
100
AcDbScale
 70
     0
300
1-1/2" = 1'-0"
140
1.5
141
12.0
290
     0
  0
SCALE
  5
8E
102
{ACAD_REACTORS
330
6F
102
}
330
6F
100
AcDbScale
 70
     0
300
3" = 1'-0"
140
3.0
141
12.0
290
     0
  0
SCALE
  5
8F
102
{ACAD_REACTORS
330
6F
102
}
330
6F
100
AcDbScale
 70
     0
300
6" = 1'-0"
140
6.0
141
12.0
290
     0
  0
SCALE
  5
90
102
{ACAD_REACTORS
330
6F
102
}
330
6F
100
AcDbScale
 70
     0
300
1'-0" = 1'-0"
140
12.0
141
12.0
290
     0
  0
TABLESTYLE
  5
96
102
{ACAD_REACTORS
330
95
102
}
102
{ACAD_XDICTIONARY
360
2F9
102
}
330
95
100
AcDbTableStyle
  3
Standard
 70
     0
 71
     0
 40
0.06
 41
0.06
280
     0
281
     0
  7
Standard
140
0.18
170
     2
 62
     0
 63
   257
283
     0
274
    -2
284
     1
 64
     0
275
    -2
285
     1
 65
     0
276
    -2
286
     1
 66
     0
277
    -2
287
     1
 67
     0
278
    -2
288
     1
 68
     0
279
    -2
289
     1
 69
     0
  7
Standard
140
0.25
170
     5
 62
     0
 63
   257
283
     0
274
    -2
284
     1
 64
     0
275
    -2
285
     1
 65
     0
276
    -2
286
     1
 66
     0
277
    -2
287
     1
 67
     0
278
    -2
288
     1
 68
     0
279
    -2
289
     1
 69
     0
  7
Standard
140
0.18
170
     5
 62
     0
 63
   257
283
     0
274
    -2
284
     1
 64
     0
275
    -2
285
     1
 65
     0
276
    -2
286
     1
 66
     0
277
    -2
287
     1
 67
     0
278
    -2
288
     1
 68
     0
279
    -2
289
     1
 69
     0
  0
VISUALSTYLE
  5
5B
102
{ACAD_REACTORS
330
56
102
}
102
{ACAD_XDICTIONARY
360
2CB
102
}
330
56
100
AcDbVisualStyle
  2
2dWireframe
 70
     4
 71
     0
 72
     2
 73
     0
 90
        0
 40
0.6
 41
30.0
 62
     5
 63
     7
421
 16777215
 74
     1
 91
        4
 64
     7
 65
   257
 75
     1
175
     1
 42
1.0
 92
        0
 66
   257
 43
1.0
 76
     1
 77
     6
 78
     2
 67
     7
 79
     5
170
     0
171
     0
290
     0
174
     0
 93
        1
 44
0.0
173
     0
291
     0
 45
0.0
1001
ACAD
1000
AcDbSavedByObjectVersion
1070
     0
  0
VISUALSTYLE
  5
5E
102
{ACAD_REACTORS
330
56
102
}
102
{ACAD_XDICTIONARY
360
2D1
102
}
330
56
100
AcDbVisualStyle
  2
Basic
 70
     7
 71
     1
 72
     0
 73
     1
 90
        0
 40
0.6
 41
30.0
 62
     5
 63
     7
421
 16777215
 74
     0
 91
        4
 64
     7
 65
   257
 75
     1
175
     1
 42
1.0
 92
        8
 66
     7
 43
1.0
 76
     1
 77
     6
 78
     2
 67
     7
 79
     5
170
     0
171
     0
290
     0
174
     0
 93
        1
 44
0.0
173
     0
291
     1
 45
0.0
1001
ACAD
1000
AcDbSavedByObjectVersion
1070
     0
  0
VISUALSTYLE
  5
62
102
{ACAD_REACTORS
330
56
102
}
102
{ACAD_XDICTIONARY
360
2D9
102
}
330
56
100
AcDbVisualStyle
  2
Brighten
 70
    12
 71
     2
 72
     2
 73
     0
 90
        0
 40
0.6
 41
30.0
 62
     5
 63
     7
421
 16777215
 74
     1
 91
        4
 64
     7
 65
   257
 75
     1
175
     1
 42
1.0
 92
        8
 66
     7
 43
1.0
 76
     1
 77
     6
 78
     2
 67
     7
 79
     5
170
     0
171
     0
290
     0
174
     0
 93
        1
 44
50.0
173
     0
291
     1
 45
0.0
1001
ACAD
1000
AcDbSavedByObjectVersion
1070
     0
  0
VISUALSTYLE
  5
66
102
{ACAD_REACTORS
330
56
102
}
102
{ACAD_XDICTIONARY
360
2E1
102
}
330
56
100
AcDbVisualStyle
  2
ColorChange
 70
    16
 71
     2
 72
     2
 73
     3
 90
        0
 40
0.6
 41
30.0
 62
     5
 63
     8
421
  8421504
 74
     1
 91
        4
 64
     7
 65
   257
 75
     1
175
     1
 42
1.0
 92
        8
 66
     8
424
  8421504
 43
1.0
 76
     1
 77
     6
 78
     2
 67
     7
 79
     5
170
     0
171
     0
290
     0
174
     0
 93
        1
 44
0.0
173
     0
291
     1
 45
0.0
1001
ACAD
1000
AcDbSavedByObjectVersion
1070
     0
  0
VISUALSTYLE
  5
60
102
{ACAD_REACTORS
330
56
102
}
102
{ACAD_XDICTIONARY
360
2D5
102
}
330
56
100
AcDbVisualStyle
  2
Conceptual
 70
     9
 71
     3
 72
     2
 73
     0
 90
        0
 40
0.6
 41
30.0
 62
     5
 63
     7
421
 16777215
 74
     2
 91
        2
 64
     7
 65
   257
 75
     1
175
     1
 42
179.0
 92
        8
 66
     7
 43
1.0
 76
     1
 77
     6
 78
     2
 67
     7
 79
     3
170
     0
171
     0
290
     0
174
     0
 93
        1
 44
0.0
173
     0
291
     0
 45
0.0
1001
ACAD
1000
AcDbSavedByObjectVersion
1070
     0
  0
VISUALSTYLE
  5
61
102
{ACAD_REACTORS
330
56
102
}
102
{ACAD_XDICTIONARY
360
2D7
102
}
330
56
100
AcDbVisualStyle
  2
Dim
 70
    11
 71
     2
 72
     2
 73
     0
 90
        0
 40
0.6
 41
30.0
 62
     5
 63
     7
421
 16777215
 74
     1
 91
        4
 64
     7
 65
   257
 75
     1
175
     1
 42
1.0
 92
        8
 66
     7
 43
1.0
 76
     1
 77
     6
 78
     2
 67
     7
 79
     5
170
     0
171
     0
290
     0
174
     0
 93
        1
 44
-50.0
173
     0
291
     1
 45
0.0
1001
ACAD
1000
AcDbSavedByObjectVersion
1070
     0
  0
VISUALSTYLE
  5
69
102
{ACAD_REACTORS
330
56
102
}
102
{ACAD_XDICTIONARY
360
2E7
102
}
330
56
100
AcDbVisualStyle
  2
EdgeColorOff
 70
    22
 71
     2
 72
     2
 73
     0
 90
        0
 40
0.6
 41
30.0
 62
     5
 63
     7
421
 16777215
 74
     1
 91
        4
 64
     7
 65
   257
 75
     1
175
     1
 42
1.0
 92
        8
 66
     7
 43
1.0
 76
     1
 77
     6
 78
     2
 67
     7
 79
     5
170
     0
171
     0
290
     0
174
     0
 93
        1
 44
0.0
173
     0
291
     1
 45
0.0
1001
ACAD
1000
AcDbSavedByObjectVersion
1070
     0
  0
VISUALSTYLE
  5
65
102
{ACAD_REACTORS
330
56
102
}
102
{ACAD_XDICTIONARY
360
2DF
102
}
330
56
100
AcDbVisualStyle
  2
Facepattern
 70
    15
 71
     2
 72
     2
 73
     0
 90
        0
 40
0.6
 41
30.0
 62
     5
 63
     7
421
 16777215
 74
     1
 91
        4
 64
     7
 65
   257
 75
     1
175
     1
 42
1.0
 92
        8
 66
     7
 43
1.0
 76
     1
 77
     6
 78
     2
 67
     7
 79
     5
170
     0
171
     0
290
     0
174
     0
 93
        1
 44
0.0
173
     0
291
     1
 45
0.0
1001
ACAD
1000
AcDbSavedByObjectVersion
1070
     0
  0
VISUALSTYLE
  5
57
102
{ACAD_REACTORS
330
56
102
}
102
{ACAD_XDICTIONARY
360
2C3
102
}
330
56
100
AcDbVisualStyle
  2
Flat
 70
     0
 71
     2
 72
     1
 73
     1
 90
        2
 40
0.6
 41
30.0
 62
     5
 63
     7
421
 16777215
 74
     0
 91
        0
 64
     7
 65
   257
 75
     1
175
     1
 42
1.0
 92
        8
 66
     7
 43
1.0
 76
     1
 77
     6
 78
     2
 67
     7
 79
     5
170
     0
171
     0
290
     0
174
     0
 93
       13
 44
0.0
173
     0
291
     1
 45
0.0
1001
ACAD
1000
AcDbSavedByObjectVersion
1070
     0
  0
VISUALSTYLE
  5
58
102
{ACAD_REACTORS
330
56
102
}
102
{ACAD_XDICTIONARY
360
2C5
102
}
330
56
100
AcDbVisualStyle
  2
FlatWithEdges
 70
     1
 71
     2
 72
     1
 73
     1
 90
        2
 40
0.6
 41
30.0
 62
     5
 63
     7
421
 16777215
 74
     1
 91
        0
 64
     7
 65
   257
 75
     1
175
     1
 42
1.0
 92
        0
 66
   257
 43
1.0
 76
     1
 77
     6
 78
     2
 67
     7
 79
     5
170
     0
171
     0
290
     0
174
     0
 93
       13
 44
0.0
173
     0
291
     1
 45
0.0
1001
ACAD
1000
AcDbSavedByObjectVersion
1070
     0
  0
VISUALSTYLE
  5
59
102
{ACAD_REACTORS
330
56
102
}
102
{ACAD_XDICTIONARY
360
2C7
102
}
330
56
100
AcDbVisualStyle
  2
Gouraud
 70
     2
 71
     2
 72
     2
 73
     1
 90
        2
 40
0.6
 41
30.0
 62
     5
 63
     7
421
 16777215
 74
     0
 91
        0
 64
     7
 65
   257
 75
     1
175
     1
 42
1.0
 92
        0
 66
     7
 43
1.0
 76
     1
 77
     6
 78
     2
 67
     7
 79
     5
170
     0
171
     0
290
     0
174
     0
 93
       13
 44
0.0
173
     0
291
     1
 45
0.0
1001
ACAD
1000
AcDbSavedByObjectVersion
1070
     0
  0
VISUALSTYLE
  5
5A
102
{ACAD_REACTORS
330
56
102
}
102
{ACAD_XDICTIONARY
360
2C9
102
}
330
56
100
AcDbVisualStyle
  2
GouraudWithEdges
 70
     3
 71
     2
 72
     2
 73
     1
 90
        2
 40
0.6
 41
30.0
 62
     5
 63
     7
421
 16777215
 74
     1
 91
        0
 64
     7
 65
   257
 75
     1
175
     1
 42
1.0
 92
        0
 66
   257
 43
1.0
 76
     1
 77
     6
 78
     2
 67
     7
 79
     5
170
     0
171
     0
290
     0
174
     0
 93
       13
 44
0.0
173
     0
291
     1
 45
0.0
1001
ACAD
1000
AcDbSavedByObjectVersion
1070
     0
  0
VISUALSTYLE
  5
5D
102
{ACAD_REACTORS
330
56
102
}
102
{ACAD_XDICTIONARY
360
2CF
102
}
330
56
100
AcDbVisualStyle
  2
Hidden
 70
     6
 71
     1
 72
     2
 73
     2
 90
        0
 40
0.6
 41
30.0
 62
     5
 63
     7
421
 16777215
 74
     2
 91
        2
 64
     7
 65
   257
 75
     2
175
     1
 42
40.0
 92
        0
 66
   257
 43
1.0
 76
     1
 77
     6
 78
     2
 67
     7
 79
     3
170
     0
171
     0
290
     0
174
     0
 93
        1
 44
0.0
173
     0
291
     0
 45
0.0
1001
ACAD
1000
AcDbSavedByObjectVersion
1070
     0
  0
VISUALSTYLE
  5
67
102
{ACAD_REACTORS
330
56
102
}
102
{ACAD_XDICTIONARY
360
2E3
102
}
330
56
100
AcDbVisualStyle
  2
JitterOff
 70
    20
 71
     2
 72
     2
 73
     0
 90
        0
 40
0.6
 41
30.0
 62
     5
 63
     7
421
 16777215
 74
     1
 91
        4
 64
     7
 65
   257
 75
     1
175
     1
 42
1.0
 92
       10
 66
     7
 43
1.0
 76
     1
 77
     6
 78
     2
 67
     7
 79
     5
170
     0
171
     0
290
     0
174
     0
 93
        1
 44
0.0
173
     0
291
     1
 45
0.0
1001
ACAD
1000
AcDbSavedByObjectVersion
1070
     0
  0
VISUALSTYLE
  5
64
102
{ACAD_REACTORS
330
56
102
}
102
{ACAD_XDICTIONARY
360
2DD
102
}
330
56
100
AcDbVisualStyle
  2
Linepattern
 70
    14
 71
     2
 72
     2
 73
     0
 90
        0
 40
0.6
 41
30.0
 62
     5
 63
     7
421
 16777215
 74
     1
 91
        4
 64
     7
 65
   257
 75
     7
175
     7
 42
1.0
 92
        8
 66
     7
 43
1.0
 76
     1
 77
     6
 78
     2
 67
     7
 79
     5
170
     0
171
     0
290
     0
174
     0
 93
        1
 44
0.0
173
     0
291
     1
 45
0.0
1001
ACAD
1000
AcDbSavedByObjectVersion
1070
     0
  0
VISUALSTYLE
  5
68
102
{ACAD_REACTORS
330
56
102
}
102
{ACAD_XDICTIONARY
360
2E5
102
}
330
56
100
AcDbVisualStyle
  2
OverhangOff
 70
    21
 71
     2
 72
     2
 73
     0
 90
        0
 40
0.6
 41
30.0
 62
     5
 63
     7
421
 16777215
 74
     1
 91
        4
 64
     7
 65
   257
 75
     1
175
     1
 42
1.0
 92
        9
 66
     7
 43
1.0
 76
     1
 77
     6
 78
     2
 67
     7
 79
     5
170
     0
171
     0
290
     0
174
     0
 93
        1
 44
0.0
173
     0
291
     1
 45
0.0
1001
ACAD
1000
AcDbSavedByObjectVersion
1070
     0
  0
VISUALSTYLE
  5
5F
102
{ACAD_REACTORS
330
56
102
}
102
{ACAD_XDICTIONARY
360
2D3
102
}
330
56
100
AcDbVisualStyle
  2
Realistic
 70
     8
 71
     2
 72
     3
 73
     0
 90
        2
 40
0.6
 41
30.0
 62
     5
 63
     7
421
 16777215
 74
     0
 91
        0
 64
     7
 65
   257
 75
     1
175
     1
 42
1.0
 92
        8
 66
   257
 43
1.0
 76
     1
 77
     6
 78
     2
 67
     7
 79
     3
170
     0
171
     0
290
     0
174
     0
 93
       13
 44
0.0
173
     0
291
     0
 45
0.0
1001
ACAD
1000
AcDbSavedByObjectVersion
1070
     0
  0
VISUALSTYLE
  5
6E
102
{ACAD_REACTORS
330
56
102
}
102
{ACAD_XDICTIONARY
360
2F1
102
}
330
56
100
AcDbVisualStyle
  2
Shaded
 70
    27
 71
     2
 72
     2
 73
     1
 90
        2
 40
0.6
 41
30.0
 62
     5
 63
     7
421
 16777215
 74
     0
 91
        4
 64
     7
 65
   257
 75
     1
175
     1
 42
1.0
 92
        8
 66
   257
 43
1.0
 76
     1
 77
     6
 78
     2
 67
     8
425
  7895160
 79
     3
170
     0
171
     0
290
     0
174
     0
 93
        5
 44
0.0
173
     0
291
     0
 45
0.0
1001
ACAD
1000
AcDbSavedByObjectVersion
1070
     0
  0
VISUALSTYLE
  5
6D
102
{ACAD_REACTORS
330
56
102
}
102
{ACAD_XDICTIONARY
360
2EF
102
}
330
56
100
AcDbVisualStyle
  2
Shaded with edges
 70
    26
 71
     2
 72
     2
 73
     1
 90
        2
 40
0.6
 41
30.0
 62
     5
 63
     7
421
 16777215
 74
     1
 91
       10
 64
     7
 65
   257
 75
     2
175
     1
 42
1.0
 92
        8
 66
   257
 43
1.0
 76
     1
 77
     6
 78
     2
 67
     7
 79
     3
170
     0
171
     0
290
     0
174
     0
 93
        5
 44
0.0
173
     0
291
     0
 45
0.0
1001
ACAD
1000
AcDbSavedByObjectVersion
1070
     0
  0
VISUALSTYLE
  5
6A
102
{ACAD_REACTORS
330
56
102
}
102
{ACAD_XDICTIONARY
360
2E9
102
}
330
56
100
AcDbVisualStyle
  2
Shades of Gray
 70
    23
 71
     2
 72
     2
 73
     3
 90
        0
 40
0.6
 41
30.0
 62
     5
 63
     7
421
 16777215
 74
     2
 91
        2
 64
     7
 65
     7
 75
     1
175
     1
 42
40.0
 92
        8
 66
     7
 43
1.0
 76
     1
 77
     6
 78
     2
 67
     7
 79
     3
170
     0
171
     0
290
     0
174
     0
 93
        1
 44
0.0
173
     0
291
     0
 45
0.0
1001
ACAD
1000
AcDbSavedByObjectVersion
1070
     0
  0
VISUALSTYLE
  5
6B
102
{ACAD_REACTORS
330
56
102
}
102
{ACAD_XDICTIONARY
360
2EB
102
}
330
56
100
AcDbVisualStyle
  2
Sketchy
 70
    24
 71
     1
 72
     2
 73
     2
 90
        0
 40
0.6
 41
30.0
 62
     5
 63
     7
421
 16777215
 74
     2
 91
        2
 64
     7
 65
     7
 75
     1
175
     1
 42
40.0
 92
       11
 66
     7
 43
1.0
 76
     1
 77
     6
 78
     2
 67
     7
 79
     6
170
     0
171
     0
290
     0
174
     0
 93
        1
 44
0.0
173
     0
291
     0
 45
0.0
1001
ACAD
1000
AcDbSavedByObjectVersion
1070
     0
  0
VISUALSTYLE
  5
63
102
{ACAD_REACTORS
330
56
102
}
102
{ACAD_XDICTIONARY
360
2DB
102
}
330
56
100
AcDbVisualStyle
  2
Thicken
 70
    13
 71
     2
 72
     2
 73
     0
 90
        0
 40
0.6
 41
30.0
 62
     5
 63
     7
421
 16777215
 74
     1
 91
        4
 64
     7
 65
   257
 75
     1
175
     1
 42
1.0
 92
       12
 66
     7
 43
1.0
 76
     1
 77
     6
 78
     2
 67
     7
 79
     5
170
     0
171
     0
290
     0
174
     0
 93
        1
 44
0.0
173
     0
291
     1
 45
0.0
1001
ACAD
1000
AcDbSavedByObjectVersion
1070
     0
  0
VISUALSTYLE
  5
5C
102
{ACAD_REACTORS
330
56
102
}
102
{ACAD_XDICTIONARY
360
2CD
102
}
330
56
100
AcDbVisualStyle
  2
Wireframe
 70
     5
 71
     0
 72
     2
 73
     0
 90
        0
 40
0.6
 41
30.0
 62
     5
 63
     7
421
 16777215
 74
     1
 91
        4
 64
     7
 65
   257
 75
     1
175
     1
 42
1.0
 92
        0
 66
   257
 43
1.0
 76
     1
 77
     6
 78
     2
 67
     7
 79
     3
170
     0
171
     0
290
     0
174
     0
 93
        1
 44
0.0
173
     0
291
     0
 45
0.0
1001
ACAD
1000
AcDbSavedByObjectVersion
1070
     0
  0
VISUALSTYLE
  5
6C
102
{ACAD_REACTORS
330
56
102
}
102
{ACAD_XDICTIONARY
360
2ED
102
}
330
56
100
AcDbVisualStyle
  2
X-Ray
 70
    25
 71
     2
 72
     2
 73
     1
 90
        1
 40
0.5
 41
30.0
 62
     5
 63
     7
421
 16777215
 74
     1
 91
        0
 64
     7
 65
   257
 75
     1
175
     1
 42
1.0
 92
        8
 66
     7
 43
1.0
 76
     1
 77
     6
 78
     2
 67
     7
 79
     3
170
     0
171
     0
290
     0
174
     0
 93
       13
 44
0.0
173
     0
291
     0
 45
0.0
1001
ACAD
1000
AcDbSavedByObjectVersion
1070
     0
  0
DICTIONARYVAR
  5
2C1
102
{ACAD_REACTORS
330
4E
102
}
330
4E
100
DictionaryVariables
280
     0
  1
1:1
  0
DICTIONARYVAR
  5
301
102
{ACAD_REACTORS
330
4E
102
}
330
4E
100
DictionaryVariables
280
     0
  1
Standard
  0
DICTIONARYVAR
  5
300
102
{ACAD_REACTORS
330
4E
102
}
330
4E
100
DictionaryVariables
280
     0
  1
Standard
  0
DICTIONARYVAR
  5
4F
102
{ACAD_REACTORS
330
4E
102
}
330
4E
100
DictionaryVariables
280
     0
  1
1
  0
DICTIONARYVAR
  5
302
102
{ACAD_REACTORS
330
4E
102
}
330
4E
100
DictionaryVariables
280
     0
  1
0
  0
DICTIONARYVAR
  5
2C2
102
{ACAD_REACTORS
330
4E
102
}
330
4E
100
DictionaryVariables
280
     0
  1
2
  0
DICTIONARY
  5
2F5
330
93
100
AcDbDictionary
280
     1
281
     1
  3
ACAD_XREC_ROUNDTRIP
360
2F6
  0
DICTIONARY
  5
2F3
330
92
100
AcDbDictionary
280
     1
281
     1
  3
ACAD_XREC_ROUNDTRIP
360
2F4
  0
DICTIONARY
  5
2F7
330
94
100
AcDbDictionary
280
     1
281
     1
  3
ACAD_XREC_ROUNDTRIP
360
2F8
  0
DICTIONARY
  5
2FD
330
98
100
AcDbDictionary
280
     1
281
     1
  3
ACAD_XREC_ROUNDTRIP
360
2FE
  0
DICTIONARY
  5
2F9
330
96
100
AcDbDictionary
280
     1
281
     1
  3
ACAD_ROUNDTRIP_2008_TABLESTYLE_CELLSTYLEMAP
360
2FB
  3
ACAD_XREC_ROUNDTRIP
360
2FA
  0
DICTIONARY
  5
2CB
330
5B
100
AcDbDictionary
280
     1
281
     1
  3
ACAD_XREC_ROUNDTRIP
360
2CC
  0
DICTIONARY
  5
2D1
330
5E
100
AcDbDictionary
280
     1
281
     1
  3
ACAD_XREC_ROUNDTRIP
360
2D2
  0
DICTIONARY
  5
2D9
330
62
100
AcDbDictionary
280
     1
281
     1
  3
ACAD_XREC_ROUNDTRIP
360
2DA
  0
DICTIONARY
  5
2E1
330
66
100
AcDbDictionary
280
     1
281
     1
  3
ACAD_XREC_ROUNDTRIP
360
2E2
  0
DICTIONARY
  5
2D5
330
60
100
AcDbDictionary
280
     1
281
     1
  3
ACAD_XREC_ROUNDTRIP
360
2D6
  0
DICTIONARY
  5
2D7
330
61
100
AcDbDictionary
280
     1
281
     1
  3
ACAD_XREC_ROUNDTRIP
360
2D8
  0
DICTIONARY
  5
2E7
330
69
100
AcDbDictionary
280
     1
281
     1
  3
ACAD_XREC_ROUNDTRIP
360
2E8
  0
DICTIONARY
  5
2DF
330
65
100
AcDbDictionary
280
     1
281
     1
  3
ACAD_XREC_ROUNDTRIP
360
2E0
  0
DICTIONARY
  5
2C3
330
57
100
AcDbDictionary
280
     1
281
     1
  3
ACAD_XREC_ROUNDTRIP
360
2C4
  0
DICTIONARY
  5
2C5
330
58
100
AcDbDictionary
280
     1
281
     1
  3
ACAD_XREC_ROUNDTRIP
360
2C6
  0
DICTIONARY
  5
2C7
330
59
100
AcDbDictionary
280
     1
281
     1
  3
ACAD_XREC_ROUNDTRIP
360
2C8
  0
DICTIONARY
  5
2C9
330
5A
100
AcDbDictionary
280
     1
281
     1
  3
ACAD_XREC_ROUNDTRIP
360
2CA
  0
DICTIONARY
  5
2CF
330
5D
100
AcDbDictionary
280
     1
281
     1
  3
ACAD_XREC_ROUNDTRIP
360
2D0
  0
DICTIONARY
  5
2E3
330
67
100
AcDbDictionary
280
     1
281
     1
  3
ACAD_XREC_ROUNDTRIP
360
2E4
  0
DICTIONARY
  5
2DD
330
64
100
AcDbDictionary
280
     1
281
     1
  3
ACAD_XREC_ROUNDTRIP
360
2DE
  0
DICTIONARY
  5
2E5
330
68
100
AcDbDictionary
280
     1
281
     1
  3
ACAD_XREC_ROUNDTRIP
360
2E6
  0
DICTIONARY
  5
2D3
330
5F
100
AcDbDictionary
280
     1
281
     1
  3
ACAD_XREC_ROUNDTRIP
360
2D4
  0
DICTIONARY
  5
2F1
330
6E
100
AcDbDictionary
280
     1
281
     1
  3
ACAD_XREC_ROUNDTRIP
360
2F2
  0
DICTIONARY
  5
2EF
330
6D
100
AcDbDictionary
280
     1
281
     1
  3
ACAD_XREC_ROUNDTRIP
360
2F0
  0
DICTIONARY
  5
2E9
330
6A
100
AcDbDictionary
280
     1
281
     1
  3
ACAD_XREC_ROUNDTRIP
360
2EA
  0
DICTIONARY
  5
2EB
330
6B
100
AcDbDictionary
280
     1
281
     1
  3
ACAD_XREC_ROUNDTRIP
360
2EC
  0
DICTIONARY
  5
2DB
330
63
100
AcDbDictionary
280
     1
281
     1
  3
ACAD_XREC_ROUNDTRIP
360
2DC
  0
DICTIONARY
  5
2CD
330
5C
100
AcDbDictionary
280
     1
281
     1
  3
ACAD_XREC_ROUNDTRIP
360
2CE
  0
DICTIONARY
  5
2ED
330
6C
100
AcDbDictionary
280
     1
281
     1
  3
ACAD_XREC_ROUNDTRIP
360
2EE
  0
XRECORD
  5
2F6
102
{ACAD_REACTORS
330
2F5
102
}
330
2F5
100
AcDbXrecord
280
     1
102
MATERIAL
148
0.0
149
0.0
149
0.0
 93
        0
 94
      127
282
     0
 72
     1
 77
     1
171
     1
175
     1
179
     1
273
     0
  0
XRECORD
  5
2F4
102
{ACAD_REACTORS
330
2F3
102
}
330
2F3
100
AcDbXrecord
280
     1
102
MATERIAL
148
0.0
149
0.0
149
0.0
 93
        0
 94
      127
282
     0
 72
     1
 77
     1
171
     1
175
     1
179
     1
273
     0
  0
XRECORD
  5
2F8
102
{ACAD_REACTORS
330
2F7
102
}
330
2F7
100
AcDbXrecord
280
     1
102
MATERIAL
148
0.0
149
0.0
149
0.0
 93
        0
 94
      127
282
     0
 72
     1
 77
     1
171
     1
175
     1
179
     1
273
     0
  0
XRECORD
  5
2FE
102
{ACAD_REACTORS
330
2FD
102
}
330
2FD
100
AcDbXrecord
280
     1
102
ACAD_ROUNDTRIP_2010_MLEADER_STYLE
  0
CELLSTYLEMAP
  5
2FB
102
{ACAD_REACTORS
330
2F9
102
}
330
2F9
100
AcDbCellStyleMap
 90
        3
300
CELLSTYLE
  1
TABLEFORMAT_BEGIN
 90
        5
170
     1
 91
        0
 92
    32768
 62
   257
 93
        1
300
CONTENTFORMAT
  1
CONTENTFORMAT_BEGIN
 90
        0
 91
        0
 92
        4
 93
        0
300

 40
0.0
140
1.0
 94
        5
 62
     0
340
11
144
0.25
309
CONTENTFORMAT_END
171
     1
301
MARGIN
  1
CELLMARGIN_BEGIN
 40
0.06
 40
0.06
 40
0.06
 40
0.06
 40
0.06
 40
0.06
309
CELLMARGIN_END
 94
        6
 95
        1
302
GRIDFORMAT
  1
GRIDFORMAT_BEGIN
 90
        0
 91
        1
 62
     0
 92
       -2
340
14
 93
        0
 40
0.045
309
GRIDFORMAT_END
 95
        2
302
GRIDFORMAT
  1
GRIDFORMAT_BEGIN
 90
        0
 91
        1
 62
     0
 92
       -2
340
14
 93
        0
 40
0.045
309
GRIDFORMAT_END
 95
        4
302
GRIDFORMAT
  1
GRIDFORMAT_BEGIN
 90
        0
 91
        1
 62
     0
 92
       -2
340
14
 93
        0
 40
0.045
309
GRIDFORMAT_END
 95
        8
302
GRIDFORMAT
  1
GRIDFORMAT_BEGIN
 90
        0
 91
        1
 62
     0
 92
       -2
340
14
 93
        0
 40
0.045
309
GRIDFORMAT_END
 95
       16
302
GRIDFORMAT
  1
GRIDFORMAT_BEGIN
 90
        0
 91
        1
 62
     0
 92
       -2
340
14
 93
        0
 40
0.045
309
GRIDFORMAT_END
 95
       32
302
GRIDFORMAT
  1
GRIDFORMAT_BEGIN
 90
        0
 91
        1
 62
     0
 92
       -2
340
14
 93
        0
 40
0.045
309
GRIDFORMAT_END
309
TABLEFORMAT_END
  1
CELLSTYLE_BEGIN
 90
        1
 91
        1
300
_TITLE
309
CELLSTYLE_END
300
CELLSTYLE
  1
TABLEFORMAT_BEGIN
 90
        5
170
     1
 91
        0
 92
        0
 62
   257
 93
        1
300
CONTENTFORMAT
  1
CONTENTFORMAT_BEGIN
 90
        0
 91
        0
 92
        4
 93
        0
300

 40
0.0
140
1.0
 94
        5
 62
     0
340
11
144
0.18
309
CONTENTFORMAT_END
171
     1
301
MARGIN
  1
CELLMARGIN_BEGIN
 40
0.06
 40
0.06
 40
0.06
 40
0.06
 40
0.06
 40
0.06
309
CELLMARGIN_END
 94
        6
 95
        1
302
GRIDFORMAT
  1
GRIDFORMAT_BEGIN
 90
        0
 91
        1
 62
     0
 92
       -2
340
14
 93
        0
 40
0.045
309
GRIDFORMAT_END
 95
        2
302
GRIDFORMAT
  1
GRIDFORMAT_BEGIN
 90
        0
 91
        1
 62
     0
 92
       -2
340
14
 93
        0
 40
0.045
309
GRIDFORMAT_END
 95
        4
302
GRIDFORMAT
  1
GRIDFORMAT_BEGIN
 90
        0
 91
        1
 62
     0
 92
       -2
340
14
 93
        0
 40
0.045
309
GRIDFORMAT_END
 95
        8
302
GRIDFORMAT
  1
GRIDFORMAT_BEGIN
 90
        0
 91
        1
 62
     0
 92
       -2
340
14
 93
        0
 40
0.045
309
GRIDFORMAT_END
 95
       16
302
GRIDFORMAT
  1
GRIDFORMAT_BEGIN
 90
        0
 91
        1
 62
     0
 92
       -2
340
14
 93
        0
 40
0.045
309
GRIDFORMAT_END
 95
       32
302
GRIDFORMAT
  1
GRIDFORMAT_BEGIN
 90
        0
 91
        1
 62
     0
 92
       -2
340
14
 93
        0
 40
0.045
309
GRIDFORMAT_END
309
TABLEFORMAT_END
  1
CELLSTYLE_BEGIN
 90
        2
 91
        1
300
_HEADER
309
CELLSTYLE_END
300
CELLSTYLE
  1
TABLEFORMAT_BEGIN
 90
        5
170
     1
 91
        0
 92
        0
 62
   257
 93
        1
300
CONTENTFORMAT
  1
CONTENTFORMAT_BEGIN
 90
        0
 91
        0
 92
        4
 93
        0
300

 40
0.0
140
1.0
 94
        2
 62
     0
340
11
144
0.18
309
CONTENTFORMAT_END
171
     1
301
MARGIN
  1
CELLMARGIN_BEGIN
 40
0.06
 40
0.06
 40
0.06
 40
0.06
 40
0.06
 40
0.06
309
CELLMARGIN_END
 94
        6
 95
        1
302
GRIDFORMAT
  1
GRIDFORMAT_BEGIN
 90
        0
 91
        1
 62
     0
 92
       -2
340
14
 93
        0
 40
0.045
309
GRIDFORMAT_END
 95
        2
302
GRIDFORMAT
  1
GRIDFORMAT_BEGIN
 90
        0
 91
        1
 62
     0
 92
       -2
340
14
 93
        0
 40
0.045
309
GRIDFORMAT_END
 95
        4
302
GRIDFORMAT
  1
GRIDFORMAT_BEGIN
 90
        0
 91
        1
 62
     0
 92
       -2
340
14
 93
        0
 40
0.045
309
GRIDFORMAT_END
 95
        8
302
GRIDFORMAT
  1
GRIDFORMAT_BEGIN
 90
        0
 91
        1
 62
     0
 92
       -2
340
14
 93
        0
 40
0.045
309
GRIDFORMAT_END
 95
       16
302
GRIDFORMAT
  1
GRIDFORMAT_BEGIN
 90
        0
 91
        1
 62
     0
 92
       -2
340
14
 93
        0
 40
0.045
309
GRIDFORMAT_END
 95
       32
302
GRIDFORMAT
  1
GRIDFORMAT_BEGIN
 90
        0
 91
        1
 62
     0
 92
       -2
340
14
 93
        0
 40
0.045
309
GRIDFORMAT_END
309
TABLEFORMAT_END
  1
CELLSTYLE_BEGIN
 90
        3
 91
        2
300
_DATA
309
CELLSTYLE_END
  0
XRECORD
  5
2FA
102
{ACAD_REACTORS
330
2F9
102
}
330
2F9
100
AcDbXrecord
280
     1
102
ACAD_ROUNDTRIP_PRE2007_TABLESTYLE
 90
        4
 91
        0
  1

 92
        4
 93
        0
  2

 94
        4
 95
        0
  3

  0
XRECORD
  5
2CC
102
{ACAD_REACTORS
330
2CB
102
}
330
2CB
100
AcDbXrecord
280
     1
102
RTVSPropertyOp0
 70
     1
102
RTVSPropertyOp1
 70
     1
102
RTVSPropertyOp2
 70
     1
102
RTVSPropertyOp3
 70
     1
102
RTVSPropertyOp4
 70
     1
102
RTVSPropertyOp5
 70
     1
102
RTVSPropertyOp6
 70
     1
102
RTVSPropertyOp7
 70
     1
102
RTVSPropertyOp8
 70
     1
102
RTVSPropertyOp9
 70
     1
102
RTVSPropertyOp10
 70
     1
102
RTVSPropertyOp11
 70
     1
102
RTVSPropertyOp12
 70
     1
102
RTVSPropertyOp13
 70
     1
102
RTVSPropertyOp14
 70
     1
102
RTVSPropertyOp15
 70
     1
102
RTVSPropertyOp16
 70
     1
102
RTVSPropertyOp17
 70
     1
102
RTVSPropertyOp18
 70
     1
102
RTVSPropertyOp19
 70
     1
102
RTVSPropertyOp20
 70
     1
102
RTVSPropertyOp21
 70
     1
102
RTVSPropertyOp22
 70
     1
102
RTVSPropertyOp23
 70
     1
102
RTVSPropertyOp24
 70
     1
102
RTVSPropertyOp25
 70
     1
102
RTVSPropertyOp26
 70
     1
102
RTVSPropertyOp27
 70
     1
102
RTVSPropertyOp28
 70
     1
102
RTVSPropertyOp29
 70
     1
102
RTVSPropertyOp30
 70
     1
102
RTVSPropertyOp31
 70
     1
102
RTVSPropertyOp32
 70
     1
102
RTVSPropertyOp33
 70
     1
102
RTVSPropertyOp34
 70
     1
102
RTVSPropertyOp35
 70
     1
102
RTVSPropertyOp36
 70
     1
102
RTVSPropertyOp37
 70
     1
102
RTVSPropertyOp38
 70
     1
102
RTVSPropertyOp39
 70
     1
102
RTVSPropertyOp40
 70
     1
102
RTVSPropertyOp41
 70
     1
102
RTVSPropertyOp42
 70
     1
102
RTVSPropertyOp43
 70
     1
102
RTVSPropertyOp44
 70
     1
102
RTVSPropertyOp45
 70
     1
102
RTVSPropertyOp46
 70
     1
102
RTVSPropertyOp47
 70
     1
102
RTVSPropertyOp48
 70
     1
102
RTVSPropertyOp49
 70
     1
102
RTVSPropertyOp50
 70
     1
102
RTVSPropertyOp51
 70
     0
102
RTVSPropertyOp52
 70
     0
102
RTVSPropertyOp53
 70
     1
102
RTVSPropertyOp54
 70
     1
102
RTVSPropertyOp55
 70
     1
102
RTVSPropertyOp56
 70
     1
102
RTVSPropertyOp57
 70
     1
102
RTVSPost2010Prop28
280
     1
102
RTVSPost2010PropOp28
 70
     1
102
RTVSPost2010Prop29
280
     1
102
RTVSPost2010PropOp29
 70
     1
102
RTVSPost2010Prop30
280
     0
102
RTVSPost2010PropOp30
 70
     1
102
RTVSPost2010Prop31
280
     0
102
RTVSPost2010PropOp31
 70
     1
102
RTVSPost2010Prop32
280
     0
102
RTVSPost2010PropOp32
 70
     1
102
RTVSPost2010Prop33
280
     0
102
RTVSPost2010PropOp33
 70
     1
102
RTVSPost2010Prop34
280
     0
102
RTVSPost2010PropOp34
 70
     1
102
RTVSPost2010Prop35
280
     0
102
RTVSPost2010PropOp35
 70
     1
102
RTVSPost2010Prop36
280
     0
102
RTVSPost2010PropOp36
 70
     1
102
RTVSPost2010Prop37
 90
       50
102
RTVSPost2010PropOp37
 70
     1
102
RTVSPost2010Prop38
140
0.0
102
RTVSPost2010PropOp38
 70
     1
102
RTVSPost2010Prop39
140
1.0
102
RTVSPost2010PropOp39
 70
     1
102
RTVSPost2010Prop40
 90
        0
102
RTVSPost2010PropOp40
 70
     1
102
RTVSPost2010Prop41ColorIndex
 90
       18
102
RTVSPost2010Prop41ColorRGB
 90
        0
102
RTVSPost2010PropOp41
 70
     1
102
RTVSPost2010Prop42
 90
       50
102
RTVSPost2010PropOp42
 70
     1
102
RTVSPost2010Prop43
 90
        3
102
RTVSPost2010PropOp43
 70
     1
102
RTVSPost2010Prop44ColorIndex
 90
        5
102
RTVSPost2010Prop44ColorRGB
 90
      255
102
RTVSPost2010PropOp44
 70
     1
102
RTVSPost2010Prop45
280
     0
102
RTVSPost2010PropOp45
 70
     1
102
RTVSPost2010Prop46
 90
       50
102
RTVSPost2010PropOp46
 70
     1
102
RTVSPost2010Prop47
 90
       50
102
RTVSPost2010PropOp47
 70
     1
102
RTVSPost2010Prop48
 90
       50
102
RTVSPost2010PropOp48
 70
     1
102
RTVSPost2010Prop49
280
     0
102
RTVSPost2010PropOp49
 70
     1
102
RTVSPost2010Prop50
 90
       50
102
RTVSPost2010PropOp50
 70
     1
102
RTVSPost2010Prop51ColorIndex
 90
      256
102
RTVSPost2010Prop51ColorRGB
 90
-16777216
102
RTVSPost2010PropOp51
 70
     0
102
RTVSPost2010Prop52
140
1.0
102
RTVSPost2010PropOp52
 70
     0
102
RTVSPost2010Prop53
 90
        2
102
RTVSPost2010PropOp53
 70
     1
102
RTVSPost2010Prop54
  1
strokes_ogs.tif
102
RTVSPost2010PropOp54
 70
     1
102
RTVSPost2010Prop55
280
     0
102
RTVSPost2010PropOp55
 70
     1
102
RTVSPost2010Prop56
140
1.0
102
RTVSPost2010PropOp56
 70
     1
102
RTVSPost2010Prop57
140
1.0
102
RTVSPost2010PropOp57
 70
     1
  0
XRECORD
  5
2D2
102
{ACAD_REACTORS
330
2D1
102
}
330
2D1
100
AcDbXrecord
280
     1
102
RTVSPropertyOp0
 70
     1
102
RTVSPropertyOp1
 70
     1
102
RTVSPropertyOp2
 70
     1
102
RTVSPropertyOp3
 70
     1
102
RTVSPropertyOp4
 70
     1
102
RTVSPropertyOp5
 70
     1
102
RTVSPropertyOp6
 70
     1
102
RTVSPropertyOp7
 70
     1
102
RTVSPropertyOp8
 70
     1
102
RTVSPropertyOp9
 70
     1
102
RTVSPropertyOp10
 70
     1
102
RTVSPropertyOp11
 70
     1
102
RTVSPropertyOp12
 70
     1
102
RTVSPropertyOp13
 70
     1
102
RTVSPropertyOp14
 70
     1
102
RTVSPropertyOp15
 70
     1
102
RTVSPropertyOp16
 70
     1
102
RTVSPropertyOp17
 70
     1
102
RTVSPropertyOp18
 70
     1
102
RTVSPropertyOp19
 70
     1
102
RTVSPropertyOp20
 70
     1
102
RTVSPropertyOp21
 70
     1
102
RTVSPropertyOp22
 70
     1
102
RTVSPropertyOp23
 70
     1
102
RTVSPropertyOp24
 70
     1
102
RTVSPropertyOp25
 70
     1
102
RTVSPropertyOp26
 70
     1
102
RTVSPropertyOp27
 70
     1
102
RTVSPropertyOp28
 70
     1
102
RTVSPropertyOp29
 70
     1
102
RTVSPropertyOp30
 70
     1
102
RTVSPropertyOp31
 70
     1
102
RTVSPropertyOp32
 70
     1
102
RTVSPropertyOp33
 70
     1
102
RTVSPropertyOp34
 70
     1
102
RTVSPropertyOp35
 70
     1
102
RTVSPropertyOp36
 70
     1
102
RTVSPropertyOp37
 70
     1
102
RTVSPropertyOp38
 70
     1
102
RTVSPropertyOp39
 70
     1
102
RTVSPropertyOp40
 70
     1
102
RTVSPropertyOp41
 70
     1
102
RTVSPropertyOp42
 70
     1
102
RTVSPropertyOp43
 70
     1
102
RTVSPropertyOp44
 70
     1
102
RTVSPropertyOp45
 70
     1
102
RTVSPropertyOp46
 70
     1
102
RTVSPropertyOp47
 70
     1
102
RTVSPropertyOp48
 70
     1
102
RTVSPropertyOp49
 70
     1
102
RTVSPropertyOp50
 70
     1
102
RTVSPropertyOp51
 70
     0
102
RTVSPropertyOp52
 70
     0
102
RTVSPropertyOp53
 70
     1
102
RTVSPropertyOp54
 70
     1
102
RTVSPropertyOp55
 70
     1
102
RTVSPropertyOp56
 70
     1
102
RTVSPropertyOp57
 70
     1
102
RTVSPost2010Prop28
280
     0
102
RTVSPost2010PropOp28
 70
     1
102
RTVSPost2010Prop29
280
     1
102
RTVSPost2010PropOp29
 70
     1
102
RTVSPost2010Prop30
280
     1
102
RTVSPost2010PropOp30
 70
     1
102
RTVSPost2010Prop31
280
     0
102
RTVSPost2010PropOp31
 70
     1
102
RTVSPost2010Prop32
280
     0
102
RTVSPost2010PropOp32
 70
     1
102
RTVSPost2010Prop33
280
     0
102
RTVSPost2010PropOp33
 70
     1
102
RTVSPost2010Prop34
280
     0
102
RTVSPost2010PropOp34
 70
     1
102
RTVSPost2010Prop35
280
     0
102
RTVSPost2010PropOp35
 70
     1
102
RTVSPost2010Prop36
280
     0
102
RTVSPost2010PropOp36
 70
     1
102
RTVSPost2010Prop37
 90
       50
102
RTVSPost2010PropOp37
 70
     1
102
RTVSPost2010Prop38
140
0.0
102
RTVSPost2010PropOp38
 70
     1
102
RTVSPost2010Prop39
140
1.0
102
RTVSPost2010PropOp39
 70
     1
102
RTVSPost2010Prop40
 90
        0
102
RTVSPost2010PropOp40
 70
     1
102
RTVSPost2010Prop41ColorIndex
 90
       18
102
RTVSPost2010Prop41ColorRGB
 90
        0
102
RTVSPost2010PropOp41
 70
     1
102
RTVSPost2010Prop42
 90
       50
102
RTVSPost2010PropOp42
 70
     1
102
RTVSPost2010Prop43
 90
        3
102
RTVSPost2010PropOp43
 70
     1
102
RTVSPost2010Prop44ColorIndex
 90
        5
102
RTVSPost2010Prop44ColorRGB
 90
      255
102
RTVSPost2010PropOp44
 70
     1
102
RTVSPost2010Prop45
280
     0
102
RTVSPost2010PropOp45
 70
     1
102
RTVSPost2010Prop46
 90
       50
102
RTVSPost2010PropOp46
 70
     1
102
RTVSPost2010Prop47
 90
       50
102
RTVSPost2010PropOp47
 70
     1
102
RTVSPost2010Prop48
 90
       50
102
RTVSPost2010PropOp48
 70
     1
102
RTVSPost2010Prop49
280
     0
102
RTVSPost2010PropOp49
 70
     1
102
RTVSPost2010Prop50
 90
       50
102
RTVSPost2010PropOp50
 70
     1
102
RTVSPost2010Prop51ColorIndex
 90
      256
102
RTVSPost2010Prop51ColorRGB
 90
-16777216
102
RTVSPost2010PropOp51
 70
     0
102
RTVSPost2010Prop52
140
1.0
102
RTVSPost2010PropOp52
 70
     0
102
RTVSPost2010Prop53
 90
        2
102
RTVSPost2010PropOp53
 70
     1
102
RTVSPost2010Prop54
  1
strokes_ogs.tif
102
RTVSPost2010PropOp54
 70
     1
102
RTVSPost2010Prop55
280
     0
102
RTVSPost2010PropOp55
 70
     1
102
RTVSPost2010Prop56
140
1.0
102
RTVSPost2010PropOp56
 70
     1
102
RTVSPost2010Prop57
140
1.0
102
RTVSPost2010PropOp57
 70
     1
  0
XRECORD
  5
2DA
102
{ACAD_REACTORS
330
2D9
102
}
330
2D9
100
AcDbXrecord
280
     1
102
RTVSPropertyOp0
 70
     1
102
RTVSPropertyOp1
 70
     1
102
RTVSPropertyOp2
 70
     1
102
RTVSPropertyOp3
 70
     1
102
RTVSPropertyOp4
 70
     1
102
RTVSPropertyOp5
 70
     1
102
RTVSPropertyOp6
 70
     1
102
RTVSPropertyOp7
 70
     1
102
RTVSPropertyOp8
 70
     1
102
RTVSPropertyOp9
 70
     1
102
RTVSPropertyOp10
 70
     1
102
RTVSPropertyOp11
 70
     1
102
RTVSPropertyOp12
 70
     1
102
RTVSPropertyOp13
 70
     1
102
RTVSPropertyOp14
 70
     1
102
RTVSPropertyOp15
 70
     1
102
RTVSPropertyOp16
 70
     1
102
RTVSPropertyOp17
 70
     1
102
RTVSPropertyOp18
 70
     1
102
RTVSPropertyOp19
 70
     1
102
RTVSPropertyOp20
 70
     1
102
RTVSPropertyOp21
 70
     1
102
RTVSPropertyOp22
 70
     1
102
RTVSPropertyOp23
 70
     1
102
RTVSPropertyOp24
 70
     1
102
RTVSPropertyOp25
 70
     1
102
RTVSPropertyOp26
 70
     1
102
RTVSPropertyOp27
 70
     1
102
RTVSPropertyOp28
 70
     1
102
RTVSPropertyOp29
 70
     1
102
RTVSPropertyOp30
 70
     1
102
RTVSPropertyOp31
 70
     1
102
RTVSPropertyOp32
 70
     1
102
RTVSPropertyOp33
 70
     1
102
RTVSPropertyOp34
 70
     1
102
RTVSPropertyOp35
 70
     1
102
RTVSPropertyOp36
 70
     1
102
RTVSPropertyOp37
 70
     1
102
RTVSPropertyOp38
 70
     1
102
RTVSPropertyOp39
 70
     1
102
RTVSPropertyOp40
 70
     1
102
RTVSPropertyOp41
 70
     1
102
RTVSPropertyOp42
 70
     1
102
RTVSPropertyOp43
 70
     1
102
RTVSPropertyOp44
 70
     1
102
RTVSPropertyOp45
 70
     1
102
RTVSPropertyOp46
 70
     1
102
RTVSPropertyOp47
 70
     1
102
RTVSPropertyOp48
 70
     1
102
RTVSPropertyOp49
 70
     1
102
RTVSPropertyOp50
 70
     1
102
RTVSPropertyOp51
 70
     0
102
RTVSPropertyOp52
 70
     0
102
RTVSPropertyOp53
 70
     1
102
RTVSPropertyOp54
 70
     1
102
RTVSPropertyOp55
 70
     1
102
RTVSPropertyOp56
 70
     1
102
RTVSPropertyOp57
 70
     1
102
RTVSPost2010Prop28
280
     0
102
RTVSPost2010PropOp28
 70
     1
102
RTVSPost2010Prop29
280
     1
102
RTVSPost2010PropOp29
 70
     1
102
RTVSPost2010Prop30
280
     1
102
RTVSPost2010PropOp30
 70
     1
102
RTVSPost2010Prop31
280
     0
102
RTVSPost2010PropOp31
 70
     1
102
RTVSPost2010Prop32
280
     0
102
RTVSPost2010PropOp32
 70
     1
102
RTVSPost2010Prop33
280
     0
102
RTVSPost2010PropOp33
 70
     1
102
RTVSPost2010Prop34
280
     0
102
RTVSPost2010PropOp34
 70
     1
102
RTVSPost2010Prop35
280
     0
102
RTVSPost2010PropOp35
 70
     1
102
RTVSPost2010Prop36
280
     0
102
RTVSPost2010PropOp36
 70
     1
102
RTVSPost2010Prop37
 90
       50
102
RTVSPost2010PropOp37
 70
     1
102
RTVSPost2010Prop38
140
0.0
102
RTVSPost2010PropOp38
 70
     1
102
RTVSPost2010Prop39
140
1.0
102
RTVSPost2010PropOp39
 70
     1
102
RTVSPost2010Prop40
 90
        0
102
RTVSPost2010PropOp40
 70
     1
102
RTVSPost2010Prop41ColorIndex
 90
       18
102
RTVSPost2010Prop41ColorRGB
 90
        0
102
RTVSPost2010PropOp41
 70
     1
102
RTVSPost2010Prop42
 90
       50
102
RTVSPost2010PropOp42
 70
     1
102
RTVSPost2010Prop43
 90
        3
102
RTVSPost2010PropOp43
 70
     1
102
RTVSPost2010Prop44ColorIndex
 90
        5
102
RTVSPost2010Prop44ColorRGB
 90
      255
102
RTVSPost2010PropOp44
 70
     1
102
RTVSPost2010Prop45
280
     0
102
RTVSPost2010PropOp45
 70
     1
102
RTVSPost2010Prop46
 90
       50
102
RTVSPost2010PropOp46
 70
     1
102
RTVSPost2010Prop47
 90
       50
102
RTVSPost2010PropOp47
 70
     1
102
RTVSPost2010Prop48
 90
       50
102
RTVSPost2010PropOp48
 70
     1
102
RTVSPost2010Prop49
280
     0
102
RTVSPost2010PropOp49
 70
     1
102
RTVSPost2010Prop50
 90
       50
102
RTVSPost2010PropOp50
 70
     1
102
RTVSPost2010Prop51ColorIndex
 90
      256
102
RTVSPost2010Prop51ColorRGB
 90
-16777216
102
RTVSPost2010PropOp51
 70
     0
102
RTVSPost2010Prop52
140
1.0
102
RTVSPost2010PropOp52
 70
     0
102
RTVSPost2010Prop53
 90
        2
102
RTVSPost2010PropOp53
 70
     1
102
RTVSPost2010Prop54
  1
strokes_ogs.tif
102
RTVSPost2010PropOp54
 70
     1
102
RTVSPost2010Prop55
280
     0
102
RTVSPost2010PropOp55
 70
     1
102
RTVSPost2010Prop56
140
1.0
102
RTVSPost2010PropOp56
 70
     1
102
RTVSPost2010Prop57
140
1.0
102
RTVSPost2010PropOp57
 70
     1
  0
XRECORD
  5
2E2
102
{ACAD_REACTORS
330
2E1
102
}
330
2E1
100
AcDbXrecord
280
     1
102
RTVSPropertyOp0
 70
     1
102
RTVSPropertyOp1
 70
     1
102
RTVSPropertyOp2
 70
     1
102
RTVSPropertyOp3
 70
     1
102
RTVSPropertyOp4
 70
     1
102
RTVSPropertyOp5
 70
     1
102
RTVSPropertyOp6
 70
     1
102
RTVSPropertyOp7
 70
     1
102
RTVSPropertyOp8
 70
     1
102
RTVSPropertyOp9
 70
     1
102
RTVSPropertyOp10
 70
     1
102
RTVSPropertyOp11
 70
     1
102
RTVSPropertyOp12
 70
     1
102
RTVSPropertyOp13
 70
     1
102
RTVSPropertyOp14
 70
     1
102
RTVSPropertyOp15
 70
     1
102
RTVSPropertyOp16
 70
     1
102
RTVSPropertyOp17
 70
     1
102
RTVSPropertyOp18
 70
     1
102
RTVSPropertyOp19
 70
     1
102
RTVSPropertyOp20
 70
     1
102
RTVSPropertyOp21
 70
     1
102
RTVSPropertyOp22
 70
     1
102
RTVSPropertyOp23
 70
     1
102
RTVSPropertyOp24
 70
     1
102
RTVSPropertyOp25
 70
     1
102
RTVSPropertyOp26
 70
     1
102
RTVSPropertyOp27
 70
     1
102
RTVSPropertyOp28
 70
     1
102
RTVSPropertyOp29
 70
     1
102
RTVSPropertyOp30
 70
     1
102
RTVSPropertyOp31
 70
     1
102
RTVSPropertyOp32
 70
     1
102
RTVSPropertyOp33
 70
     1
102
RTVSPropertyOp34
 70
     1
102
RTVSPropertyOp35
 70
     1
102
RTVSPropertyOp36
 70
     1
102
RTVSPropertyOp37
 70
     1
102
RTVSPropertyOp38
 70
     1
102
RTVSPropertyOp39
 70
     1
102
RTVSPropertyOp40
 70
     1
102
RTVSPropertyOp41
 70
     1
102
RTVSPropertyOp42
 70
     1
102
RTVSPropertyOp43
 70
     1
102
RTVSPropertyOp44
 70
     1
102
RTVSPropertyOp45
 70
     1
102
RTVSPropertyOp46
 70
     1
102
RTVSPropertyOp47
 70
     1
102
RTVSPropertyOp48
 70
     1
102
RTVSPropertyOp49
 70
     1
102
RTVSPropertyOp50
 70
     1
102
RTVSPropertyOp51
 70
     0
102
RTVSPropertyOp52
 70
     0
102
RTVSPropertyOp53
 70
     1
102
RTVSPropertyOp54
 70
     1
102
RTVSPropertyOp55
 70
     1
102
RTVSPropertyOp56
 70
     1
102
RTVSPropertyOp57
 70
     1
102
RTVSPost2010Prop28
280
     0
102
RTVSPost2010PropOp28
 70
     1
102
RTVSPost2010Prop29
280
     1
102
RTVSPost2010PropOp29
 70
     1
102
RTVSPost2010Prop30
280
     1
102
RTVSPost2010PropOp30
 70
     1
102
RTVSPost2010Prop31
280
     0
102
RTVSPost2010PropOp31
 70
     1
102
RTVSPost2010Prop32
280
     0
102
RTVSPost2010PropOp32
 70
     1
102
RTVSPost2010Prop33
280
     0
102
RTVSPost2010PropOp33
 70
     1
102
RTVSPost2010Prop34
280
     0
102
RTVSPost2010PropOp34
 70
     1
102
RTVSPost2010Prop35
280
     0
102
RTVSPost2010PropOp35
 70
     1
102
RTVSPost2010Prop36
280
     0
102
RTVSPost2010PropOp36
 70
     1
102
RTVSPost2010Prop37
 90
       50
102
RTVSPost2010PropOp37
 70
     1
102
RTVSPost2010Prop38
140
0.0
102
RTVSPost2010PropOp38
 70
     1
102
RTVSPost2010Prop39
140
1.0
102
RTVSPost2010PropOp39
 70
     1
102
RTVSPost2010Prop40
 90
        0
102
RTVSPost2010PropOp40
 70
     1
102
RTVSPost2010Prop41ColorIndex
 90
       18
102
RTVSPost2010Prop41ColorRGB
 90
        0
102
RTVSPost2010PropOp41
 70
     1
102
RTVSPost2010Prop42
 90
       50
102
RTVSPost2010PropOp42
 70
     1
102
RTVSPost2010Prop43
 90
        3
102
RTVSPost2010PropOp43
 70
     1
102
RTVSPost2010Prop44ColorIndex
 90
        5
102
RTVSPost2010Prop44ColorRGB
 90
      255
102
RTVSPost2010PropOp44
 70
     1
102
RTVSPost2010Prop45
280
     0
102
RTVSPost2010PropOp45
 70
     1
102
RTVSPost2010Prop46
 90
       50
102
RTVSPost2010PropOp46
 70
     1
102
RTVSPost2010Prop47
 90
       50
102
RTVSPost2010PropOp47
 70
     1
102
RTVSPost2010Prop48
 90
       50
102
RTVSPost2010PropOp48
 70
     1
102
RTVSPost2010Prop49
280
     0
102
RTVSPost2010PropOp49
 70
     1
102
RTVSPost2010Prop50
 90
       50
102
RTVSPost2010PropOp50
 70
     1
102
RTVSPost2010Prop51ColorIndex
 90
      256
102
RTVSPost2010Prop51ColorRGB
 90
-16777216
102
RTVSPost2010PropOp51
 70
     0
102
RTVSPost2010Prop52
140
1.0
102
RTVSPost2010PropOp52
 70
     0
102
RTVSPost2010Prop53
 90
        2
102
RTVSPost2010PropOp53
 70
     1
102
RTVSPost2010Prop54
  1
strokes_ogs.tif
102
RTVSPost2010PropOp54
 70
     1
102
RTVSPost2010Prop55
280
     0
102
RTVSPost2010PropOp55
 70
     1
102
RTVSPost2010Prop56
140
1.0
102
RTVSPost2010PropOp56
 70
     1
102
RTVSPost2010Prop57
140
1.0
102
RTVSPost2010PropOp57
 70
     1
  0
XRECORD
  5
2D6
102
{ACAD_REACTORS
330
2D5
102
}
330
2D5
100
AcDbXrecord
280
     1
102
RTVSPropertyOp0
 70
     1
102
RTVSPropertyOp1
 70
     1
102
RTVSPropertyOp2
 70
     1
102
RTVSPropertyOp3
 70
     1
102
RTVSPropertyOp4
 70
     1
102
RTVSPropertyOp5
 70
     1
102
RTVSPropertyOp6
 70
     1
102
RTVSPropertyOp7
 70
     1
102
RTVSPropertyOp8
 70
     1
102
RTVSPropertyOp9
 70
     1
102
RTVSPropertyOp10
 70
     1
102
RTVSPropertyOp11
 70
     1
102
RTVSPropertyOp12
 70
     1
102
RTVSPropertyOp13
 70
     1
102
RTVSPropertyOp14
 70
     1
102
RTVSPropertyOp15
 70
     1
102
RTVSPropertyOp16
 70
     1
102
RTVSPropertyOp17
 70
     1
102
RTVSPropertyOp18
 70
     1
102
RTVSPropertyOp19
 70
     1
102
RTVSPropertyOp20
 70
     1
102
RTVSPropertyOp21
 70
     1
102
RTVSPropertyOp22
 70
     1
102
RTVSPropertyOp23
 70
     1
102
RTVSPropertyOp24
 70
     1
102
RTVSPropertyOp25
 70
     1
102
RTVSPropertyOp26
 70
     1
102
RTVSPropertyOp27
 70
     1
102
RTVSPropertyOp28
 70
     1
102
RTVSPropertyOp29
 70
     1
102
RTVSPropertyOp30
 70
     1
102
RTVSPropertyOp31
 70
     1
102
RTVSPropertyOp32
 70
     1
102
RTVSPropertyOp33
 70
     1
102
RTVSPropertyOp34
 70
     1
102
RTVSPropertyOp35
 70
     1
102
RTVSPropertyOp36
 70
     1
102
RTVSPropertyOp37
 70
     1
102
RTVSPropertyOp38
 70
     1
102
RTVSPropertyOp39
 70
     1
102
RTVSPropertyOp40
 70
     1
102
RTVSPropertyOp41
 70
     1
102
RTVSPropertyOp42
 70
     1
102
RTVSPropertyOp43
 70
     1
102
RTVSPropertyOp44
 70
     1
102
RTVSPropertyOp45
 70
     1
102
RTVSPropertyOp46
 70
     1
102
RTVSPropertyOp47
 70
     1
102
RTVSPropertyOp48
 70
     1
102
RTVSPropertyOp49
 70
     1
102
RTVSPropertyOp50
 70
     1
102
RTVSPropertyOp51
 70
     0
102
RTVSPropertyOp52
 70
     0
102
RTVSPropertyOp53
 70
     1
102
RTVSPropertyOp54
 70
     1
102
RTVSPropertyOp55
 70
     1
102
RTVSPropertyOp56
 70
     1
102
RTVSPropertyOp57
 70
     1
102
RTVSPost2010Prop28
280
     0
102
RTVSPost2010PropOp28
 70
     1
102
RTVSPost2010Prop29
280
     1
102
RTVSPost2010PropOp29
 70
     1
102
RTVSPost2010Prop30
280
     1
102
RTVSPost2010PropOp30
 70
     1
102
RTVSPost2010Prop31
280
     0
102
RTVSPost2010PropOp31
 70
     1
102
RTVSPost2010Prop32
280
     0
102
RTVSPost2010PropOp32
 70
     1
102
RTVSPost2010Prop33
280
     0
102
RTVSPost2010PropOp33
 70
     1
102
RTVSPost2010Prop34
280
     0
102
RTVSPost2010PropOp34
 70
     1
102
RTVSPost2010Prop35
280
     0
102
RTVSPost2010PropOp35
 70
     1
102
RTVSPost2010Prop36
280
     0
102
RTVSPost2010PropOp36
 70
     1
102
RTVSPost2010Prop37
 90
       50
102
RTVSPost2010PropOp37
 70
     1
102
RTVSPost2010Prop38
140
0.0
102
RTVSPost2010PropOp38
 70
     1
102
RTVSPost2010Prop39
140
1.0
102
RTVSPost2010PropOp39
 70
     1
102
RTVSPost2010Prop40
 90
        0
102
RTVSPost2010PropOp40
 70
     1
102
RTVSPost2010Prop41ColorIndex
 90
       18
102
RTVSPost2010Prop41ColorRGB
 90
        0
102
RTVSPost2010PropOp41
 70
     1
102
RTVSPost2010Prop42
 90
       50
102
RTVSPost2010PropOp42
 70
     1
102
RTVSPost2010Prop43
 90
        3
102
RTVSPost2010PropOp43
 70
     1
102
RTVSPost2010Prop44ColorIndex
 90
        5
102
RTVSPost2010Prop44ColorRGB
 90
      255
102
RTVSPost2010PropOp44
 70
     1
102
RTVSPost2010Prop45
280
     0
102
RTVSPost2010PropOp45
 70
     1
102
RTVSPost2010Prop46
 90
       50
102
RTVSPost2010PropOp46
 70
     1
102
RTVSPost2010Prop47
 90
       50
102
RTVSPost2010PropOp47
 70
     1
102
RTVSPost2010Prop48
 90
       50
102
RTVSPost2010PropOp48
 70
     1
102
RTVSPost2010Prop49
280
     0
102
RTVSPost2010PropOp49
 70
     1
102
RTVSPost2010Prop50
 90
       50
102
RTVSPost2010PropOp50
 70
     1
102
RTVSPost2010Prop51ColorIndex
 90
      256
102
RTVSPost2010Prop51ColorRGB
 90
-16777216
102
RTVSPost2010PropOp51
 70
     0
102
RTVSPost2010Prop52
140
1.0
102
RTVSPost2010PropOp52
 70
     0
102
RTVSPost2010Prop53
 90
        2
102
RTVSPost2010PropOp53
 70
     1
102
RTVSPost2010Prop54
  1
strokes_ogs.tif
102
RTVSPost2010PropOp54
 70
     1
102
RTVSPost2010Prop55
280
     0
102
RTVSPost2010PropOp55
 70
     1
102
RTVSPost2010Prop56
140
1.0
102
RTVSPost2010PropOp56
 70
     1
102
RTVSPost2010Prop57
140
1.0
102
RTVSPost2010PropOp57
 70
     1
  0
XRECORD
  5
2D8
102
{ACAD_REACTORS
330
2D7
102
}
330
2D7
100
AcDbXrecord
280
     1
102
RTVSPropertyOp0
 70
     1
102
RTVSPropertyOp1
 70
     1
102
RTVSPropertyOp2
 70
     1
102
RTVSPropertyOp3
 70
     1
102
RTVSPropertyOp4
 70
     1
102
RTVSPropertyOp5
 70
     1
102
RTVSPropertyOp6
 70
     1
102
RTVSPropertyOp7
 70
     1
102
RTVSPropertyOp8
 70
     1
102
RTVSPropertyOp9
 70
     1
102
RTVSPropertyOp10
 70
     1
102
RTVSPropertyOp11
 70
     1
102
RTVSPropertyOp12
 70
     1
102
RTVSPropertyOp13
 70
     1
102
RTVSPropertyOp14
 70
     1
102
RTVSPropertyOp15
 70
     1
102
RTVSPropertyOp16
 70
     1
102
RTVSPropertyOp17
 70
     1
102
RTVSPropertyOp18
 70
     1
102
RTVSPropertyOp19
 70
     1
102
RTVSPropertyOp20
 70
     1
102
RTVSPropertyOp21
 70
     1
102
RTVSPropertyOp22
 70
     1
102
RTVSPropertyOp23
 70
     1
102
RTVSPropertyOp24
 70
     1
102
RTVSPropertyOp25
 70
     1
102
RTVSPropertyOp26
 70
     1
102
RTVSPropertyOp27
 70
     1
102
RTVSPropertyOp28
 70
     1
102
RTVSPropertyOp29
 70
     1
102
RTVSPropertyOp30
 70
     1
102
RTVSPropertyOp31
 70
     1
102
RTVSPropertyOp32
 70
     1
102
RTVSPropertyOp33
 70
     1
102
RTVSPropertyOp34
 70
     1
102
RTVSPropertyOp35
 70
     1
102
RTVSPropertyOp36
 70
     1
102
RTVSPropertyOp37
 70
     1
102
RTVSPropertyOp38
 70
     1
102
RTVSPropertyOp39
 70
     1
102
RTVSPropertyOp40
 70
     1
102
RTVSPropertyOp41
 70
     1
102
RTVSPropertyOp42
 70
     1
102
RTVSPropertyOp43
 70
     1
102
RTVSPropertyOp44
 70
     1
102
RTVSPropertyOp45
 70
     1
102
RTVSPropertyOp46
 70
     1
102
RTVSPropertyOp47
 70
     1
102
RTVSPropertyOp48
 70
     1
102
RTVSPropertyOp49
 70
     1
102
RTVSPropertyOp50
 70
     1
102
RTVSPropertyOp51
 70
     0
102
RTVSPropertyOp52
 70
     0
102
RTVSPropertyOp53
 70
     1
102
RTVSPropertyOp54
 70
     1
102
RTVSPropertyOp55
 70
     1
102
RTVSPropertyOp56
 70
     1
102
RTVSPropertyOp57
 70
     1
102
RTVSPost2010Prop28
280
     0
102
RTVSPost2010PropOp28
 70
     1
102
RTVSPost2010Prop29
280
     1
102
RTVSPost2010PropOp29
 70
     1
102
RTVSPost2010Prop30
280
     1
102
RTVSPost2010PropOp30
 70
     1
102
RTVSPost2010Prop31
280
     0
102
RTVSPost2010PropOp31
 70
     1
102
RTVSPost2010Prop32
280
     0
102
RTVSPost2010PropOp32
 70
     1
102
RTVSPost2010Prop33
280
     0
102
RTVSPost2010PropOp33
 70
     1
102
RTVSPost2010Prop34
280
     0
102
RTVSPost2010PropOp34
 70
     1
102
RTVSPost2010Prop35
280
     0
102
RTVSPost2010PropOp35
 70
     1
102
RTVSPost2010Prop36
280
     0
102
RTVSPost2010PropOp36
 70
     1
102
RTVSPost2010Prop37
 90
       50
102
RTVSPost2010PropOp37
 70
     1
102
RTVSPost2010Prop38
140
0.0
102
RTVSPost2010PropOp38
 70
     1
102
RTVSPost2010Prop39
140
1.0
102
RTVSPost2010PropOp39
 70
     1
102
RTVSPost2010Prop40
 90
        0
102
RTVSPost2010PropOp40
 70
     1
102
RTVSPost2010Prop41ColorIndex
 90
       18
102
RTVSPost2010Prop41ColorRGB
 90
        0
102
RTVSPost2010PropOp41
 70
     1
102
RTVSPost2010Prop42
 90
       50
102
RTVSPost2010PropOp42
 70
     1
102
RTVSPost2010Prop43
 90
        3
102
RTVSPost2010PropOp43
 70
     1
102
RTVSPost2010Prop44ColorIndex
 90
        5
102
RTVSPost2010Prop44ColorRGB
 90
      255
102
RTVSPost2010PropOp44
 70
     1
102
RTVSPost2010Prop45
280
     0
102
RTVSPost2010PropOp45
 70
     1
102
RTVSPost2010Prop46
 90
       50
102
RTVSPost2010PropOp46
 70
     1
102
RTVSPost2010Prop47
 90
       50
102
RTVSPost2010PropOp47
 70
     1
102
RTVSPost2010Prop48
 90
       50
102
RTVSPost2010PropOp48
 70
     1
102
RTVSPost2010Prop49
280
     0
102
RTVSPost2010PropOp49
 70
     1
102
RTVSPost2010Prop50
 90
       50
102
RTVSPost2010PropOp50
 70
     1
102
RTVSPost2010Prop51ColorIndex
 90
      256
102
RTVSPost2010Prop51ColorRGB
 90
-16777216
102
RTVSPost2010PropOp51
 70
     0
102
RTVSPost2010Prop52
140
1.0
102
RTVSPost2010PropOp52
 70
     0
102
RTVSPost2010Prop53
 90
        2
102
RTVSPost2010PropOp53
 70
     1
102
RTVSPost2010Prop54
  1
strokes_ogs.tif
102
RTVSPost2010PropOp54
 70
     1
102
RTVSPost2010Prop55
280
     0
102
RTVSPost2010PropOp55
 70
     1
102
RTVSPost2010Prop56
140
1.0
102
RTVSPost2010PropOp56
 70
     1
102
RTVSPost2010Prop57
140
1.0
102
RTVSPost2010PropOp57
 70
     1
  0
XRECORD
  5
2E8
102
{ACAD_REACTORS
330
2E7
102
}
330
2E7
100
AcDbXrecord
280
     1
102
RTVSPropertyOp0
 70
     0
102
RTVSPropertyOp1
 70
     0
102
RTVSPropertyOp2
 70
     0
102
RTVSPropertyOp3
 70
     0
102
RTVSPropertyOp4
 70
     0
102
RTVSPropertyOp5
 70
     0
102
RTVSPropertyOp6
 70
     0
102
RTVSPropertyOp7
 70
     0
102
RTVSPropertyOp8
 70
     0
102
RTVSPropertyOp9
 70
     0
102
RTVSPropertyOp10
 70
     0
102
RTVSPropertyOp11
 70
     0
102
RTVSPropertyOp12
 70
     0
102
RTVSPropertyOp13
 70
     0
102
RTVSPropertyOp14
 70
     2
102
RTVSPropertyOp15
 70
     0
102
RTVSPropertyOp16
 70
     0
102
RTVSPropertyOp17
 70
     0
102
RTVSPropertyOp18
 70
     0
102
RTVSPropertyOp19
 70
     0
102
RTVSPropertyOp20
 70
     0
102
RTVSPropertyOp21
 70
     0
102
RTVSPropertyOp22
 70
     0
102
RTVSPropertyOp23
 70
     0
102
RTVSPropertyOp24
 70
     0
102
RTVSPropertyOp25
 70
     0
102
RTVSPropertyOp26
 70
     0
102
RTVSPropertyOp27
 70
     0
102
RTVSPropertyOp28
 70
     0
102
RTVSPropertyOp29
 70
     0
102
RTVSPropertyOp30
 70
     0
102
RTVSPropertyOp31
 70
     0
102
RTVSPropertyOp32
 70
     0
102
RTVSPropertyOp33
 70
     0
102
RTVSPropertyOp34
 70
     0
102
RTVSPropertyOp35
 70
     0
102
RTVSPropertyOp36
 70
     0
102
RTVSPropertyOp37
 70
     0
102
RTVSPropertyOp38
 70
     0
102
RTVSPropertyOp39
 70
     0
102
RTVSPropertyOp40
 70
     0
102
RTVSPropertyOp41
 70
     0
102
RTVSPropertyOp42
 70
     0
102
RTVSPropertyOp43
 70
     0
102
RTVSPropertyOp44
 70
     0
102
RTVSPropertyOp45
 70
     0
102
RTVSPropertyOp46
 70
     0
102
RTVSPropertyOp47
 70
     0
102
RTVSPropertyOp48
 70
     0
102
RTVSPropertyOp49
 70
     0
102
RTVSPropertyOp50
 70
     0
102
RTVSPropertyOp51
 70
     0
102
RTVSPropertyOp52
 70
     0
102
RTVSPropertyOp53
 70
     0
102
RTVSPropertyOp54
 70
     0
102
RTVSPropertyOp55
 70
     0
102
RTVSPropertyOp56
 70
     0
102
RTVSPropertyOp57
 70
     0
102
RTVSPost2010Prop28
280
     0
102
RTVSPost2010PropOp28
 70
     0
102
RTVSPost2010Prop29
280
     1
102
RTVSPost2010PropOp29
 70
     0
102
RTVSPost2010Prop30
280
     1
102
RTVSPost2010PropOp30
 70
     0
102
RTVSPost2010Prop31
280
     0
102
RTVSPost2010PropOp31
 70
     0
102
RTVSPost2010Prop32
280
     0
102
RTVSPost2010PropOp32
 70
     0
102
RTVSPost2010Prop33
280
     0
102
RTVSPost2010PropOp33
 70
     0
102
RTVSPost2010Prop34
280
     0
102
RTVSPost2010PropOp34
 70
     0
102
RTVSPost2010Prop35
280
     0
102
RTVSPost2010PropOp35
 70
     0
102
RTVSPost2010Prop36
280
     0
102
RTVSPost2010PropOp36
 70
     0
102
RTVSPost2010Prop37
 90
       50
102
RTVSPost2010PropOp37
 70
     0
102
RTVSPost2010Prop38
140
0.0
102
RTVSPost2010PropOp38
 70
     0
102
RTVSPost2010Prop39
140
1.0
102
RTVSPost2010PropOp39
 70
     0
102
RTVSPost2010Prop40
 90
        0
102
RTVSPost2010PropOp40
 70
     0
102
RTVSPost2010Prop41ColorIndex
 90
       18
102
RTVSPost2010Prop41ColorRGB
 90
        0
102
RTVSPost2010PropOp41
 70
     0
102
RTVSPost2010Prop42
 90
       50
102
RTVSPost2010PropOp42
 70
     0
102
RTVSPost2010Prop43
 90
        3
102
RTVSPost2010PropOp43
 70
     0
102
RTVSPost2010Prop44ColorIndex
 90
        5
102
RTVSPost2010Prop44ColorRGB
 90
      255
102
RTVSPost2010PropOp44
 70
     0
102
RTVSPost2010Prop45
280
     0
102
RTVSPost2010PropOp45
 70
     0
102
RTVSPost2010Prop46
 90
       50
102
RTVSPost2010PropOp46
 70
     0
102
RTVSPost2010Prop47
 90
       50
102
RTVSPost2010PropOp47
 70
     0
102
RTVSPost2010Prop48
 90
       50
102
RTVSPost2010PropOp48
 70
     0
102
RTVSPost2010Prop49
280
     0
102
RTVSPost2010PropOp49
 70
     0
102
RTVSPost2010Prop50
 90
       50
102
RTVSPost2010PropOp50
 70
     0
102
RTVSPost2010Prop51ColorIndex
 90
      256
102
RTVSPost2010Prop51ColorRGB
 90
-16777216
102
RTVSPost2010PropOp51
 70
     0
102
RTVSPost2010Prop52
140
1.0
102
RTVSPost2010PropOp52
 70
     0
102
RTVSPost2010Prop53
 90
        2
102
RTVSPost2010PropOp53
 70
     0
102
RTVSPost2010Prop54
  1
strokes_ogs.tif
102
RTVSPost2010PropOp54
 70
     0
102
RTVSPost2010Prop55
280
     0
102
RTVSPost2010PropOp55
 70
     0
102
RTVSPost2010Prop56
140
1.0
102
RTVSPost2010PropOp56
 70
     0
102
RTVSPost2010Prop57
140
1.0
102
RTVSPost2010PropOp57
 70
     0
  0
XRECORD
  5
2E0
102
{ACAD_REACTORS
330
2DF
102
}
330
2DF
100
AcDbXrecord
280
     1
102
RTVSPropertyOp0
 70
     1
102
RTVSPropertyOp1
 70
     1
102
RTVSPropertyOp2
 70
     1
102
RTVSPropertyOp3
 70
     1
102
RTVSPropertyOp4
 70
     1
102
RTVSPropertyOp5
 70
     1
102
RTVSPropertyOp6
 70
     1
102
RTVSPropertyOp7
 70
     1
102
RTVSPropertyOp8
 70
     1
102
RTVSPropertyOp9
 70
     1
102
RTVSPropertyOp10
 70
     1
102
RTVSPropertyOp11
 70
     1
102
RTVSPropertyOp12
 70
     1
102
RTVSPropertyOp13
 70
     1
102
RTVSPropertyOp14
 70
     1
102
RTVSPropertyOp15
 70
     1
102
RTVSPropertyOp16
 70
     1
102
RTVSPropertyOp17
 70
     1
102
RTVSPropertyOp18
 70
     1
102
RTVSPropertyOp19
 70
     1
102
RTVSPropertyOp20
 70
     1
102
RTVSPropertyOp21
 70
     1
102
RTVSPropertyOp22
 70
     1
102
RTVSPropertyOp23
 70
     1
102
RTVSPropertyOp24
 70
     1
102
RTVSPropertyOp25
 70
     1
102
RTVSPropertyOp26
 70
     1
102
RTVSPropertyOp27
 70
     1
102
RTVSPropertyOp28
 70
     1
102
RTVSPropertyOp29
 70
     1
102
RTVSPropertyOp30
 70
     1
102
RTVSPropertyOp31
 70
     1
102
RTVSPropertyOp32
 70
     1
102
RTVSPropertyOp33
 70
     1
102
RTVSPropertyOp34
 70
     1
102
RTVSPropertyOp35
 70
     1
102
RTVSPropertyOp36
 70
     1
102
RTVSPropertyOp37
 70
     1
102
RTVSPropertyOp38
 70
     1
102
RTVSPropertyOp39
 70
     1
102
RTVSPropertyOp40
 70
     1
102
RTVSPropertyOp41
 70
     1
102
RTVSPropertyOp42
 70
     1
102
RTVSPropertyOp43
 70
     1
102
RTVSPropertyOp44
 70
     1
102
RTVSPropertyOp45
 70
     1
102
RTVSPropertyOp46
 70
     1
102
RTVSPropertyOp47
 70
     1
102
RTVSPropertyOp48
 70
     1
102
RTVSPropertyOp49
 70
     1
102
RTVSPropertyOp50
 70
     1
102
RTVSPropertyOp51
 70
     0
102
RTVSPropertyOp52
 70
     0
102
RTVSPropertyOp53
 70
     1
102
RTVSPropertyOp54
 70
     1
102
RTVSPropertyOp55
 70
     1
102
RTVSPropertyOp56
 70
     1
102
RTVSPropertyOp57
 70
     1
102
RTVSPost2010Prop28
280
     0
102
RTVSPost2010PropOp28
 70
     1
102
RTVSPost2010Prop29
280
     1
102
RTVSPost2010PropOp29
 70
     1
102
RTVSPost2010Prop30
280
     1
102
RTVSPost2010PropOp30
 70
     1
102
RTVSPost2010Prop31
280
     0
102
RTVSPost2010PropOp31
 70
     1
102
RTVSPost2010Prop32
280
     0
102
RTVSPost2010PropOp32
 70
     1
102
RTVSPost2010Prop33
280
     0
102
RTVSPost2010PropOp33
 70
     1
102
RTVSPost2010Prop34
280
     0
102
RTVSPost2010PropOp34
 70
     1
102
RTVSPost2010Prop35
280
     0
102
RTVSPost2010PropOp35
 70
     1
102
RTVSPost2010Prop36
280
     0
102
RTVSPost2010PropOp36
 70
     1
102
RTVSPost2010Prop37
 90
       50
102
RTVSPost2010PropOp37
 70
     1
102
RTVSPost2010Prop38
140
0.0
102
RTVSPost2010PropOp38
 70
     1
102
RTVSPost2010Prop39
140
1.0
102
RTVSPost2010PropOp39
 70
     1
102
RTVSPost2010Prop40
 90
        0
102
RTVSPost2010PropOp40
 70
     1
102
RTVSPost2010Prop41ColorIndex
 90
       18
102
RTVSPost2010Prop41ColorRGB
 90
        0
102
RTVSPost2010PropOp41
 70
     1
102
RTVSPost2010Prop42
 90
       50
102
RTVSPost2010PropOp42
 70
     1
102
RTVSPost2010Prop43
 90
        3
102
RTVSPost2010PropOp43
 70
     1
102
RTVSPost2010Prop44ColorIndex
 90
        5
102
RTVSPost2010Prop44ColorRGB
 90
      255
102
RTVSPost2010PropOp44
 70
     1
102
RTVSPost2010Prop45
280
     0
102
RTVSPost2010PropOp45
 70
     1
102
RTVSPost2010Prop46
 90
       50
102
RTVSPost2010PropOp46
 70
     1
102
RTVSPost2010Prop47
 90
       50
102
RTVSPost2010PropOp47
 70
     1
102
RTVSPost2010Prop48
 90
       50
102
RTVSPost2010PropOp48
 70
     1
102
RTVSPost2010Prop49
280
     0
102
RTVSPost2010PropOp49
 70
     1
102
RTVSPost2010Prop50
 90
       50
102
RTVSPost2010PropOp50
 70
     1
102
RTVSPost2010Prop51ColorIndex
 90
      256
102
RTVSPost2010Prop51ColorRGB
 90
-16777216
102
RTVSPost2010PropOp51
 70
     0
102
RTVSPost2010Prop52
140
1.0
102
RTVSPost2010PropOp52
 70
     0
102
RTVSPost2010Prop53
 90
        2
102
RTVSPost2010PropOp53
 70
     1
102
RTVSPost2010Prop54
  1
strokes_ogs.tif
102
RTVSPost2010PropOp54
 70
     1
102
RTVSPost2010Prop55
280
     0
102
RTVSPost2010PropOp55
 70
     1
102
RTVSPost2010Prop56
140
1.0
102
RTVSPost2010PropOp56
 70
     1
102
RTVSPost2010Prop57
140
1.0
102
RTVSPost2010PropOp57
 70
     1
  0
XRECORD
  5
2C4
102
{ACAD_REACTORS
330
2C3
102
}
330
2C3
100
AcDbXrecord
280
     1
102
RTVSPropertyOp0
 70
     1
102
RTVSPropertyOp1
 70
     1
102
RTVSPropertyOp2
 70
     1
102
RTVSPropertyOp3
 70
     1
102
RTVSPropertyOp4
 70
     1
102
RTVSPropertyOp5
 70
     1
102
RTVSPropertyOp6
 70
     1
102
RTVSPropertyOp7
 70
     1
102
RTVSPropertyOp8
 70
     1
102
RTVSPropertyOp9
 70
     1
102
RTVSPropertyOp10
 70
     1
102
RTVSPropertyOp11
 70
     1
102
RTVSPropertyOp12
 70
     1
102
RTVSPropertyOp13
 70
     1
102
RTVSPropertyOp14
 70
     1
102
RTVSPropertyOp15
 70
     1
102
RTVSPropertyOp16
 70
     1
102
RTVSPropertyOp17
 70
     1
102
RTVSPropertyOp18
 70
     1
102
RTVSPropertyOp19
 70
     1
102
RTVSPropertyOp20
 70
     1
102
RTVSPropertyOp21
 70
     1
102
RTVSPropertyOp22
 70
     1
102
RTVSPropertyOp23
 70
     1
102
RTVSPropertyOp24
 70
     1
102
RTVSPropertyOp25
 70
     1
102
RTVSPropertyOp26
 70
     1
102
RTVSPropertyOp27
 70
     1
102
RTVSPropertyOp28
 70
     1
102
RTVSPropertyOp29
 70
     1
102
RTVSPropertyOp30
 70
     1
102
RTVSPropertyOp31
 70
     1
102
RTVSPropertyOp32
 70
     1
102
RTVSPropertyOp33
 70
     1
102
RTVSPropertyOp34
 70
     1
102
RTVSPropertyOp35
 70
     1
102
RTVSPropertyOp36
 70
     1
102
RTVSPropertyOp37
 70
     1
102
RTVSPropertyOp38
 70
     1
102
RTVSPropertyOp39
 70
     1
102
RTVSPropertyOp40
 70
     1
102
RTVSPropertyOp41
 70
     1
102
RTVSPropertyOp42
 70
     1
102
RTVSPropertyOp43
 70
     1
102
RTVSPropertyOp44
 70
     1
102
RTVSPropertyOp45
 70
     1
102
RTVSPropertyOp46
 70
     1
102
RTVSPropertyOp47
 70
     1
102
RTVSPropertyOp48
 70
     1
102
RTVSPropertyOp49
 70
     1
102
RTVSPropertyOp50
 70
     1
102
RTVSPropertyOp51
 70
     0
102
RTVSPropertyOp52
 70
     0
102
RTVSPropertyOp53
 70
     1
102
RTVSPropertyOp54
 70
     1
102
RTVSPropertyOp55
 70
     1
102
RTVSPropertyOp56
 70
     1
102
RTVSPropertyOp57
 70
     1
102
RTVSPost2010Prop28
280
     0
102
RTVSPost2010PropOp28
 70
     1
102
RTVSPost2010Prop29
280
     1
102
RTVSPost2010PropOp29
 70
     1
102
RTVSPost2010Prop30
280
     1
102
RTVSPost2010PropOp30
 70
     1
102
RTVSPost2010Prop31
280
     0
102
RTVSPost2010PropOp31
 70
     1
102
RTVSPost2010Prop32
280
     0
102
RTVSPost2010PropOp32
 70
     1
102
RTVSPost2010Prop33
280
     0
102
RTVSPost2010PropOp33
 70
     1
102
RTVSPost2010Prop34
280
     0
102
RTVSPost2010PropOp34
 70
     1
102
RTVSPost2010Prop35
280
     0
102
RTVSPost2010PropOp35
 70
     1
102
RTVSPost2010Prop36
280
     0
102
RTVSPost2010PropOp36
 70
     1
102
RTVSPost2010Prop37
 90
       50
102
RTVSPost2010PropOp37
 70
     1
102
RTVSPost2010Prop38
140
0.0
102
RTVSPost2010PropOp38
 70
     1
102
RTVSPost2010Prop39
140
1.0
102
RTVSPost2010PropOp39
 70
     1
102
RTVSPost2010Prop40
 90
        0
102
RTVSPost2010PropOp40
 70
     1
102
RTVSPost2010Prop41ColorIndex
 90
       18
102
RTVSPost2010Prop41ColorRGB
 90
        0
102
RTVSPost2010PropOp41
 70
     1
102
RTVSPost2010Prop42
 90
       50
102
RTVSPost2010PropOp42
 70
     1
102
RTVSPost2010Prop43
 90
        3
102
RTVSPost2010PropOp43
 70
     1
102
RTVSPost2010Prop44ColorIndex
 90
        5
102
RTVSPost2010Prop44ColorRGB
 90
      255
102
RTVSPost2010PropOp44
 70
     1
102
RTVSPost2010Prop45
280
     0
102
RTVSPost2010PropOp45
 70
     1
102
RTVSPost2010Prop46
 90
       50
102
RTVSPost2010PropOp46
 70
     1
102
RTVSPost2010Prop47
 90
       50
102
RTVSPost2010PropOp47
 70
     1
102
RTVSPost2010Prop48
 90
       50
102
RTVSPost2010PropOp48
 70
     1
102
RTVSPost2010Prop49
280
     0
102
RTVSPost2010PropOp49
 70
     1
102
RTVSPost2010Prop50
 90
       50
102
RTVSPost2010PropOp50
 70
     1
102
RTVSPost2010Prop51ColorIndex
 90
      256
102
RTVSPost2010Prop51ColorRGB
 90
-16777216
102
RTVSPost2010PropOp51
 70
     0
102
RTVSPost2010Prop52
140
1.0
102
RTVSPost2010PropOp52
 70
     0
102
RTVSPost2010Prop53
 90
        2
102
RTVSPost2010PropOp53
 70
     1
102
RTVSPost2010Prop54
  1
strokes_ogs.tif
102
RTVSPost2010PropOp54
 70
     1
102
RTVSPost2010Prop55
280
     0
102
RTVSPost2010PropOp55
 70
     1
102
RTVSPost2010Prop56
140
1.0
102
RTVSPost2010PropOp56
 70
     1
102
RTVSPost2010Prop57
140
1.0
102
RTVSPost2010PropOp57
 70
     1
  0
XRECORD
  5
2C6
102
{ACAD_REACTORS
330
2C5
102
}
330
2C5
100
AcDbXrecord
280
     1
102
RTVSPropertyOp0
 70
     1
102
RTVSPropertyOp1
 70
     1
102
RTVSPropertyOp2
 70
     1
102
RTVSPropertyOp3
 70
     1
102
RTVSPropertyOp4
 70
     1
102
RTVSPropertyOp5
 70
     1
102
RTVSPropertyOp6
 70
     1
102
RTVSPropertyOp7
 70
     1
102
RTVSPropertyOp8
 70
     1
102
RTVSPropertyOp9
 70
     1
102
RTVSPropertyOp10
 70
     1
102
RTVSPropertyOp11
 70
     1
102
RTVSPropertyOp12
 70
     1
102
RTVSPropertyOp13
 70
     1
102
RTVSPropertyOp14
 70
     1
102
RTVSPropertyOp15
 70
     1
102
RTVSPropertyOp16
 70
     1
102
RTVSPropertyOp17
 70
     1
102
RTVSPropertyOp18
 70
     1
102
RTVSPropertyOp19
 70
     1
102
RTVSPropertyOp20
 70
     1
102
RTVSPropertyOp21
 70
     1
102
RTVSPropertyOp22
 70
     1
102
RTVSPropertyOp23
 70
     1
102
RTVSPropertyOp24
 70
     1
102
RTVSPropertyOp25
 70
     1
102
RTVSPropertyOp26
 70
     1
102
RTVSPropertyOp27
 70
     1
102
RTVSPropertyOp28
 70
     1
102
RTVSPropertyOp29
 70
     1
102
RTVSPropertyOp30
 70
     1
102
RTVSPropertyOp31
 70
     1
102
RTVSPropertyOp32
 70
     1
102
RTVSPropertyOp33
 70
     1
102
RTVSPropertyOp34
 70
     1
102
RTVSPropertyOp35
 70
     1
102
RTVSPropertyOp36
 70
     1
102
RTVSPropertyOp37
 70
     1
102
RTVSPropertyOp38
 70
     1
102
RTVSPropertyOp39
 70
     1
102
RTVSPropertyOp40
 70
     1
102
RTVSPropertyOp41
 70
     1
102
RTVSPropertyOp42
 70
     1
102
RTVSPropertyOp43
 70
     1
102
RTVSPropertyOp44
 70
     1
102
RTVSPropertyOp45
 70
     1
102
RTVSPropertyOp46
 70
     1
102
RTVSPropertyOp47
 70
     1
102
RTVSPropertyOp48
 70
     1
102
RTVSPropertyOp49
 70
     1
102
RTVSPropertyOp50
 70
     1
102
RTVSPropertyOp51
 70
     0
102
RTVSPropertyOp52
 70
     0
102
RTVSPropertyOp53
 70
     1
102
RTVSPropertyOp54
 70
     1
102
RTVSPropertyOp55
 70
     1
102
RTVSPropertyOp56
 70
     1
102
RTVSPropertyOp57
 70
     1
102
RTVSPost2010Prop28
280
     0
102
RTVSPost2010PropOp28
 70
     1
102
RTVSPost2010Prop29
280
     1
102
RTVSPost2010PropOp29
 70
     1
102
RTVSPost2010Prop30
280
     1
102
RTVSPost2010PropOp30
 70
     1
102
RTVSPost2010Prop31
280
     0
102
RTVSPost2010PropOp31
 70
     1
102
RTVSPost2010Prop32
280
     0
102
RTVSPost2010PropOp32
 70
     1
102
RTVSPost2010Prop33
280
     0
102
RTVSPost2010PropOp33
 70
     1
102
RTVSPost2010Prop34
280
     0
102
RTVSPost2010PropOp34
 70
     1
102
RTVSPost2010Prop35
280
     0
102
RTVSPost2010PropOp35
 70
     1
102
RTVSPost2010Prop36
280
     0
102
RTVSPost2010PropOp36
 70
     1
102
RTVSPost2010Prop37
 90
       50
102
RTVSPost2010PropOp37
 70
     1
102
RTVSPost2010Prop38
140
0.0
102
RTVSPost2010PropOp38
 70
     1
102
RTVSPost2010Prop39
140
1.0
102
RTVSPost2010PropOp39
 70
     1
102
RTVSPost2010Prop40
 90
        0
102
RTVSPost2010PropOp40
 70
     1
102
RTVSPost2010Prop41ColorIndex
 90
       18
102
RTVSPost2010Prop41ColorRGB
 90
        0
102
RTVSPost2010PropOp41
 70
     1
102
RTVSPost2010Prop42
 90
       50
102
RTVSPost2010PropOp42
 70
     1
102
RTVSPost2010Prop43
 90
        3
102
RTVSPost2010PropOp43
 70
     1
102
RTVSPost2010Prop44ColorIndex
 90
        5
102
RTVSPost2010Prop44ColorRGB
 90
      255
102
RTVSPost2010PropOp44
 70
     1
102
RTVSPost2010Prop45
280
     0
102
RTVSPost2010PropOp45
 70
     1
102
RTVSPost2010Prop46
 90
       50
102
RTVSPost2010PropOp46
 70
     1
102
RTVSPost2010Prop47
 90
       50
102
RTVSPost2010PropOp47
 70
     1
102
RTVSPost2010Prop48
 90
       50
102
RTVSPost2010PropOp48
 70
     1
102
RTVSPost2010Prop49
280
     0
102
RTVSPost2010PropOp49
 70
     1
102
RTVSPost2010Prop50
 90
       50
102
RTVSPost2010PropOp50
 70
     1
102
RTVSPost2010Prop51ColorIndex
 90
      256
102
RTVSPost2010Prop51ColorRGB
 90
-16777216
102
RTVSPost2010PropOp51
 70
     0
102
RTVSPost2010Prop52
140
1.0
102
RTVSPost2010PropOp52
 70
     0
102
RTVSPost2010Prop53
 90
        2
102
RTVSPost2010PropOp53
 70
     1
102
RTVSPost2010Prop54
  1
strokes_ogs.tif
102
RTVSPost2010PropOp54
 70
     1
102
RTVSPost2010Prop55
280
     0
102
RTVSPost2010PropOp55
 70
     1
102
RTVSPost2010Prop56
140
1.0
102
RTVSPost2010PropOp56
 70
     1
102
RTVSPost2010Prop57
140
1.0
102
RTVSPost2010PropOp57
 70
     1
  0
XRECORD
  5
2C8
102
{ACAD_REACTORS
330
2C7
102
}
330
2C7
100
AcDbXrecord
280
     1
102
RTVSPropertyOp0
 70
     1
102
RTVSPropertyOp1
 70
     1
102
RTVSPropertyOp2
 70
     1
102
RTVSPropertyOp3
 70
     1
102
RTVSPropertyOp4
 70
     1
102
RTVSPropertyOp5
 70
     1
102
RTVSPropertyOp6
 70
     1
102
RTVSPropertyOp7
 70
     1
102
RTVSPropertyOp8
 70
     1
102
RTVSPropertyOp9
 70
     1
102
RTVSPropertyOp10
 70
     1
102
RTVSPropertyOp11
 70
     1
102
RTVSPropertyOp12
 70
     1
102
RTVSPropertyOp13
 70
     1
102
RTVSPropertyOp14
 70
     1
102
RTVSPropertyOp15
 70
     1
102
RTVSPropertyOp16
 70
     1
102
RTVSPropertyOp17
 70
     1
102
RTVSPropertyOp18
 70
     1
102
RTVSPropertyOp19
 70
     1
102
RTVSPropertyOp20
 70
     1
102
RTVSPropertyOp21
 70
     1
102
RTVSPropertyOp22
 70
     1
102
RTVSPropertyOp23
 70
     1
102
RTVSPropertyOp24
 70
     1
102
RTVSPropertyOp25
 70
     1
102
RTVSPropertyOp26
 70
     1
102
RTVSPropertyOp27
 70
     1
102
RTVSPropertyOp28
 70
     1
102
RTVSPropertyOp29
 70
     1
102
RTVSPropertyOp30
 70
     1
102
RTVSPropertyOp31
 70
     1
102
RTVSPropertyOp32
 70
     1
102
RTVSPropertyOp33
 70
     1
102
RTVSPropertyOp34
 70
     1
102
RTVSPropertyOp35
 70
     1
102
RTVSPropertyOp36
 70
     1
102
RTVSPropertyOp37
 70
     1
102
RTVSPropertyOp38
 70
     1
102
RTVSPropertyOp39
 70
     1
102
RTVSPropertyOp40
 70
     1
102
RTVSPropertyOp41
 70
     1
102
RTVSPropertyOp42
 70
     1
102
RTVSPropertyOp43
 70
     1
102
RTVSPropertyOp44
 70
     1
102
RTVSPropertyOp45
 70
     1
102
RTVSPropertyOp46
 70
     1
102
RTVSPropertyOp47
 70
     1
102
RTVSPropertyOp48
 70
     1
102
RTVSPropertyOp49
 70
     1
102
RTVSPropertyOp50
 70
     1
102
RTVSPropertyOp51
 70
     0
102
RTVSPropertyOp52
 70
     0
102
RTVSPropertyOp53
 70
     1
102
RTVSPropertyOp54
 70
     1
102
RTVSPropertyOp55
 70
     1
102
RTVSPropertyOp56
 70
     1
102
RTVSPropertyOp57
 70
     1
102
RTVSPost2010Prop28
280
     0
102
RTVSPost2010PropOp28
 70
     1
102
RTVSPost2010Prop29
280
     1
102
RTVSPost2010PropOp29
 70
     1
102
RTVSPost2010Prop30
280
     1
102
RTVSPost2010PropOp30
 70
     1
102
RTVSPost2010Prop31
280
     0
102
RTVSPost2010PropOp31
 70
     1
102
RTVSPost2010Prop32
280
     0
102
RTVSPost2010PropOp32
 70
     1
102
RTVSPost2010Prop33
280
     0
102
RTVSPost2010PropOp33
 70
     1
102
RTVSPost2010Prop34
280
     0
102
RTVSPost2010PropOp34
 70
     1
102
RTVSPost2010Prop35
280
     0
102
RTVSPost2010PropOp35
 70
     1
102
RTVSPost2010Prop36
280
     0
102
RTVSPost2010PropOp36
 70
     1
102
RTVSPost2010Prop37
 90
       50
102
RTVSPost2010PropOp37
 70
     1
102
RTVSPost2010Prop38
140
0.0
102
RTVSPost2010PropOp38
 70
     1
102
RTVSPost2010Prop39
140
1.0
102
RTVSPost2010PropOp39
 70
     1
102
RTVSPost2010Prop40
 90
        0
102
RTVSPost2010PropOp40
 70
     1
102
RTVSPost2010Prop41ColorIndex
 90
       18
102
RTVSPost2010Prop41ColorRGB
 90
        0
102
RTVSPost2010PropOp41
 70
     1
102
RTVSPost2010Prop42
 90
       50
102
RTVSPost2010PropOp42
 70
     1
102
RTVSPost2010Prop43
 90
        3
102
RTVSPost2010PropOp43
 70
     1
102
RTVSPost2010Prop44ColorIndex
 90
        5
102
RTVSPost2010Prop44ColorRGB
 90
      255
102
RTVSPost2010PropOp44
 70
     1
102
RTVSPost2010Prop45
280
     0
102
RTVSPost2010PropOp45
 70
     1
102
RTVSPost2010Prop46
 90
       50
102
RTVSPost2010PropOp46
 70
     1
102
RTVSPost2010Prop47
 90
       50
102
RTVSPost2010PropOp47
 70
     1
102
RTVSPost2010Prop48
 90
       50
102
RTVSPost2010PropOp48
 70
     1
102
RTVSPost2010Prop49
280
     0
102
RTVSPost2010PropOp49
 70
     1
102
RTVSPost2010Prop50
 90
       50
102
RTVSPost2010PropOp50
 70
     1
102
RTVSPost2010Prop51ColorIndex
 90
      256
102
RTVSPost2010Prop51ColorRGB
 90
-16777216
102
RTVSPost2010PropOp51
 70
     0
102
RTVSPost2010Prop52
140
1.0
102
RTVSPost2010PropOp52
 70
     0
102
RTVSPost2010Prop53
 90
        2
102
RTVSPost2010PropOp53
 70
     1
102
RTVSPost2010Prop54
  1
strokes_ogs.tif
102
RTVSPost2010PropOp54
 70
     1
102
RTVSPost2010Prop55
280
     0
102
RTVSPost2010PropOp55
 70
     1
102
RTVSPost2010Prop56
140
1.0
102
RTVSPost2010PropOp56
 70
     1
102
RTVSPost2010Prop57
140
1.0
102
RTVSPost2010PropOp57
 70
     1
  0
XRECORD
  5
2CA
102
{ACAD_REACTORS
330
2C9
102
}
330
2C9
100
AcDbXrecord
280
     1
102
RTVSPropertyOp0
 70
     1
102
RTVSPropertyOp1
 70
     1
102
RTVSPropertyOp2
 70
     1
102
RTVSPropertyOp3
 70
     1
102
RTVSPropertyOp4
 70
     1
102
RTVSPropertyOp5
 70
     1
102
RTVSPropertyOp6
 70
     1
102
RTVSPropertyOp7
 70
     1
102
RTVSPropertyOp8
 70
     1
102
RTVSPropertyOp9
 70
     1
102
RTVSPropertyOp10
 70
     1
102
RTVSPropertyOp11
 70
     1
102
RTVSPropertyOp12
 70
     1
102
RTVSPropertyOp13
 70
     1
102
RTVSPropertyOp14
 70
     1
102
RTVSPropertyOp15
 70
     1
102
RTVSPropertyOp16
 70
     1
102
RTVSPropertyOp17
 70
     1
102
RTVSPropertyOp18
 70
     1
102
RTVSPropertyOp19
 70
     1
102
RTVSPropertyOp20
 70
     1
102
RTVSPropertyOp21
 70
     1
102
RTVSPropertyOp22
 70
     1
102
RTVSPropertyOp23
 70
     1
102
RTVSPropertyOp24
 70
     1
102
RTVSPropertyOp25
 70
     1
102
RTVSPropertyOp26
 70
     1
102
RTVSPropertyOp27
 70
     1
102
RTVSPropertyOp28
 70
     1
102
RTVSPropertyOp29
 70
     1
102
RTVSPropertyOp30
 70
     1
102
RTVSPropertyOp31
 70
     1
102
RTVSPropertyOp32
 70
     1
102
RTVSPropertyOp33
 70
     1
102
RTVSPropertyOp34
 70
     1
102
RTVSPropertyOp35
 70
     1
102
RTVSPropertyOp36
 70
     1
102
RTVSPropertyOp37
 70
     1
102
RTVSPropertyOp38
 70
     1
102
RTVSPropertyOp39
 70
     1
102
RTVSPropertyOp40
 70
     1
102
RTVSPropertyOp41
 70
     1
102
RTVSPropertyOp42
 70
     1
102
RTVSPropertyOp43
 70
     1
102
RTVSPropertyOp44
 70
     1
102
RTVSPropertyOp45
 70
     1
102
RTVSPropertyOp46
 70
     1
102
RTVSPropertyOp47
 70
     1
102
RTVSPropertyOp48
 70
     1
102
RTVSPropertyOp49
 70
     1
102
RTVSPropertyOp50
 70
     1
102
RTVSPropertyOp51
 70
     0
102
RTVSPropertyOp52
 70
     0
102
RTVSPropertyOp53
 70
     1
102
RTVSPropertyOp54
 70
     1
102
RTVSPropertyOp55
 70
     1
102
RTVSPropertyOp56
 70
     1
102
RTVSPropertyOp57
 70
     1
102
RTVSPost2010Prop28
280
     0
102
RTVSPost2010PropOp28
 70
     1
102
RTVSPost2010Prop29
280
     1
102
RTVSPost2010PropOp29
 70
     1
102
RTVSPost2010Prop30
280
     1
102
RTVSPost2010PropOp30
 70
     1
102
RTVSPost2010Prop31
280
     0
102
RTVSPost2010PropOp31
 70
     1
102
RTVSPost2010Prop32
280
     0
102
RTVSPost2010PropOp32
 70
     1
102
RTVSPost2010Prop33
280
     0
102
RTVSPost2010PropOp33
 70
     1
102
RTVSPost2010Prop34
280
     0
102
RTVSPost2010PropOp34
 70
     1
102
RTVSPost2010Prop35
280
     0
102
RTVSPost2010PropOp35
 70
     1
102
RTVSPost2010Prop36
280
     0
102
RTVSPost2010PropOp36
 70
     1
102
RTVSPost2010Prop37
 90
       50
102
RTVSPost2010PropOp37
 70
     1
102
RTVSPost2010Prop38
140
0.0
102
RTVSPost2010PropOp38
 70
     1
102
RTVSPost2010Prop39
140
1.0
102
RTVSPost2010PropOp39
 70
     1
102
RTVSPost2010Prop40
 90
        0
102
RTVSPost2010PropOp40
 70
     1
102
RTVSPost2010Prop41ColorIndex
 90
       18
102
RTVSPost2010Prop41ColorRGB
 90
        0
102
RTVSPost2010PropOp41
 70
     1
102
RTVSPost2010Prop42
 90
       50
102
RTVSPost2010PropOp42
 70
     1
102
RTVSPost2010Prop43
 90
        3
102
RTVSPost2010PropOp43
 70
     1
102
RTVSPost2010Prop44ColorIndex
 90
        5
102
RTVSPost2010Prop44ColorRGB
 90
      255
102
RTVSPost2010PropOp44
 70
     1
102
RTVSPost2010Prop45
280
     0
102
RTVSPost2010PropOp45
 70
     1
102
RTVSPost2010Prop46
 90
       50
102
RTVSPost2010PropOp46
 70
     1
102
RTVSPost2010Prop47
 90
       50
102
RTVSPost2010PropOp47
 70
     1
102
RTVSPost2010Prop48
 90
       50
102
RTVSPost2010PropOp48
 70
     1
102
RTVSPost2010Prop49
280
     0
102
RTVSPost2010PropOp49
 70
     1
102
RTVSPost2010Prop50
 90
       50
102
RTVSPost2010PropOp50
 70
     1
102
RTVSPost2010Prop51ColorIndex
 90
      256
102
RTVSPost2010Prop51ColorRGB
 90
-16777216
102
RTVSPost2010PropOp51
 70
     0
102
RTVSPost2010Prop52
140
1.0
102
RTVSPost2010PropOp52
 70
     0
102
RTVSPost2010Prop53
 90
        2
102
RTVSPost2010PropOp53
 70
     1
102
RTVSPost2010Prop54
  1
strokes_ogs.tif
102
RTVSPost2010PropOp54
 70
     1
102
RTVSPost2010Prop55
280
     0
102
RTVSPost2010PropOp55
 70
     1
102
RTVSPost2010Prop56
140
1.0
102
RTVSPost2010PropOp56
 70
     1
102
RTVSPost2010Prop57
140
1.0
102
RTVSPost2010PropOp57
 70
     1
  0
XRECORD
  5
2D0
102
{ACAD_REACTORS
330
2CF
102
}
330
2CF
100
AcDbXrecord
280
     1
102
RTVSPropertyOp0
 70
     1
102
RTVSPropertyOp1
 70
     1
102
RTVSPropertyOp2
 70
     1
102
RTVSPropertyOp3
 70
     1
102
RTVSPropertyOp4
 70
     1
102
RTVSPropertyOp5
 70
     1
102
RTVSPropertyOp6
 70
     1
102
RTVSPropertyOp7
 70
     1
102
RTVSPropertyOp8
 70
     1
102
RTVSPropertyOp9
 70
     1
102
RTVSPropertyOp10
 70
     1
102
RTVSPropertyOp11
 70
     1
102
RTVSPropertyOp12
 70
     1
102
RTVSPropertyOp13
 70
     1
102
RTVSPropertyOp14
 70
     1
102
RTVSPropertyOp15
 70
     1
102
RTVSPropertyOp16
 70
     1
102
RTVSPropertyOp17
 70
     1
102
RTVSPropertyOp18
 70
     1
102
RTVSPropertyOp19
 70
     1
102
RTVSPropertyOp20
 70
     1
102
RTVSPropertyOp21
 70
     1
102
RTVSPropertyOp22
 70
     1
102
RTVSPropertyOp23
 70
     1
102
RTVSPropertyOp24
 70
     1
102
RTVSPropertyOp25
 70
     1
102
RTVSPropertyOp26
 70
     1
102
RTVSPropertyOp27
 70
     1
102
RTVSPropertyOp28
 70
     1
102
RTVSPropertyOp29
 70
     1
102
RTVSPropertyOp30
 70
     1
102
RTVSPropertyOp31
 70
     1
102
RTVSPropertyOp32
 70
     1
102
RTVSPropertyOp33
 70
     1
102
RTVSPropertyOp34
 70
     1
102
RTVSPropertyOp35
 70
     1
102
RTVSPropertyOp36
 70
     1
102
RTVSPropertyOp37
 70
     1
102
RTVSPropertyOp38
 70
     1
102
RTVSPropertyOp39
 70
     1
102
RTVSPropertyOp40
 70
     1
102
RTVSPropertyOp41
 70
     1
102
RTVSPropertyOp42
 70
     1
102
RTVSPropertyOp43
 70
     1
102
RTVSPropertyOp44
 70
     1
102
RTVSPropertyOp45
 70
     1
102
RTVSPropertyOp46
 70
     1
102
RTVSPropertyOp47
 70
     1
102
RTVSPropertyOp48
 70
     1
102
RTVSPropertyOp49
 70
     1
102
RTVSPropertyOp50
 70
     1
102
RTVSPropertyOp51
 70
     0
102
RTVSPropertyOp52
 70
     0
102
RTVSPropertyOp53
 70
     1
102
RTVSPropertyOp54
 70
     1
102
RTVSPropertyOp55
 70
     1
102
RTVSPropertyOp56
 70
     1
102
RTVSPropertyOp57
 70
     1
102
RTVSPost2010Prop28
280
     0
102
RTVSPost2010PropOp28
 70
     1
102
RTVSPost2010Prop29
280
     1
102
RTVSPost2010PropOp29
 70
     1
102
RTVSPost2010Prop30
280
     1
102
RTVSPost2010PropOp30
 70
     1
102
RTVSPost2010Prop31
280
     0
102
RTVSPost2010PropOp31
 70
     1
102
RTVSPost2010Prop32
280
     0
102
RTVSPost2010PropOp32
 70
     1
102
RTVSPost2010Prop33
280
     0
102
RTVSPost2010PropOp33
 70
     1
102
RTVSPost2010Prop34
280
     0
102
RTVSPost2010PropOp34
 70
     1
102
RTVSPost2010Prop35
280
     0
102
RTVSPost2010PropOp35
 70
     1
102
RTVSPost2010Prop36
280
     0
102
RTVSPost2010PropOp36
 70
     1
102
RTVSPost2010Prop37
 90
       50
102
RTVSPost2010PropOp37
 70
     1
102
RTVSPost2010Prop38
140
0.0
102
RTVSPost2010PropOp38
 70
     1
102
RTVSPost2010Prop39
140
1.0
102
RTVSPost2010PropOp39
 70
     1
102
RTVSPost2010Prop40
 90
        0
102
RTVSPost2010PropOp40
 70
     1
102
RTVSPost2010Prop41ColorIndex
 90
       18
102
RTVSPost2010Prop41ColorRGB
 90
        0
102
RTVSPost2010PropOp41
 70
     1
102
RTVSPost2010Prop42
 90
       50
102
RTVSPost2010PropOp42
 70
     1
102
RTVSPost2010Prop43
 90
        3
102
RTVSPost2010PropOp43
 70
     1
102
RTVSPost2010Prop44ColorIndex
 90
        5
102
RTVSPost2010Prop44ColorRGB
 90
      255
102
RTVSPost2010PropOp44
 70
     1
102
RTVSPost2010Prop45
280
     0
102
RTVSPost2010PropOp45
 70
     1
102
RTVSPost2010Prop46
 90
       50
102
RTVSPost2010PropOp46
 70
     1
102
RTVSPost2010Prop47
 90
       50
102
RTVSPost2010PropOp47
 70
     1
102
RTVSPost2010Prop48
 90
       50
102
RTVSPost2010PropOp48
 70
     1
102
RTVSPost2010Prop49
280
     0
102
RTVSPost2010PropOp49
 70
     1
102
RTVSPost2010Prop50
 90
       50
102
RTVSPost2010PropOp50
 70
     1
102
RTVSPost2010Prop51ColorIndex
 90
      256
102
RTVSPost2010Prop51ColorRGB
 90
-16777216
102
RTVSPost2010PropOp51
 70
     0
102
RTVSPost2010Prop52
140
1.0
102
RTVSPost2010PropOp52
 70
     0
102
RTVSPost2010Prop53
 90
        2
102
RTVSPost2010PropOp53
 70
     1
102
RTVSPost2010Prop54
  1
strokes_ogs.tif
102
RTVSPost2010PropOp54
 70
     1
102
RTVSPost2010Prop55
280
     0
102
RTVSPost2010PropOp55
 70
     1
102
RTVSPost2010Prop56
140
1.0
102
RTVSPost2010PropOp56
 70
     1
102
RTVSPost2010Prop57
140
1.0
102
RTVSPost2010PropOp57
 70
     1
  0
XRECORD
  5
2E4
102
{ACAD_REACTORS
330
2E3
102
}
330
2E3
100
AcDbXrecord
280
     1
102
RTVSPropertyOp0
 70
     0
102
RTVSPropertyOp1
 70
     0
102
RTVSPropertyOp2
 70
     0
102
RTVSPropertyOp3
 70
     0
102
RTVSPropertyOp4
 70
     0
102
RTVSPropertyOp5
 70
     0
102
RTVSPropertyOp6
 70
     0
102
RTVSPropertyOp7
 70
     0
102
RTVSPropertyOp8
 70
     0
102
RTVSPropertyOp9
 70
     0
102
RTVSPropertyOp10
 70
     0
102
RTVSPropertyOp11
 70
     0
102
RTVSPropertyOp12
 70
     0
102
RTVSPropertyOp13
 70
     0
102
RTVSPropertyOp14
 70
     2
102
RTVSPropertyOp15
 70
     0
102
RTVSPropertyOp16
 70
     0
102
RTVSPropertyOp17
 70
     0
102
RTVSPropertyOp18
 70
     0
102
RTVSPropertyOp19
 70
     0
102
RTVSPropertyOp20
 70
     0
102
RTVSPropertyOp21
 70
     0
102
RTVSPropertyOp22
 70
     0
102
RTVSPropertyOp23
 70
     0
102
RTVSPropertyOp24
 70
     0
102
RTVSPropertyOp25
 70
     0
102
RTVSPropertyOp26
 70
     0
102
RTVSPropertyOp27
 70
     0
102
RTVSPropertyOp28
 70
     0
102
RTVSPropertyOp29
 70
     0
102
RTVSPropertyOp30
 70
     0
102
RTVSPropertyOp31
 70
     0
102
RTVSPropertyOp32
 70
     0
102
RTVSPropertyOp33
 70
     0
102
RTVSPropertyOp34
 70
     0
102
RTVSPropertyOp35
 70
     0
102
RTVSPropertyOp36
 70
     0
102
RTVSPropertyOp37
 70
     0
102
RTVSPropertyOp38
 70
     0
102
RTVSPropertyOp39
 70
     0
102
RTVSPropertyOp40
 70
     0
102
RTVSPropertyOp41
 70
     0
102
RTVSPropertyOp42
 70
     0
102
RTVSPropertyOp43
 70
     0
102
RTVSPropertyOp44
 70
     0
102
RTVSPropertyOp45
 70
     0
102
RTVSPropertyOp46
 70
     0
102
RTVSPropertyOp47
 70
     0
102
RTVSPropertyOp48
 70
     0
102
RTVSPropertyOp49
 70
     0
102
RTVSPropertyOp50
 70
     0
102
RTVSPropertyOp51
 70
     0
102
RTVSPropertyOp52
 70
     0
102
RTVSPropertyOp53
 70
     0
102
RTVSPropertyOp54
 70
     0
102
RTVSPropertyOp55
 70
     0
102
RTVSPropertyOp56
 70
     0
102
RTVSPropertyOp57
 70
     0
102
RTVSPost2010Prop28
280
     0
102
RTVSPost2010PropOp28
 70
     0
102
RTVSPost2010Prop29
280
     1
102
RTVSPost2010PropOp29
 70
     0
102
RTVSPost2010Prop30
280
     1
102
RTVSPost2010PropOp30
 70
     0
102
RTVSPost2010Prop31
280
     0
102
RTVSPost2010PropOp31
 70
     0
102
RTVSPost2010Prop32
280
     0
102
RTVSPost2010PropOp32
 70
     0
102
RTVSPost2010Prop33
280
     0
102
RTVSPost2010PropOp33
 70
     0
102
RTVSPost2010Prop34
280
     0
102
RTVSPost2010PropOp34
 70
     0
102
RTVSPost2010Prop35
280
     0
102
RTVSPost2010PropOp35
 70
     0
102
RTVSPost2010Prop36
280
     0
102
RTVSPost2010PropOp36
 70
     0
102
RTVSPost2010Prop37
 90
       50
102
RTVSPost2010PropOp37
 70
     0
102
RTVSPost2010Prop38
140
0.0
102
RTVSPost2010PropOp38
 70
     0
102
RTVSPost2010Prop39
140
1.0
102
RTVSPost2010PropOp39
 70
     0
102
RTVSPost2010Prop40
 90
        0
102
RTVSPost2010PropOp40
 70
     0
102
RTVSPost2010Prop41ColorIndex
 90
       18
102
RTVSPost2010Prop41ColorRGB
 90
        0
102
RTVSPost2010PropOp41
 70
     0
102
RTVSPost2010Prop42
 90
       50
102
RTVSPost2010PropOp42
 70
     0
102
RTVSPost2010Prop43
 90
        3
102
RTVSPost2010PropOp43
 70
     0
102
RTVSPost2010Prop44ColorIndex
 90
        5
102
RTVSPost2010Prop44ColorRGB
 90
      255
102
RTVSPost2010PropOp44
 70
     0
102
RTVSPost2010Prop45
280
     0
102
RTVSPost2010PropOp45
 70
     0
102
RTVSPost2010Prop46
 90
       50
102
RTVSPost2010PropOp46
 70
     0
102
RTVSPost2010Prop47
 90
       50
102
RTVSPost2010PropOp47
 70
     0
102
RTVSPost2010Prop48
 90
       50
102
RTVSPost2010PropOp48
 70
     0
102
RTVSPost2010Prop49
280
     0
102
RTVSPost2010PropOp49
 70
     0
102
RTVSPost2010Prop50
 90
       50
102
RTVSPost2010PropOp50
 70
     0
102
RTVSPost2010Prop51ColorIndex
 90
      256
102
RTVSPost2010Prop51ColorRGB
 90
-16777216
102
RTVSPost2010PropOp51
 70
     0
102
RTVSPost2010Prop52
140
1.0
102
RTVSPost2010PropOp52
 70
     0
102
RTVSPost2010Prop53
 90
        2
102
RTVSPost2010PropOp53
 70
     0
102
RTVSPost2010Prop54
  1
strokes_ogs.tif
102
RTVSPost2010PropOp54
 70
     0
102
RTVSPost2010Prop55
280
     0
102
RTVSPost2010PropOp55
 70
     0
102
RTVSPost2010Prop56
140
1.0
102
RTVSPost2010PropOp56
 70
     0
102
RTVSPost2010Prop57
140
1.0
102
RTVSPost2010PropOp57
 70
     0
  0
XRECORD
  5
2DE
102
{ACAD_REACTORS
330
2DD
102
}
330
2DD
100
AcDbXrecord
280
     1
102
RTVSPropertyOp0
 70
     1
102
RTVSPropertyOp1
 70
     1
102
RTVSPropertyOp2
 70
     1
102
RTVSPropertyOp3
 70
     1
102
RTVSPropertyOp4
 70
     1
102
RTVSPropertyOp5
 70
     1
102
RTVSPropertyOp6
 70
     1
102
RTVSPropertyOp7
 70
     1
102
RTVSPropertyOp8
 70
     1
102
RTVSPropertyOp9
 70
     1
102
RTVSPropertyOp10
 70
     1
102
RTVSPropertyOp11
 70
     1
102
RTVSPropertyOp12
 70
     1
102
RTVSPropertyOp13
 70
     1
102
RTVSPropertyOp14
 70
     1
102
RTVSPropertyOp15
 70
     1
102
RTVSPropertyOp16
 70
     1
102
RTVSPropertyOp17
 70
     1
102
RTVSPropertyOp18
 70
     1
102
RTVSPropertyOp19
 70
     1
102
RTVSPropertyOp20
 70
     1
102
RTVSPropertyOp21
 70
     1
102
RTVSPropertyOp22
 70
     1
102
RTVSPropertyOp23
 70
     1
102
RTVSPropertyOp24
 70
     1
102
RTVSPropertyOp25
 70
     1
102
RTVSPropertyOp26
 70
     1
102
RTVSPropertyOp27
 70
     1
102
RTVSPropertyOp28
 70
     1
102
RTVSPropertyOp29
 70
     1
102
RTVSPropertyOp30
 70
     1
102
RTVSPropertyOp31
 70
     1
102
RTVSPropertyOp32
 70
     1
102
RTVSPropertyOp33
 70
     1
102
RTVSPropertyOp34
 70
     1
102
RTVSPropertyOp35
 70
     1
102
RTVSPropertyOp36
 70
     1
102
RTVSPropertyOp37
 70
     1
102
RTVSPropertyOp38
 70
     1
102
RTVSPropertyOp39
 70
     1
102
RTVSPropertyOp40
 70
     1
102
RTVSPropertyOp41
 70
     1
102
RTVSPropertyOp42
 70
     1
102
RTVSPropertyOp43
 70
     1
102
RTVSPropertyOp44
 70
     1
102
RTVSPropertyOp45
 70
     1
102
RTVSPropertyOp46
 70
     1
102
RTVSPropertyOp47
 70
     1
102
RTVSPropertyOp48
 70
     1
102
RTVSPropertyOp49
 70
     1
102
RTVSPropertyOp50
 70
     1
102
RTVSPropertyOp51
 70
     0
102
RTVSPropertyOp52
 70
     0
102
RTVSPropertyOp53
 70
     1
102
RTVSPropertyOp54
 70
     1
102
RTVSPropertyOp55
 70
     1
102
RTVSPropertyOp56
 70
     1
102
RTVSPropertyOp57
 70
     1
102
RTVSPost2010Prop28
280
     0
102
RTVSPost2010PropOp28
 70
     1
102
RTVSPost2010Prop29
280
     1
102
RTVSPost2010PropOp29
 70
     1
102
RTVSPost2010Prop30
280
     1
102
RTVSPost2010PropOp30
 70
     1
102
RTVSPost2010Prop31
280
     0
102
RTVSPost2010PropOp31
 70
     1
102
RTVSPost2010Prop32
280
     0
102
RTVSPost2010PropOp32
 70
     1
102
RTVSPost2010Prop33
280
     0
102
RTVSPost2010PropOp33
 70
     1
102
RTVSPost2010Prop34
280
     0
102
RTVSPost2010PropOp34
 70
     1
102
RTVSPost2010Prop35
280
     0
102
RTVSPost2010PropOp35
 70
     1
102
RTVSPost2010Prop36
280
     0
102
RTVSPost2010PropOp36
 70
     1
102
RTVSPost2010Prop37
 90
       50
102
RTVSPost2010PropOp37
 70
     1
102
RTVSPost2010Prop38
140
0.0
102
RTVSPost2010PropOp38
 70
     1
102
RTVSPost2010Prop39
140
1.0
102
RTVSPost2010PropOp39
 70
     1
102
RTVSPost2010Prop40
 90
        0
102
RTVSPost2010PropOp40
 70
     1
102
RTVSPost2010Prop41ColorIndex
 90
       18
102
RTVSPost2010Prop41ColorRGB
 90
        0
102
RTVSPost2010PropOp41
 70
     1
102
RTVSPost2010Prop42
 90
       50
102
RTVSPost2010PropOp42
 70
     1
102
RTVSPost2010Prop43
 90
        3
102
RTVSPost2010PropOp43
 70
     1
102
RTVSPost2010Prop44ColorIndex
 90
        5
102
RTVSPost2010Prop44ColorRGB
 90
      255
102
RTVSPost2010PropOp44
 70
     1
102
RTVSPost2010Prop45
280
     0
102
RTVSPost2010PropOp45
 70
     1
102
RTVSPost2010Prop46
 90
       50
102
RTVSPost2010PropOp46
 70
     1
102
RTVSPost2010Prop47
 90
       50
102
RTVSPost2010PropOp47
 70
     1
102
RTVSPost2010Prop48
 90
       50
102
RTVSPost2010PropOp48
 70
     1
102
RTVSPost2010Prop49
280
     0
102
RTVSPost2010PropOp49
 70
     1
102
RTVSPost2010Prop50
 90
       50
102
RTVSPost2010PropOp50
 70
     1
102
RTVSPost2010Prop51ColorIndex
 90
      256
102
RTVSPost2010Prop51ColorRGB
 90
-16777216
102
RTVSPost2010PropOp51
 70
     0
102
RTVSPost2010Prop52
140
1.0
102
RTVSPost2010PropOp52
 70
     0
102
RTVSPost2010Prop53
 90
        2
102
RTVSPost2010PropOp53
 70
     1
102
RTVSPost2010Prop54
  1
strokes_ogs.tif
102
RTVSPost2010PropOp54
 70
     1
102
RTVSPost2010Prop55
280
     0
102
RTVSPost2010PropOp55
 70
     1
102
RTVSPost2010Prop56
140
1.0
102
RTVSPost2010PropOp56
 70
     1
102
RTVSPost2010Prop57
140
1.0
102
RTVSPost2010PropOp57
 70
     1
  0
XRECORD
  5
2E6
102
{ACAD_REACTORS
330
2E5
102
}
330
2E5
100
AcDbXrecord
280
     1
102
RTVSPropertyOp0
 70
     0
102
RTVSPropertyOp1
 70
     0
102
RTVSPropertyOp2
 70
     0
102
RTVSPropertyOp3
 70
     0
102
RTVSPropertyOp4
 70
     0
102
RTVSPropertyOp5
 70
     0
102
RTVSPropertyOp6
 70
     0
102
RTVSPropertyOp7
 70
     0
102
RTVSPropertyOp8
 70
     0
102
RTVSPropertyOp9
 70
     0
102
RTVSPropertyOp10
 70
     0
102
RTVSPropertyOp11
 70
     0
102
RTVSPropertyOp12
 70
     0
102
RTVSPropertyOp13
 70
     0
102
RTVSPropertyOp14
 70
     2
102
RTVSPropertyOp15
 70
     0
102
RTVSPropertyOp16
 70
     0
102
RTVSPropertyOp17
 70
     0
102
RTVSPropertyOp18
 70
     0
102
RTVSPropertyOp19
 70
     0
102
RTVSPropertyOp20
 70
     0
102
RTVSPropertyOp21
 70
     0
102
RTVSPropertyOp22
 70
     0
102
RTVSPropertyOp23
 70
     0
102
RTVSPropertyOp24
 70
     0
102
RTVSPropertyOp25
 70
     0
102
RTVSPropertyOp26
 70
     0
102
RTVSPropertyOp27
 70
     0
102
RTVSPropertyOp28
 70
     0
102
RTVSPropertyOp29
 70
     0
102
RTVSPropertyOp30
 70
     0
102
RTVSPropertyOp31
 70
     0
102
RTVSPropertyOp32
 70
     0
102
RTVSPropertyOp33
 70
     0
102
RTVSPropertyOp34
 70
     0
102
RTVSPropertyOp35
 70
     0
102
RTVSPropertyOp36
 70
     0
102
RTVSPropertyOp37
 70
     0
102
RTVSPropertyOp38
 70
     0
102
RTVSPropertyOp39
 70
     0
102
RTVSPropertyOp40
 70
     0
102
RTVSPropertyOp41
 70
     0
102
RTVSPropertyOp42
 70
     0
102
RTVSPropertyOp43
 70
     0
102
RTVSPropertyOp44
 70
     0
102
RTVSPropertyOp45
 70
     0
102
RTVSPropertyOp46
 70
     0
102
RTVSPropertyOp47
 70
     0
102
RTVSPropertyOp48
 70
     0
102
RTVSPropertyOp49
 70
     0
102
RTVSPropertyOp50
 70
     0
102
RTVSPropertyOp51
 70
     0
102
RTVSPropertyOp52
 70
     0
102
RTVSPropertyOp53
 70
     0
102
RTVSPropertyOp54
 70
     0
102
RTVSPropertyOp55
 70
     0
102
RTVSPropertyOp56
 70
     0
102
RTVSPropertyOp57
 70
     0
102
RTVSPost2010Prop28
280
     0
102
RTVSPost2010PropOp28
 70
     0
102
RTVSPost2010Prop29
280
     1
102
RTVSPost2010PropOp29
 70
     0
102
RTVSPost2010Prop30
280
     1
102
RTVSPost2010PropOp30
 70
     0
102
RTVSPost2010Prop31
280
     0
102
RTVSPost2010PropOp31
 70
     0
102
RTVSPost2010Prop32
280
     0
102
RTVSPost2010PropOp32
 70
     0
102
RTVSPost2010Prop33
280
     0
102
RTVSPost2010PropOp33
 70
     0
102
RTVSPost2010Prop34
280
     0
102
RTVSPost2010PropOp34
 70
     0
102
RTVSPost2010Prop35
280
     0
102
RTVSPost2010PropOp35
 70
     0
102
RTVSPost2010Prop36
280
     0
102
RTVSPost2010PropOp36
 70
     0
102
RTVSPost2010Prop37
 90
       50
102
RTVSPost2010PropOp37
 70
     0
102
RTVSPost2010Prop38
140
0.0
102
RTVSPost2010PropOp38
 70
     0
102
RTVSPost2010Prop39
140
1.0
102
RTVSPost2010PropOp39
 70
     0
102
RTVSPost2010Prop40
 90
        0
102
RTVSPost2010PropOp40
 70
     0
102
RTVSPost2010Prop41ColorIndex
 90
       18
102
RTVSPost2010Prop41ColorRGB
 90
        0
102
RTVSPost2010PropOp41
 70
     0
102
RTVSPost2010Prop42
 90
       50
102
RTVSPost2010PropOp42
 70
     0
102
RTVSPost2010Prop43
 90
        3
102
RTVSPost2010PropOp43
 70
     0
102
RTVSPost2010Prop44ColorIndex
 90
        5
102
RTVSPost2010Prop44ColorRGB
 90
      255
102
RTVSPost2010PropOp44
 70
     0
102
RTVSPost2010Prop45
280
     0
102
RTVSPost2010PropOp45
 70
     0
102
RTVSPost2010Prop46
 90
       50
102
RTVSPost2010PropOp46
 70
     0
102
RTVSPost2010Prop47
 90
       50
102
RTVSPost2010PropOp47
 70
     0
102
RTVSPost2010Prop48
 90
       50
102
RTVSPost2010PropOp48
 70
     0
102
RTVSPost2010Prop49
280
     0
102
RTVSPost2010PropOp49
 70
     0
102
RTVSPost2010Prop50
 90
       50
102
RTVSPost2010PropOp50
 70
     0
102
RTVSPost2010Prop51ColorIndex
 90
      256
102
RTVSPost2010Prop51ColorRGB
 90
-16777216
102
RTVSPost2010PropOp51
 70
     0
102
RTVSPost2010Prop52
140
1.0
102
RTVSPost2010PropOp52
 70
     0
102
RTVSPost2010Prop53
 90
        2
102
RTVSPost2010PropOp53
 70
     0
102
RTVSPost2010Prop54
  1
strokes_ogs.tif
102
RTVSPost2010PropOp54
 70
     0
102
RTVSPost2010Prop55
280
     0
102
RTVSPost2010PropOp55
 70
     0
102
RTVSPost2010Prop56
140
1.0
102
RTVSPost2010PropOp56
 70
     0
102
RTVSPost2010Prop57
140
1.0
102
RTVSPost2010PropOp57
 70
     0
  0
XRECORD
  5
2D4
102
{ACAD_REACTORS
330
2D3
102
}
330
2D3
100
AcDbXrecord
280
     1
102
RTVSPropertyOp0
 70
     1
102
RTVSPropertyOp1
 70
     1
102
RTVSPropertyOp2
 70
     1
102
RTVSPropertyOp3
 70
     1
102
RTVSPropertyOp4
 70
     1
102
RTVSPropertyOp5
 70
     1
102
RTVSPropertyOp6
 70
     1
102
RTVSPropertyOp7
 70
     1
102
RTVSPropertyOp8
 70
     1
102
RTVSPropertyOp9
 70
     1
102
RTVSPropertyOp10
 70
     1
102
RTVSPropertyOp11
 70
     1
102
RTVSPropertyOp12
 70
     1
102
RTVSPropertyOp13
 70
     1
102
RTVSPropertyOp14
 70
     1
102
RTVSPropertyOp15
 70
     1
102
RTVSPropertyOp16
 70
     1
102
RTVSPropertyOp17
 70
     1
102
RTVSPropertyOp18
 70
     1
102
RTVSPropertyOp19
 70
     1
102
RTVSPropertyOp20
 70
     1
102
RTVSPropertyOp21
 70
     1
102
RTVSPropertyOp22
 70
     1
102
RTVSPropertyOp23
 70
     1
102
RTVSPropertyOp24
 70
     1
102
RTVSPropertyOp25
 70
     1
102
RTVSPropertyOp26
 70
     1
102
RTVSPropertyOp27
 70
     1
102
RTVSPropertyOp28
 70
     1
102
RTVSPropertyOp29
 70
     1
102
RTVSPropertyOp30
 70
     1
102
RTVSPropertyOp31
 70
     1
102
RTVSPropertyOp32
 70
     1
102
RTVSPropertyOp33
 70
     1
102
RTVSPropertyOp34
 70
     1
102
RTVSPropertyOp35
 70
     1
102
RTVSPropertyOp36
 70
     1
102
RTVSPropertyOp37
 70
     1
102
RTVSPropertyOp38
 70
     1
102
RTVSPropertyOp39
 70
     1
102
RTVSPropertyOp40
 70
     1
102
RTVSPropertyOp41
 70
     1
102
RTVSPropertyOp42
 70
     1
102
RTVSPropertyOp43
 70
     1
102
RTVSPropertyOp44
 70
     1
102
RTVSPropertyOp45
 70
     1
102
RTVSPropertyOp46
 70
     1
102
RTVSPropertyOp47
 70
     1
102
RTVSPropertyOp48
 70
     1
102
RTVSPropertyOp49
 70
     1
102
RTVSPropertyOp50
 70
     1
102
RTVSPropertyOp51
 70
     0
102
RTVSPropertyOp52
 70
     0
102
RTVSPropertyOp53
 70
     1
102
RTVSPropertyOp54
 70
     1
102
RTVSPropertyOp55
 70
     1
102
RTVSPropertyOp56
 70
     1
102
RTVSPropertyOp57
 70
     1
102
RTVSPost2010Prop28
280
     0
102
RTVSPost2010PropOp28
 70
     1
102
RTVSPost2010Prop29
280
     1
102
RTVSPost2010PropOp29
 70
     1
102
RTVSPost2010Prop30
280
     1
102
RTVSPost2010PropOp30
 70
     1
102
RTVSPost2010Prop31
280
     0
102
RTVSPost2010PropOp31
 70
     1
102
RTVSPost2010Prop32
280
     0
102
RTVSPost2010PropOp32
 70
     1
102
RTVSPost2010Prop33
280
     0
102
RTVSPost2010PropOp33
 70
     1
102
RTVSPost2010Prop34
280
     0
102
RTVSPost2010PropOp34
 70
     1
102
RTVSPost2010Prop35
280
     0
102
RTVSPost2010PropOp35
 70
     1
102
RTVSPost2010Prop36
280
     0
102
RTVSPost2010PropOp36
 70
     1
102
RTVSPost2010Prop37
 90
       50
102
RTVSPost2010PropOp37
 70
     1
102
RTVSPost2010Prop38
140
0.0
102
RTVSPost2010PropOp38
 70
     1
102
RTVSPost2010Prop39
140
1.0
102
RTVSPost2010PropOp39
 70
     1
102
RTVSPost2010Prop40
 90
        0
102
RTVSPost2010PropOp40
 70
     1
102
RTVSPost2010Prop41ColorIndex
 90
       18
102
RTVSPost2010Prop41ColorRGB
 90
        0
102
RTVSPost2010PropOp41
 70
     1
102
RTVSPost2010Prop42
 90
       50
102
RTVSPost2010PropOp42
 70
     1
102
RTVSPost2010Prop43
 90
        3
102
RTVSPost2010PropOp43
 70
     1
102
RTVSPost2010Prop44ColorIndex
 90
        5
102
RTVSPost2010Prop44ColorRGB
 90
      255
102
RTVSPost2010PropOp44
 70
     1
102
RTVSPost2010Prop45
280
     0
102
RTVSPost2010PropOp45
 70
     1
102
RTVSPost2010Prop46
 90
       50
102
RTVSPost2010PropOp46
 70
     1
102
RTVSPost2010Prop47
 90
       50
102
RTVSPost2010PropOp47
 70
     1
102
RTVSPost2010Prop48
 90
       50
102
RTVSPost2010PropOp48
 70
     1
102
RTVSPost2010Prop49
280
     0
102
RTVSPost2010PropOp49
 70
     1
102
RTVSPost2010Prop50
 90
       50
102
RTVSPost2010PropOp50
 70
     1
102
RTVSPost2010Prop51ColorIndex
 90
      256
102
RTVSPost2010Prop51ColorRGB
 90
-16777216
102
RTVSPost2010PropOp51
 70
     0
102
RTVSPost2010Prop52
140
1.0
102
RTVSPost2010PropOp52
 70
     0
102
RTVSPost2010Prop53
 90
        2
102
RTVSPost2010PropOp53
 70
     1
102
RTVSPost2010Prop54
  1
strokes_ogs.tif
102
RTVSPost2010PropOp54
 70
     1
102
RTVSPost2010Prop55
280
     0
102
RTVSPost2010PropOp55
 70
     1
102
RTVSPost2010Prop56
140
1.0
102
RTVSPost2010PropOp56
 70
     1
102
RTVSPost2010Prop57
140
1.0
102
RTVSPost2010PropOp57
 70
     1
  0
XRECORD
  5
2F2
102
{ACAD_REACTORS
330
2F1
102
}
330
2F1
100
AcDbXrecord
280
     1
102
RTVSPropertyOp0
 70
     1
102
RTVSPropertyOp1
 70
     1
102
RTVSPropertyOp2
 70
     1
102
RTVSPropertyOp3
 70
     1
102
RTVSPropertyOp4
 70
     1
102
RTVSPropertyOp5
 70
     1
102
RTVSPropertyOp6
 70
     1
102
RTVSPropertyOp7
 70
     1
102
RTVSPropertyOp8
 70
     1
102
RTVSPropertyOp9
 70
     1
102
RTVSPropertyOp10
 70
     1
102
RTVSPropertyOp11
 70
     1
102
RTVSPropertyOp12
 70
     1
102
RTVSPropertyOp13
 70
     1
102
RTVSPropertyOp14
 70
     1
102
RTVSPropertyOp15
 70
     1
102
RTVSPropertyOp16
 70
     1
102
RTVSPropertyOp17
 70
     1
102
RTVSPropertyOp18
 70
     1
102
RTVSPropertyOp19
 70
     1
102
RTVSPropertyOp20
 70
     1
102
RTVSPropertyOp21
 70
     1
102
RTVSPropertyOp22
 70
     1
102
RTVSPropertyOp23
 70
     1
102
RTVSPropertyOp24
 70
     1
102
RTVSPropertyOp25
 70
     1
102
RTVSPropertyOp26
 70
     1
102
RTVSPropertyOp27
 70
     1
102
RTVSPropertyOp28
 70
     1
102
RTVSPropertyOp29
 70
     1
102
RTVSPropertyOp30
 70
     1
102
RTVSPropertyOp31
 70
     1
102
RTVSPropertyOp32
 70
     1
102
RTVSPropertyOp33
 70
     1
102
RTVSPropertyOp34
 70
     1
102
RTVSPropertyOp35
 70
     1
102
RTVSPropertyOp36
 70
     1
102
RTVSPropertyOp37
 70
     1
102
RTVSPropertyOp38
 70
     1
102
RTVSPropertyOp39
 70
     1
102
RTVSPropertyOp40
 70
     1
102
RTVSPropertyOp41
 70
     1
102
RTVSPropertyOp42
 70
     1
102
RTVSPropertyOp43
 70
     1
102
RTVSPropertyOp44
 70
     1
102
RTVSPropertyOp45
 70
     1
102
RTVSPropertyOp46
 70
     1
102
RTVSPropertyOp47
 70
     1
102
RTVSPropertyOp48
 70
     1
102
RTVSPropertyOp49
 70
     1
102
RTVSPropertyOp50
 70
     1
102
RTVSPropertyOp51
 70
     0
102
RTVSPropertyOp52
 70
     0
102
RTVSPropertyOp53
 70
     1
102
RTVSPropertyOp54
 70
     1
102
RTVSPropertyOp55
 70
     1
102
RTVSPropertyOp56
 70
     1
102
RTVSPropertyOp57
 70
     1
102
RTVSPost2010Prop28
280
     0
102
RTVSPost2010PropOp28
 70
     1
102
RTVSPost2010Prop29
280
     1
102
RTVSPost2010PropOp29
 70
     1
102
RTVSPost2010Prop30
280
     1
102
RTVSPost2010PropOp30
 70
     1
102
RTVSPost2010Prop31
280
     0
102
RTVSPost2010PropOp31
 70
     1
102
RTVSPost2010Prop32
280
     0
102
RTVSPost2010PropOp32
 70
     1
102
RTVSPost2010Prop33
280
     0
102
RTVSPost2010PropOp33
 70
     1
102
RTVSPost2010Prop34
280
     0
102
RTVSPost2010PropOp34
 70
     1
102
RTVSPost2010Prop35
280
     0
102
RTVSPost2010PropOp35
 70
     1
102
RTVSPost2010Prop36
280
     0
102
RTVSPost2010PropOp36
 70
     1
102
RTVSPost2010Prop37
 90
       50
102
RTVSPost2010PropOp37
 70
     1
102
RTVSPost2010Prop38
140
0.0
102
RTVSPost2010PropOp38
 70
     1
102
RTVSPost2010Prop39
140
1.0
102
RTVSPost2010PropOp39
 70
     1
102
RTVSPost2010Prop40
 90
        0
102
RTVSPost2010PropOp40
 70
     1
102
RTVSPost2010Prop41ColorIndex
 90
       18
102
RTVSPost2010Prop41ColorRGB
 90
        0
102
RTVSPost2010PropOp41
 70
     1
102
RTVSPost2010Prop42
 90
       50
102
RTVSPost2010PropOp42
 70
     1
102
RTVSPost2010Prop43
 90
        3
102
RTVSPost2010PropOp43
 70
     1
102
RTVSPost2010Prop44ColorIndex
 90
        5
102
RTVSPost2010Prop44ColorRGB
 90
      255
102
RTVSPost2010PropOp44
 70
     1
102
RTVSPost2010Prop45
280
     0
102
RTVSPost2010PropOp45
 70
     1
102
RTVSPost2010Prop46
 90
       50
102
RTVSPost2010PropOp46
 70
     1
102
RTVSPost2010Prop47
 90
       50
102
RTVSPost2010PropOp47
 70
     1
102
RTVSPost2010Prop48
 90
       50
102
RTVSPost2010PropOp48
 70
     1
102
RTVSPost2010Prop49
280
     0
102
RTVSPost2010PropOp49
 70
     1
102
RTVSPost2010Prop50
 90
       50
102
RTVSPost2010PropOp50
 70
     1
102
RTVSPost2010Prop51ColorIndex
 90
      256
102
RTVSPost2010Prop51ColorRGB
 90
-16777216
102
RTVSPost2010PropOp51
 70
     0
102
RTVSPost2010Prop52
140
1.0
102
RTVSPost2010PropOp52
 70
     0
102
RTVSPost2010Prop53
 90
        2
102
RTVSPost2010PropOp53
 70
     1
102
RTVSPost2010Prop54
  1
strokes_ogs.tif
102
RTVSPost2010PropOp54
 70
     1
102
RTVSPost2010Prop55
280
     0
102
RTVSPost2010PropOp55
 70
     1
102
RTVSPost2010Prop56
140
1.0
102
RTVSPost2010PropOp56
 70
     1
102
RTVSPost2010Prop57
140
1.0
102
RTVSPost2010PropOp57
 70
     1
  0
XRECORD
  5
2F0
102
{ACAD_REACTORS
330
2EF
102
}
330
2EF
100
AcDbXrecord
280
     1
102
RTVSPropertyOp0
 70
     1
102
RTVSPropertyOp1
 70
     1
102
RTVSPropertyOp2
 70
     1
102
RTVSPropertyOp3
 70
     1
102
RTVSPropertyOp4
 70
     1
102
RTVSPropertyOp5
 70
     1
102
RTVSPropertyOp6
 70
     1
102
RTVSPropertyOp7
 70
     1
102
RTVSPropertyOp8
 70
     1
102
RTVSPropertyOp9
 70
     1
102
RTVSPropertyOp10
 70
     1
102
RTVSPropertyOp11
 70
     1
102
RTVSPropertyOp12
 70
     1
102
RTVSPropertyOp13
 70
     1
102
RTVSPropertyOp14
 70
     1
102
RTVSPropertyOp15
 70
     1
102
RTVSPropertyOp16
 70
     1
102
RTVSPropertyOp17
 70
     1
102
RTVSPropertyOp18
 70
     1
102
RTVSPropertyOp19
 70
     1
102
RTVSPropertyOp20
 70
     1
102
RTVSPropertyOp21
 70
     1
102
RTVSPropertyOp22
 70
     1
102
RTVSPropertyOp23
 70
     1
102
RTVSPropertyOp24
 70
     1
102
RTVSPropertyOp25
 70
     1
102
RTVSPropertyOp26
 70
     1
102
RTVSPropertyOp27
 70
     1
102
RTVSPropertyOp28
 70
     1
102
RTVSPropertyOp29
 70
     1
102
RTVSPropertyOp30
 70
     1
102
RTVSPropertyOp31
 70
     1
102
RTVSPropertyOp32
 70
     1
102
RTVSPropertyOp33
 70
     1
102
RTVSPropertyOp34
 70
     1
102
RTVSPropertyOp35
 70
     1
102
RTVSPropertyOp36
 70
     1
102
RTVSPropertyOp37
 70
     1
102
RTVSPropertyOp38
 70
     1
102
RTVSPropertyOp39
 70
     1
102
RTVSPropertyOp40
 70
     1
102
RTVSPropertyOp41
 70
     1
102
RTVSPropertyOp42
 70
     1
102
RTVSPropertyOp43
 70
     1
102
RTVSPropertyOp44
 70
     1
102
RTVSPropertyOp45
 70
     1
102
RTVSPropertyOp46
 70
     1
102
RTVSPropertyOp47
 70
     1
102
RTVSPropertyOp48
 70
     1
102
RTVSPropertyOp49
 70
     1
102
RTVSPropertyOp50
 70
     1
102
RTVSPropertyOp51
 70
     0
102
RTVSPropertyOp52
 70
     0
102
RTVSPropertyOp53
 70
     1
102
RTVSPropertyOp54
 70
     1
102
RTVSPropertyOp55
 70
     1
102
RTVSPropertyOp56
 70
     1
102
RTVSPropertyOp57
 70
     1
102
RTVSPost2010Prop28
280
     0
102
RTVSPost2010PropOp28
 70
     1
102
RTVSPost2010Prop29
280
     1
102
RTVSPost2010PropOp29
 70
     1
102
RTVSPost2010Prop30
280
     1
102
RTVSPost2010PropOp30
 70
     1
102
RTVSPost2010Prop31
280
     0
102
RTVSPost2010PropOp31
 70
     1
102
RTVSPost2010Prop32
280
     0
102
RTVSPost2010PropOp32
 70
     1
102
RTVSPost2010Prop33
280
     0
102
RTVSPost2010PropOp33
 70
     1
102
RTVSPost2010Prop34
280
     0
102
RTVSPost2010PropOp34
 70
     1
102
RTVSPost2010Prop35
280
     0
102
RTVSPost2010PropOp35
 70
     1
102
RTVSPost2010Prop36
280
     0
102
RTVSPost2010PropOp36
 70
     1
102
RTVSPost2010Prop37
 90
       50
102
RTVSPost2010PropOp37
 70
     1
102
RTVSPost2010Prop38
140
0.0
102
RTVSPost2010PropOp38
 70
     1
102
RTVSPost2010Prop39
140
1.0
102
RTVSPost2010PropOp39
 70
     1
102
RTVSPost2010Prop40
 90
        0
102
RTVSPost2010PropOp40
 70
     1
102
RTVSPost2010Prop41ColorIndex
 90
       18
102
RTVSPost2010Prop41ColorRGB
 90
        0
102
RTVSPost2010PropOp41
 70
     1
102
RTVSPost2010Prop42
 90
       50
102
RTVSPost2010PropOp42
 70
     1
102
RTVSPost2010Prop43
 90
        3
102
RTVSPost2010PropOp43
 70
     1
102
RTVSPost2010Prop44ColorIndex
 90
        5
102
RTVSPost2010Prop44ColorRGB
 90
      255
102
RTVSPost2010PropOp44
 70
     1
102
RTVSPost2010Prop45
280
     0
102
RTVSPost2010PropOp45
 70
     1
102
RTVSPost2010Prop46
 90
       50
102
RTVSPost2010PropOp46
 70
     1
102
RTVSPost2010Prop47
 90
       50
102
RTVSPost2010PropOp47
 70
     1
102
RTVSPost2010Prop48
 90
       50
102
RTVSPost2010PropOp48
 70
     1
102
RTVSPost2010Prop49
280
     0
102
RTVSPost2010PropOp49
 70
     1
102
RTVSPost2010Prop50
 90
       50
102
RTVSPost2010PropOp50
 70
     1
102
RTVSPost2010Prop51ColorIndex
 90
      256
102
RTVSPost2010Prop51ColorRGB
 90
-16777216
102
RTVSPost2010PropOp51
 70
     0
102
RTVSPost2010Prop52
140
1.0
102
RTVSPost2010PropOp52
 70
     0
102
RTVSPost2010Prop53
 90
        2
102
RTVSPost2010PropOp53
 70
     1
102
RTVSPost2010Prop54
  1
strokes_ogs.tif
102
RTVSPost2010PropOp54
 70
     1
102
RTVSPost2010Prop55
280
     0
102
RTVSPost2010PropOp55
 70
     1
102
RTVSPost2010Prop56
140
1.0
102
RTVSPost2010PropOp56
 70
     1
102
RTVSPost2010Prop57
140
1.0
102
RTVSPost2010PropOp57
 70
     1
  0
XRECORD
  5
2EA
102
{ACAD_REACTORS
330
2E9
102
}
330
2E9
100
AcDbXrecord
280
     1
102
RTVSPropertyOp0
 70
     1
102
RTVSPropertyOp1
 70
     1
102
RTVSPropertyOp2
 70
     1
102
RTVSPropertyOp3
 70
     1
102
RTVSPropertyOp4
 70
     1
102
RTVSPropertyOp5
 70
     1
102
RTVSPropertyOp6
 70
     1
102
RTVSPropertyOp7
 70
     1
102
RTVSPropertyOp8
 70
     1
102
RTVSPropertyOp9
 70
     1
102
RTVSPropertyOp10
 70
     1
102
RTVSPropertyOp11
 70
     1
102
RTVSPropertyOp12
 70
     1
102
RTVSPropertyOp13
 70
     1
102
RTVSPropertyOp14
 70
     1
102
RTVSPropertyOp15
 70
     1
102
RTVSPropertyOp16
 70
     1
102
RTVSPropertyOp17
 70
     1
102
RTVSPropertyOp18
 70
     1
102
RTVSPropertyOp19
 70
     1
102
RTVSPropertyOp20
 70
     1
102
RTVSPropertyOp21
 70
     1
102
RTVSPropertyOp22
 70
     1
102
RTVSPropertyOp23
 70
     1
102
RTVSPropertyOp24
 70
     1
102
RTVSPropertyOp25
 70
     1
102
RTVSPropertyOp26
 70
     1
102
RTVSPropertyOp27
 70
     1
102
RTVSPropertyOp28
 70
     1
102
RTVSPropertyOp29
 70
     1
102
RTVSPropertyOp30
 70
     1
102
RTVSPropertyOp31
 70
     1
102
RTVSPropertyOp32
 70
     1
102
RTVSPropertyOp33
 70
     1
102
RTVSPropertyOp34
 70
     1
102
RTVSPropertyOp35
 70
     1
102
RTVSPropertyOp36
 70
     1
102
RTVSPropertyOp37
 70
     1
102
RTVSPropertyOp38
 70
     1
102
RTVSPropertyOp39
 70
     1
102
RTVSPropertyOp40
 70
     1
102
RTVSPropertyOp41
 70
     1
102
RTVSPropertyOp42
 70
     1
102
RTVSPropertyOp43
 70
     1
102
RTVSPropertyOp44
 70
     1
102
RTVSPropertyOp45
 70
     1
102
RTVSPropertyOp46
 70
     1
102
RTVSPropertyOp47
 70
     1
102
RTVSPropertyOp48
 70
     1
102
RTVSPropertyOp49
 70
     1
102
RTVSPropertyOp50
 70
     1
102
RTVSPropertyOp51
 70
     0
102
RTVSPropertyOp52
 70
     0
102
RTVSPropertyOp53
 70
     1
102
RTVSPropertyOp54
 70
     1
102
RTVSPropertyOp55
 70
     1
102
RTVSPropertyOp56
 70
     1
102
RTVSPropertyOp57
 70
     1
102
RTVSPost2010Prop28
280
     0
102
RTVSPost2010PropOp28
 70
     1
102
RTVSPost2010Prop29
280
     1
102
RTVSPost2010PropOp29
 70
     1
102
RTVSPost2010Prop30
280
     1
102
RTVSPost2010PropOp30
 70
     1
102
RTVSPost2010Prop31
280
     0
102
RTVSPost2010PropOp31
 70
     1
102
RTVSPost2010Prop32
280
     0
102
RTVSPost2010PropOp32
 70
     1
102
RTVSPost2010Prop33
280
     0
102
RTVSPost2010PropOp33
 70
     1
102
RTVSPost2010Prop34
280
     0
102
RTVSPost2010PropOp34
 70
     1
102
RTVSPost2010Prop35
280
     0
102
RTVSPost2010PropOp35
 70
     1
102
RTVSPost2010Prop36
280
     0
102
RTVSPost2010PropOp36
 70
     1
102
RTVSPost2010Prop37
 90
       50
102
RTVSPost2010PropOp37
 70
     1
102
RTVSPost2010Prop38
140
0.0
102
RTVSPost2010PropOp38
 70
     1
102
RTVSPost2010Prop39
140
1.0
102
RTVSPost2010PropOp39
 70
     1
102
RTVSPost2010Prop40
 90
        0
102
RTVSPost2010PropOp40
 70
     1
102
RTVSPost2010Prop41ColorIndex
 90
       18
102
RTVSPost2010Prop41ColorRGB
 90
        0
102
RTVSPost2010PropOp41
 70
     1
102
RTVSPost2010Prop42
 90
       50
102
RTVSPost2010PropOp42
 70
     1
102
RTVSPost2010Prop43
 90
        3
102
RTVSPost2010PropOp43
 70
     1
102
RTVSPost2010Prop44ColorIndex
 90
        5
102
RTVSPost2010Prop44ColorRGB
 90
      255
102
RTVSPost2010PropOp44
 70
     1
102
RTVSPost2010Prop45
280
     0
102
RTVSPost2010PropOp45
 70
     1
102
RTVSPost2010Prop46
 90
       50
102
RTVSPost2010PropOp46
 70
     1
102
RTVSPost2010Prop47
 90
       50
102
RTVSPost2010PropOp47
 70
     1
102
RTVSPost2010Prop48
 90
       50
102
RTVSPost2010PropOp48
 70
     1
102
RTVSPost2010Prop49
280
     0
102
RTVSPost2010PropOp49
 70
     1
102
RTVSPost2010Prop50
 90
       50
102
RTVSPost2010PropOp50
 70
     1
102
RTVSPost2010Prop51ColorIndex
 90
      256
102
RTVSPost2010Prop51ColorRGB
 90
-16777216
102
RTVSPost2010PropOp51
 70
     0
102
RTVSPost2010Prop52
140
1.0
102
RTVSPost2010PropOp52
 70
     0
102
RTVSPost2010Prop53
 90
        2
102
RTVSPost2010PropOp53
 70
     1
102
RTVSPost2010Prop54
  1
strokes_ogs.tif
102
RTVSPost2010PropOp54
 70
     1
102
RTVSPost2010Prop55
280
     0
102
RTVSPost2010PropOp55
 70
     1
102
RTVSPost2010Prop56
140
1.0
102
RTVSPost2010PropOp56
 70
     1
102
RTVSPost2010Prop57
140
1.0
102
RTVSPost2010PropOp57
 70
     1
  0
XRECORD
  5
2EC
102
{ACAD_REACTORS
330
2EB
102
}
330
2EB
100
AcDbXrecord
280
     1
102
RTVSPropertyOp0
 70
     1
102
RTVSPropertyOp1
 70
     1
102
RTVSPropertyOp2
 70
     1
102
RTVSPropertyOp3
 70
     1
102
RTVSPropertyOp4
 70
     1
102
RTVSPropertyOp5
 70
     1
102
RTVSPropertyOp6
 70
     1
102
RTVSPropertyOp7
 70
     1
102
RTVSPropertyOp8
 70
     1
102
RTVSPropertyOp9
 70
     1
102
RTVSPropertyOp10
 70
     1
102
RTVSPropertyOp11
 70
     1
102
RTVSPropertyOp12
 70
     1
102
RTVSPropertyOp13
 70
     1
102
RTVSPropertyOp14
 70
     1
102
RTVSPropertyOp15
 70
     1
102
RTVSPropertyOp16
 70
     1
102
RTVSPropertyOp17
 70
     1
102
RTVSPropertyOp18
 70
     1
102
RTVSPropertyOp19
 70
     1
102
RTVSPropertyOp20
 70
     1
102
RTVSPropertyOp21
 70
     1
102
RTVSPropertyOp22
 70
     1
102
RTVSPropertyOp23
 70
     1
102
RTVSPropertyOp24
 70
     1
102
RTVSPropertyOp25
 70
     1
102
RTVSPropertyOp26
 70
     1
102
RTVSPropertyOp27
 70
     1
102
RTVSPropertyOp28
 70
     1
102
RTVSPropertyOp29
 70
     1
102
RTVSPropertyOp30
 70
     1
102
RTVSPropertyOp31
 70
     1
102
RTVSPropertyOp32
 70
     1
102
RTVSPropertyOp33
 70
     1
102
RTVSPropertyOp34
 70
     1
102
RTVSPropertyOp35
 70
     1
102
RTVSPropertyOp36
 70
     1
102
RTVSPropertyOp37
 70
     1
102
RTVSPropertyOp38
 70
     1
102
RTVSPropertyOp39
 70
     1
102
RTVSPropertyOp40
 70
     1
102
RTVSPropertyOp41
 70
     1
102
RTVSPropertyOp42
 70
     1
102
RTVSPropertyOp43
 70
     1
102
RTVSPropertyOp44
 70
     1
102
RTVSPropertyOp45
 70
     1
102
RTVSPropertyOp46
 70
     1
102
RTVSPropertyOp47
 70
     1
102
RTVSPropertyOp48
 70
     1
102
RTVSPropertyOp49
 70
     1
102
RTVSPropertyOp50
 70
     1
102
RTVSPropertyOp51
 70
     0
102
RTVSPropertyOp52
 70
     0
102
RTVSPropertyOp53
 70
     1
102
RTVSPropertyOp54
 70
     1
102
RTVSPropertyOp55
 70
     1
102
RTVSPropertyOp56
 70
     1
102
RTVSPropertyOp57
 70
     1
102
RTVSPost2010Prop28
280
     0
102
RTVSPost2010PropOp28
 70
     1
102
RTVSPost2010Prop29
280
     1
102
RTVSPost2010PropOp29
 70
     1
102
RTVSPost2010Prop30
280
     1
102
RTVSPost2010PropOp30
 70
     1
102
RTVSPost2010Prop31
280
     0
102
RTVSPost2010PropOp31
 70
     1
102
RTVSPost2010Prop32
280
     0
102
RTVSPost2010PropOp32
 70
     1
102
RTVSPost2010Prop33
280
     0
102
RTVSPost2010PropOp33
 70
     1
102
RTVSPost2010Prop34
280
     0
102
RTVSPost2010PropOp34
 70
     1
102
RTVSPost2010Prop35
280
     0
102
RTVSPost2010PropOp35
 70
     1
102
RTVSPost2010Prop36
280
     0
102
RTVSPost2010PropOp36
 70
     1
102
RTVSPost2010Prop37
 90
       50
102
RTVSPost2010PropOp37
 70
     1
102
RTVSPost2010Prop38
140
0.0
102
RTVSPost2010PropOp38
 70
     1
102
RTVSPost2010Prop39
140
1.0
102
RTVSPost2010PropOp39
 70
     1
102
RTVSPost2010Prop40
 90
        0
102
RTVSPost2010PropOp40
 70
     1
102
RTVSPost2010Prop41ColorIndex
 90
       18
102
RTVSPost2010Prop41ColorRGB
 90
        0
102
RTVSPost2010PropOp41
 70
     1
102
RTVSPost2010Prop42
 90
       50
102
RTVSPost2010PropOp42
 70
     1
102
RTVSPost2010Prop43
 90
        3
102
RTVSPost2010PropOp43
 70
     1
102
RTVSPost2010Prop44ColorIndex
 90
        5
102
RTVSPost2010Prop44ColorRGB
 90
      255
102
RTVSPost2010PropOp44
 70
     1
102
RTVSPost2010Prop45
280
     0
102
RTVSPost2010PropOp45
 70
     1
102
RTVSPost2010Prop46
 90
       50
102
RTVSPost2010PropOp46
 70
     1
102
RTVSPost2010Prop47
 90
       50
102
RTVSPost2010PropOp47
 70
     1
102
RTVSPost2010Prop48
 90
       50
102
RTVSPost2010PropOp48
 70
     1
102
RTVSPost2010Prop49
280
     0
102
RTVSPost2010PropOp49
 70
     1
102
RTVSPost2010Prop50
 90
       50
102
RTVSPost2010PropOp50
 70
     1
102
RTVSPost2010Prop51ColorIndex
 90
      256
102
RTVSPost2010Prop51ColorRGB
 90
-16777216
102
RTVSPost2010PropOp51
 70
     0
102
RTVSPost2010Prop52
140
1.0
102
RTVSPost2010PropOp52
 70
     0
102
RTVSPost2010Prop53
 90
        2
102
RTVSPost2010PropOp53
 70
     1
102
RTVSPost2010Prop54
  1
strokes_ogs.tif
102
RTVSPost2010PropOp54
 70
     1
102
RTVSPost2010Prop55
280
     0
102
RTVSPost2010PropOp55
 70
     1
102
RTVSPost2010Prop56
140
1.0
102
RTVSPost2010PropOp56
 70
     1
102
RTVSPost2010Prop57
140
1.0
102
RTVSPost2010PropOp57
 70
     1
  0
XRECORD
  5
2DC
102
{ACAD_REACTORS
330
2DB
102
}
330
2DB
100
AcDbXrecord
280
     1
102
RTVSPropertyOp0
 70
     1
102
RTVSPropertyOp1
 70
     1
102
RTVSPropertyOp2
 70
     1
102
RTVSPropertyOp3
 70
     1
102
RTVSPropertyOp4
 70
     1
102
RTVSPropertyOp5
 70
     1
102
RTVSPropertyOp6
 70
     1
102
RTVSPropertyOp7
 70
     1
102
RTVSPropertyOp8
 70
     1
102
RTVSPropertyOp9
 70
     1
102
RTVSPropertyOp10
 70
     1
102
RTVSPropertyOp11
 70
     1
102
RTVSPropertyOp12
 70
     1
102
RTVSPropertyOp13
 70
     1
102
RTVSPropertyOp14
 70
     1
102
RTVSPropertyOp15
 70
     1
102
RTVSPropertyOp16
 70
     1
102
RTVSPropertyOp17
 70
     1
102
RTVSPropertyOp18
 70
     1
102
RTVSPropertyOp19
 70
     1
102
RTVSPropertyOp20
 70
     1
102
RTVSPropertyOp21
 70
     1
102
RTVSPropertyOp22
 70
     1
102
RTVSPropertyOp23
 70
     1
102
RTVSPropertyOp24
 70
     1
102
RTVSPropertyOp25
 70
     1
102
RTVSPropertyOp26
 70
     1
102
RTVSPropertyOp27
 70
     1
102
RTVSPropertyOp28
 70
     1
102
RTVSPropertyOp29
 70
     1
102
RTVSPropertyOp30
 70
     1
102
RTVSPropertyOp31
 70
     1
102
RTVSPropertyOp32
 70
     1
102
RTVSPropertyOp33
 70
     1
102
RTVSPropertyOp34
 70
     1
102
RTVSPropertyOp35
 70
     1
102
RTVSPropertyOp36
 70
     1
102
RTVSPropertyOp37
 70
     1
102
RTVSPropertyOp38
 70
     1
102
RTVSPropertyOp39
 70
     1
102
RTVSPropertyOp40
 70
     1
102
RTVSPropertyOp41
 70
     1
102
RTVSPropertyOp42
 70
     1
102
RTVSPropertyOp43
 70
     1
102
RTVSPropertyOp44
 70
     1
102
RTVSPropertyOp45
 70
     1
102
RTVSPropertyOp46
 70
     1
102
RTVSPropertyOp47
 70
     1
102
RTVSPropertyOp48
 70
     1
102
RTVSPropertyOp49
 70
     1
102
RTVSPropertyOp50
 70
     1
102
RTVSPropertyOp51
 70
     0
102
RTVSPropertyOp52
 70
     0
102
RTVSPropertyOp53
 70
     1
102
RTVSPropertyOp54
 70
     1
102
RTVSPropertyOp55
 70
     1
102
RTVSPropertyOp56
 70
     1
102
RTVSPropertyOp57
 70
     1
102
RTVSPost2010Prop28
280
     0
102
RTVSPost2010PropOp28
 70
     1
102
RTVSPost2010Prop29
280
     1
102
RTVSPost2010PropOp29
 70
     1
102
RTVSPost2010Prop30
280
     1
102
RTVSPost2010PropOp30
 70
     1
102
RTVSPost2010Prop31
280
     0
102
RTVSPost2010PropOp31
 70
     1
102
RTVSPost2010Prop32
280
     0
102
RTVSPost2010PropOp32
 70
     1
102
RTVSPost2010Prop33
280
     0
102
RTVSPost2010PropOp33
 70
     1
102
RTVSPost2010Prop34
280
     0
102
RTVSPost2010PropOp34
 70
     1
102
RTVSPost2010Prop35
280
     0
102
RTVSPost2010PropOp35
 70
     1
102
RTVSPost2010Prop36
280
     0
102
RTVSPost2010PropOp36
 70
     1
102
RTVSPost2010Prop37
 90
       50
102
RTVSPost2010PropOp37
 70
     1
102
RTVSPost2010Prop38
140
0.0
102
RTVSPost2010PropOp38
 70
     1
102
RTVSPost2010Prop39
140
1.0
102
RTVSPost2010PropOp39
 70
     1
102
RTVSPost2010Prop40
 90
        0
102
RTVSPost2010PropOp40
 70
     1
102
RTVSPost2010Prop41ColorIndex
 90
       18
102
RTVSPost2010Prop41ColorRGB
 90
        0
102
RTVSPost2010PropOp41
 70
     1
102
RTVSPost2010Prop42
 90
       50
102
RTVSPost2010PropOp42
 70
     1
102
RTVSPost2010Prop43
 90
        3
102
RTVSPost2010PropOp43
 70
     1
102
RTVSPost2010Prop44ColorIndex
 90
        5
102
RTVSPost2010Prop44ColorRGB
 90
      255
102
RTVSPost2010PropOp44
 70
     1
102
RTVSPost2010Prop45
280
     0
102
RTVSPost2010PropOp45
 70
     1
102
RTVSPost2010Prop46
 90
       50
102
RTVSPost2010PropOp46
 70
     1
102
RTVSPost2010Prop47
 90
       50
102
RTVSPost2010PropOp47
 70
     1
102
RTVSPost2010Prop48
 90
       50
102
RTVSPost2010PropOp48
 70
     1
102
RTVSPost2010Prop49
280
     0
102
RTVSPost2010PropOp49
 70
     1
102
RTVSPost2010Prop50
 90
       50
102
RTVSPost2010PropOp50
 70
     1
102
RTVSPost2010Prop51ColorIndex
 90
      256
102
RTVSPost2010Prop51ColorRGB
 90
-16777216
102
RTVSPost2010PropOp51
 70
     0
102
RTVSPost2010Prop52
140
1.0
102
RTVSPost2010PropOp52
 70
     0
102
RTVSPost2010Prop53
 90
        2
102
RTVSPost2010PropOp53
 70
     1
102
RTVSPost2010Prop54
  1
strokes_ogs.tif
102
RTVSPost2010PropOp54
 70
     1
102
RTVSPost2010Prop55
280
     0
102
RTVSPost2010PropOp55
 70
     1
102
RTVSPost2010Prop56
140
1.0
102
RTVSPost2010PropOp56
 70
     1
102
RTVSPost2010Prop57
140
1.0
102
RTVSPost2010PropOp57
 70
     1
  0
XRECORD
  5
2CE
102
{ACAD_REACTORS
330
2CD
102
}
330
2CD
100
AcDbXrecord
280
     1
102
RTVSPropertyOp0
 70
     1
102
RTVSPropertyOp1
 70
     1
102
RTVSPropertyOp2
 70
     1
102
RTVSPropertyOp3
 70
     1
102
RTVSPropertyOp4
 70
     1
102
RTVSPropertyOp5
 70
     1
102
RTVSPropertyOp6
 70
     1
102
RTVSPropertyOp7
 70
     1
102
RTVSPropertyOp8
 70
     1
102
RTVSPropertyOp9
 70
     1
102
RTVSPropertyOp10
 70
     1
102
RTVSPropertyOp11
 70
     1
102
RTVSPropertyOp12
 70
     1
102
RTVSPropertyOp13
 70
     1
102
RTVSPropertyOp14
 70
     1
102
RTVSPropertyOp15
 70
     1
102
RTVSPropertyOp16
 70
     1
102
RTVSPropertyOp17
 70
     1
102
RTVSPropertyOp18
 70
     1
102
RTVSPropertyOp19
 70
     1
102
RTVSPropertyOp20
 70
     1
102
RTVSPropertyOp21
 70
     1
102
RTVSPropertyOp22
 70
     1
102
RTVSPropertyOp23
 70
     1
102
RTVSPropertyOp24
 70
     1
102
RTVSPropertyOp25
 70
     1
102
RTVSPropertyOp26
 70
     1
102
RTVSPropertyOp27
 70
     1
102
RTVSPropertyOp28
 70
     1
102
RTVSPropertyOp29
 70
     1
102
RTVSPropertyOp30
 70
     1
102
RTVSPropertyOp31
 70
     1
102
RTVSPropertyOp32
 70
     1
102
RTVSPropertyOp33
 70
     1
102
RTVSPropertyOp34
 70
     1
102
RTVSPropertyOp35
 70
     1
102
RTVSPropertyOp36
 70
     1
102
RTVSPropertyOp37
 70
     1
102
RTVSPropertyOp38
 70
     1
102
RTVSPropertyOp39
 70
     1
102
RTVSPropertyOp40
 70
     1
102
RTVSPropertyOp41
 70
     1
102
RTVSPropertyOp42
 70
     1
102
RTVSPropertyOp43
 70
     1
102
RTVSPropertyOp44
 70
     1
102
RTVSPropertyOp45
 70
     1
102
RTVSPropertyOp46
 70
     1
102
RTVSPropertyOp47
 70
     1
102
RTVSPropertyOp48
 70
     1
102
RTVSPropertyOp49
 70
     1
102
RTVSPropertyOp50
 70
     1
102
RTVSPropertyOp51
 70
     0
102
RTVSPropertyOp52
 70
     0
102
RTVSPropertyOp53
 70
     1
102
RTVSPropertyOp54
 70
     1
102
RTVSPropertyOp55
 70
     1
102
RTVSPropertyOp56
 70
     1
102
RTVSPropertyOp57
 70
     1
102
RTVSPost2010Prop28
280
     0
102
RTVSPost2010PropOp28
 70
     1
102
RTVSPost2010Prop29
280
     1
102
RTVSPost2010PropOp29
 70
     1
102
RTVSPost2010Prop30
280
     1
102
RTVSPost2010PropOp30
 70
     1
102
RTVSPost2010Prop31
280
     0
102
RTVSPost2010PropOp31
 70
     1
102
RTVSPost2010Prop32
280
     0
102
RTVSPost2010PropOp32
 70
     1
102
RTVSPost2010Prop33
280
     0
102
RTVSPost2010PropOp33
 70
     1
102
RTVSPost2010Prop34
280
     0
102
RTVSPost2010PropOp34
 70
     1
102
RTVSPost2010Prop35
280
     0
102
RTVSPost2010PropOp35
 70
     1
102
RTVSPost2010Prop36
280
     0
102
RTVSPost2010PropOp36
 70
     1
102
RTVSPost2010Prop37
 90
       50
102
RTVSPost2010PropOp37
 70
     1
102
RTVSPost2010Prop38
140
0.0
102
RTVSPost2010PropOp38
 70
     1
102
RTVSPost2010Prop39
140
1.0
102
RTVSPost2010PropOp39
 70
     1
102
RTVSPost2010Prop40
 90
        0
102
RTVSPost2010PropOp40
 70
     1
102
RTVSPost2010Prop41ColorIndex
 90
       18
102
RTVSPost2010Prop41ColorRGB
 90
        0
102
RTVSPost2010PropOp41
 70
     1
102
RTVSPost2010Prop42
 90
       50
102
RTVSPost2010PropOp42
 70
     1
102
RTVSPost2010Prop43
 90
        3
102
RTVSPost2010PropOp43
 70
     1
102
RTVSPost2010Prop44ColorIndex
 90
        5
102
RTVSPost2010Prop44ColorRGB
 90
      255
102
RTVSPost2010PropOp44
 70
     1
102
RTVSPost2010Prop45
280
     0
102
RTVSPost2010PropOp45
 70
     1
102
RTVSPost2010Prop46
 90
       50
102
RTVSPost2010PropOp46
 70
     1
102
RTVSPost2010Prop47
 90
       50
102
RTVSPost2010PropOp47
 70
     1
102
RTVSPost2010Prop48
 90
       50
102
RTVSPost2010PropOp48
 70
     1
102
RTVSPost2010Prop49
280
     0
102
RTVSPost2010PropOp49
 70
     1
102
RTVSPost2010Prop50
 90
       50
102
RTVSPost2010PropOp50
 70
     1
102
RTVSPost2010Prop51ColorIndex
 90
      256
102
RTVSPost2010Prop51ColorRGB
 90
-16777216
102
RTVSPost2010PropOp51
 70
     0
102
RTVSPost2010Prop52
140
1.0
102
RTVSPost2010PropOp52
 70
     0
102
RTVSPost2010Prop53
 90
        2
102
RTVSPost2010PropOp53
 70
     1
102
RTVSPost2010Prop54
  1
strokes_ogs.tif
102
RTVSPost2010PropOp54
 70
     1
102
RTVSPost2010Prop55
280
     0
102
RTVSPost2010PropOp55
 70
     1
102
RTVSPost2010Prop56
140
1.0
102
RTVSPost2010PropOp56
 70
     1
102
RTVSPost2010Prop57
140
1.0
102
RTVSPost2010PropOp57
 70
     1
  0
XRECORD
  5
2EE
102
{ACAD_REACTORS
330
2ED
102
}
330
2ED
100
AcDbXrecord
280
     1
102
RTVSPropertyOp0
 70
     1
102
RTVSPropertyOp1
 70
     1
102
RTVSPropertyOp2
 70
     1
102
RTVSPropertyOp3
 70
     1
102
RTVSPropertyOp4
 70
     1
102
RTVSPropertyOp5
 70
     1
102
RTVSPropertyOp6
 70
     1
102
RTVSPropertyOp7
 70
     1
102
RTVSPropertyOp8
 70
     1
102
RTVSPropertyOp9
 70
     1
102
RTVSPropertyOp10
 70
     1
102
RTVSPropertyOp11
 70
     1
102
RTVSPropertyOp12
 70
     1
102
RTVSPropertyOp13
 70
     1
102
RTVSPropertyOp14
 70
     1
102
RTVSPropertyOp15
 70
     1
102
RTVSPropertyOp16
 70
     1
102
RTVSPropertyOp17
 70
     1
102
RTVSPropertyOp18
 70
     1
102
RTVSPropertyOp19
 70
     1
102
RTVSPropertyOp20
 70
     1
102
RTVSPropertyOp21
 70
     1
102
RTVSPropertyOp22
 70
     1
102
RTVSPropertyOp23
 70
     1
102
RTVSPropertyOp24
 70
     1
102
RTVSPropertyOp25
 70
     1
102
RTVSPropertyOp26
 70
     1
102
RTVSPropertyOp27
 70
     1
102
RTVSPropertyOp28
 70
     1
102
RTVSPropertyOp29
 70
     1
102
RTVSPropertyOp30
 70
     1
102
RTVSPropertyOp31
 70
     1
102
RTVSPropertyOp32
 70
     1
102
RTVSPropertyOp33
 70
     1
102
RTVSPropertyOp34
 70
     1
102
RTVSPropertyOp35
 70
     1
102
RTVSPropertyOp36
 70
     1
102
RTVSPropertyOp37
 70
     1
102
RTVSPropertyOp38
 70
     1
102
RTVSPropertyOp39
 70
     1
102
RTVSPropertyOp40
 70
     1
102
RTVSPropertyOp41
 70
     1
102
RTVSPropertyOp42
 70
     1
102
RTVSPropertyOp43
 70
     1
102
RTVSPropertyOp44
 70
     1
102
RTVSPropertyOp45
 70
     1
102
RTVSPropertyOp46
 70
     1
102
RTVSPropertyOp47
 70
     1
102
RTVSPropertyOp48
 70
     1
102
RTVSPropertyOp49
 70
     1
102
RTVSPropertyOp50
 70
     1
102
RTVSPropertyOp51
 70
     0
102
RTVSPropertyOp52
 70
     0
102
RTVSPropertyOp53
 70
     1
102
RTVSPropertyOp54
 70
     1
102
RTVSPropertyOp55
 70
     1
102
RTVSPropertyOp56
 70
     1
102
RTVSPropertyOp57
 70
     1
102
RTVSPost2010Prop28
280
     0
102
RTVSPost2010PropOp28
 70
     1
102
RTVSPost2010Prop29
280
     1
102
RTVSPost2010PropOp29
 70
     1
102
RTVSPost2010Prop30
280
     1
102
RTVSPost2010PropOp30
 70
     1
102
RTVSPost2010Prop31
280
     0
102
RTVSPost2010PropOp31
 70
     1
102
RTVSPost2010Prop32
280
     0
102
RTVSPost2010PropOp32
 70
     1
102
RTVSPost2010Prop33
280
     0
102
RTVSPost2010PropOp33
 70
     1
102
RTVSPost2010Prop34
280
     0
102
RTVSPost2010PropOp34
 70
     1
102
RTVSPost2010Prop35
280
     0
102
RTVSPost2010PropOp35
 70
     1
102
RTVSPost2010Prop36
280
     0
102
RTVSPost2010PropOp36
 70
     1
102
RTVSPost2010Prop37
 90
       50
102
RTVSPost2010PropOp37
 70
     1
102
RTVSPost2010Prop38
140
0.0
102
RTVSPost2010PropOp38
 70
     1
102
RTVSPost2010Prop39
140
1.0
102
RTVSPost2010PropOp39
 70
     1
102
RTVSPost2010Prop40
 90
        0
102
RTVSPost2010PropOp40
 70
     1
102
RTVSPost2010Prop41ColorIndex
 90
       18
102
RTVSPost2010Prop41ColorRGB
 90
        0
102
RTVSPost2010PropOp41
 70
     1
102
RTVSPost2010Prop42
 90
       50
102
RTVSPost2010PropOp42
 70
     1
102
RTVSPost2010Prop43
 90
        3
102
RTVSPost2010PropOp43
 70
     1
102
RTVSPost2010Prop44ColorIndex
 90
        5
102
RTVSPost2010Prop44ColorRGB
 90
      255
102
RTVSPost2010PropOp44
 70
     1
102
RTVSPost2010Prop45
280
     0
102
RTVSPost2010PropOp45
 70
     1
102
RTVSPost2010Prop46
 90
       50
102
RTVSPost2010PropOp46
 70
     1
102
RTVSPost2010Prop47
 90
       50
102
RTVSPost2010PropOp47
 70
     1
102
RTVSPost2010Prop48
 90
       50
102
RTVSPost2010PropOp48
 70
     1
102
RTVSPost2010Prop49
280
     0
102
RTVSPost2010PropOp49
 70
     1
102
RTVSPost2010Prop50
 90
       50
102
RTVSPost2010PropOp50
 70
     1
102
RTVSPost2010Prop51ColorIndex
 90
      256
102
RTVSPost2010Prop51ColorRGB
 90
-16777216
102
RTVSPost2010PropOp51
 70
     0
102
RTVSPost2010Prop52
140
1.0
102
RTVSPost2010PropOp52
 70
     0
102
RTVSPost2010Prop53
 90
        2
102
RTVSPost2010PropOp53
 70
     1
102
RTVSPost2010Prop54
  1
strokes_ogs.tif
102
RTVSPost2010PropOp54
 70
     1
102
RTVSPost2010Prop55
280
     0
102
RTVSPost2010PropOp55
 70
     1
102
RTVSPost2010Prop56
140
1.0
102
RTVSPost2010PropOp56
 70
     1
102
RTVSPost2010Prop57
140
1.0
102
RTVSPost2010PropOp57
 70
     1
  0
ENDSEC
  0
EOF
