  0
SECTION
  2
HEADER
  9
$ACADVER
  1
AC1018
  9
$ACADMAINTVER
 70
     0
  9
$DWGCODEPAGE
  3
ANSI_1252
  9
$INSBASE
 10
0.0
 20
0.0
 30
0.0
  9
$EXTMIN
 10
0.0371319298336456
 20
-0.6028826327634097
 30
0.002
  9
$EXTMAX
 10
2.051041344768879
 20
0.8210937212312001
 30
-0.002
  9
$LIMMIN
 10
0.0
 20
0.0
  9
$LIMMAX
 10
12.0
 20
9.0
  9
$ORTHOMODE
 70
     0
  9
$REGENMODE
 70
     1
  9
$FILLMODE
 70
     1
  9
$QTEXTMODE
 70
     0
  9
$MIRRTEXT
 70
     1
  9
$LTSCALE
 40
1.0
  9
$ATTMODE
 70
     1
  9
$TEXTSIZE
 40
0.2
  9
$TRACEWID
 40
0.05
  9
$TEXTSTYLE
  7
Simplex
  9
$CLAYER
  8
0
  9
$CELTYPE
  6
ByLayer
  9
$CECOLOR
 62
   256
  9
$CELTSCALE
 40
1.0
  9
$DISPSILH
 70
     0
  9
$DIMSCALE
 40
1.0
  9
$DIMASZ
 40
0.18
  9
$DIMEXO
 40
0.0625
  9
$DIMDLI
 40
0.38
  9
$DIMRND
 40
0.0
  9
$DIMDLE
 40
0.0
  9
$DIMEXE
 40
0.18
  9
$DIMTP
 40
0.0
  9
$DIMTM
 40
0.0
  9
$DIMTXT
 40
0.18
  9
$DIMCEN
 40
0.09
  9
$DIMTSZ
 40
0.0
  9
$DIMTOL
 70
     0
  9
$DIMLIM
 70
     0
  9
$DIMTIH
 70
     1
  9
$DIMTOH
 70
     1
  9
$DIMSE1
 70
     0
  9
$DIMSE2
 70
     0
  9
$DIMTAD
 70
     0
  9
$DIMZIN
 70
     0
  9
$DIMBLK
  1

  9
$DIMASO
 70
     1
  9
$DIMSHO
 70
     1
  9
$DIMPOST
  1

  9
$DIMAPOST
  1

  9
$DIMALT
 70
     0
  9
$DIMALTD
 70
     2
  9
$DIMALTF
 40
25.4
  9
$DIMLFAC
 40
1.0
  9
$DIMTOFL
 70
     0
  9
$DIMTVP
 40
0.0
  9
$DIMTIX
 70
     0
  9
$DIMSOXD
 70
     0
  9
$DIMSAH
 70
     0
  9
$DIMBLK1
  1

  9
$DIMBLK2
  1

  9
$DIMSTYLE
  2
Standard
  9
$DIMCLRD
 70
     0
  9
$DIMCLRE
 70
     0
  9
$DIMCLRT
 70
     0
  9
$DIMTFAC
 40
1.0
  9
$DIMGAP
 40
0.09
  9
$DIMJUST
 70
     0
  9
$DIMSD1
 70
     0
  9
$DIMSD2
 70
     0
  9
$DIMTOLJ
 70
     1
  9
$DIMTZIN
 70
     0
  9
$DIMALTZ
 70
     0
  9
$DIMALTTZ
 70
     0
  9
$DIMUPT
 70
     0
  9
$DIMDEC
 70
     4
  9
$DIMTDEC
 70
     4
  9
$DIMALTU
 70
     2
  9
$DIMALTTD
 70
     2
  9
$DIMTXSTY
  7
Standard
  9
$DIMAUNIT
 70
     0
  9
$DIMADEC
 70
     0
  9
$DIMALTRND
 40
0.0
  9
$DIMAZIN
 70
     0
  9
$DIMDSEP
 70
    46
  9
$DIMATFIT
 70
     3
  9
$DIMFRAC
 70
     0
  9
$DIMLDRBLK
  1

  9
$DIMLUNIT
 70
     2
  9
$DIMLWD
 70
    -2
  9
$DIMLWE
 70
    -2
  9
$DIMTMOVE
 70
     0
  9
$LUNITS
 70
     2
  9
$LUPREC
 70
     4
  9
$SKETCHINC
 40
0.1
  9
$FILLETRAD
 40
0.5
  9
$AUNITS
 70
     0
  9
$AUPREC
 70
     0
  9
$MENU
  1
.
  9
$ELEVATION
 40
0.0
  9
$PELEVATION
 40
0.0
  9
$THICKNESS
 40
0.0
  9
$LIMCHECK
 70
     0
  9
$CHAMFERA
 40
0.5
  9
$CHAMFERB
 40
0.5
  9
$CHAMFERC
 40
1.0
  9
$CHAMFERD
 40
0.0
  9
$SKPOLY
 70
     0
  9
$TDCREATE
 40
2452381.314152083
  9
$TDUCREATE
 40
2452380.897485417
  9
$TDUPDATE
 40
2457966.335189884
  9
$TDUUPDATE
 40
2457965.918523218
  9
$TDINDWG
 40
0.0040921296
  9
$TDUSRTIMER
 40
0.0040921296
  9
$USRTIMER
 70
     1
  9
$ANGBASE
 50
0.0
  9
$ANGDIR
 70
     0
  9
$PDMODE
 70
     0
  9
$PDSIZE
 40
0.0
  9
$PLINEWID
 40
0.0
  9
$SPLFRAME
 70
     0
  9
$SPLINETYPE
 70
     6
  9
$SPLINESEGS
 70
     8
  9
$HANDSEED
  5
30B
  9
$SURFTAB1
 70
     6
  9
$SURFTAB2
 70
     6
  9
$SURFTYPE
 70
     6
  9
$SURFU
 70
     6
  9
$SURFV
 70
     6
  9
$UCSBASE
  2

  9
$UCSNAME
  2

  9
$UCSORG
 10
0.0
 20
0.0
 30
0.0
  9
$UCSXDIR
 10
1.0
 20
0.0
 30
0.0
  9
$UCSYDIR
 10
0.0
 20
1.0
 30
0.0
  9
$UCSORTHOREF
  2

  9
$UCSORTHOVIEW
 70
     0
  9
$UCSORGTOP
 10
0.0
 20
0.0
 30
0.0
  9
$UCSORGBOTTOM
 10
0.0
 20
0.0
 30
0.0
  9
$UCSORGLEFT
 10
0.0
 20
0.0
 30
0.0
  9
$UCSORGRIGHT
 10
0.0
 20
0.0
 30
0.0
  9
$UCSORGFRONT
 10
0.0
 20
0.0
 30
0.0
  9
$UCSORGBACK
 10
0.0
 20
0.0
 30
0.0
  9
$PUCSBASE
  2

  9
$PUCSNAME
  2

  9
$PUCSORG
 10
0.0
 20
0.0
 30
0.0
  9
$PUCSXDIR
 10
1.0
 20
0.0
 30
0.0
  9
$PUCSYDIR
 10
0.0
 20
1.0
 30
0.0
  9
$PUCSORTHOREF
  2

  9
$PUCSORTHOVIEW
 70
     0
  9
$PUCSORGTOP
 10
0.0
 20
0.0
 30
0.0
  9
$PUCSORGBOTTOM
 10
0.0
 20
0.0
 30
0.0
  9
$PUCSORGLEFT
 10
0.0
 20
0.0
 30
0.0
  9
$PUCSORGRIGHT
 10
0.0
 20
0.0
 30
0.0
  9
$PUCSORGFRONT
 10
0.0
 20
0.0
 30
0.0
  9
$PUCSORGBACK
 10
0.0
 20
0.0
 30
0.0
  9
$USERI1
 70
     0
  9
$USERI2
 70
     0
  9
$USERI3
 70
     0
  9
$USERI4
 70
     0
  9
$USERI5
 70
     0
  9
$USERR1
 40
0.0
  9
$USERR2
 40
0.0
  9
$USERR3
 40
0.0
  9
$USERR4
 40
0.0
  9
$USERR5
 40
0.0
  9
$WORLDVIEW
 70
     1
  9
$SHADEDGE
 70
     3
  9
$SHADEDIF
 70
    70
  9
$TILEMODE
 70
     1
  9
$MAXACTVP
 70
    64
  9
$PINSBASE
 10
0.0
 20
0.0
 30
0.0
  9
$PLIMCHECK
 70
     0
  9
$PEXTMIN
 10
1.000000000000000E+20
 20
1.000000000000000E+20
 30
1.000000000000000E+20
  9
$PEXTMAX
 10
-1.000000000000000E+20
 20
-1.000000000000000E+20
 30
-1.000000000000000E+20
  9
$PLIMMIN
 10
0.0
 20
0.0
  9
$PLIMMAX
 10
12.0
 20
9.0
  9
$UNITMODE
 70
     0
  9
$VISRETAIN
 70
     1
  9
$PLINEGEN
 70
     0
  9
$PSLTSCALE
 70
     1
  9
$TREEDEPTH
 70
  3020
  9
$CMLSTYLE
  2
Standard
  9
$CMLJUST
 70
     0
  9
$CMLSCALE
 40
1.0
  9
$PROXYGRAPHICS
 70
     1
  9
$MEASUREMENT
 70
     0
  9
$CELWEIGHT
370
    -1
  9
$ENDCAPS
280
     0
  9
$JOINSTYLE
280
     0
  9
$LWDISPLAY
290
     1
  9
$INSUNITS
 70
     0
  9
$HYPERLINKBASE
  1

  9
$STYLESHEET
  1

  9
$XEDIT
290
     1
  9
$CEPSNTYPE
380
     0
  9
$PSTYLEMODE
290
     1
  9
$FINGERPRINTGUID
  2
{2DA8D5D2-0A6F-4433-BE9F-7C818D36D6ED}
  9
$VERSIONGUID
  2
{A098EE71-2063-4C44-BF23-3920F6FD3DB3}
  9
$EXTNAMES
290
     1
  9
$PSVPSCALE
 40
0.0
  9
$OLESTARTUP
290
     0
  9
$SORTENTS
280
   127
  9
$INDEXCTL
280
     0
  9
$HIDETEXT
280
     1
  9
$XCLIPFRAME
290
     0
  9
$HALOGAP
280
     0
  9
$OBSCOLOR
 70
   257
  9
$OBSLTYPE
280
     0
  9
$INTERSECTIONDISPLAY
280
     0
  9
$INTERSECTIONCOLOR
 70
   257
  9
$DIMASSOC
280
     1
  9
$PROJECTNAME
  1

  0
ENDSEC
  0
SECTION
  2
CLASSES
  0
CLASS
  1
ACDBDICTIONARYWDFLT
  2
AcDbDictionaryWithDefault
  3
ObjectDBX Classes
 90
        0
 91
        4
280
     0
281
     0
  0
CLASS
  1
ACDBPLACEHOLDER
  2
AcDbPlaceHolder
  3
ObjectDBX Classes
 90
        0
 91
        1
280
     0
281
     0
  0
CLASS
  1
LAYOUT
  2
AcDbLayout
  3
ObjectDBX Classes
 90
        0
 91
        1
280
     0
281
     0
  0
CLASS
  1
DICTIONARYVAR
  2
AcDbDictionaryVar
  3
ObjectDBX Classes
 90
        0
 91
        4
280
     0
281
     0
  0
CLASS
  1
VISUALSTYLE
  2
AcDbVisualStyle
  3
ObjectDBX Classes
 90
     4095
 91
        4
280
     0
281
     0
  0
CLASS
  1
SCALE
  2
AcDbScale
  3
ObjectDBX Classes
 90
     1153
 91
        4
280
     0
281
     0
  0
CLASS
  1
MATERIAL
  2
AcDbMaterial
  3
ObjectDBX Classes
 90
     1153
 91
        4
280
     0
281
     0
  0
CLASS
  1
TABLESTYLE
  2
AcDbTableStyle
  3
ObjectDBX Classes
 90
     4095
 91
        4
280
     0
281
     0
  0
CLASS
  1
MLEADERSTYLE
  2
AcDbMLeaderStyle
  3
ACDB_MLEADERSTYLE_CLASS
 90
     4095
 91
        4
280
     0
281
     0
  0
CLASS
  1
RASTERVARIABLES
  2
AcDbRasterVariables
  3
ISM
 90
        0
 91
        4
280
     0
281
     0
  0
CLASS
  1
SUN
  2
AcDbSun
  3
SCENEOE
 90
     1153
 91
        4
280
     0
281
     0
  0
CLASS
  1
CELLSTYLEMAP
  2
AcDbCellStyleMap
  3
ObjectDBX Classes
 90
     1152
 91
        4
280
     0
281
     0
  0
ENDSEC
  0
SECTION
  2
TABLES
  0
TABLE
  2
VPORT
  5
8
102
{ACAD_XDICTIONARY
360
2C5
102
}
330
0
100
AcDbSymbolTable
 70
     2
  0
VPORT
  5
55
330
8
100
AcDbSymbolTableRecord
100
AcDbViewportTableRecord
  2
*Active
 70
     0
 10
0.0
 20
0.0
 11
1.0
 21
1.0
 12
0.0
 22
0.0
 13
0.0
 23
0.0
 14
0.5
 24
0.5
 15
0.5
 25
0.5
 16
0.0
 26
0.0
 36
1.0
 17
1.044086637301262
 27
0.1091055442338952
 37
0.0
 40
1.566373989394069
 41
1.414285714285714
 42
50.0
 43
0.0
 44
0.0
 50
0.0
 51
0.0
 71
     8
 72
   100
 73
     1
 74
     3
 75
     0
 76
     0
 77
     0
 78
     0
281
     0
 65
     1
110
0.0
120
0.0
130
0.0
111
1.0
121
0.0
131
0.0
112
0.0
122
1.0
132
0.0
 79
     0
146
0.0
  0
ENDTAB
  0
TABLE
  2
LTYPE
  5
5
330
0
100
AcDbSymbolTable
 70
    25
  0
LTYPE
  5
14
330
5
100
AcDbSymbolTableRecord
100
AcDbLinetypeTableRecord
  2
ByBlock
 70
     0
  3

 72
    65
 73
     0
 40
0.0
  0
LTYPE
  5
15
330
5
100
AcDbSymbolTableRecord
100
AcDbLinetypeTableRecord
  2
ByLayer
 70
     0
  3

 72
    65
 73
     0
 40
0.0
  0
LTYPE
  5
16
330
5
100
AcDbSymbolTableRecord
100
AcDbLinetypeTableRecord
  2
Continuous
 70
     0
  3
Solid line
 72
    65
 73
     0
 40
0.0
  0
LTYPE
  5
2D
330
5
100
AcDbSymbolTableRecord
100
AcDbLinetypeTableRecord
  2
BORDER
 70
     0
  3
Border __ __ . __ __ . __ __ . __ __ . __ __ .
 72
    65
 73
     6
 40
1.75
 49
0.5
 74
     0
 49
-0.25
 74
     0
 49
0.5
 74
     0
 49
-0.25
 74
     0
 49
0.0
 74
     0
 49
-0.25
 74
     0
  0
LTYPE
  5
2E
330
5
100
AcDbSymbolTableRecord
100
AcDbLinetypeTableRecord
  2
BORDER2
 70
     0
  3
Border (.5x) __.__.__.__.__.__.__.__.__.__.__.
 72
    65
 73
     6
 40
0.875
 49
0.25
 74
     0
 49
-0.125
 74
     0
 49
0.25
 74
     0
 49
-0.125
 74
     0
 49
0.0
 74
     0
 49
-0.125
 74
     0
  0
LTYPE
  5
2F
330
5
100
AcDbSymbolTableRecord
100
AcDbLinetypeTableRecord
  2
BORDERX2
 70
     0
  3
Border (2x) ____  ____  .  ____  ____  .  ___
 72
    65
 73
     6
 40
3.5
 49
1.0
 74
     0
 49
-0.5
 74
     0
 49
1.0
 74
     0
 49
-0.5
 74
     0
 49
0.0
 74
     0
 49
-0.5
 74
     0
  0
LTYPE
  5
30
330
5
100
AcDbSymbolTableRecord
100
AcDbLinetypeTableRecord
  2
CENTER
 70
     0
  3
Center ____ _ ____ _ ____ _ ____ _ ____ _ ____
 72
    65
 73
     4
 40
2.0
 49
1.25
 74
     0
 49
-0.25
 74
     0
 49
0.25
 74
     0
 49
-0.25
 74
     0
  0
LTYPE
  5
31
330
5
100
AcDbSymbolTableRecord
100
AcDbLinetypeTableRecord
  2
CENTER2
 70
     0
  3
Center (.5x) ___ _ ___ _ ___ _ ___ _ ___ _ ___
 72
    65
 73
     4
 40
1.125
 49
0.75
 74
     0
 49
-0.125
 74
     0
 49
0.125
 74
     0
 49
-0.125
 74
     0
  0
LTYPE
  5
32
330
5
100
AcDbSymbolTableRecord
100
AcDbLinetypeTableRecord
  2
CENTERX2
 70
     0
  3
Center (2x) ________  __  ________  __  _____
 72
    65
 73
     4
 40
4.0
 49
2.5
 74
     0
 49
-0.5
 74
     0
 49
0.5
 74
     0
 49
-0.5
 74
     0
  0
LTYPE
  5
33
330
5
100
AcDbSymbolTableRecord
100
AcDbLinetypeTableRecord
  2
DASHDOT
 70
     0
  3
Dash dot __ . __ . __ . __ . __ . __ . __ . __
 72
    65
 73
     4
 40
1.0
 49
0.5
 74
     0
 49
-0.25
 74
     0
 49
0.0
 74
     0
 49
-0.25
 74
     0
  0
LTYPE
  5
34
330
5
100
AcDbSymbolTableRecord
100
AcDbLinetypeTableRecord
  2
DASHDOT2
 70
     0
  3
Dash dot (.5x) _._._._._._._._._._._._._._._.
 72
    65
 73
     4
 40
0.5
 49
0.25
 74
     0
 49
-0.125
 74
     0
 49
0.0
 74
     0
 49
-0.125
 74
     0
  0
LTYPE
  5
35
330
5
100
AcDbSymbolTableRecord
100
AcDbLinetypeTableRecord
  2
DASHDOTX2
 70
     0
  3
Dash dot (2x) ____  .  ____  .  ____  .  ___
 72
    65
 73
     4
 40
2.0
 49
1.0
 74
     0
 49
-0.5
 74
     0
 49
0.0
 74
     0
 49
-0.5
 74
     0
  0
LTYPE
  5
36
330
5
100
AcDbSymbolTableRecord
100
AcDbLinetypeTableRecord
  2
DASHED
 70
     0
  3
Dashed __ __ __ __ __ __ __ __ __ __ __ __ __ _
 72
    65
 73
     2
 40
0.75
 49
0.5
 74
     0
 49
-0.25
 74
     0
  0
LTYPE
  5
37
330
5
100
AcDbSymbolTableRecord
100
AcDbLinetypeTableRecord
  2
DASHED2
 70
     0
  3
Dashed (.5x) _ _ _ _ _ _ _ _ _ _ _ _ _ _ _ _ _
 72
    65
 73
     2
 40
0.375
 49
0.25
 74
     0
 49
-0.125
 74
     0
  0
LTYPE
  5
38
330
5
100
AcDbSymbolTableRecord
100
AcDbLinetypeTableRecord
  2
DASHEDX2
 70
     0
  3
Dashed (2x) ____  ____  ____  ____  ____  ___
 72
    65
 73
     2
 40
1.5
 49
1.0
 74
     0
 49
-0.5
 74
     0
  0
LTYPE
  5
39
330
5
100
AcDbSymbolTableRecord
100
AcDbLinetypeTableRecord
  2
DIVIDE
 70
     0
  3
Divide ____ . . ____ . . ____ . . ____ . . ____
 72
    65
 73
     6
 40
1.25
 49
0.5
 74
     0
 49
-0.25
 74
     0
 49
0.0
 74
     0
 49
-0.25
 74
     0
 49
0.0
 74
     0
 49
-0.25
 74
     0
  0
LTYPE
  5
3A
330
5
100
AcDbSymbolTableRecord
100
AcDbLinetypeTableRecord
  2
DIVIDE2
 70
     0
  3
Divide (.5x) __..__..__..__..__..__..__..__.._
 72
    65
 73
     6
 40
0.625
 49
0.25
 74
     0
 49
-0.125
 74
     0
 49
0.0
 74
     0
 49
-0.125
 74
     0
 49
0.0
 74
     0
 49
-0.125
 74
     0
  0
LTYPE
  5
3B
330
5
100
AcDbSymbolTableRecord
100
AcDbLinetypeTableRecord
  2
DIVIDEX2
 70
     0
  3
Divide (2x) ________  .  .  ________  .  .  _
 72
    65
 73
     6
 40
2.5
 49
1.0
 74
     0
 49
-0.5
 74
     0
 49
0.0
 74
     0
 49
-0.5
 74
     0
 49
0.0
 74
     0
 49
-0.5
 74
     0
  0
LTYPE
  5
3C
330
5
100
AcDbSymbolTableRecord
100
AcDbLinetypeTableRecord
  2
DOT
 70
     0
  3
Dot . . . . . . . . . . . . . . . . . . . . . .
 72
    65
 73
     2
 40
0.25
 49
0.0
 74
     0
 49
-0.25
 74
     0
  0
LTYPE
  5
3D
330
5
100
AcDbSymbolTableRecord
100
AcDbLinetypeTableRecord
  2
DOT2
 70
     0
  3
Dot (.5x) .....................................
 72
    65
 73
     2
 40
0.125
 49
0.0
 74
     0
 49
-0.125
 74
     0
  0
LTYPE
  5
3E
330
5
100
AcDbSymbolTableRecord
100
AcDbLinetypeTableRecord
  2
DOTX2
 70
     0
  3
Dot (2x) .  .  .  .  .  .  .  .  .  .  .  .  . 
 72
    65
 73
     2
 40
0.5
 49
0.0
 74
     0
 49
-0.5
 74
     0
  0
LTYPE
  5
3F
330
5
100
AcDbSymbolTableRecord
100
AcDbLinetypeTableRecord
  2
HIDDEN
 70
     0
  3
Hidden __ __ __ __ __ __ __ __ __ __ __ __ __ _
 72
    65
 73
     2
 40
0.375
 49
0.25
 74
     0
 49
-0.125
 74
     0
  0
LTYPE
  5
40
330
5
100
AcDbSymbolTableRecord
100
AcDbLinetypeTableRecord
  2
HIDDEN2
 70
     0
  3
Hidden (.5x) _ _ _ _ _ _ _ _ _ _ _ _ _ _ _ _ _
 72
    65
 73
     2
 40
0.1875
 49
0.125
 74
     0
 49
-0.0625
 74
     0
  0
LTYPE
  5
41
330
5
100
AcDbSymbolTableRecord
100
AcDbLinetypeTableRecord
  2
HIDDENX2
 70
     0
  3
Hidden (2x) ____ ____ ____ ____ ____ ____ ____
 72
    65
 73
     2
 40
0.75
 49
0.5
 74
     0
 49
-0.25
 74
     0
  0
LTYPE
  5
42
330
5
100
AcDbSymbolTableRecord
100
AcDbLinetypeTableRecord
  2
PHANTOM
 70
     0
  3
Phantom ______  __  __  ______  __  __  ______
 72
    65
 73
     6
 40
2.5
 49
1.25
 74
     0
 49
-0.25
 74
     0
 49
0.25
 74
     0
 49
-0.25
 74
     0
 49
0.25
 74
     0
 49
-0.25
 74
     0
  0
LTYPE
  5
43
330
5
100
AcDbSymbolTableRecord
100
AcDbLinetypeTableRecord
  2
PHANTOM2
 70
     0
  3
Phantom (.5x) ___ _ _ ___ _ _ ___ _ _ ___ _ _
 72
    65
 73
     6
 40
1.25
 49
0.625
 74
     0
 49
-0.125
 74
     0
 49
0.125
 74
     0
 49
-0.125
 74
     0
 49
0.125
 74
     0
 49
-0.125
 74
     0
  0
LTYPE
  5
44
330
5
100
AcDbSymbolTableRecord
100
AcDbLinetypeTableRecord
  2
PHANTOMX2
 70
     0
  3
Phantom (2x) ____________    ____    ____   _
 72
    65
 73
     6
 40
5.0
 49
2.5
 74
     0
 49
-0.5
 74
     0
 49
0.5
 74
     0
 49
-0.5
 74
     0
 49
0.5
 74
     0
 49
-0.5
 74
     0
  0
ENDTAB
  0
TABLE
  2
LAYER
  5
2
330
0
100
AcDbSymbolTable
 70
     4
  0
LAYER
  5
10
330
2
100
AcDbSymbolTableRecord
100
AcDbLayerTableRecord
  2
0
 70
     0
 62
     7
  6
Continuous
370
    -3
390
F
  0
LAYER
  5
9B
330
2
100
AcDbSymbolTableRecord
100
AcDbLayerTableRecord
  2
1
 70
     0
 62
     7
  6
Continuous
370
     0
390
F
  0
LAYER
  5
9C
330
2
100
AcDbSymbolTableRecord
100
AcDbLayerTableRecord
  2
2
 70
     0
 62
     7
  6
Continuous
370
     0
390
F
  0
LAYER
  5
2A4
330
2
100
AcDbSymbolTableRecord
100
AcDbLayerTableRecord
  2
Defpoints
 70
     0
 62
     7
  6
Continuous
290
     0
370
    -3
390
F
  0
ENDTAB
  0
TABLE
  2
STYLE
  5
3
330
0
100
AcDbSymbolTable
 70
     8
  0
STYLE
  5
11
330
3
100
AcDbSymbolTableRecord
100
AcDbTextStyleTableRecord
  2
Standard
 70
     0
 40
0.0
 41
1.0
 50
0.0
 71
     0
 42
0.2
  3
txt
  4

  0
STYLE
  5
2C
330
3
100
AcDbSymbolTableRecord
100
AcDbTextStyleTableRecord
  2

 70
     1
 40
0.0
 41
1.0
 50
0.0
 71
     0
 42
0.2
  3
ltypeshp.shx
  4

  0
STYLE
  5
4A
330
3
100
AcDbSymbolTableRecord
100
AcDbTextStyleTableRecord
  2
Simplex
 70
     0
 40
0.0
 41
1.0
 50
0.0
 71
     0
 42
0.2
  3
simplex.shx
  4

  0
STYLE
  5
4B
330
3
100
AcDbSymbolTableRecord
100
AcDbTextStyleTableRecord
  2
BigFont
 70
     0
 40
0.0
 41
1.0
 50
0.0
 71
     0
 42
0.2
  3
simplex.shx
  4
bigfont.shx
  0
STYLE
  5
E0
330
3
100
AcDbSymbolTableRecord
100
AcDbTextStyleTableRecord
  2
DC_TEXTSTYLE4
 70
     0
 40
0.2
 41
1.0
 50
0.0
 71
     0
 42
0.2
  3
arialbi.ttf
  4

1001
ACAD
1000
Arial
1071
 50331682
  0
STYLE
  5
E5
330
3
100
AcDbSymbolTableRecord
100
AcDbTextStyleTableRecord
  2
DC_TEXTSTYLE5
 70
     0
 40
0.2
 41
1.0
 50
0.0
 71
     0
 42
0.2
  3
arial.ttf
  4

1001
ACAD
1000
Arial
1071
       34
  0
STYLE
  5
106
330
3
100
AcDbSymbolTableRecord
100
AcDbTextStyleTableRecord
  2
DC_TEXTSTYLE6
 70
     0
 40
0.2
 41
1.0
 50
0.0
 71
     0
 42
0.2
  3
timesbd.ttf
  4

1001
ACAD
1000
Times New Roman
1071
 33554450
  0
STYLE
  5
2A3
330
3
100
AcDbSymbolTableRecord
100
AcDbTextStyleTableRecord
  2
DC_TEXTSTYLE7
 70
     0
 40
0.018
 41
1.0
 50
0.0
 71
     0
 42
0.2
  3
arial.ttf
  4

1001
ACAD
1000
Arial
1071
        4
  0
ENDTAB
  0
TABLE
  2
VIEW
  5
6
330
0
100
AcDbSymbolTable
 70
     0
  0
ENDTAB
  0
TABLE
  2
UCS
  5
7
330
0
100
AcDbSymbolTable
 70
     0
  0
ENDTAB
  0
TABLE
  2
APPID
  5
9
330
0
100
AcDbSymbolTable
 70
     2
  0
APPID
  5
12
330
9
100
AcDbSymbolTableRecord
100
AcDbRegAppTableRecord
  2
ACAD
 70
     0
  0
APPID
  5
302
330
9
100
AcDbSymbolTableRecord
100
AcDbRegAppTableRecord
  2
ACAD_MLEADERVER
 70
     0
  0
ENDTAB
  0
TABLE
  2
DIMSTYLE
  5
A
330
0
100
AcDbSymbolTable
 70
     1
100
AcDbDimStyleTable
  0
DIMSTYLE
105
27
102
{ACAD_REACTORS
330
2A2
330
2B3
102
}
330
A
100
AcDbSymbolTableRecord
100
AcDbDimStyleTableRecord
  2
Standard
 70
     0
178
     0
340
11
  0
ENDTAB
  0
TABLE
  2
BLOCK_RECORD
  5
1
330
0
100
AcDbSymbolTable
 70
     4
  0
BLOCK_RECORD
  5
1F
330
1
100
AcDbSymbolTableRecord
100
AcDbBlockTableRecord
  2
*Model_Space
340
22
  0
BLOCK_RECORD
  5
1B
330
1
100
AcDbSymbolTableRecord
100
AcDbBlockTableRecord
  2
*Paper_Space
340
1E
  0
BLOCK_RECORD
  5
9D
330
1
100
AcDbSymbolTableRecord
100
AcDbBlockTableRecord
  2
1
340
0
  0
BLOCK_RECORD
  5
2A5
330
1
100
AcDbSymbolTableRecord
100
AcDbBlockTableRecord
  2
*D2
340
0
  0
BLOCK_RECORD
  5
2B4
330
1
100
AcDbSymbolTableRecord
100
AcDbBlockTableRecord
  2
*D3
340
0
  0
ENDTAB
  0
ENDSEC
  0
SECTION
  2
BLOCKS
  0
BLOCK
  5
20
330
1F
100
AcDbEntity
  8
0
100
AcDbBlockBegin
  2
*Model_Space
 70
     0
 10
0.0
 20
0.0
 30
0.0
  3
*Model_Space
  1

  0
ENDBLK
  5
21
330
1F
100
AcDbEntity
  8
0
100
AcDbBlockEnd
  0
BLOCK
  5
1C
330
1B
100
AcDbEntity
 67
     1
  8
0
100
AcDbBlockBegin
  2
*Paper_Space
 70
     0
 10
0.0
 20
0.0
 30
0.0
  3
*Paper_Space
  1

  0
ENDBLK
  5
1D
330
1B
100
AcDbEntity
 67
     1
  8
0
100
AcDbBlockEnd
  0
BLOCK
  5
D3
330
9D
100
AcDbEntity
  8
0
100
AcDbBlockBegin
  2
1
 70
     0
 10
1.183153966085949
 20
0.0165375297591232
 30
0.0
  3
1
  1

  0
POLYLINE
  5
9E
330
9D
100
AcDbEntity
  8
1
  6
Continuous
 62
     7
 48
0.0004444836654229
370
     0
100
AcDb2dPolyline
 66
     1
 10
0.0
 20
0.0
 30
0.0
  0
VERTEX
  5
9F
330
9E
100
AcDbEntity
  8
1
  6
Continuous
 62
     7
 48
0.0004444836654229
100
AcDbVertex
100
AcDb2dVertex
 10
1.117554746108695
 20
-0.0201243767168315
 30
0.0
 40
8.544336014542626
 41
8.544336014542626
  0
VERTEX
  5
A0
330
9E
100
AcDbEntity
  8
1
  6
Continuous
 62
     7
 48
0.0004444836654229
100
AcDbVertex
100
AcDb2dVertex
 10
1.117554746108695
 20
-0.0201243767168315
 30
0.0
 40
8.544336014542626
 41
8.544336014542626
  0
SEQEND
  5
A1
330
9E
100
AcDbEntity
  8
1
  6
Continuous
 62
     7
 48
0.0004444836654229
370
     0
  0
POLYLINE
  5
A2
330
9D
100
AcDbEntity
  8
1
  6
Continuous
 62
     7
 48
0.0004444836654229
370
     0
100
AcDb2dPolyline
 66
     1
 10
0.0
 20
0.0
 30
0.0
  0
VERTEX
  5
A3
330
A2
100
AcDbEntity
  8
1
  6
Continuous
 62
     7
 48
0.0004444836654229
100
AcDbVertex
100
AcDb2dVertex
 10
1.233444394917172
 20
-0.0281722689951979
 30
0.0
 40
8.544336014542626
 41
8.544336014542626
  0
VERTEX
  5
A4
330
A2
100
AcDbEntity
  8
1
  6
Continuous
 62
     7
 48
0.0004444836654229
100
AcDbVertex
100
AcDb2dVertex
 10
1.222764481144207
 20
-0.0201243767168315
 30
0.0
 40
8.544336014542626
 41
8.544336014542626
  0
SEQEND
  5
A5
330
A2
100
AcDbEntity
  8
1
  6
Continuous
 62
     7
 48
0.0004444836654229
370
     0
  0
POLYLINE
  5
A6
330
9D
100
AcDbEntity
  8
1
  6
Continuous
 62
     7
 48
0.0004444836654229
370
     0
100
AcDb2dPolyline
 66
     1
 10
0.0
 20
0.0
 30
0.0
  0
VERTEX
  5
A7
330
A6
100
AcDbEntity
  8
1
  6
Continuous
 62
     7
 48
0.0004444836654229
100
AcDbVertex
100
AcDb2dVertex
 10
1.120773903020042
 20
-0.0201243767168315
 30
0.0
 40
8.544336014542626
 41
8.544336014542626
  0
VERTEX
  5
A8
330
A6
100
AcDbEntity
  8
1
  6
Continuous
 62
     7
 48
0.0004444836654229
100
AcDbVertex
100
AcDb2dVertex
 10
1.117554746108695
 20
-0.0169052198054851
 30
0.0
 40
8.544336014542626
 41
8.544336014542626
  0
SEQEND
  5
A9
330
A6
100
AcDbEntity
  8
1
  6
Continuous
 62
     7
 48
0.0004444836654229
370
     0
  0
POLYLINE
  5
AA
330
9D
100
AcDbEntity
  8
1
  6
Continuous
 62
     7
 48
0.0004444836654229
370
     0
100
AcDb2dPolyline
 66
     1
 10
0.0
 20
0.0
 30
0.0
  0
VERTEX
  5
AB
330
AA
100
AcDbEntity
  8
1
  6
Continuous
 62
     7
 48
0.0004444836654229
100
AcDbVertex
100
AcDb2dVertex
 10
1.233444394917172
 20
0.0313821338647135
 30
0.0
 40
8.544336014542626
 41
8.544336014542626
  0
VERTEX
  5
AC
330
AA
100
AcDbEntity
  8
1
  6
Continuous
 62
     7
 48
0.0004444836654229
100
AcDbVertex
100
AcDb2dVertex
 10
1.117554746108695
 20
0.0313821338647135
 30
0.0
 40
8.544336014542626
 41
8.544336014542626
  0
SEQEND
  5
AD
330
AA
100
AcDbEntity
  8
1
  6
Continuous
 62
     7
 48
0.0004444836654229
370
     0
  0
POLYLINE
  5
AE
330
9D
100
AcDbEntity
  8
1
  6
Continuous
 62
     7
 48
0.0004444836654229
370
     0
100
AcDb2dPolyline
 66
     1
 10
0.0
 20
0.0
 30
0.0
  0
VERTEX
  5
AF
330
AE
100
AcDbEntity
  8
1
  6
Continuous
 62
     7
 48
0.0004444836654229
100
AcDbVertex
100
AcDb2dVertex
 10
1.233444394917172
 20
0.0651832814338524
 30
0.0
 40
8.544336014542626
 41
8.544336014542626
  0
VERTEX
  5
B0
330
AE
100
AcDbEntity
  8
1
  6
Continuous
 62
     7
 48
0.0004444836654229
100
AcDbVertex
100
AcDb2dVertex
 10
1.222764481144207
 20
0.057135389155486
 30
0.0
 40
8.544336014542626
 41
8.544336014542626
  0
SEQEND
  5
B1
330
AE
100
AcDbEntity
  8
1
  6
Continuous
 62
     7
 48
0.0004444836654229
370
     0
  0
POLYLINE
  5
B2
330
9D
100
AcDbEntity
  8
1
  6
Continuous
 62
     7
 48
0.0004444836654229
370
     0
100
AcDb2dPolyline
 66
     1
 10
0.0
 20
0.0
 30
0.0
  0
VERTEX
  5
B3
330
B2
100
AcDbEntity
  8
1
  6
Continuous
 62
     7
 48
0.0004444836654229
100
AcDbVertex
100
AcDb2dVertex
 10
1.120773903020042
 20
0.057135389155486
 30
0.0
 40
8.544336014542626
 41
8.544336014542626
  0
VERTEX
  5
B4
330
B2
100
AcDbEntity
  8
1
  6
Continuous
 62
     7
 48
0.0004444836654229
100
AcDbVertex
100
AcDb2dVertex
 10
1.117554746108695
 20
0.0539162322441397
 30
0.0
 40
8.544336014542626
 41
8.544336014542626
  0
SEQEND
  5
B5
330
B2
100
AcDbEntity
  8
1
  6
Continuous
 62
     7
 48
0.0004444836654229
370
     0
  0
POLYLINE
  5
B6
330
9D
100
AcDbEntity
  8
1
  6
Continuous
 62
     7
 48
0.0004444836654229
370
     0
100
AcDb2dPolyline
 66
     1
 10
0.0
 20
0.0
 30
0.0
  0
VERTEX
  5
B7
330
B6
100
AcDbEntity
  8
1
  6
Continuous
 62
     7
 48
0.0004444836654229
100
AcDbVertex
100
AcDb2dVertex
 10
1.233444394917172
 20
0.005628878573941
 30
0.0
 40
8.544336014542626
 41
8.544336014542626
  0
VERTEX
  5
B8
330
B6
100
AcDbEntity
  8
1
  6
Continuous
 62
     7
 48
0.0004444836654229
100
AcDbVertex
100
AcDb2dVertex
 10
1.117554746108695
 20
0.005628878573941
 30
0.0
 40
8.544336014542626
 41
8.544336014542626
  0
SEQEND
  5
B9
330
B6
100
AcDbEntity
  8
1
  6
Continuous
 62
     7
 48
0.0004444836654229
370
     0
  0
POLYLINE
  5
BA
330
9D
100
AcDbEntity
  8
1
  6
Continuous
 62
     7
 48
0.0004444836654229
370
     0
100
AcDb2dPolyline
 66
     1
 10
0.0
 20
0.0
 30
0.0
  0
VERTEX
  5
BB
330
BA
100
AcDbEntity
  8
1
  6
Continuous
 62
     7
 48
0.0004444836654229
100
AcDbVertex
100
AcDb2dVertex
 10
1.230225238005825
 20
0.0313821338647135
 30
0.0
 40
8.544336014542626
 41
8.544336014542626
  0
VERTEX
  5
BC
330
BA
100
AcDbEntity
  8
1
  6
Continuous
 62
     7
 48
0.0004444836654229
100
AcDbVertex
100
AcDb2dVertex
 10
1.120773903020042
 20
0.0313821338647135
 30
0.0
 40
8.544336014542626
 41
8.544336014542626
  0
SEQEND
  5
BD
330
BA
100
AcDbEntity
  8
1
  6
Continuous
 62
     7
 48
0.0004444836654229
370
     0
  0
POLYLINE
  5
BE
330
9D
100
AcDbEntity
  8
1
  6
Continuous
 62
     7
 48
0.0004444836654229
370
     0
100
AcDb2dPolyline
 66
     1
 10
0.0
 20
0.0
 30
0.0
  0
VERTEX
  5
BF
330
BE
100
AcDbEntity
  8
1
  6
Continuous
 62
     7
 48
0.0004444836654229
100
AcDbVertex
100
AcDb2dVertex
 10
1.233444394917172
 20
-0.0281722689951979
 30
0.0
 40
8.544336014542626
 41
8.544336014542626
  0
VERTEX
  5
C0
330
BE
100
AcDbEntity
  8
1
  6
Continuous
 62
     7
 48
0.0004444836654229
100
AcDbVertex
100
AcDb2dVertex
 10
1.233444394917172
 20
0.0651832814338527
 30
0.0
 40
8.544336014542626
 41
8.544336014542626
  0
SEQEND
  5
C1
330
BE
100
AcDbEntity
  8
1
  6
Continuous
 62
     7
 48
0.0004444836654229
370
     0
  0
POLYLINE
  5
C2
330
9D
100
AcDbEntity
  8
1
  6
Continuous
 62
     7
 48
0.0004444836654229
370
     0
100
AcDb2dPolyline
 66
     1
 10
0.0
 20
0.0
 30
0.0
 70
   128
  0
VERTEX
  5
C3
330
C2
100
AcDbEntity
  8
1
  6
Continuous
 62
     7
 48
0.0004444836654229
100
AcDbVertex
100
AcDb2dVertex
 10
1.222764481144207
 20
0.057135389155486
 30
0.0
 40
8.544336014542626
 41
8.544336014542626
  0
VERTEX
  5
C4
330
C2
100
AcDbEntity
  8
1
  6
Continuous
 62
     7
 48
0.0004444836654229
100
AcDbVertex
100
AcDb2dVertex
 10
1.120773903020042
 20
0.057135389155486
 30
0.0
 40
8.544336014542626
 41
8.544336014542626
  0
VERTEX
  5
C5
330
C2
100
AcDbEntity
  8
1
  6
Continuous
 62
     7
 48
0.0004444836654229
100
AcDbVertex
100
AcDb2dVertex
 10
1.117554746108695
 20
0.0539162322441396
 30
0.0
 40
8.544336014542626
 41
8.544336014542626
  0
SEQEND
  5
C6
330
C2
100
AcDbEntity
  8
1
  6
Continuous
 62
     7
 48
0.0004444836654229
370
     0
  0
POLYLINE
  5
C7
330
9D
100
AcDbEntity
  8
1
  6
Continuous
 62
     7
 48
0.0004444836654229
370
     0
100
AcDb2dPolyline
 66
     1
 10
0.0
 20
0.0
 30
0.0
 70
   128
  0
VERTEX
  5
C8
330
C7
100
AcDbEntity
  8
1
  6
Continuous
 62
     7
 48
0.0004444836654229
100
AcDbVertex
100
AcDb2dVertex
 10
1.222764481144207
 20
-0.0201243767168315
 30
0.0
 40
8.544336014542626
 41
8.544336014542626
  0
VERTEX
  5
C9
330
C7
100
AcDbEntity
  8
1
  6
Continuous
 62
     7
 48
0.0004444836654229
100
AcDbVertex
100
AcDb2dVertex
 10
1.120773903020042
 20
-0.0201243767168315
 30
0.0
 40
8.544336014542626
 41
8.544336014542626
  0
VERTEX
  5
CA
330
C7
100
AcDbEntity
  8
1
  6
Continuous
 62
     7
 48
0.0004444836654229
100
AcDbVertex
100
AcDb2dVertex
 10
1.117554746108695
 20
-0.0169052198054851
 30
0.0
 40
8.544336014542626
 41
8.544336014542626
  0
SEQEND
  5
CB
330
C7
100
AcDbEntity
  8
1
  6
Continuous
 62
     7
 48
0.0004444836654229
370
     0
  0
POLYLINE
  5
CC
330
9D
100
AcDbEntity
  8
1
  6
Continuous
 62
     7
 48
0.0004444836654229
370
     0
100
AcDb2dPolyline
 66
     1
 10
0.0
 20
0.0
 30
0.0
  0
VERTEX
  5
CD
330
CC
100
AcDbEntity
  8
1
  6
Continuous
 62
     7
 48
0.0004444836654229
100
AcDbVertex
100
AcDb2dVertex
 10
1.117554746108695
 20
-0.0169052198054851
 30
0.0
 40
8.544336014542626
 41
8.544336014542626
  0
VERTEX
  5
CE
330
CC
100
AcDbEntity
  8
1
  6
Continuous
 62
     7
 48
0.0004444836654229
100
AcDbVertex
100
AcDb2dVertex
 10
1.117554746108695
 20
0.0539162322441396
 30
0.0
 40
8.544336014542626
 41
8.544336014542626
  0
SEQEND
  5
CF
330
CC
100
AcDbEntity
  8
1
  6
Continuous
 62
     7
 48
0.0004444836654229
370
     0
  0
HATCH
  5
D0
330
9D
100
AcDbEntity
  8
1
  6
Continuous
 62
     7
 48
0.0012128468733243
370
     0
100
AcDbHatch
 10
0.0
 20
0.0
 30
0.0
210
0.0
220
0.0
230
1.0
  2
DC_ANSI31
 70
     0
 71
     0
 91
        1
 92
        3
 72
     0
 73
     1
 93
        6
 10
1.233444394917172
 20
0.0313821338647135
 10
1.117554746108695
 20
0.0313821338647136
 10
1.117554746108695
 20
0.0539162322441389
 10
1.120773903020042
 20
0.057135389155486
 10
1.222764481144208
 20
0.057135389155486
 10
1.233444394917172
 20
0.0651832814338528
 97
        0
 75
     0
 76
     2
 52
0.0
 41
50.0
 77
     0
 78
     1
 53
45.0
 43
0.0
 44
0.0
 45
-0.0085761224866852
 46
0.0085761224866852
 79
     1
 49
2.425693746648625
 98
        1
 10
0.0
 20
0.0
  0
HATCH
  5
D1
330
9D
100
AcDbEntity
  8
1
  6
Continuous
 62
     7
 48
0.0012128468733243
370
     0
100
AcDbHatch
 10
0.0
 20
0.0
 30
0.0
210
0.0
220
0.0
230
1.0
  2
DC_ANSI31
 70
     0
 71
     0
 91
        1
 92
        3
 72
     0
 73
     1
 93
        6
 10
1.233444394917172
 20
-0.0281722689951978
 10
1.222764481144208
 20
-0.0201243767168315
 10
1.120773903020042
 20
-0.0201243767168315
 10
1.117554746108695
 20
-0.0169052198054846
 10
1.117554746108695
 20
0.005628878573941
 10
1.233444394917172
 20
0.005628878573941
 97
        0
 75
     0
 76
     2
 52
0.0
 41
50.0
 77
     0
 78
     1
 53
45.0
 43
0.0
 44
0.0
 45
-0.0085761224866852
 46
0.0085761224866852
 79
     1
 49
2.425693746648625
 98
        1
 10
0.0
 20
0.0
  0
LINE
  5
D2
330
9D
100
AcDbEntity
  8
1
  6
Continuous
 62
     7
 48
0.0003881109994638
370
     0
100
AcDbLine
 10
1.117554746108695
 20
0.0185055062193272
 30
0.0
 11
1.233444394917172
 21
0.0185055062193274
 31
0.0
  0
ENDBLK
  5
D4
330
9D
100
AcDbEntity
  8
0
100
AcDbBlockEnd
  0
BLOCK
  5
2A6
330
2A5
100
AcDbEntity
  8
0
100
AcDbBlockBegin
  2
*D2
 70
     1
 10
0.0
 20
0.0
 30
0.0
  3
*D2
  1

  0
LINE
  5
2A8
330
2A5
100
AcDbEntity
  8
1
  6
Continuous
 62
     0
 48
0.0000242569374665
370
    -2
100
AcDbLine
 10
0.7344067009566005
 20
-0.0731820274221384
 30
0.0
 11
0.6597148737767105
 21
-0.0731820274221384
 31
0.0
  0
LINE
  5
2A9
330
2A5
100
AcDbEntity
  8
1
  6
Continuous
 62
     0
 48
0.0000242569374665
370
    -2
100
AcDbLine
 10
0.7344067009566003
 20
0.4088179725778617
 30
0.0
 11
0.6597148737767105
 21
0.4088179725778617
 31
0.0
  0
LINE
  5
2AA
330
2A5
100
AcDbEntity
  8
1
  6
Continuous
 62
     0
 48
0.0000242569374665
370
    -2
100
AcDbLine
 10
0.6662604260155164
 20
-0.0551820274221384
 30
0.0
 11
0.6662604260155164
 21
0.3908179725778617
 31
0.0
  0
SOLID
  5
2AB
330
2A5
100
AcDbEntity
  8
1
 62
     0
100
AcDbTrace
 10
0.6632604260155164
 20
-0.0551820274221384
 30
0.0
 11
0.6692604260155164
 21
-0.0551820274221384
 31
0.0
 12
0.6662604260155164
 22
-0.0731820274221384
 32
0.0
 13
0.6662604260155164
 23
-0.0731820274221384
 33
0.0
  0
SOLID
  5
2AC
330
2A5
100
AcDbEntity
  8
1
 62
     0
100
AcDbTrace
 10
0.6692604260155164
 20
0.3908179725778617
 30
0.0
 11
0.6632604260155164
 21
0.3908179725778617
 31
0.0
 12
0.6662604260155164
 22
0.4088179725778617
 32
0.0
 13
0.6662604260155164
 23
0.4088179725778617
 33
0.0
  0
MTEXT
  5
2AD
330
2A5
100
AcDbEntity
  8
1
 62
     0
370
     0
100
AcDbMText
 10
0.647495829000591
 20
0.1678179725778617
 30
0.0
 40
0.018
 41
0.0
 71
     5
 72
     1
  1
\A1;HEX TIP Ø0.482
  7
DC_TEXTSTYLE7
 11
0.0
 21
1.0
 31
0.0
 73
     1
 44
1.0
  0
POINT
  5
2AE
330
2A5
100
AcDbEntity
  8
Defpoints
 62
     0
100
AcDbPoint
 10
0.7474972681207797
 20
-0.0731820274221384
 30
0.0
  0
POINT
  5
2AF
330
2A5
100
AcDbEntity
  8
Defpoints
 62
     0
100
AcDbPoint
 10
0.7474972681207794
 20
0.4088179725778617
 30
0.0
  0
POINT
  5
2B0
330
2A5
100
AcDbEntity
  8
Defpoints
 62
     0
100
AcDbPoint
 10
0.6662604260155164
 20
0.4088179725778617
 30
0.0
  0
ENDBLK
  5
2A7
330
2A5
100
AcDbEntity
  8
0
100
AcDbBlockEnd
  0
BLOCK
  5
2B5
330
2B4
100
AcDbEntity
  8
0
100
AcDbBlockBegin
  2
*D3
 70
     1
 10
0.0
 20
0.0
 30
0.0
  3
*D3
  1

  0
LINE
  5
2B7
330
2B4
100
AcDbEntity
  8
1
  6
Continuous
 62
     0
 48
0.0000242569374665
370
    -2
100
AcDbLine
 10
0.7382604260155163
 20
0.3949085397420406
 30
0.0
 11
0.7382604260155163
 21
0.5053635248166677
 31
0.0
  0
LINE
  5
2B8
330
2B4
100
AcDbEntity
  8
1
  6
Continuous
 62
     0
 48
0.0000242569374665
370
    -2
100
AcDbLine
 10
1.408260426015517
 20
0.2549085397420407
 30
0.0
 11
1.408260426015517
 21
0.5053635248166677
 31
0.0
  0
LINE
  5
2B9
330
2B4
100
AcDbEntity
  8
1
  6
Continuous
 62
     0
 48
0.0000242569374665
370
    -2
100
AcDbLine
 10
0.7562604260155164
 20
0.4988179725778618
 30
0.0
 11
1.390260426015517
 21
0.4988179725778618
 31
0.0
  0
SOLID
  5
2BA
330
2B4
100
AcDbEntity
  8
1
 62
     0
100
AcDbTrace
 10
0.7562604260155164
 20
0.5018179725778618
 30
0.0
 11
0.7562604260155164
 21
0.4958179725778618
 31
0.0
 12
0.7382604260155163
 22
0.4988179725778618
 32
0.0
 13
0.7382604260155163
 23
0.4988179725778618
 33
0.0
  0
SOLID
  5
2BB
330
2B4
100
AcDbEntity
  8
1
 62
     0
100
AcDbTrace
 10
1.390260426015517
 20
0.4958179725778618
 30
0.0
 11
1.390260426015517
 21
0.5018179725778618
 31
0.0
 12
1.408260426015517
 22
0.4988179725778618
 32
0.0
 13
1.408260426015517
 23
0.4988179725778618
 33
0.0
  0
MTEXT
  5
2BC
330
2B4
100
AcDbEntity
  8
1
 62
     0
370
     0
100
AcDbMText
 10
1.073260426015517
 20
0.5170875695927871
 30
0.0
 40
0.018
 41
0.0
 71
     5
 72
     1
  1
\A1;0.670
  7
DC_TEXTSTYLE7
 73
     1
 44
1.0
  0
POINT
  5
2BD
330
2B4
100
AcDbEntity
  8
Defpoints
 62
     0
100
AcDbPoint
 10
0.7382604260155163
 20
0.3818179725778615
 30
0.0
  0
POINT
  5
2BE
330
2B4
100
AcDbEntity
  8
Defpoints
 62
     0
100
AcDbPoint
 10
1.408260426015517
 20
0.2418179725778616
 30
0.0
  0
POINT
  5
2BF
330
2B4
100
AcDbEntity
  8
Defpoints
 62
     0
100
AcDbPoint
 10
1.408260426015517
 20
0.4988179725778618
 30
0.0
  0
ENDBLK
  5
2B6
330
2B4
100
AcDbEntity
  8
0
100
AcDbBlockEnd
  0
ENDSEC
  0
SECTION
  2
ENTITIES
  0
LINE
  5
D5
330
1F
100
AcDbEntity
  8
1
  6
Continuous
 62
     7
 48
0.0003881109994638
370
     0
100
AcDbLine
 10
0.0371319298336456
 20
-0.6028826327634097
 30
0.0
 11
2.051041344768879
 21
-0.6028826327634097
 31
0.0
  0
LINE
  5
D6
330
1F
100
AcDbEntity
  8
1
  6
Continuous
 62
     7
 48
0.0003881109994638
370
     0
100
AcDbLine
 10
0.0371319298336456
 20
-0.6028826327634097
 30
0.0
 11
0.0371319298336456
 21
0.8210937212312001
 31
0.0
  0
LINE
  5
D7
330
1F
100
AcDbEntity
  8
1
  6
Continuous
 62
     7
 48
0.0003881109994638
370
     0
100
AcDbLine
 10
2.051041344768879
 20
-0.6028826327634097
 30
0.0
 11
2.051041344768879
 21
0.8210937212312001
 31
0.0
  0
LINE
  5
D8
330
1F
100
AcDbEntity
  8
1
  6
Continuous
 62
     7
 48
0.0003881109994638
370
     0
100
AcDbLine
 10
2.051041344768879
 20
0.8210937212312001
 30
0.0
 11
0.0371319298336456
 21
0.8210937212312001
 31
0.0
  0
POLYLINE
  5
D9
330
1F
100
AcDbEntity
  8
1
  6
Continuous
 62
     7
 48
0.0003881109994638
370
     0
100
AcDb2dPolyline
 66
     1
 10
0.0
 20
0.0
 30
0.0
 70
   128
  0
VERTEX
  5
DA
330
D9
100
AcDbEntity
  8
1
  6
Continuous
 62
     7
 48
0.0003881109994638
100
AcDbVertex
100
AcDb2dVertex
 10
1.610286759008643
 20
-0.5889732178281755
 30
0.0
  0
VERTEX
  5
DB
330
D9
100
AcDbEntity
  8
1
  6
Continuous
 62
     7
 48
0.0003881109994638
100
AcDbVertex
100
AcDb2dVertex
 10
1.610286759008643
 20
-0.5347264995807618
 30
0.0
  0
VERTEX
  5
DC
330
D9
100
AcDbEntity
  8
1
  6
Continuous
 62
     7
 48
0.0003881109994638
100
AcDbVertex
100
AcDb2dVertex
 10
0.0510413447688798
 20
-0.5347264995807617
 30
0.0
  0
SEQEND
  5
DD
330
D9
100
AcDbEntity
  8
1
  6
Continuous
 62
     7
 48
0.0003881109994638
370
     0
  0
LINE
  5
DE
330
1F
100
AcDbEntity
  8
1
  6
Continuous
 62
     7
 48
0.0003881109994638
370
     0
100
AcDbLine
 10
1.225474101441052
 20
-0.480479781333348
 30
0.0
 11
1.225474101441052
 21
-0.5889732178281756
 31
0.0
  0
LINE
  5
DF
330
1F
100
AcDbEntity
  8
1
  6
Continuous
 62
     7
 48
0.0003881109994638
370
     0
100
AcDbLine
 10
0.840661443873461
 20
-0.4804797813333482
 30
0.0
 11
0.840661443873461
 21
-0.5889732178281756
 31
0.0
  0
TEXT
  5
E1
330
1F
100
AcDbEntity
  8
1
  6
Continuous
 62
     1
420
 16711680
370
     0
100
AcDbText
 10
0.0776144463627746
 20
-0.5253024346616318
 30
0.0
 40
0.0271233591237068
  1
SPEED
  7
DC_TEXTSTYLE4
100
AcDbText
  0
TEXT
  5
E2
330
1F
100
AcDbEntity
  8
1
  6
Continuous
 62
     5
420
      255
370
     0
100
AcDbText
 10
0.2076067050361887
 20
-0.5255600075060841
 30
0.0
 40
0.0271233591237068
  1
FLOW
  7
DC_TEXTSTYLE4
100
AcDbText
  0
TEXT
  5
E3
330
1F
100
AcDbEntity
  8
1
  6
Continuous
 62
     7
370
     0
100
AcDbText
 10
0.329026353343114
 20
-0.5256918859086712
 30
0.0
 40
0.0271233591237068
  1
PRODUCTS PTY LTD
  7
DC_TEXTSTYLE4
100
AcDbText
  0
LINE
  5
E4
330
1F
100
AcDbEntity
  8
1
  6
Continuous
 62
     7
 48
0.0003881109994638
370
     0
100
AcDbLine
 10
0.7385902881160203
 20
-0.4804797813333482
 30
0.0
 11
0.7385902881160203
 21
-0.5347264995807618
 31
0.0
  0
TEXT
  5
E6
330
1F
100
AcDbEntity
  8
1
  6
Continuous
 62
     7
370
     0
100
AcDbText
 10
0.756246825904042
 20
-0.50539549327971
 30
0.0
 40
0.0135616795618535
  1
MAX 3D
  7
DC_TEXTSTYLE5
100
AcDbText
  0
TEXT
  5
E7
330
1F
100
AcDbEntity
  8
1
  6
Continuous
 62
     7
370
     0
100
AcDbText
 10
0.7725336058464288
 20
-0.5290344670483033
 30
0.0
 40
0.0135616795618535
  1
V14
  7
DC_TEXTSTYLE5
100
AcDbText
  0
LINE
  5
E8
330
1F
100
AcDbEntity
  8
1
  6
Continuous
 62
     7
 48
0.0003881109994638
370
     0
100
AcDbLine
 10
0.840661443873461
 20
-0.5347264995807618
 30
0.0
 11
0.840661443873461
 21
-0.5347264995807618
 31
0.0
  0
LINE
  5
E9
330
1F
100
AcDbEntity
  8
1
  6
Continuous
 62
     7
 48
0.0003881109994638
370
     0
100
AcDbLine
 10
1.225474101441052
 20
-0.5347264995807618
 30
0.0
 11
1.225474101441052
 21
-0.5347264995807618
 31
0.0
  0
TEXT
  5
EA
330
1F
100
AcDbEntity
  8
1
  6
Continuous
 62
     7
370
     0
100
AcDbText
 10
0.8542231234353144
 20
-0.5211648200189083
 30
0.0
 40
0.0237329392332435
  1
Drg No: 806-03
  7
DC_TEXTSTYLE5
100
AcDbText
  0
ARC
  5
EB
330
1F
100
AcDbEntity
  8
1
  6
Continuous
 62
     7
 48
0.0003881109994638
370
     0
100
AcDbCircle
 10
0.0510420063142244
 20
0.8071836447506215
 30
0.0
 40
0.0000006615453444
100
AcDbArc
 50
90.0
 51
180.0
  0
LINE
  5
EC
330
1F
100
AcDbEntity
  8
1
  6
Continuous
 62
     7
 48
0.0003881109994638
370
     0
100
AcDbLine
 10
0.0510420063142244
 20
0.8071843062959659
 30
0.0
 11
2.037131268288301
 21
0.8071843062959659
 31
0.0
  0
LINE
  5
ED
330
1F
100
AcDbEntity
  8
1
  6
Continuous
 62
     7
 48
0.0003881109994638
370
     0
100
AcDbLine
 10
2.037131929833645
 20
0.8071836447506215
 30
0.0
 11
2.037131929833645
 21
-0.5889725562828312
 31
0.0
  0
LINE
  5
EE
330
1F
100
AcDbEntity
  8
1
  6
Continuous
 62
     7
 48
0.0003881109994638
370
     0
100
AcDbLine
 10
2.037131268288301
 20
-0.5889732178281755
 30
0.0
 11
0.0510420063142241
 21
-0.5889732178281755
 31
0.0
  0
ARC
  5
EF
330
1F
100
AcDbEntity
  8
1
  6
Continuous
 62
     7
 48
0.0003881109994638
370
     0
100
AcDbCircle
 10
0.0510420063142244
 20
-0.588972556282831
 30
0.0
 40
0.0000006615453445
100
AcDbArc
 50
180.0
 51
269.9999999777641
  0
LINE
  5
F0
330
1F
100
AcDbEntity
  8
1
  6
Continuous
 62
     7
 48
0.0003881109994638
370
     0
100
AcDbLine
 10
0.0510413447688799
 20
-0.588972556282831
 30
0.0
 11
0.0510413447688799
 21
0.8071836447506215
 31
0.0
  0
LINE
  5
F1
330
1F
100
AcDbEntity
  8
1
  6
Continuous
 62
     7
 48
0.0003881109994638
370
     0
100
AcDbLine
 10
1.044086637301263
 20
0.8071843062959659
 30
0.0
 11
1.044086637301263
 21
0.8210937212312001
 31
0.0
  0
LINE
  5
F2
330
1F
100
AcDbEntity
  8
1
  6
Continuous
 62
     7
 48
0.0003881109994638
370
     0
100
AcDbLine
 10
2.037131929833646
 20
0.1633522624813086
 30
0.0
 11
2.051041344768879
 21
0.1633522624813084
 31
0.0
  0
LINE
  5
F3
330
1F
100
AcDbEntity
  8
1
  6
Continuous
 62
     7
 48
0.0003881109994638
370
     0
100
AcDbLine
 10
0.0510413447688797
 20
0.1633522624813084
 30
0.0
 11
0.0371319298336456
 21
0.1633522624813084
 31
0.0
  0
POLYLINE
  5
F4
330
1F
100
AcDbEntity
  8
1
  6
Continuous
 62
     7
 48
0.0003881109994638
370
     0
100
AcDb2dPolyline
 66
     1
 10
0.0
 20
0.0
 30
0.0
 70
   128
  0
VERTEX
  5
F5
330
F4
100
AcDbEntity
  8
1
  6
Continuous
 62
     7
 48
0.0003881109994638
100
AcDbVertex
100
AcDb2dVertex
 10
1.610286759008643
 20
-0.5347264995807618
 30
0.0
  0
VERTEX
  5
F6
330
F4
100
AcDbEntity
  8
1
  6
Continuous
 62
     7
 48
0.0003881109994638
100
AcDbVertex
100
AcDb2dVertex
 10
1.610286759008643
 20
-0.480479781333348
 30
0.0
  0
VERTEX
  5
F7
330
F4
100
AcDbEntity
  8
1
  6
Continuous
 62
     7
 48
0.0003881109994638
100
AcDbVertex
100
AcDb2dVertex
 10
0.0510413447688798
 20
-0.4804797813333482
 30
0.0
  0
SEQEND
  5
F8
330
F4
100
AcDbEntity
  8
1
  6
Continuous
 62
     7
 48
0.0003881109994638
370
     0
  0
POLYLINE
  5
F9
330
1F
100
AcDbEntity
  8
1
  6
Continuous
 62
     7
 48
0.0001940554997319
370
     0
100
AcDb2dPolyline
 66
     1
 10
0.0
 20
0.0
 30
0.0
 70
   128
  0
VERTEX
  5
FA
330
F9
100
AcDbEntity
  8
1
  6
Continuous
 62
     7
 48
0.0001940554997319
100
AcDbVertex
100
AcDb2dVertex
 10
0.0510413447688801
 20
0.7680436217686554
 30
0.0
  0
VERTEX
  5
FB
330
F9
100
AcDbEntity
  8
1
  6
Continuous
 62
     7
 48
0.0001940554997319
100
AcDbVertex
100
AcDb2dVertex
 10
0.2964990514540922
 20
0.768043621768655
 30
0.0
  0
VERTEX
  5
FC
330
F9
100
AcDbEntity
  8
1
  6
Continuous
 62
     7
 48
0.0001940554997319
100
AcDbVertex
100
AcDb2dVertex
 10
0.2964990514540922
 20
0.8071843062959659
 30
0.0
  0
SEQEND
  5
FD
330
F9
100
AcDbEntity
  8
1
  6
Continuous
 62
     7
 48
0.0001940554997319
370
     0
  0
POLYLINE
  5
FE
330
1F
100
AcDbEntity
  8
1
  6
Continuous
 62
     7
 48
0.0019405549973189
370
     0
100
AcDb2dPolyline
 66
     1
 10
0.0
 20
0.0
 30
0.0
 70
   128
  0
VERTEX
  5
FF
330
FE
100
AcDbEntity
  8
1
  6
Continuous
 62
     7
 48
0.0019405549973189
100
AcDbVertex
100
AcDb2dVertex
 10
1.965941125885763
 20
0.8071837770596905
 30
0.0
  0
VERTEX
  5
100
330
FE
100
AcDbEntity
  8
1
  6
Continuous
 62
     7
 48
0.0019405549973189
100
AcDbVertex
100
AcDb2dVertex
 10
1.965941125885763
 20
0.7639182859432634
 30
0.0
  0
VERTEX
  5
101
330
FE
100
AcDbEntity
  8
1
  6
Continuous
 62
     7
 48
0.0019405549973189
100
AcDbVertex
100
AcDb2dVertex
 10
2.0371312682883
 20
0.7639182859432634
 30
0.0
  0
SEQEND
  5
102
330
FE
100
AcDbEntity
  8
1
  6
Continuous
 62
     7
 48
0.0019405549973189
370
     0
  0
LINE
  5
103
330
1F
100
AcDbEntity
  8
1
  6
Continuous
 62
     7
 48
0.0003881109994638
370
     0
100
AcDbLine
 10
1.610286759008643
 20
-0.480479781333348
 30
0.0
 11
2.037131929833645
 21
-0.480479781333348
 31
0.0
  0
TEXT
  5
104
330
1F
100
AcDbEntity
  8
1
  6
Continuous
 62
     7
370
     0
100
AcDbText
 10
1.239035781002905
 20
-0.5211648200189083
 30
0.0
 40
0.0237329392332435
  1
Drg Date: 26/07/2017
  7
DC_TEXTSTYLE5
100
AcDbText
  0
TEXT
  5
105
330
1F
100
AcDbEntity
  8
1
  6
Continuous
 62
     5
420
      255
370
     0
100
AcDbText
 10
0.0562136959310023
 20
0.7765408822183669
 30
0.0
 40
0.0176593932017736
  1
-3 AN FLARE PLUG
  7
DC_TEXTSTYLE5
100
AcDbText
  0
TEXT
  5
107
330
1F
100
AcDbEntity
  8
1
  6
DASHED
 62
     1
420
 16711680
370
     0
100
AcDbText
 10
1.984357620196658
 20
0.7725713841665469
 30
0.0
 40
0.0189838476919063
  1
A4
 41
1.000000000000003
  7
DC_TEXTSTYLE6
 72
     1
 11
2.001536197087032
 21
0.7725713841665469
 31
0.0
100
AcDbText
  0
LINE
  5
108
330
1F
100
AcDbEntity
  8
1
  6
Continuous
 62
     7
 48
0.0011588996015867
370
     0
100
AcDbLine
 10
1.965941125885763
 20
0.7639182859432634
 30
0.0
 11
1.84521385315849
 21
0.7639182859432634
 31
0.0
  0
LINE
  5
109
330
1F
100
AcDbEntity
  8
1
  6
CENTER
 62
    94
420
    37376
 48
0.0290909090909091
370
     0
100
AcDbLine
 10
1.886233097041688
 20
0.7855510315014769
 30
0.0
 11
1.854286683534639
 21
0.7855510315014769
 31
0.0
  0
POLYLINE
  5
10A
330
1F
100
AcDbEntity
  8
1
  6
Continuous
 62
     7
 48
0.0011588996015867
370
     0
100
AcDb2dPolyline
 66
     1
 10
0.0
 20
0.0
 30
0.0
  0
VERTEX
  5
10B
330
10A
100
AcDbEntity
  8
1
  6
Continuous
 62
     7
 48
0.0011588996015867
100
AcDbVertex
100
AcDb2dVertex
 10
1.951395671340309
 20
0.7971873951378406
 30
0.0
 40
0.00184
 41
0.00184
  0
VERTEX
  5
10C
330
10A
100
AcDbEntity
  8
1
  6
Continuous
 62
     7
 48
0.0011588996015867
100
AcDbVertex
100
AcDb2dVertex
 10
1.951395671340309
 20
0.7739146678651133
 30
0.0
 40
0.00184
 41
0.00184
  0
SEQEND
  5
10D
330
10A
100
AcDbEntity
  8
1
  6
Continuous
 62
     7
 48
0.0011588996015867
370
     0
  0
POLYLINE
  5
10E
330
1F
100
AcDbEntity
  8
1
  6
Continuous
 62
     7
 48
0.0011588996015867
370
     0
100
AcDb2dPolyline
 66
     1
 10
0.0
 20
0.0
 30
0.0
  0
VERTEX
  5
10F
330
10E
100
AcDbEntity
  8
1
  6
Continuous
 62
     7
 48
0.0011588996015867
100
AcDbVertex
100
AcDb2dVertex
 10
1.907759307703945
 20
0.7928237587742041
 30
0.0
 40
0.00184
 41
0.00184
  0
VERTEX
  5
110
330
10E
100
AcDbEntity
  8
1
  6
Continuous
 62
     7
 48
0.0011588996015867
100
AcDbVertex
100
AcDb2dVertex
 10
1.907759307703945
 20
0.7782783042287496
 30
0.0
 40
0.00184
 41
0.00184
  0
SEQEND
  5
111
330
10E
100
AcDbEntity
  8
1
  6
Continuous
 62
     7
 48
0.0011588996015867
370
     0
  0
POLYLINE
  5
112
330
1F
100
AcDbEntity
  8
1
  6
Continuous
 62
     7
 48
0.0011588996015867
370
     0
100
AcDb2dPolyline
 66
     1
 10
0.0
 20
0.0
 30
0.0
  0
VERTEX
  5
113
330
112
100
AcDbEntity
  8
1
  6
Continuous
 62
     7
 48
0.0011588996015867
100
AcDbVertex
100
AcDb2dVertex
 10
1.907759307703945
 20
0.7928237587742041
 30
0.0
 40
0.00184
 41
0.00184
  0
VERTEX
  5
114
330
112
100
AcDbEntity
  8
1
  6
Continuous
 62
     7
 48
0.0011588996015867
100
AcDbVertex
100
AcDb2dVertex
 10
1.951395671340309
 20
0.7971873951378406
 30
0.0
 40
0.00184
 41
0.00184
  0
SEQEND
  5
115
330
112
100
AcDbEntity
  8
1
  6
Continuous
 62
     7
 48
0.0011588996015867
370
     0
  0
POLYLINE
  5
116
330
1F
100
AcDbEntity
  8
1
  6
Continuous
 62
     7
 48
0.0011588996015867
370
     0
100
AcDb2dPolyline
 66
     1
 10
0.0
 20
0.0
 30
0.0
  0
VERTEX
  5
117
330
116
100
AcDbEntity
  8
1
  6
Continuous
 62
     7
 48
0.0011588996015867
100
AcDbVertex
100
AcDb2dVertex
 10
1.907759307703945
 20
0.7782783042287496
 30
0.0
 40
0.00184
 41
0.00184
  0
VERTEX
  5
118
330
116
100
AcDbEntity
  8
1
  6
Continuous
 62
     7
 48
0.0011588996015867
100
AcDbVertex
100
AcDb2dVertex
 10
1.951395671340309
 20
0.7739146678651133
 30
0.0
 40
0.00184
 41
0.00184
  0
SEQEND
  5
119
330
116
100
AcDbEntity
  8
1
  6
Continuous
 62
     7
 48
0.0011588996015867
370
     0
  0
LINE
  5
11A
330
1F
100
AcDbEntity
  8
1
  6
CENTER
 62
    94
420
    37376
 48
0.0290909090909091
370
     0
100
AcDbLine
 10
1.871395671340309
 20
0.8000964860469314
 30
0.0
 11
1.871395671340309
 21
0.7710055769560225
 31
0.0
  0
LINE
  5
11B
330
1F
100
AcDbEntity
  8
1
  6
Continuous
 62
     7
 48
0.0011588996015867
370
     0
100
AcDbLine
 10
1.84521385315849
 20
0.763918285943263
 30
0.0
 11
1.845213853158489
 21
0.8071843062959656
 31
0.0
  0
LINE
  5
11C
330
1F
100
AcDbEntity
  8
1
  6
Continuous
 62
     7
 48
0.0011588996015867
370
     0
100
AcDbLine
 10
1.84521385315849
 20
0.7406455586705363
 30
0.0
 11
2.037131797524577
 21
0.7406455586705364
 31
0.0
  0
TEXT
  5
11D
330
1F
100
AcDbEntity
  8
1
  6
DASHED
 62
     7
370
     0
100
AcDbText
 10
1.850599178905215
 20
0.7441364674105545
 30
0.0
 40
0.0104727272727271
  1
3RD ANGLE PROJECTION
 41
1.000000000000007
  7
DC_TEXTSTYLE5
 72
     1
 11
1.941172560723395
 21
0.7441364674105545
 31
0.0
100
AcDbText
  0
LINE
  5
11E
330
1F
100
AcDbEntity
  8
1
  6
Continuous
 62
     7
 48
0.0011588996015867
370
     0
100
AcDbLine
 10
1.84521385315849
 20
0.763918285943263
 30
0.0
 11
1.84521385315849
 21
0.7406455586705363
 31
0.0
  0
TEXT
  5
11F
330
1F
100
AcDbEntity
  8
1
  6
Continuous
 62
     7
370
     0
100
AcDbText
 10
1.112765892046629
 20
-0.4730951659567324
 30
0.0
 40
0.0147692307532307
  1
MK #
 41
1.0
  7
DC_TEXTSTYLE4
100
AcDbText
  0
TEXT
  5
120
330
1F
100
AcDbEntity
  8
1
  6
Continuous
 62
     7
370
     0
100
AcDbText
 10
1.175679515478566
 20
-0.4730951659567324
 30
0.0
 40
0.0147692307532307
  1
QTY
 41
1.000000000000001
  7
DC_TEXTSTYLE4
100
AcDbText
  0
TEXT
  5
121
330
1F
100
AcDbEntity
  8
1
  6
Continuous
 62
     7
370
     0
100
AcDbText
 10
1.232858716817668
 20
-0.4730951659567324
 30
0.0
 40
0.0147692307532307
  1
PART #
 41
0.9999999999999999
  7
DC_TEXTSTYLE4
100
AcDbText
  0
TEXT
  5
122
330
1F
100
AcDbEntity
  8
1
  6
Continuous
 62
     7
370
     0
100
AcDbText
 10
1.362587880164382
 20
-0.4730951659567322
 30
0.0
 40
0.0147692307532307
  1
DESCRIPTION
 41
0.9999999999999996
  7
DC_TEXTSTYLE4
100
AcDbText
  0
TEXT
  5
123
330
1F
100
AcDbEntity
  8
1
  6
Continuous
 62
     7
370
     0
100
AcDbText
 10
1.617671374385258
 20
-0.4730951659567324
 30
0.0
 40
0.0147692307532307
  1
MATERIAL
 41
0.9999999999999993
  7
DC_TEXTSTYLE4
100
AcDbText
  0
TEXT
  5
124
330
1F
100
AcDbEntity
  8
1
  6
Continuous
 62
     7
370
     0
100
AcDbText
 10
1.12899045955076
 20
-0.4435567044502709
 30
0.0
 40
0.0147692307532308
  1
1
 41
1.000000000000003
  7
DC_TEXTSTYLE5
100
AcDbText
  0
TEXT
  5
125
330
1F
100
AcDbEntity
  8
1
  6
Continuous
 62
     7
370
     0
100
AcDbText
 10
1.191904082982698
 20
-0.4435567044502709
 30
0.0
 40
0.0147692307532308
  1
1
 41
1.000000000000004
  7
DC_TEXTSTYLE5
100
AcDbText
  0
TEXT
  5
126
330
1F
100
AcDbEntity
  8
1
  6
Continuous
 62
     7
370
     0
100
AcDbText
 10
1.232858716817668
 20
-0.4435567044502709
 30
0.0
 40
0.0147692307532308
  1
806-03
 41
1.000000000000003
  7
DC_TEXTSTYLE5
100
AcDbText
  0
TEXT
  5
127
330
1F
100
AcDbEntity
  8
1
  6
Continuous
 62
     7
370
     0
100
AcDbText
 10
1.362587880164382
 20
-0.4435567044502708
 30
0.0
 40
0.0147692307532308
  1
AN FLARE PLUG
 41
0.9999999999999996
  7
DC_TEXTSTYLE5
100
AcDbText
  0
TEXT
  5
128
330
1F
100
AcDbEntity
  8
1
  6
Continuous
 62
     7
370
     0
100
AcDbText
 10
1.617671374385258
 20
-0.443556704450271
 30
0.0
 40
0.0147692307532308
  1
ALLOY
 41
0.9999999999999993
  7
DC_TEXTSTYLE5
100
AcDbText
  0
LINE
  5
129
330
1F
100
AcDbEntity
  8
1
  6
Continuous
 62
     7
 48
0.0011588996015867
370
     0
100
AcDbLine
 10
2.037131929833645
 20
-0.4214028583204248
 30
0.0
 11
1.105381276670014
 21
-0.421402858320425
 31
0.0
  0
LINE
  5
12A
330
1F
100
AcDbEntity
  8
1
  6
CENTER
 62
    94
420
    37376
 48
0.0290909090909091
370
     0
100
AcDbLine
 10
1.955227165957431
 20
0.7855510315014769
 30
0.0
 11
1.903478113813746
 21
0.7855510315014769
 31
0.0
  0
LINE
  5
12B
330
1F
100
AcDbEntity
  8
1
  6
Continuous
 62
     7
 48
0.0011588996015867
370
     0
100
AcDbLine
 10
1.105381276670014
 20
-0.4804797813333478
 30
0.0
 11
1.105381276670014
 21
-0.4509413198268864
 31
0.0
  0
LINE
  5
12C
330
1F
100
AcDbEntity
  8
1
  6
Continuous
 62
     7
 48
0.0011588996015867
370
     0
100
AcDbLine
 10
2.037131929833645
 20
-0.480479781333348
 30
0.0
 11
2.037131929833645
 21
-0.4509413198268865
 31
0.0
  0
LINE
  5
12D
330
1F
100
AcDbEntity
  8
1
  6
Continuous
 62
     7
 48
0.0011588996015867
370
     0
100
AcDbLine
 10
1.225999996433087
 20
-0.4804797813333481
 30
0.0
 11
2.037131929833645
 21
-0.4804797813333481
 31
0.0
  0
LINE
  5
12E
330
1F
100
AcDbEntity
  8
1
  6
Continuous
 62
     7
 48
0.0011588996015867
370
     0
100
AcDbLine
 10
2.037131929833645
 20
-0.4509413198268865
 30
0.0
 11
1.105381276670014
 21
-0.4509413198268866
 31
0.0
  0
LINE
  5
12F
330
1F
100
AcDbEntity
  8
1
  6
Continuous
 62
     7
 48
0.0011588996015867
370
     0
100
AcDbLine
 10
1.105381276670014
 20
-0.4509413198268864
 30
0.0
 11
1.105381276670014
 21
-0.4214028583204248
 31
0.0
  0
LINE
  5
130
330
1F
100
AcDbEntity
  8
1
  6
Continuous
 62
     7
 48
0.0011588996015867
370
     0
100
AcDbLine
 10
2.037131929833645
 20
-0.4214028583204248
 30
0.0
 11
2.037131929833645
 21
-0.4509413198268865
 31
0.0
  0
LINE
  5
131
330
1F
100
AcDbEntity
  8
1
  6
Continuous
 62
     7
 48
0.0011588996015867
370
     0
100
AcDbLine
 10
1.168294900101951
 20
-0.480479781333348
 30
0.0
 11
1.168294900101951
 21
-0.4509413198268864
 31
0.0
  0
LINE
  5
132
330
1F
100
AcDbEntity
  8
1
  6
Continuous
 62
     7
 48
0.0011588996015867
370
     0
100
AcDbLine
 10
1.225474101441052
 20
-0.480479781333348
 30
0.0
 11
1.225474101441052
 21
-0.4509413198268864
 31
0.0
  0
LINE
  5
133
330
1F
100
AcDbEntity
  8
1
  6
Continuous
 62
     7
 48
0.0011588996015867
370
     0
100
AcDbLine
 10
1.355203264787767
 20
-0.4804797813333478
 30
0.0
 11
1.355203264787767
 21
-0.4509413198268863
 31
0.0
  0
LINE
  5
134
330
1F
100
AcDbEntity
  8
1
  6
Continuous
 62
     7
 48
0.0011588996015867
370
     0
100
AcDbLine
 10
1.610286759008643
 20
-0.480479781333348
 30
0.0
 11
1.610286759008643
 21
-0.4509413198268861
 31
0.0
  0
LINE
  5
135
330
1F
100
AcDbEntity
  8
1
  6
Continuous
 62
     7
 48
0.0011588996015867
370
     0
100
AcDbLine
 10
1.168294900101951
 20
-0.4509413198268864
 30
0.0
 11
1.168294900101951
 21
-0.421402858320425
 31
0.0
  0
LINE
  5
136
330
1F
100
AcDbEntity
  8
1
  6
Continuous
 62
     7
 48
0.0011588996015867
370
     0
100
AcDbLine
 10
1.225474101441052
 20
-0.4509413198268864
 30
0.0
 11
1.225474101441052
 21
-0.421402858320425
 31
0.0
  0
LINE
  5
137
330
1F
100
AcDbEntity
  8
1
  6
Continuous
 62
     7
 48
0.0011588996015867
370
     0
100
AcDbLine
 10
1.355203264787767
 20
-0.4509413198268863
 30
0.0
 11
1.355203264787767
 21
-0.421402858320425
 31
0.0
  0
LINE
  5
138
330
1F
100
AcDbEntity
  8
1
  6
Continuous
 62
     7
 48
0.0011588996015867
370
     0
100
AcDbLine
 10
1.610286759008643
 20
-0.4509413198268861
 30
0.0
 11
1.610286759008643
 21
-0.4214028583204248
 31
0.0
  0
TEXT
  5
139
330
1F
100
AcDbEntity
  8
1
  6
Continuous
 62
     7
370
     0
100
AcDbText
 10
1.750761497020756
 20
-0.4730951659567327
 30
0.0
 40
0.0147692307532307
  1
SURFACE CONDITION
 41
1.000000000000001
  7
DC_TEXTSTYLE4
100
AcDbText
  0
TEXT
  5
13A
330
1F
100
AcDbEntity
  8
1
  6
Continuous
 62
     7
370
     0
100
AcDbText
 10
1.750761497020756
 20
-0.4435567044502711
 30
0.0
 40
0.0147692307532308
  1
HARD COAT ANODIZED
 41
1.000000000000004
  7
DC_TEXTSTYLE5
100
AcDbText
  0
LINE
  5
13B
330
1F
100
AcDbEntity
  8
1
  6
Continuous
 62
     7
 48
0.0011588996015867
370
     0
100
AcDbLine
 10
1.743376881644141
 20
-0.4804797813333482
 30
0.0
 11
1.743376881644141
 21
-0.4509413198268866
 31
0.0
  0
LINE
  5
13C
330
1F
100
AcDbEntity
  8
1
  6
Continuous
 62
     7
 48
0.0011588996015867
370
     0
100
AcDbLine
 10
1.743376881644141
 20
-0.4509413198268866
 30
0.0
 11
1.743376881644141
 21
-0.4214028583204252
 31
0.0
  0
LINE
  5
13D
330
1F
100
AcDbEntity
  8
1
  6
Continuous
 62
     7
 48
0.0011588996015867
370
     0
100
AcDbLine
 10
2.037131929833645
 20
-0.4214028583204248
 30
0.0
 11
1.105381276670014
 21
-0.421402858320425
 31
0.0
  0
LINE
  5
13E
330
1F
100
AcDbEntity
  8
1
  6
Continuous
 62
     7
 48
0.0011588996015867
370
     0
100
AcDbLine
 10
2.037131929833645
 20
-0.3918643968139632
 30
0.0
 11
2.037131929833645
 21
-0.4214028583204248
 31
0.0
  0
LINE
  5
13F
330
1F
100
AcDbEntity
  8
1
  6
Continuous
 62
     7
 48
0.0003881109994638
370
     0
100
AcDbLine
 10
0.4255614694141183
 20
-0.5889732178281756
 30
0.0
 11
0.4255614694141183
 21
-0.5347264995807617
 31
0.0
  0
TEXT
  5
140
330
1F
100
AcDbEntity
  8
1
  6
Continuous
 62
     7
370
     0
100
AcDbText
 10
1.239035781002905
 20
-0.5754115382663219
 30
0.0
 40
0.0237329392332435
  1
.
  7
DC_TEXTSTYLE5
100
AcDbText
  0
TEXT
  5
141
330
1F
100
AcDbEntity
  8
1
  6
Continuous
 62
    94
420
    37376
370
     0
100
AcDbText
 10
0.8542231234353144
 20
-0.5754115382663222
 30
0.0
 40
0.0237329392332435
  1
.
  7
DC_TEXTSTYLE5
100
AcDbText
  0
TEXT
  5
142
330
1F
100
AcDbEntity
  8
1
  6
Continuous
 62
    94
420
    37376
370
     0
100
AcDbText
 10
0.4391231489759717
 20
-0.5754115382663222
 30
0.0
 40
0.0237329392332435
  1
.
  7
DC_TEXTSTYLE5
100
AcDbText
  0
TEXT
  5
143
330
1F
100
AcDbEntity
  8
1
  6
Continuous
 62
    94
420
    37376
370
     0
100
AcDbText
 10
0.0778169685192059
 20
-0.575411538266322
 30
0.0
 40
0.0237329392332435
  1
.
  7
DC_TEXTSTYLE5
100
AcDbText
  0
ARC
  5
144
330
1F
100
AcDbEntity
  8
1
  6
Continuous
 62
     7
 48
0.0003881109994638
370
     0
100
AcDbCircle
 10
2.0371312682883
 20
0.8071837770596905
 30
0.0
 40
0.0000005292362757
100
AcDbArc
 50
0.0
 51
89.99999995192236
  0
POLYLINE
  5
145
330
1F
100
AcDbEntity
  8
1
  6
Continuous
 62
     7
 48
0.0011588996015867
370
     0
100
AcDb2dPolyline
 66
     1
 10
0.0
 20
0.0
 30
0.0
 70
   129
  0
VERTEX
  5
146
330
145
100
AcDbEntity
  8
1
  6
Continuous
 62
     7
 48
0.0011588996015867
100
AcDbVertex
100
AcDb2dVertex
 10
1.883032034976673
 20
0.7855510315014769
 30
0.0
 40
0.00184
 41
0.00184
  0
VERTEX
  5
147
330
145
100
AcDbEntity
  8
1
  6
Continuous
 62
     7
 48
0.0011588996015867
100
AcDbVertex
100
AcDb2dVertex
 10
1.88285525246627
 20
0.7875716648416012
 30
0.0
 40
0.00184
 41
0.00184
  0
VERTEX
  5
148
330
145
100
AcDbEntity
  8
1
  6
Continuous
 62
     7
 48
0.0011588996015867
100
AcDbVertex
100
AcDb2dVertex
 10
1.882330276382182
 20
0.7895309022601756
 30
0.0
 40
0.00184
 41
0.00184
  0
VERTEX
  5
149
330
145
100
AcDbEntity
  8
1
  6
Continuous
 62
     7
 48
0.0011588996015867
100
AcDbVertex
100
AcDb2dVertex
 10
1.881473057857074
 20
0.7913692133196588
 30
0.0
 40
0.00184
 41
0.00184
  0
VERTEX
  5
14A
330
145
100
AcDbEntity
  8
1
  6
Continuous
 62
     7
 48
0.0011588996015867
100
AcDbVertex
100
AcDb2dVertex
 10
1.880309643042058
 20
0.7930307418687386
 30
0.0
 40
0.00184
 41
0.00184
  0
VERTEX
  5
14B
330
145
100
AcDbEntity
  8
1
  6
Continuous
 62
     7
 48
0.0011588996015867
100
AcDbVertex
100
AcDb2dVertex
 10
1.878875381707571
 20
0.7944650032032252
 30
0.0
 40
0.00184
 41
0.00184
  0
VERTEX
  5
14C
330
145
100
AcDbEntity
  8
1
  6
Continuous
 62
     7
 48
0.0011588996015867
100
AcDbVertex
100
AcDb2dVertex
 10
1.877213853158491
 20
0.7956284180182416
 30
0.0
 40
0.00184
 41
0.00184
  0
VERTEX
  5
14D
330
145
100
AcDbEntity
  8
1
  6
Continuous
 62
     7
 48
0.0011588996015867
100
AcDbVertex
100
AcDb2dVertex
 10
1.875375542099008
 20
0.7964856365433496
 30
0.0
 40
0.00184
 41
0.00184
  0
VERTEX
  5
14E
330
145
100
AcDbEntity
  8
1
  6
Continuous
 62
     7
 48
0.0011588996015867
100
AcDbVertex
100
AcDb2dVertex
 10
1.873416304680433
 20
0.7970106126274373
 30
0.0
 40
0.00184
 41
0.00184
  0
VERTEX
  5
14F
330
145
100
AcDbEntity
  8
1
  6
Continuous
 62
     7
 48
0.0011588996015867
100
AcDbVertex
100
AcDb2dVertex
 10
1.871395671340309
 20
0.7971873951378409
 30
0.0
 40
0.00184
 41
0.00184
  0
VERTEX
  5
150
330
145
100
AcDbEntity
  8
1
  6
Continuous
 62
     7
 48
0.0011588996015867
100
AcDbVertex
100
AcDb2dVertex
 10
1.869375038000185
 20
0.7970106126274373
 30
0.0
 40
0.00184
 41
0.00184
  0
VERTEX
  5
151
330
145
100
AcDbEntity
  8
1
  6
Continuous
 62
     7
 48
0.0011588996015867
100
AcDbVertex
100
AcDb2dVertex
 10
1.86741580058161
 20
0.7964856365433496
 30
0.0
 40
0.00184
 41
0.00184
  0
VERTEX
  5
152
330
145
100
AcDbEntity
  8
1
  6
Continuous
 62
     7
 48
0.0011588996015867
100
AcDbVertex
100
AcDb2dVertex
 10
1.865577489522127
 20
0.7956284180182416
 30
0.0
 40
0.00184
 41
0.00184
  0
VERTEX
  5
153
330
145
100
AcDbEntity
  8
1
  6
Continuous
 62
     7
 48
0.0011588996015867
100
AcDbVertex
100
AcDb2dVertex
 10
1.863915960973047
 20
0.7944650032032252
 30
0.0
 40
0.00184
 41
0.00184
  0
VERTEX
  5
154
330
145
100
AcDbEntity
  8
1
  6
Continuous
 62
     7
 48
0.0011588996015867
100
AcDbVertex
100
AcDb2dVertex
 10
1.86248169963856
 20
0.7930307418687386
 30
0.0
 40
0.00184
 41
0.00184
  0
VERTEX
  5
155
330
145
100
AcDbEntity
  8
1
  6
Continuous
 62
     7
 48
0.0011588996015867
100
AcDbVertex
100
AcDb2dVertex
 10
1.861318284823544
 20
0.7913692133196588
 30
0.0
 40
0.00184
 41
0.00184
  0
VERTEX
  5
156
330
145
100
AcDbEntity
  8
1
  6
Continuous
 62
     7
 48
0.0011588996015867
100
AcDbVertex
100
AcDb2dVertex
 10
1.860461066298436
 20
0.7895309022601756
 30
0.0
 40
0.00184
 41
0.00184
  0
VERTEX
  5
157
330
145
100
AcDbEntity
  8
1
  6
Continuous
 62
     7
 48
0.0011588996015867
100
AcDbVertex
100
AcDb2dVertex
 10
1.859936090214348
 20
0.7875716648416012
 30
0.0
 40
0.00184
 41
0.00184
  0
VERTEX
  5
158
330
145
100
AcDbEntity
  8
1
  6
Continuous
 62
     7
 48
0.0011588996015867
100
AcDbVertex
100
AcDb2dVertex
 10
1.859759307703945
 20
0.7855510315014769
 30
0.0
 40
0.00184
 41
0.00184
  0
VERTEX
  5
159
330
145
100
AcDbEntity
  8
1
  6
Continuous
 62
     7
 48
0.0011588996015867
100
AcDbVertex
100
AcDb2dVertex
 10
1.859936090214348
 20
0.7835303981613526
 30
0.0
 40
0.00184
 41
0.00184
  0
VERTEX
  5
15A
330
145
100
AcDbEntity
  8
1
  6
Continuous
 62
     7
 48
0.0011588996015867
100
AcDbVertex
100
AcDb2dVertex
 10
1.860461066298436
 20
0.7815711607427781
 30
0.0
 40
0.00184
 41
0.00184
  0
VERTEX
  5
15B
330
145
100
AcDbEntity
  8
1
  6
Continuous
 62
     7
 48
0.0011588996015867
100
AcDbVertex
100
AcDb2dVertex
 10
1.861318284823544
 20
0.7797328496832949
 30
0.0
 40
0.00184
 41
0.00184
  0
VERTEX
  5
15C
330
145
100
AcDbEntity
  8
1
  6
Continuous
 62
     7
 48
0.0011588996015867
100
AcDbVertex
100
AcDb2dVertex
 10
1.86248169963856
 20
0.7780713211342152
 30
0.0
 40
0.00184
 41
0.00184
  0
VERTEX
  5
15D
330
145
100
AcDbEntity
  8
1
  6
Continuous
 62
     7
 48
0.0011588996015867
100
AcDbVertex
100
AcDb2dVertex
 10
1.863915960973047
 20
0.7766370597997286
 30
0.0
 40
0.00184
 41
0.00184
  0
VERTEX
  5
15E
330
145
100
AcDbEntity
  8
1
  6
Continuous
 62
     7
 48
0.0011588996015867
100
AcDbVertex
100
AcDb2dVertex
 10
1.865577489522127
 20
0.7754736449847123
 30
0.0
 40
0.00184
 41
0.00184
  0
VERTEX
  5
15F
330
145
100
AcDbEntity
  8
1
  6
Continuous
 62
     7
 48
0.0011588996015867
100
AcDbVertex
100
AcDb2dVertex
 10
1.86741580058161
 20
0.7746164264596043
 30
0.0
 40
0.00184
 41
0.00184
  0
VERTEX
  5
160
330
145
100
AcDbEntity
  8
1
  6
Continuous
 62
     7
 48
0.0011588996015867
100
AcDbVertex
100
AcDb2dVertex
 10
1.869375038000185
 20
0.7740914503755164
 30
0.0
 40
0.00184
 41
0.00184
  0
VERTEX
  5
161
330
145
100
AcDbEntity
  8
1
  6
Continuous
 62
     7
 48
0.0011588996015867
100
AcDbVertex
100
AcDb2dVertex
 10
1.871395671340309
 20
0.773914667865113
 30
0.0
 40
0.00184
 41
0.00184
  0
VERTEX
  5
162
330
145
100
AcDbEntity
  8
1
  6
Continuous
 62
     7
 48
0.0011588996015867
100
AcDbVertex
100
AcDb2dVertex
 10
1.873416304680433
 20
0.7740914503755164
 30
0.0
 40
0.00184
 41
0.00184
  0
VERTEX
  5
163
330
145
100
AcDbEntity
  8
1
  6
Continuous
 62
     7
 48
0.0011588996015867
100
AcDbVertex
100
AcDb2dVertex
 10
1.875375542099008
 20
0.7746164264596042
 30
0.0
 40
0.00184
 41
0.00184
  0
VERTEX
  5
164
330
145
100
AcDbEntity
  8
1
  6
Continuous
 62
     7
 48
0.0011588996015867
100
AcDbVertex
100
AcDb2dVertex
 10
1.877213853158491
 20
0.7754736449847123
 30
0.0
 40
0.00184
 41
0.00184
  0
VERTEX
  5
165
330
145
100
AcDbEntity
  8
1
  6
Continuous
 62
     7
 48
0.0011588996015867
100
AcDbVertex
100
AcDb2dVertex
 10
1.878875381707571
 20
0.7766370597997285
 30
0.0
 40
0.00184
 41
0.00184
  0
VERTEX
  5
166
330
145
100
AcDbEntity
  8
1
  6
Continuous
 62
     7
 48
0.0011588996015867
100
AcDbVertex
100
AcDb2dVertex
 10
1.880309643042058
 20
0.7780713211342151
 30
0.0
 40
0.00184
 41
0.00184
  0
VERTEX
  5
167
330
145
100
AcDbEntity
  8
1
  6
Continuous
 62
     7
 48
0.0011588996015867
100
AcDbVertex
100
AcDb2dVertex
 10
1.881473057857074
 20
0.7797328496832949
 30
0.0
 40
0.00184
 41
0.00184
  0
VERTEX
  5
168
330
145
100
AcDbEntity
  8
1
  6
Continuous
 62
     7
 48
0.0011588996015867
100
AcDbVertex
100
AcDb2dVertex
 10
1.882330276382182
 20
0.7815711607427781
 30
0.0
 40
0.00184
 41
0.00184
  0
VERTEX
  5
169
330
145
100
AcDbEntity
  8
1
  6
Continuous
 62
     7
 48
0.0011588996015867
100
AcDbVertex
100
AcDb2dVertex
 10
1.88285525246627
 20
0.7835303981613525
 30
0.0
 40
0.00184
 41
0.00184
  0
VERTEX
  5
16A
330
145
100
AcDbEntity
  8
1
  6
Continuous
 62
     7
 48
0.0011588996015867
100
AcDbVertex
100
AcDb2dVertex
 10
1.883032034976673
 20
0.7855510315014769
 30
0.0
 40
0.00184
 41
0.00184
  0
SEQEND
  5
16B
330
145
100
AcDbEntity
  8
1
  6
Continuous
 62
     7
 48
0.0011588996015867
370
     0
  0
POLYLINE
  5
16C
330
1F
100
AcDbEntity
  8
1
  6
Continuous
 62
     7
 48
0.0011588996015867
370
     0
100
AcDb2dPolyline
 66
     1
 10
0.0
 20
0.0
 30
0.0
 70
   129
  0
VERTEX
  5
16D
330
16C
100
AcDbEntity
  8
1
  6
Continuous
 62
     7
 48
0.0011588996015867
100
AcDbVertex
100
AcDb2dVertex
 10
1.878668398613036
 20
0.7855510315014769
 30
0.0
 40
0.00184
 41
0.00184
  0
VERTEX
  5
16E
330
16C
100
AcDbEntity
  8
1
  6
Continuous
 62
     7
 48
0.0011588996015867
100
AcDbVertex
100
AcDb2dVertex
 10
1.878557909544034
 20
0.7868139273390546
 30
0.0
 40
0.00184
 41
0.00184
  0
VERTEX
  5
16F
330
16C
100
AcDbEntity
  8
1
  6
Continuous
 62
     7
 48
0.0011588996015867
100
AcDbVertex
100
AcDb2dVertex
 10
1.878229799491479
 20
0.7880384507256636
 30
0.0
 40
0.00184
 41
0.00184
  0
VERTEX
  5
170
330
16C
100
AcDbEntity
  8
1
  6
Continuous
 62
     7
 48
0.0011588996015867
100
AcDbVertex
100
AcDb2dVertex
 10
1.877694037913287
 20
0.7891873951378405
 30
0.0
 40
0.00184
 41
0.00184
  0
VERTEX
  5
171
330
16C
100
AcDbEntity
  8
1
  6
Continuous
 62
     7
 48
0.0011588996015867
100
AcDbVertex
100
AcDb2dVertex
 10
1.876966903653902
 20
0.7902258504810153
 30
0.0
 40
0.00184
 41
0.00184
  0
VERTEX
  5
172
330
16C
100
AcDbEntity
  8
1
  6
Continuous
 62
     7
 48
0.0011588996015867
100
AcDbVertex
100
AcDb2dVertex
 10
1.876070490319848
 20
0.7911222638150694
 30
0.0
 40
0.00184
 41
0.00184
  0
VERTEX
  5
173
330
16C
100
AcDbEntity
  8
1
  6
Continuous
 62
     7
 48
0.0011588996015867
100
AcDbVertex
100
AcDb2dVertex
 10
1.875032034976673
 20
0.7918493980744546
 30
0.0
 40
0.00184
 41
0.00184
  0
VERTEX
  5
174
330
16C
100
AcDbEntity
  8
1
  6
Continuous
 62
     7
 48
0.0011588996015867
100
AcDbVertex
100
AcDb2dVertex
 10
1.873883090564496
 20
0.7923851596526471
 30
0.0
 40
0.00184
 41
0.00184
  0
VERTEX
  5
175
330
16C
100
AcDbEntity
  8
1
  6
Continuous
 62
     7
 48
0.0011588996015867
100
AcDbVertex
100
AcDb2dVertex
 10
1.872658567177887
 20
0.792713269705202
 30
0.0
 40
0.00184
 41
0.00184
  0
VERTEX
  5
176
330
16C
100
AcDbEntity
  8
1
  6
Continuous
 62
     7
 48
0.0011588996015867
100
AcDbVertex
100
AcDb2dVertex
 10
1.871395671340309
 20
0.7928237587742041
 30
0.0
 40
0.00184
 41
0.00184
  0
VERTEX
  5
177
330
16C
100
AcDbEntity
  8
1
  6
Continuous
 62
     7
 48
0.0011588996015867
100
AcDbVertex
100
AcDb2dVertex
 10
1.870132775502731
 20
0.792713269705202
 30
0.0
 40
0.00184
 41
0.00184
  0
VERTEX
  5
178
330
16C
100
AcDbEntity
  8
1
  6
Continuous
 62
     7
 48
0.0011588996015867
100
AcDbVertex
100
AcDb2dVertex
 10
1.868908252116122
 20
0.7923851596526471
 30
0.0
 40
0.00184
 41
0.00184
  0
VERTEX
  5
179
330
16C
100
AcDbEntity
  8
1
  6
Continuous
 62
     7
 48
0.0011588996015867
100
AcDbVertex
100
AcDb2dVertex
 10
1.867759307703946
 20
0.7918493980744546
 30
0.0
 40
0.00184
 41
0.00184
  0
VERTEX
  5
17A
330
16C
100
AcDbEntity
  8
1
  6
Continuous
 62
     7
 48
0.0011588996015867
100
AcDbVertex
100
AcDb2dVertex
 10
1.866720852360771
 20
0.7911222638150694
 30
0.0
 40
0.00184
 41
0.00184
  0
VERTEX
  5
17B
330
16C
100
AcDbEntity
  8
1
  6
Continuous
 62
     7
 48
0.0011588996015867
100
AcDbVertex
100
AcDb2dVertex
 10
1.865824439026716
 20
0.7902258504810153
 30
0.0
 40
0.00184
 41
0.00184
  0
VERTEX
  5
17C
330
16C
100
AcDbEntity
  8
1
  6
Continuous
 62
     7
 48
0.0011588996015867
100
AcDbVertex
100
AcDb2dVertex
 10
1.865097304767331
 20
0.7891873951378405
 30
0.0
 40
0.00184
 41
0.00184
  0
VERTEX
  5
17D
330
16C
100
AcDbEntity
  8
1
  6
Continuous
 62
     7
 48
0.0011588996015867
100
AcDbVertex
100
AcDb2dVertex
 10
1.864561543189138
 20
0.7880384507256636
 30
0.0
 40
0.00184
 41
0.00184
  0
VERTEX
  5
17E
330
16C
100
AcDbEntity
  8
1
  6
Continuous
 62
     7
 48
0.0011588996015867
100
AcDbVertex
100
AcDb2dVertex
 10
1.864233433136584
 20
0.7868139273390546
 30
0.0
 40
0.00184
 41
0.00184
  0
VERTEX
  5
17F
330
16C
100
AcDbEntity
  8
1
  6
Continuous
 62
     7
 48
0.0011588996015867
100
AcDbVertex
100
AcDb2dVertex
 10
1.864122944067582
 20
0.7855510315014769
 30
0.0
 40
0.00184
 41
0.00184
  0
VERTEX
  5
180
330
16C
100
AcDbEntity
  8
1
  6
Continuous
 62
     7
 48
0.0011588996015867
100
AcDbVertex
100
AcDb2dVertex
 10
1.864233433136584
 20
0.7842881356638993
 30
0.0
 40
0.00184
 41
0.00184
  0
VERTEX
  5
181
330
16C
100
AcDbEntity
  8
1
  6
Continuous
 62
     7
 48
0.0011588996015867
100
AcDbVertex
100
AcDb2dVertex
 10
1.864561543189138
 20
0.7830636122772903
 30
0.0
 40
0.00184
 41
0.00184
  0
VERTEX
  5
182
330
16C
100
AcDbEntity
  8
1
  6
Continuous
 62
     7
 48
0.0011588996015867
100
AcDbVertex
100
AcDb2dVertex
 10
1.865097304767331
 20
0.7819146678651133
 30
0.0
 40
0.00184
 41
0.00184
  0
VERTEX
  5
183
330
16C
100
AcDbEntity
  8
1
  6
Continuous
 62
     7
 48
0.0011588996015867
100
AcDbVertex
100
AcDb2dVertex
 10
1.865824439026716
 20
0.7808762125219385
 30
0.0
 40
0.00184
 41
0.00184
  0
VERTEX
  5
184
330
16C
100
AcDbEntity
  8
1
  6
Continuous
 62
     7
 48
0.0011588996015867
100
AcDbVertex
100
AcDb2dVertex
 10
1.866720852360771
 20
0.7799797991878844
 30
0.0
 40
0.00184
 41
0.00184
  0
VERTEX
  5
185
330
16C
100
AcDbEntity
  8
1
  6
Continuous
 62
     7
 48
0.0011588996015867
100
AcDbVertex
100
AcDb2dVertex
 10
1.867759307703945
 20
0.7792526649284992
 30
0.0
 40
0.00184
 41
0.00184
  0
VERTEX
  5
186
330
16C
100
AcDbEntity
  8
1
  6
Continuous
 62
     7
 48
0.0011588996015867
100
AcDbVertex
100
AcDb2dVertex
 10
1.868908252116122
 20
0.7787169033503067
 30
0.0
 40
0.00184
 41
0.00184
  0
VERTEX
  5
187
330
16C
100
AcDbEntity
  8
1
  6
Continuous
 62
     7
 48
0.0011588996015867
100
AcDbVertex
100
AcDb2dVertex
 10
1.870132775502731
 20
0.7783887932977518
 30
0.0
 40
0.00184
 41
0.00184
  0
VERTEX
  5
188
330
16C
100
AcDbEntity
  8
1
  6
Continuous
 62
     7
 48
0.0011588996015867
100
AcDbVertex
100
AcDb2dVertex
 10
1.871395671340309
 20
0.7782783042287497
 30
0.0
 40
0.00184
 41
0.00184
  0
VERTEX
  5
189
330
16C
100
AcDbEntity
  8
1
  6
Continuous
 62
     7
 48
0.0011588996015867
100
AcDbVertex
100
AcDb2dVertex
 10
1.872658567177887
 20
0.7783887932977518
 30
0.0
 40
0.00184
 41
0.00184
  0
VERTEX
  5
18A
330
16C
100
AcDbEntity
  8
1
  6
Continuous
 62
     7
 48
0.0011588996015867
100
AcDbVertex
100
AcDb2dVertex
 10
1.873883090564496
 20
0.7787169033503067
 30
0.0
 40
0.00184
 41
0.00184
  0
VERTEX
  5
18B
330
16C
100
AcDbEntity
  8
1
  6
Continuous
 62
     7
 48
0.0011588996015867
100
AcDbVertex
100
AcDb2dVertex
 10
1.875032034976672
 20
0.7792526649284992
 30
0.0
 40
0.00184
 41
0.00184
  0
VERTEX
  5
18C
330
16C
100
AcDbEntity
  8
1
  6
Continuous
 62
     7
 48
0.0011588996015867
100
AcDbVertex
100
AcDb2dVertex
 10
1.876070490319848
 20
0.7799797991878844
 30
0.0
 40
0.00184
 41
0.00184
  0
VERTEX
  5
18D
330
16C
100
AcDbEntity
  8
1
  6
Continuous
 62
     7
 48
0.0011588996015867
100
AcDbVertex
100
AcDb2dVertex
 10
1.876966903653902
 20
0.7808762125219385
 30
0.0
 40
0.00184
 41
0.00184
  0
VERTEX
  5
18E
330
16C
100
AcDbEntity
  8
1
  6
Continuous
 62
     7
 48
0.0011588996015867
100
AcDbVertex
100
AcDb2dVertex
 10
1.877694037913287
 20
0.7819146678651133
 30
0.0
 40
0.00184
 41
0.00184
  0
VERTEX
  5
18F
330
16C
100
AcDbEntity
  8
1
  6
Continuous
 62
     7
 48
0.0011588996015867
100
AcDbVertex
100
AcDb2dVertex
 10
1.878229799491479
 20
0.7830636122772903
 30
0.0
 40
0.00184
 41
0.00184
  0
VERTEX
  5
190
330
16C
100
AcDbEntity
  8
1
  6
Continuous
 62
     7
 48
0.0011588996015867
100
AcDbVertex
100
AcDb2dVertex
 10
1.878557909544034
 20
0.7842881356638992
 30
0.0
 40
0.00184
 41
0.00184
  0
VERTEX
  5
191
330
16C
100
AcDbEntity
  8
1
  6
Continuous
 62
     7
 48
0.0011588996015867
100
AcDbVertex
100
AcDb2dVertex
 10
1.878668398613036
 20
0.7855510315014769
 30
0.0
 40
0.00184
 41
0.00184
  0
SEQEND
  5
192
330
16C
100
AcDbEntity
  8
1
  6
Continuous
 62
     7
 48
0.0011588996015867
370
     0
  0
TEXT
  5
193
330
1F
100
AcDbEntity
  8
1
  6
DASHED
 62
     7
370
     0
100
AcDbText
 10
1.63589020222189
 20
-0.5511774509953378
 30
0.0
 40
0.03
  1
-3 AN FLARE PLUG
 41
1.000000000000003
  7
DC_TEXTSTYLE5
 72
     1
 11
1.82555020222189
 21
-0.5511774509953378
 31
0.0
100
AcDbText
  0
POLYLINE
  5
194
330
1F
100
AcDbEntity
  8
2
  6
Continuous
 62
     7
 48
0.0050511175503093
370
     0
100
AcDb2dPolyline
 66
     1
 10
0.0
 20
0.0
 30
0.0
  0
VERTEX
  5
195
330
194
100
AcDbEntity
  8
2
  6
Continuous
 62
     7
 48
0.0050511175503093
100
AcDbVertex
100
AcDb2dVertex
 10
0.9382604260155164
 20
0.3819179725778615
 30
0.0
 40
0.002
 41
0.002
  0
VERTEX
  5
196
330
194
100
AcDbEntity
  8
2
  6
Continuous
 62
     7
 48
0.0050511175503093
100
AcDbVertex
100
AcDb2dVertex
 10
0.9290335130867566
 20
0.4088179725778617
 30
0.0
 40
0.002
 41
0.002
  0
SEQEND
  5
197
330
194
100
AcDbEntity
  8
2
  6
Continuous
 62
     7
 48
0.0050511175503093
370
     0
  0
POLYLINE
  5
198
330
1F
100
AcDbEntity
  8
2
  6
Continuous
 62
     7
 48
0.0050511175503093
370
     0
100
AcDb2dPolyline
 66
     1
 10
0.0
 20
0.0
 30
0.0
  0
VERTEX
  5
199
330
198
100
AcDbEntity
  8
2
  6
Continuous
 62
     7
 48
0.0050511175503093
100
AcDbVertex
100
AcDb2dVertex
 10
0.7382604260155163
 20
0.3818179725778615
 30
0.0
 40
0.002
 41
0.002
  0
VERTEX
  5
19A
330
198
100
AcDbEntity
  8
2
  6
Continuous
 62
     7
 48
0.0050511175503093
100
AcDbVertex
100
AcDb2dVertex
 10
0.7382604260155163
 20
0.1678179725778616
 30
0.0
 40
0.002
 41
0.002
  0
SEQEND
  5
19B
330
198
100
AcDbEntity
  8
2
  6
Continuous
 62
     7
 48
0.0050511175503093
370
     0
  0
POLYLINE
  5
19C
330
1F
100
AcDbEntity
  8
2
  6
Continuous
 62
     7
 48
0.0050511175503093
370
     0
100
AcDb2dPolyline
 66
     1
 10
0.0
 20
0.0
 30
0.0
  0
VERTEX
  5
19D
330
19C
100
AcDbEntity
  8
2
  6
Continuous
 62
     7
 48
0.0050511175503093
100
AcDbVertex
100
AcDb2dVertex
 10
0.9382604260155164
 20
0.3819179725778615
 30
0.0
 40
0.002
 41
0.002
  0
VERTEX
  5
19E
330
19C
100
AcDbEntity
  8
2
  6
Continuous
 62
     7
 48
0.0050511175503093
100
AcDbVertex
100
AcDb2dVertex
 10
0.9382604260155164
 20
0.3339179725778614
 30
0.0
 40
0.002
 41
0.002
  0
SEQEND
  5
19F
330
19C
100
AcDbEntity
  8
2
  6
Continuous
 62
     7
 48
0.0050511175503093
370
     0
  0
POLYLINE
  5
1A0
330
1F
100
AcDbEntity
  8
2
  6
Continuous
 62
     7
 48
0.0050511175503093
370
     0
100
AcDb2dPolyline
 66
     1
 10
0.0
 20
0.0
 30
0.0
  0
VERTEX
  5
1A1
330
1A0
100
AcDbEntity
  8
2
  6
Continuous
 62
     7
100
AcDbVertex
100
AcDb2dVertex
 10
0.9382604260167502
 20
0.3338181296574941
 30
0.0
 40
0.002
 41
0.002
 42
0.4142181631364936
  0
VERTEX
  5
1A2
330
1A0
100
AcDbEntity
  8
2
  6
Continuous
 62
     7
100
AcDbVertex
100
AcDb2dVertex
 10
0.9482604260155164
 20
0.3238179725778614
 30
0.0
 40
0.002
 41
0.002
  0
SEQEND
  5
1A3
330
1A0
100
AcDbEntity
  8
2
  6
Continuous
 62
     7
 48
0.0050511175503093
370
     0
  0
POLYLINE
  5
1A4
330
1F
100
AcDbEntity
  8
2
  6
Continuous
 62
     7
 48
0.0050511175503093
370
     0
100
AcDb2dPolyline
 66
     1
 10
0.0
 20
0.0
 30
0.0
  0
VERTEX
  5
1A5
330
1A4
100
AcDbEntity
  8
2
  6
Continuous
 62
     7
 48
0.0050511175503093
100
AcDbVertex
100
AcDb2dVertex
 10
0.9482604260155164
 20
0.3238179725778614
 30
0.0
 40
0.002
 41
0.002
  0
VERTEX
  5
1A6
330
1A4
100
AcDbEntity
  8
2
  6
Continuous
 62
     7
 48
0.0050511175503093
100
AcDbVertex
100
AcDb2dVertex
 10
1.012260426015516
 20
0.3238179725778614
 30
0.0
 40
0.002
 41
0.002
  0
SEQEND
  5
1A7
330
1A4
100
AcDbEntity
  8
2
  6
Continuous
 62
     7
 48
0.0050511175503093
370
     0
  0
POLYLINE
  5
1A8
330
1F
100
AcDbEntity
  8
2
  6
Continuous
 62
     7
 48
0.0050511175503093
370
     0
100
AcDb2dPolyline
 66
     1
 10
0.0
 20
0.0
 30
0.0
  0
VERTEX
  5
1A9
330
1A8
100
AcDbEntity
  8
2
  6
Continuous
 62
     7
 48
0.0050511175503093
100
AcDbVertex
100
AcDb2dVertex
 10
0.9382604260155164
 20
-0.0461820274221383
 30
0.0
 40
0.002
 41
0.002
  0
VERTEX
  5
1AA
330
1A8
100
AcDbEntity
  8
2
  6
Continuous
 62
     7
 48
0.0050511175503093
100
AcDbVertex
100
AcDb2dVertex
 10
0.9290235839102533
 20
-0.0731820274221384
 30
0.0
 40
0.002
 41
0.002
  0
SEQEND
  5
1AB
330
1A8
100
AcDbEntity
  8
2
  6
Continuous
 62
     7
 48
0.0050511175503093
370
     0
  0
POLYLINE
  5
1AC
330
1F
100
AcDbEntity
  8
2
  6
Continuous
 62
     7
 48
0.0050511175503093
370
     0
100
AcDb2dPolyline
 66
     1
 10
0.0
 20
0.0
 30
0.0
  0
VERTEX
  5
1AD
330
1AC
100
AcDbEntity
  8
2
  6
Continuous
 62
     7
 48
0.0050511175503093
100
AcDbVertex
100
AcDb2dVertex
 10
0.7382604260155163
 20
-0.0461820274221383
 30
0.0
 40
0.002
 41
0.002
  0
VERTEX
  5
1AE
330
1AC
100
AcDbEntity
  8
2
  6
Continuous
 62
     7
 48
0.0050511175503093
100
AcDbVertex
100
AcDb2dVertex
 10
0.7382604260155163
 20
0.1678179725778616
 30
0.0
 40
0.002
 41
0.002
  0
SEQEND
  5
1AF
330
1AC
100
AcDbEntity
  8
2
  6
Continuous
 62
     7
 48
0.0050511175503093
370
     0
  0
POLYLINE
  5
1B0
330
1F
100
AcDbEntity
  8
2
  6
Continuous
 62
     7
 48
0.0050511175503093
370
     0
100
AcDb2dPolyline
 66
     1
 10
0.0
 20
0.0
 30
0.0
  0
VERTEX
  5
1B1
330
1B0
100
AcDbEntity
  8
2
  6
Continuous
 62
     7
 48
0.0050511175503093
100
AcDbVertex
100
AcDb2dVertex
 10
0.9382604260155164
 20
-0.0461820274221383
 30
0.0
 40
0.002
 41
0.002
  0
VERTEX
  5
1B2
330
1B0
100
AcDbEntity
  8
2
  6
Continuous
 62
     7
 48
0.0050511175503093
100
AcDbVertex
100
AcDb2dVertex
 10
0.9382604260155164
 20
0.0018179725778615
 30
0.0
 40
0.002
 41
0.002
  0
SEQEND
  5
1B3
330
1B0
100
AcDbEntity
  8
2
  6
Continuous
 62
     7
 48
0.0050511175503093
370
     0
  0
POLYLINE
  5
1B4
330
1F
100
AcDbEntity
  8
2
  6
Continuous
 62
     7
 48
0.0050511175503093
370
     0
100
AcDb2dPolyline
 66
     1
 10
0.0
 20
0.0
 30
0.0
  0
VERTEX
  5
1B5
330
1B4
100
AcDbEntity
  8
2
  6
Continuous
 62
     7
100
AcDbVertex
100
AcDb2dVertex
 10
0.9482604260155164
 20
0.0118179725778616
 30
0.0
 40
0.002
 41
0.002
 42
0.4142089616246542
  0
VERTEX
  5
1B6
330
1B4
100
AcDbEntity
  8
2
  6
Continuous
 62
     7
100
AcDbVertex
100
AcDb2dVertex
 10
0.9382604260167502
 20
0.0018181296574943
 30
0.0
 40
0.002
 41
0.002
  0
SEQEND
  5
1B7
330
1B4
100
AcDbEntity
  8
2
  6
Continuous
 62
     7
 48
0.0050511175503093
370
     0
  0
POLYLINE
  5
1B8
330
1F
100
AcDbEntity
  8
2
  6
Continuous
 62
     7
 48
0.0050511175503093
370
     0
100
AcDb2dPolyline
 66
     1
 10
0.0
 20
0.0
 30
0.0
  0
VERTEX
  5
1B9
330
1B8
100
AcDbEntity
  8
2
  6
Continuous
 62
     7
 48
0.0050511175503093
100
AcDbVertex
100
AcDb2dVertex
 10
0.9482604260155164
 20
0.0118179725778616
 30
0.0
 40
0.002
 41
0.002
  0
VERTEX
  5
1BA
330
1B8
100
AcDbEntity
  8
2
  6
Continuous
 62
     7
 48
0.0050511175503093
100
AcDbVertex
100
AcDb2dVertex
 10
1.013260426015516
 20
0.0118179725778616
 30
0.0
 40
0.002
 41
0.002
  0
SEQEND
  5
1BB
330
1B8
100
AcDbEntity
  8
2
  6
Continuous
 62
     7
 48
0.0050511175503093
370
     0
  0
POLYLINE
  5
1BC
330
1F
100
AcDbEntity
  8
2
  6
Continuous
 62
     7
 48
0.0050511175503093
370
     0
100
AcDb2dPolyline
 66
     1
 10
0.0
 20
0.0
 30
0.0
 70
   128
  0
VERTEX
  5
1BD
330
1BC
100
AcDbEntity
  8
2
  6
Continuous
 62
     7
 48
0.0050511175503093
100
AcDbVertex
100
AcDb2dVertex
 10
1.304260426015517
 20
0.3208179725778618
 30
0.0
 40
0.002
 41
0.002
  0
VERTEX
  5
1BE
330
1BC
100
AcDbEntity
  8
2
  6
Continuous
 62
     7
 48
0.0050511175503093
100
AcDbVertex
100
AcDb2dVertex
 10
1.408260426015517
 20
0.2418179725778616
 30
0.0
 40
0.002
 41
0.002
  0
VERTEX
  5
1BF
330
1BC
100
AcDbEntity
  8
2
  6
Continuous
 62
     7
 48
0.0050511175503093
100
AcDbVertex
100
AcDb2dVertex
 10
1.408260426015517
 20
0.1678179725778616
 30
0.0
 40
0.002
 41
0.002
  0
SEQEND
  5
1C0
330
1BC
100
AcDbEntity
  8
2
  6
Continuous
 62
     7
 48
0.0050511175503093
370
     0
  0
POLYLINE
  5
1C1
330
1F
100
AcDbEntity
  8
2
  6
Continuous
 62
     7
 48
0.0050511175503093
370
     0
100
AcDb2dPolyline
 66
     1
 10
0.0
 20
0.0
 30
0.0
 70
   128
  0
VERTEX
  5
1C2
330
1C1
100
AcDbEntity
  8
2
  6
Continuous
 62
     7
 48
0.0050511175503093
100
AcDbVertex
100
AcDb2dVertex
 10
1.304260426015517
 20
0.0148179725778616
 30
0.0
 40
0.002
 41
0.002
  0
VERTEX
  5
1C3
330
1C1
100
AcDbEntity
  8
2
  6
Continuous
 62
     7
 48
0.0050511175503093
100
AcDbVertex
100
AcDb2dVertex
 10
1.408260426015517
 20
0.0938179725778615
 30
0.0
 40
0.002
 41
0.002
  0
VERTEX
  5
1C4
330
1C1
100
AcDbEntity
  8
2
  6
Continuous
 62
     7
 48
0.0050511175503093
100
AcDbVertex
100
AcDb2dVertex
 10
1.408260426015517
 20
0.1678179725778616
 30
0.0
 40
0.002
 41
0.002
  0
SEQEND
  5
1C5
330
1C1
100
AcDbEntity
  8
2
  6
Continuous
 62
     7
 48
0.0050511175503093
370
     0
  0
POLYLINE
  5
1C6
330
1F
100
AcDbEntity
  8
2
  6
Continuous
 62
     7
 48
0.0050511175503093
370
     0
100
AcDb2dPolyline
 66
     1
 10
0.0
 20
0.0
 30
0.0
 70
   128
  0
VERTEX
  5
1C7
330
1C6
100
AcDbEntity
  8
2
  6
Continuous
 62
     7
 48
0.0050511175503093
100
AcDbVertex
100
AcDb2dVertex
 10
1.304260426015517
 20
0.3208179725778618
 30
0.0
 40
0.002
 41
0.002
  0
VERTEX
  5
1C8
330
1C6
100
AcDbEntity
  8
2
  6
Continuous
 62
     7
 48
0.0050511175503093
100
AcDbVertex
100
AcDb2dVertex
 10
1.408260426015517
 20
0.2418179725778616
 30
0.0
 40
0.002
 41
0.002
  0
VERTEX
  5
1C9
330
1C6
100
AcDbEntity
  8
2
  6
Continuous
 62
     7
 48
0.0050511175503093
100
AcDbVertex
100
AcDb2dVertex
 10
1.408260426015517
 20
0.0938179725778615
 30
0.0
 40
0.002
 41
0.002
  0
VERTEX
  5
1CA
330
1C6
100
AcDbEntity
  8
2
  6
Continuous
 62
     7
 48
0.0050511175503093
100
AcDbVertex
100
AcDb2dVertex
 10
1.304260426015517
 20
0.0148179725778616
 30
0.0
 40
0.002
 41
0.002
  0
SEQEND
  5
1CB
330
1C6
100
AcDbEntity
  8
2
  6
Continuous
 62
     7
 48
0.0050511175503093
370
     0
  0
LINE
  5
1CC
330
1F
100
AcDbEntity
  8
1
  6
HIDDEN
 62
     7
 48
0.062
370
     0
100
AcDbLine
 10
1.408260426015517
 20
0.2303179725778616
 30
0.0
 11
1.345760426015517
 21
0.1678179725778615
 31
0.0
  0
LINE
  5
1CD
330
1F
100
AcDbEntity
  8
1
  6
HIDDEN
 62
     7
 48
0.062
370
     0
100
AcDbLine
 10
1.408260426015517
 20
0.1053179725778616
 30
0.0
 11
1.345760426015517
 21
0.1678179725778615
 31
0.0
  0
POLYLINE
  5
1CE
330
1F
100
AcDbEntity
  8
1
  6
Continuous
 62
     7
 48
0.0050511175503093
370
     0
100
AcDb2dPolyline
 66
     1
 10
0.0
 20
0.0
 30
0.0
  0
VERTEX
  5
1CF
330
1CE
100
AcDbEntity
  8
1
  6
Continuous
 62
     7
 48
0.0050511175503093
100
AcDbVertex
100
AcDb2dVertex
 10
1.304260426015517
 20
0.3208179725778618
 30
0.0
 40
0.002
 41
0.002
  0
VERTEX
  5
1D0
330
1CE
100
AcDbEntity
  8
1
  6
Continuous
 62
     7
 48
0.0050511175503093
100
AcDbVertex
100
AcDb2dVertex
 10
1.232260426015516
 20
0.3208179725778618
 30
0.0
 40
0.002
 41
0.002
  0
SEQEND
  5
1D1
330
1CE
100
AcDbEntity
  8
1
  6
Continuous
 62
     7
 48
0.0050511175503093
370
     0
  0
POLYLINE
  5
1D2
330
1F
100
AcDbEntity
  8
1
  6
Continuous
 62
     7
 48
0.0050511175503093
370
     0
100
AcDb2dPolyline
 66
     1
 10
0.0
 20
0.0
 30
0.0
  0
VERTEX
  5
1D3
330
1D2
100
AcDbEntity
  8
1
  6
Continuous
 62
     7
 48
0.0050511175503093
100
AcDbVertex
100
AcDb2dVertex
 10
0.7474972681207794
 20
0.4088179725778617
 30
0.0
 40
0.002
 41
0.002
  0
VERTEX
  5
1D4
330
1D2
100
AcDbEntity
  8
1
  6
Continuous
 62
     7
 48
0.0050511175503093
100
AcDbVertex
100
AcDb2dVertex
 10
0.9290335130867566
 20
0.4088179725778617
 30
0.0
 40
0.002
 41
0.002
  0
SEQEND
  5
1D5
330
1D2
100
AcDbEntity
  8
1
  6
Continuous
 62
     7
 48
0.0050511175503093
370
     0
  0
POLYLINE
  5
1D6
330
1F
100
AcDbEntity
  8
1
  6
Continuous
 62
     7
 48
0.0050511175503093
370
     0
100
AcDb2dPolyline
 66
     1
 10
0.0
 20
0.0
 30
0.0
  0
VERTEX
  5
1D7
330
1D6
100
AcDbEntity
  8
1
  6
Continuous
 62
     7
 48
0.0050511175503093
100
AcDbVertex
100
AcDb2dVertex
 10
0.9290235839102533
 20
-0.0731820274221384
 30
0.0
 40
0.002
 41
0.002
  0
VERTEX
  5
1D8
330
1D6
100
AcDbEntity
  8
1
  6
Continuous
 62
     7
 48
0.0050511175503093
100
AcDbVertex
100
AcDb2dVertex
 10
0.7474972681207797
 20
-0.0731820274221384
 30
0.0
 40
0.002
 41
0.002
  0
SEQEND
  5
1D9
330
1D6
100
AcDbEntity
  8
1
  6
Continuous
 62
     7
 48
0.0050511175503093
370
     0
  0
POLYLINE
  5
1DA
330
1F
100
AcDbEntity
  8
2
  6
Continuous
 62
     7
 48
0.0050511175503093
370
     0
100
AcDb2dPolyline
 66
     1
 10
0.0
 20
0.0
 30
0.0
  0
VERTEX
  5
1DB
330
1DA
100
AcDbEntity
  8
2
  6
Continuous
 62
     7
 48
0.0050511175503093
100
AcDbVertex
100
AcDb2dVertex
 10
0.7382604260155163
 20
0.3818179725778615
 30
0.0
 40
0.002
 41
0.002
  0
VERTEX
  5
1DC
330
1DA
100
AcDbEntity
  8
2
  6
Continuous
 62
     7
 48
0.0050511175503093
100
AcDbVertex
100
AcDb2dVertex
 10
0.7474972681207794
 20
0.4088179725778617
 30
0.0
 40
0.002
 41
0.002
  0
SEQEND
  5
1DD
330
1DA
100
AcDbEntity
  8
2
  6
Continuous
 62
     7
 48
0.0050511175503093
370
     0
  0
POLYLINE
  5
1DE
330
1F
100
AcDbEntity
  8
2
  6
Continuous
 62
     7
 48
0.0050511175503093
370
     0
100
AcDb2dPolyline
 66
     1
 10
0.0
 20
0.0
 30
0.0
  0
VERTEX
  5
1DF
330
1DE
100
AcDbEntity
  8
2
  6
Continuous
 62
     7
 48
0.0050511175503093
100
AcDbVertex
100
AcDb2dVertex
 10
0.7382604260155163
 20
-0.0461820274221383
 30
0.0
 40
0.002
 41
0.002
  0
VERTEX
  5
1E0
330
1DE
100
AcDbEntity
  8
2
  6
Continuous
 62
     7
 48
0.0050511175503093
100
AcDbVertex
100
AcDb2dVertex
 10
0.7474972681207797
 20
-0.0731820274221384
 30
0.0
 40
0.002
 41
0.002
  0
SEQEND
  5
1E1
330
1DE
100
AcDbEntity
  8
2
  6
Continuous
 62
     7
 48
0.0050511175503093
370
     0
  0
ARC
  5
1E2
330
1F
100
AcDbEntity
  8
1
  6
HIDDEN
 62
     7
 48
0.062
370
     0
100
AcDbCircle
 10
0.0109290022477817
 20
0.1678179725778616
 30
0.0
 40
0.75
100
AcDbArc
 50
345.8772554524356
 51
14.12274454756444
  0
POLYLINE
  5
1E3
330
1F
100
AcDbEntity
  8
1
  6
Continuous
 62
     7
 48
0.0050511175503093
370
     0
100
AcDb2dPolyline
 66
     1
 10
0.0
 20
0.0
 30
0.0
  0
VERTEX
  5
1E4
330
1E3
100
AcDbEntity
  8
1
  6
Continuous
 62
     7
 48
0.0050511175503093
100
AcDbVertex
100
AcDb2dVertex
 10
1.231260426015517
 20
0.0148179725778616
 30
0.0
 40
0.002
 41
0.002
  0
VERTEX
  5
1E5
330
1E3
100
AcDbEntity
  8
1
  6
Continuous
 62
     7
 48
0.0050511175503093
100
AcDbVertex
100
AcDb2dVertex
 10
1.304260426015517
 20
0.0148179725778616
 30
0.0
 40
0.002
 41
0.002
  0
SEQEND
  5
1E6
330
1E3
100
AcDbEntity
  8
1
  6
Continuous
 62
     7
 48
0.0050511175503093
370
     0
  0
LINE
  5
1E7
330
1F
100
AcDbEntity
  8
2
  6
CENTER
 62
    94
420
    43520
 48
0.075
370
     0
100
AcDbLine
 10
0.7236919576524746
 20
0.1678179725778616
 30
0.0
 11
1.427303803155694
 21
0.1678179725778616
 31
0.0
  0
POLYLINE
  5
1E8
330
1F
100
AcDbEntity
  8
1
  6
Continuous
 62
     7
 48
0.0050511175503093
370
     0
100
AcDb2dPolyline
 66
     1
 10
0.0
 20
0.0
 30
0.0
  0
VERTEX
  5
1E9
330
1E8
100
AcDbEntity
  8
1
  6
Continuous
 62
     7
 48
0.0050511175503093
100
AcDbVertex
100
AcDb2dVertex
 10
1.047843876015517
 20
0.3390679725778616
 30
0.0
 40
0.002
 41
0.002
  0
VERTEX
  5
1EA
330
1E8
100
AcDbEntity
  8
1
  6
Continuous
 62
     7
 48
0.0050511175503093
100
AcDbVertex
100
AcDb2dVertex
 10
1.055662449804163
 20
0.352610139622524
 30
0.0
 40
0.002
 41
0.002
  0
SEQEND
  5
1EB
330
1E8
100
AcDbEntity
  8
1
  6
Continuous
 62
     7
 48
0.0050511175503093
370
     0
  0
POLYLINE
  5
1EC
330
1F
100
AcDbEntity
  8
1
  6
Continuous
 62
     7
 48
0.0050511175503093
370
     0
100
AcDb2dPolyline
 66
     1
 10
0.0
 20
0.0
 30
0.0
  0
VERTEX
  5
1ED
330
1EC
100
AcDbEntity
  8
1
  6
Continuous
 62
     7
 48
0.0050511175503093
100
AcDbVertex
100
AcDb2dVertex
 10
1.055662449804163
 20
0.352610139622524
 30
0.0
 40
0.002
 41
0.002
  0
VERTEX
  5
1EE
330
1EC
100
AcDbEntity
  8
1
  6
Continuous
 62
     7
 48
0.0050511175503093
100
AcDbVertex
100
AcDb2dVertex
 10
1.06085860222687
 20
0.352610139622524
 30
0.0
 40
0.002
 41
0.002
  0
SEQEND
  5
1EF
330
1EC
100
AcDbEntity
  8
1
  6
Continuous
 62
     7
 48
0.0050511175503093
370
     0
  0
POLYLINE
  5
1F0
330
1F
100
AcDbEntity
  8
1
  6
Continuous
 62
     7
 48
0.0050511175503093
370
     0
100
AcDb2dPolyline
 66
     1
 10
0.0
 20
0.0
 30
0.0
  0
VERTEX
  5
1F1
330
1F0
100
AcDbEntity
  8
1
  6
Continuous
 62
     7
 48
0.0050511175503093
100
AcDbVertex
100
AcDb2dVertex
 10
1.084289978438223
 20
0.3300258055331996
 30
0.0
 40
0.002
 41
0.002
  0
VERTEX
  5
1F2
330
1F0
100
AcDbEntity
  8
1
  6
Continuous
 62
     7
 48
0.0050511175503093
100
AcDbVertex
100
AcDb2dVertex
 10
1.089510476015517
 20
0.3390679725778616
 30
0.0
 40
0.002
 41
0.002
  0
SEQEND
  5
1F3
330
1F0
100
AcDbEntity
  8
1
  6
Continuous
 62
     7
 48
0.0050511175503093
370
     0
  0
POLYLINE
  5
1F4
330
1F
100
AcDbEntity
  8
1
  6
Continuous
 62
     7
 48
0.0050511175503093
370
     0
100
AcDb2dPolyline
 66
     1
 10
0.0
 20
0.0
 30
0.0
  0
VERTEX
  5
1F5
330
1F4
100
AcDbEntity
  8
1
  6
Continuous
 62
     7
 48
0.0050511175503093
100
AcDbVertex
100
AcDb2dVertex
 10
1.07389767359281
 20
0.3300258055331996
 30
0.0
 40
0.002
 41
0.002
  0
VERTEX
  5
1F6
330
1F4
100
AcDbEntity
  8
1
  6
Continuous
 62
     7
 48
0.0050511175503093
100
AcDbVertex
100
AcDb2dVertex
 10
1.06085860222687
 20
0.352610139622524
 30
0.0
 40
0.002
 41
0.002
  0
SEQEND
  5
1F7
330
1F4
100
AcDbEntity
  8
1
  6
Continuous
 62
     7
 48
0.0050511175503093
370
     0
  0
POLYLINE
  5
1F8
330
1F
100
AcDbEntity
  8
1
  6
Continuous
 62
     7
 48
0.0050511175503093
370
     0
100
AcDb2dPolyline
 66
     1
 10
0.0
 20
0.0
 30
0.0
  0
VERTEX
  5
1F9
330
1F8
100
AcDbEntity
  8
1
  6
Continuous
 62
     7
 48
0.0050511175503093
100
AcDbVertex
100
AcDb2dVertex
 10
1.07389767359281
 20
0.3300258055331996
 30
0.0
 40
0.002
 41
0.002
  0
VERTEX
  5
1FA
330
1F8
100
AcDbEntity
  8
1
  6
Continuous
 62
     7
 48
0.0050511175503093
100
AcDbVertex
100
AcDb2dVertex
 10
1.084289978438223
 20
0.3300258055331996
 30
0.0
 40
0.002
 41
0.002
  0
SEQEND
  5
1FB
330
1F8
100
AcDbEntity
  8
1
  6
Continuous
 62
     7
 48
0.0050511175503093
370
     0
  0
POLYLINE
  5
1FC
330
1F
100
AcDbEntity
  8
1
  6
Continuous
 62
     7
 48
0.0050511175503093
370
     0
100
AcDb2dPolyline
 66
     1
 10
0.0
 20
0.0
 30
0.0
  0
VERTEX
  5
1FD
330
1FC
100
AcDbEntity
  8
1
  6
Continuous
 62
     7
 48
0.0050511175503093
100
AcDbVertex
100
AcDb2dVertex
 10
1.042623378438224
 20
0.3300258055331996
 30
0.0
 40
0.002
 41
0.002
  0
VERTEX
  5
1FE
330
1FC
100
AcDbEntity
  8
1
  6
Continuous
 62
     7
 48
0.0050511175503093
100
AcDbVertex
100
AcDb2dVertex
 10
1.047843876015517
 20
0.3390679725778616
 30
0.0
 40
0.002
 41
0.002
  0
SEQEND
  5
1FF
330
1FC
100
AcDbEntity
  8
1
  6
Continuous
 62
     7
 48
0.0050511175503093
370
     0
  0
POLYLINE
  5
200
330
1F
100
AcDbEntity
  8
1
  6
Continuous
 62
     7
 48
0.0050511175503093
370
     0
100
AcDb2dPolyline
 66
     1
 10
0.0
 20
0.0
 30
0.0
  0
VERTEX
  5
201
330
200
100
AcDbEntity
  8
1
  6
Continuous
 62
     7
 48
0.0050511175503093
100
AcDbVertex
100
AcDb2dVertex
 10
1.03223107359281
 20
0.3300258055331996
 30
0.0
 40
0.002
 41
0.002
  0
VERTEX
  5
202
330
200
100
AcDbEntity
  8
1
  6
Continuous
 62
     7
 48
0.0050511175503093
100
AcDbVertex
100
AcDb2dVertex
 10
1.042623378438224
 20
0.3300258055331996
 30
0.0
 40
0.002
 41
0.002
  0
SEQEND
  5
203
330
200
100
AcDbEntity
  8
1
  6
Continuous
 62
     7
 48
0.0050511175503093
370
     0
  0
POLYLINE
  5
204
330
1F
100
AcDbEntity
  8
1
  6
Continuous
 62
     7
 48
0.0050511175503093
370
     0
100
AcDb2dPolyline
 66
     1
 10
0.0
 20
0.0
 30
0.0
  0
VERTEX
  5
205
330
204
100
AcDbEntity
  8
1
  6
Continuous
 62
     7
 48
0.0050511175503093
100
AcDbVertex
100
AcDb2dVertex
 10
1.089510476015517
 20
0.3390679725778616
 30
0.0
 40
0.002
 41
0.002
  0
VERTEX
  5
206
330
204
100
AcDbEntity
  8
1
  6
Continuous
 62
     7
 48
0.0050511175503093
100
AcDbVertex
100
AcDb2dVertex
 10
1.097329049804163
 20
0.352610139622524
 30
0.0
 40
0.002
 41
0.002
  0
SEQEND
  5
207
330
204
100
AcDbEntity
  8
1
  6
Continuous
 62
     7
 48
0.0050511175503093
370
     0
  0
POLYLINE
  5
208
330
1F
100
AcDbEntity
  8
1
  6
Continuous
 62
     7
 48
0.0050511175503093
370
     0
100
AcDb2dPolyline
 66
     1
 10
0.0
 20
0.0
 30
0.0
  0
VERTEX
  5
209
330
208
100
AcDbEntity
  8
1
  6
Continuous
 62
     7
 48
0.0050511175503093
100
AcDbVertex
100
AcDb2dVertex
 10
1.097329049804163
 20
0.352610139622524
 30
0.0
 40
0.002
 41
0.002
  0
VERTEX
  5
20A
330
208
100
AcDbEntity
  8
1
  6
Continuous
 62
     7
 48
0.0050511175503093
100
AcDbVertex
100
AcDb2dVertex
 10
1.10252520222687
 20
0.352610139622524
 30
0.0
 40
0.002
 41
0.002
  0
SEQEND
  5
20B
330
208
100
AcDbEntity
  8
1
  6
Continuous
 62
     7
 48
0.0050511175503093
370
     0
  0
POLYLINE
  5
20C
330
1F
100
AcDbEntity
  8
1
  6
Continuous
 62
     7
 48
0.0050511175503093
370
     0
100
AcDb2dPolyline
 66
     1
 10
0.0
 20
0.0
 30
0.0
  0
VERTEX
  5
20D
330
20C
100
AcDbEntity
  8
1
  6
Continuous
 62
     7
 48
0.0050511175503093
100
AcDbVertex
100
AcDb2dVertex
 10
1.125956578438223
 20
0.3300258055331996
 30
0.0
 40
0.002
 41
0.002
  0
VERTEX
  5
20E
330
20C
100
AcDbEntity
  8
1
  6
Continuous
 62
     7
 48
0.0050511175503093
100
AcDbVertex
100
AcDb2dVertex
 10
1.131177076015517
 20
0.3390679725778616
 30
0.0
 40
0.002
 41
0.002
  0
SEQEND
  5
20F
330
20C
100
AcDbEntity
  8
1
  6
Continuous
 62
     7
 48
0.0050511175503093
370
     0
  0
POLYLINE
  5
210
330
1F
100
AcDbEntity
  8
1
  6
Continuous
 62
     7
 48
0.0050511175503093
370
     0
100
AcDb2dPolyline
 66
     1
 10
0.0
 20
0.0
 30
0.0
  0
VERTEX
  5
211
330
210
100
AcDbEntity
  8
1
  6
Continuous
 62
     7
 48
0.0050511175503093
100
AcDbVertex
100
AcDb2dVertex
 10
1.11556427359281
 20
0.3300258055331996
 30
0.0
 40
0.002
 41
0.002
  0
VERTEX
  5
212
330
210
100
AcDbEntity
  8
1
  6
Continuous
 62
     7
 48
0.0050511175503093
100
AcDbVertex
100
AcDb2dVertex
 10
1.10252520222687
 20
0.352610139622524
 30
0.0
 40
0.002
 41
0.002
  0
SEQEND
  5
213
330
210
100
AcDbEntity
  8
1
  6
Continuous
 62
     7
 48
0.0050511175503093
370
     0
  0
POLYLINE
  5
214
330
1F
100
AcDbEntity
  8
1
  6
Continuous
 62
     7
 48
0.0050511175503093
370
     0
100
AcDb2dPolyline
 66
     1
 10
0.0
 20
0.0
 30
0.0
  0
VERTEX
  5
215
330
214
100
AcDbEntity
  8
1
  6
Continuous
 62
     7
 48
0.0050511175503093
100
AcDbVertex
100
AcDb2dVertex
 10
1.11556427359281
 20
0.3300258055331996
 30
0.0
 40
0.002
 41
0.002
  0
VERTEX
  5
216
330
214
100
AcDbEntity
  8
1
  6
Continuous
 62
     7
 48
0.0050511175503093
100
AcDbVertex
100
AcDb2dVertex
 10
1.125956578438223
 20
0.3300258055331996
 30
0.0
 40
0.002
 41
0.002
  0
SEQEND
  5
217
330
214
100
AcDbEntity
  8
1
  6
Continuous
 62
     7
 48
0.0050511175503093
370
     0
  0
POLYLINE
  5
218
330
1F
100
AcDbEntity
  8
1
  6
Continuous
 62
     7
 48
0.0050511175503093
370
     0
100
AcDb2dPolyline
 66
     1
 10
0.0
 20
0.0
 30
0.0
  0
VERTEX
  5
219
330
218
100
AcDbEntity
  8
1
  6
Continuous
 62
     7
 48
0.0050511175503093
100
AcDbVertex
100
AcDb2dVertex
 10
1.131177076015517
 20
0.3390679725778616
 30
0.0
 40
0.002
 41
0.002
  0
VERTEX
  5
21A
330
218
100
AcDbEntity
  8
1
  6
Continuous
 62
     7
 48
0.0050511175503093
100
AcDbVertex
100
AcDb2dVertex
 10
1.138995649804163
 20
0.352610139622524
 30
0.0
 40
0.002
 41
0.002
  0
SEQEND
  5
21B
330
218
100
AcDbEntity
  8
1
  6
Continuous
 62
     7
 48
0.0050511175503093
370
     0
  0
POLYLINE
  5
21C
330
1F
100
AcDbEntity
  8
1
  6
Continuous
 62
     7
 48
0.0050511175503093
370
     0
100
AcDb2dPolyline
 66
     1
 10
0.0
 20
0.0
 30
0.0
  0
VERTEX
  5
21D
330
21C
100
AcDbEntity
  8
1
  6
Continuous
 62
     7
 48
0.0050511175503093
100
AcDbVertex
100
AcDb2dVertex
 10
1.138995649804163
 20
0.352610139622524
 30
0.0
 40
0.002
 41
0.002
  0
VERTEX
  5
21E
330
21C
100
AcDbEntity
  8
1
  6
Continuous
 62
     7
 48
0.0050511175503093
100
AcDbVertex
100
AcDb2dVertex
 10
1.14419180222687
 20
0.352610139622524
 30
0.0
 40
0.002
 41
0.002
  0
SEQEND
  5
21F
330
21C
100
AcDbEntity
  8
1
  6
Continuous
 62
     7
 48
0.0050511175503093
370
     0
  0
POLYLINE
  5
220
330
1F
100
AcDbEntity
  8
1
  6
Continuous
 62
     7
 48
0.0050511175503093
370
     0
100
AcDb2dPolyline
 66
     1
 10
0.0
 20
0.0
 30
0.0
  0
VERTEX
  5
221
330
220
100
AcDbEntity
  8
1
  6
Continuous
 62
     7
 48
0.0050511175503093
100
AcDbVertex
100
AcDb2dVertex
 10
1.167623178438223
 20
0.3300258055331996
 30
0.0
 40
0.002
 41
0.002
  0
VERTEX
  5
222
330
220
100
AcDbEntity
  8
1
  6
Continuous
 62
     7
 48
0.0050511175503093
100
AcDbVertex
100
AcDb2dVertex
 10
1.172843676015517
 20
0.3390679725778616
 30
0.0
 40
0.002
 41
0.002
  0
SEQEND
  5
223
330
220
100
AcDbEntity
  8
1
  6
Continuous
 62
     7
 48
0.0050511175503093
370
     0
  0
POLYLINE
  5
224
330
1F
100
AcDbEntity
  8
1
  6
Continuous
 62
     7
 48
0.0050511175503093
370
     0
100
AcDb2dPolyline
 66
     1
 10
0.0
 20
0.0
 30
0.0
  0
VERTEX
  5
225
330
224
100
AcDbEntity
  8
1
  6
Continuous
 62
     7
 48
0.0050511175503093
100
AcDbVertex
100
AcDb2dVertex
 10
1.15723087359281
 20
0.3300258055331996
 30
0.0
 40
0.002
 41
0.002
  0
VERTEX
  5
226
330
224
100
AcDbEntity
  8
1
  6
Continuous
 62
     7
 48
0.0050511175503093
100
AcDbVertex
100
AcDb2dVertex
 10
1.14419180222687
 20
0.352610139622524
 30
0.0
 40
0.002
 41
0.002
  0
SEQEND
  5
227
330
224
100
AcDbEntity
  8
1
  6
Continuous
 62
     7
 48
0.0050511175503093
370
     0
  0
POLYLINE
  5
228
330
1F
100
AcDbEntity
  8
1
  6
Continuous
 62
     7
 48
0.0050511175503093
370
     0
100
AcDb2dPolyline
 66
     1
 10
0.0
 20
0.0
 30
0.0
  0
VERTEX
  5
229
330
228
100
AcDbEntity
  8
1
  6
Continuous
 62
     7
 48
0.0050511175503093
100
AcDbVertex
100
AcDb2dVertex
 10
1.15723087359281
 20
0.3300258055331996
 30
0.0
 40
0.002
 41
0.002
  0
VERTEX
  5
22A
330
228
100
AcDbEntity
  8
1
  6
Continuous
 62
     7
 48
0.0050511175503093
100
AcDbVertex
100
AcDb2dVertex
 10
1.167623178438223
 20
0.3300258055331996
 30
0.0
 40
0.002
 41
0.002
  0
SEQEND
  5
22B
330
228
100
AcDbEntity
  8
1
  6
Continuous
 62
     7
 48
0.0050511175503093
370
     0
  0
POLYLINE
  5
22C
330
1F
100
AcDbEntity
  8
1
  6
Continuous
 62
     7
 48
0.0050511175503093
370
     0
100
AcDb2dPolyline
 66
     1
 10
0.0
 20
0.0
 30
0.0
  0
VERTEX
  5
22D
330
22C
100
AcDbEntity
  8
1
  6
Continuous
 62
     7
 48
0.0050511175503093
100
AcDbVertex
100
AcDb2dVertex
 10
1.172843676015517
 20
0.3390679725778616
 30
0.0
 40
0.002
 41
0.002
  0
VERTEX
  5
22E
330
22C
100
AcDbEntity
  8
1
  6
Continuous
 62
     7
 48
0.0050511175503093
100
AcDbVertex
100
AcDb2dVertex
 10
1.180662249804163
 20
0.352610139622524
 30
0.0
 40
0.002
 41
0.002
  0
SEQEND
  5
22F
330
22C
100
AcDbEntity
  8
1
  6
Continuous
 62
     7
 48
0.0050511175503093
370
     0
  0
POLYLINE
  5
230
330
1F
100
AcDbEntity
  8
1
  6
Continuous
 62
     7
 48
0.0050511175503093
370
     0
100
AcDb2dPolyline
 66
     1
 10
0.0
 20
0.0
 30
0.0
  0
VERTEX
  5
231
330
230
100
AcDbEntity
  8
1
  6
Continuous
 62
     7
 48
0.0050511175503093
100
AcDbVertex
100
AcDb2dVertex
 10
1.180662249804163
 20
0.352610139622524
 30
0.0
 40
0.002
 41
0.002
  0
VERTEX
  5
232
330
230
100
AcDbEntity
  8
1
  6
Continuous
 62
     7
 48
0.0050511175503093
100
AcDbVertex
100
AcDb2dVertex
 10
1.18585840222687
 20
0.352610139622524
 30
0.0
 40
0.002
 41
0.002
  0
SEQEND
  5
233
330
230
100
AcDbEntity
  8
1
  6
Continuous
 62
     7
 48
0.0050511175503093
370
     0
  0
POLYLINE
  5
234
330
1F
100
AcDbEntity
  8
1
  6
Continuous
 62
     7
 48
0.0050511175503093
370
     0
100
AcDb2dPolyline
 66
     1
 10
0.0
 20
0.0
 30
0.0
  0
VERTEX
  5
235
330
234
100
AcDbEntity
  8
1
  6
Continuous
 62
     7
 48
0.0050511175503093
100
AcDbVertex
100
AcDb2dVertex
 10
1.19889747359281
 20
0.3300258055331996
 30
0.0
 40
0.002
 41
0.002
  0
VERTEX
  5
236
330
234
100
AcDbEntity
  8
1
  6
Continuous
 62
     7
 48
0.0050511175503093
100
AcDbVertex
100
AcDb2dVertex
 10
1.18585840222687
 20
0.352610139622524
 30
0.0
 40
0.002
 41
0.002
  0
SEQEND
  5
237
330
234
100
AcDbEntity
  8
1
  6
Continuous
 62
     7
 48
0.0050511175503093
370
     0
  0
POLYLINE
  5
238
330
1F
100
AcDbEntity
  8
1
  6
Continuous
 62
     7
 48
0.0050511175503093
370
     0
100
AcDb2dPolyline
 66
     1
 10
0.0
 20
0.0
 30
0.0
  0
VERTEX
  5
239
330
238
100
AcDbEntity
  8
1
  6
Continuous
 62
     7
 48
0.0050511175503093
100
AcDbVertex
100
AcDb2dVertex
 10
1.19889747359281
 20
0.3300258055331996
 30
0.0
 40
0.002
 41
0.002
  0
VERTEX
  5
23A
330
238
100
AcDbEntity
  8
1
  6
Continuous
 62
     7
 48
0.0050511175503093
100
AcDbVertex
100
AcDb2dVertex
 10
1.209289778438223
 20
0.3300258055331996
 30
0.0
 40
0.002
 41
0.002
  0
SEQEND
  5
23B
330
238
100
AcDbEntity
  8
1
  6
Continuous
 62
     7
 48
0.0050511175503093
370
     0
  0
POLYLINE
  5
23C
330
1F
100
AcDbEntity
  8
1
  6
Continuous
 62
     7
 48
0.0050511175503093
370
     0
100
AcDb2dPolyline
 66
     1
 10
0.0
 20
0.0
 30
0.0
  0
VERTEX
  5
23D
330
23C
100
AcDbEntity
  8
1
  6
Continuous
 62
     7
 48
0.0050511175503093
100
AcDbVertex
100
AcDb2dVertex
 10
1.027193533813598
 20
0.3387510803759435
 30
0.0
 40
0.002
 41
0.002
  0
VERTEX
  5
23E
330
23C
100
AcDbEntity
  8
1
  6
Continuous
 62
     7
 48
0.0050511175503093
100
AcDbVertex
100
AcDb2dVertex
 10
1.012260426015516
 20
0.3238179725778614
 30
0.0
 40
0.002
 41
0.002
  0
SEQEND
  5
23F
330
23C
100
AcDbEntity
  8
1
  6
Continuous
 62
     7
 48
0.0050511175503093
370
     0
  0
POLYLINE
  5
240
330
1F
100
AcDbEntity
  8
1
  6
Continuous
 62
     7
 48
0.0050511175503093
370
     0
100
AcDb2dPolyline
 66
     1
 10
0.0
 20
0.0
 30
0.0
  0
VERTEX
  5
241
330
240
100
AcDbEntity
  8
1
  6
Continuous
 62
     7
 48
0.0050511175503093
100
AcDbVertex
100
AcDb2dVertex
 10
1.03223107359281
 20
0.3300258055331996
 30
0.0
 40
0.002
 41
0.002
  0
VERTEX
  5
242
330
240
100
AcDbEntity
  8
1
  6
Continuous
 62
     7
 48
0.0050511175503093
100
AcDbVertex
100
AcDb2dVertex
 10
1.027193533813598
 20
0.3387510803759435
 30
0.0
 40
0.002
 41
0.002
  0
SEQEND
  5
243
330
240
100
AcDbEntity
  8
1
  6
Continuous
 62
     7
 48
0.0050511175503093
370
     0
  0
POLYLINE
  5
244
330
1F
100
AcDbEntity
  8
1
  6
Continuous
 62
     7
 48
0.0050511175503093
370
     0
100
AcDb2dPolyline
 66
     1
 10
0.0
 20
0.0
 30
0.0
  0
VERTEX
  5
245
330
244
100
AcDbEntity
  8
1
  6
Continuous
 62
     7
 48
0.0050511175503093
100
AcDbVertex
100
AcDb2dVertex
 10
1.209289778438223
 20
0.3300258055331996
 30
0.0
 40
0.002
 41
0.002
  0
VERTEX
  5
246
330
244
100
AcDbEntity
  8
1
  6
Continuous
 62
     7
 48
0.0050511175503093
100
AcDbVertex
100
AcDb2dVertex
 10
1.214327318217435
 20
0.3387510803759431
 30
0.0
 40
0.002
 41
0.002
  0
SEQEND
  5
247
330
244
100
AcDbEntity
  8
1
  6
Continuous
 62
     7
 48
0.0050511175503093
370
     0
  0
POLYLINE
  5
248
330
1F
100
AcDbEntity
  8
1
  6
Continuous
 62
     7
 48
0.0050511175503093
370
     0
100
AcDb2dPolyline
 66
     1
 10
0.0
 20
0.0
 30
0.0
  0
VERTEX
  5
249
330
248
100
AcDbEntity
  8
1
  6
Continuous
 62
     7
 48
0.0050511175503093
100
AcDbVertex
100
AcDb2dVertex
 10
1.214327318217435
 20
0.3387510803759431
 30
0.0
 40
0.002
 41
0.002
  0
VERTEX
  5
24A
330
248
100
AcDbEntity
  8
1
  6
Continuous
 62
     7
 48
0.0050511175503093
100
AcDbVertex
100
AcDb2dVertex
 10
1.232260426015516
 20
0.3208179725778618
 30
0.0
 40
0.002
 41
0.002
  0
SEQEND
  5
24B
330
248
100
AcDbEntity
  8
1
  6
Continuous
 62
     7
 48
0.0050511175503093
370
     0
  0
POLYLINE
  5
24C
330
1F
100
AcDbEntity
  8
1
  6
Continuous
 62
     7
 48
0.0050511175503093
370
     0
100
AcDb2dPolyline
 66
     1
 10
0.0
 20
0.0
 30
0.0
  0
VERTEX
  5
24D
330
24C
100
AcDbEntity
  8
1
  6
Continuous
 62
     7
 48
0.0050511175503093
100
AcDbVertex
100
AcDb2dVertex
 10
1.068677176015517
 20
-0.0034320274221384
 30
0.0
 40
0.002
 41
0.002
  0
VERTEX
  5
24E
330
24C
100
AcDbEntity
  8
1
  6
Continuous
 62
     7
 48
0.0050511175503093
100
AcDbVertex
100
AcDb2dVertex
 10
1.076495749804163
 20
-0.0169741944668009
 30
0.0
 40
0.002
 41
0.002
  0
SEQEND
  5
24F
330
24C
100
AcDbEntity
  8
1
  6
Continuous
 62
     7
 48
0.0050511175503093
370
     0
  0
POLYLINE
  5
250
330
1F
100
AcDbEntity
  8
1
  6
Continuous
 62
     7
 48
0.0050511175503093
370
     0
100
AcDb2dPolyline
 66
     1
 10
0.0
 20
0.0
 30
0.0
  0
VERTEX
  5
251
330
250
100
AcDbEntity
  8
1
  6
Continuous
 62
     7
 48
0.0050511175503093
100
AcDbVertex
100
AcDb2dVertex
 10
1.076495749804163
 20
-0.0169741944668009
 30
0.0
 40
0.002
 41
0.002
  0
VERTEX
  5
252
330
250
100
AcDbEntity
  8
1
  6
Continuous
 62
     7
 48
0.0050511175503093
100
AcDbVertex
100
AcDb2dVertex
 10
1.08169190222687
 20
-0.0169741944668009
 30
0.0
 40
0.002
 41
0.002
  0
SEQEND
  5
253
330
250
100
AcDbEntity
  8
1
  6
Continuous
 62
     7
 48
0.0050511175503093
370
     0
  0
POLYLINE
  5
254
330
1F
100
AcDbEntity
  8
1
  6
Continuous
 62
     7
 48
0.0050511175503093
370
     0
100
AcDb2dPolyline
 66
     1
 10
0.0
 20
0.0
 30
0.0
  0
VERTEX
  5
255
330
254
100
AcDbEntity
  8
1
  6
Continuous
 62
     7
 48
0.0050511175503093
100
AcDbVertex
100
AcDb2dVertex
 10
1.105123278438223
 20
0.0056101396225236
 30
0.0
 40
0.002
 41
0.002
  0
VERTEX
  5
256
330
254
100
AcDbEntity
  8
1
  6
Continuous
 62
     7
 48
0.0050511175503093
100
AcDbVertex
100
AcDb2dVertex
 10
1.110343776015517
 20
-0.0034320274221384
 30
0.0
 40
0.002
 41
0.002
  0
SEQEND
  5
257
330
254
100
AcDbEntity
  8
1
  6
Continuous
 62
     7
 48
0.0050511175503093
370
     0
  0
POLYLINE
  5
258
330
1F
100
AcDbEntity
  8
1
  6
Continuous
 62
     7
 48
0.0050511175503093
370
     0
100
AcDb2dPolyline
 66
     1
 10
0.0
 20
0.0
 30
0.0
  0
VERTEX
  5
259
330
258
100
AcDbEntity
  8
1
  6
Continuous
 62
     7
 48
0.0050511175503093
100
AcDbVertex
100
AcDb2dVertex
 10
1.09473097359281
 20
0.0056101396225236
 30
0.0
 40
0.002
 41
0.002
  0
VERTEX
  5
25A
330
258
100
AcDbEntity
  8
1
  6
Continuous
 62
     7
 48
0.0050511175503093
100
AcDbVertex
100
AcDb2dVertex
 10
1.08169190222687
 20
-0.0169741944668009
 30
0.0
 40
0.002
 41
0.002
  0
SEQEND
  5
25B
330
258
100
AcDbEntity
  8
1
  6
Continuous
 62
     7
 48
0.0050511175503093
370
     0
  0
POLYLINE
  5
25C
330
1F
100
AcDbEntity
  8
1
  6
Continuous
 62
     7
 48
0.0050511175503093
370
     0
100
AcDb2dPolyline
 66
     1
 10
0.0
 20
0.0
 30
0.0
  0
VERTEX
  5
25D
330
25C
100
AcDbEntity
  8
1
  6
Continuous
 62
     7
 48
0.0050511175503093
100
AcDbVertex
100
AcDb2dVertex
 10
1.09473097359281
 20
0.0056101396225236
 30
0.0
 40
0.002
 41
0.002
  0
VERTEX
  5
25E
330
25C
100
AcDbEntity
  8
1
  6
Continuous
 62
     7
 48
0.0050511175503093
100
AcDbVertex
100
AcDb2dVertex
 10
1.105123278438223
 20
0.0056101396225236
 30
0.0
 40
0.002
 41
0.002
  0
SEQEND
  5
25F
330
25C
100
AcDbEntity
  8
1
  6
Continuous
 62
     7
 48
0.0050511175503093
370
     0
  0
POLYLINE
  5
260
330
1F
100
AcDbEntity
  8
1
  6
Continuous
 62
     7
 48
0.0050511175503093
370
     0
100
AcDb2dPolyline
 66
     1
 10
0.0
 20
0.0
 30
0.0
  0
VERTEX
  5
261
330
260
100
AcDbEntity
  8
1
  6
Continuous
 62
     7
 48
0.0050511175503093
100
AcDbVertex
100
AcDb2dVertex
 10
1.063456678438224
 20
0.0056101396225236
 30
0.0
 40
0.002
 41
0.002
  0
VERTEX
  5
262
330
260
100
AcDbEntity
  8
1
  6
Continuous
 62
     7
 48
0.0050511175503093
100
AcDbVertex
100
AcDb2dVertex
 10
1.068677176015517
 20
-0.0034320274221384
 30
0.0
 40
0.002
 41
0.002
  0
SEQEND
  5
263
330
260
100
AcDbEntity
  8
1
  6
Continuous
 62
     7
 48
0.0050511175503093
370
     0
  0
POLYLINE
  5
264
330
1F
100
AcDbEntity
  8
1
  6
Continuous
 62
     7
 48
0.0050511175503093
370
     0
100
AcDb2dPolyline
 66
     1
 10
0.0
 20
0.0
 30
0.0
  0
VERTEX
  5
265
330
264
100
AcDbEntity
  8
1
  6
Continuous
 62
     7
 48
0.0050511175503093
100
AcDbVertex
100
AcDb2dVertex
 10
1.05306437359281
 20
0.0056101396225236
 30
0.0
 40
0.002
 41
0.002
  0
VERTEX
  5
266
330
264
100
AcDbEntity
  8
1
  6
Continuous
 62
     7
 48
0.0050511175503093
100
AcDbVertex
100
AcDb2dVertex
 10
1.063456678438224
 20
0.0056101396225236
 30
0.0
 40
0.002
 41
0.002
  0
SEQEND
  5
267
330
264
100
AcDbEntity
  8
1
  6
Continuous
 62
     7
 48
0.0050511175503093
370
     0
  0
POLYLINE
  5
268
330
1F
100
AcDbEntity
  8
1
  6
Continuous
 62
     7
 48
0.0050511175503093
370
     0
100
AcDb2dPolyline
 66
     1
 10
0.0
 20
0.0
 30
0.0
  0
VERTEX
  5
269
330
268
100
AcDbEntity
  8
1
  6
Continuous
 62
     7
 48
0.0050511175503093
100
AcDbVertex
100
AcDb2dVertex
 10
1.110343776015517
 20
-0.0034320274221384
 30
0.0
 40
0.002
 41
0.002
  0
VERTEX
  5
26A
330
268
100
AcDbEntity
  8
1
  6
Continuous
 62
     7
 48
0.0050511175503093
100
AcDbVertex
100
AcDb2dVertex
 10
1.118162349804163
 20
-0.0169741944668009
 30
0.0
 40
0.002
 41
0.002
  0
SEQEND
  5
26B
330
268
100
AcDbEntity
  8
1
  6
Continuous
 62
     7
 48
0.0050511175503093
370
     0
  0
POLYLINE
  5
26C
330
1F
100
AcDbEntity
  8
1
  6
Continuous
 62
     7
 48
0.0050511175503093
370
     0
100
AcDb2dPolyline
 66
     1
 10
0.0
 20
0.0
 30
0.0
  0
VERTEX
  5
26D
330
26C
100
AcDbEntity
  8
1
  6
Continuous
 62
     7
 48
0.0050511175503093
100
AcDbVertex
100
AcDb2dVertex
 10
1.118162349804163
 20
-0.0169741944668009
 30
0.0
 40
0.002
 41
0.002
  0
VERTEX
  5
26E
330
26C
100
AcDbEntity
  8
1
  6
Continuous
 62
     7
 48
0.0050511175503093
100
AcDbVertex
100
AcDb2dVertex
 10
1.12335850222687
 20
-0.0169741944668009
 30
0.0
 40
0.002
 41
0.002
  0
SEQEND
  5
26F
330
26C
100
AcDbEntity
  8
1
  6
Continuous
 62
     7
 48
0.0050511175503093
370
     0
  0
POLYLINE
  5
270
330
1F
100
AcDbEntity
  8
1
  6
Continuous
 62
     7
 48
0.0050511175503093
370
     0
100
AcDb2dPolyline
 66
     1
 10
0.0
 20
0.0
 30
0.0
  0
VERTEX
  5
271
330
270
100
AcDbEntity
  8
1
  6
Continuous
 62
     7
 48
0.0050511175503093
100
AcDbVertex
100
AcDb2dVertex
 10
1.146789878438223
 20
0.0056101396225236
 30
0.0
 40
0.002
 41
0.002
  0
VERTEX
  5
272
330
270
100
AcDbEntity
  8
1
  6
Continuous
 62
     7
 48
0.0050511175503093
100
AcDbVertex
100
AcDb2dVertex
 10
1.152010376015516
 20
-0.0034320274221384
 30
0.0
 40
0.002
 41
0.002
  0
SEQEND
  5
273
330
270
100
AcDbEntity
  8
1
  6
Continuous
 62
     7
 48
0.0050511175503093
370
     0
  0
POLYLINE
  5
274
330
1F
100
AcDbEntity
  8
1
  6
Continuous
 62
     7
 48
0.0050511175503093
370
     0
100
AcDb2dPolyline
 66
     1
 10
0.0
 20
0.0
 30
0.0
  0
VERTEX
  5
275
330
274
100
AcDbEntity
  8
1
  6
Continuous
 62
     7
 48
0.0050511175503093
100
AcDbVertex
100
AcDb2dVertex
 10
1.13639757359281
 20
0.0056101396225236
 30
0.0
 40
0.002
 41
0.002
  0
VERTEX
  5
276
330
274
100
AcDbEntity
  8
1
  6
Continuous
 62
     7
 48
0.0050511175503093
100
AcDbVertex
100
AcDb2dVertex
 10
1.12335850222687
 20
-0.0169741944668009
 30
0.0
 40
0.002
 41
0.002
  0
SEQEND
  5
277
330
274
100
AcDbEntity
  8
1
  6
Continuous
 62
     7
 48
0.0050511175503093
370
     0
  0
POLYLINE
  5
278
330
1F
100
AcDbEntity
  8
1
  6
Continuous
 62
     7
 48
0.0050511175503093
370
     0
100
AcDb2dPolyline
 66
     1
 10
0.0
 20
0.0
 30
0.0
  0
VERTEX
  5
279
330
278
100
AcDbEntity
  8
1
  6
Continuous
 62
     7
 48
0.0050511175503093
100
AcDbVertex
100
AcDb2dVertex
 10
1.13639757359281
 20
0.0056101396225236
 30
0.0
 40
0.002
 41
0.002
  0
VERTEX
  5
27A
330
278
100
AcDbEntity
  8
1
  6
Continuous
 62
     7
 48
0.0050511175503093
100
AcDbVertex
100
AcDb2dVertex
 10
1.146789878438223
 20
0.0056101396225236
 30
0.0
 40
0.002
 41
0.002
  0
SEQEND
  5
27B
330
278
100
AcDbEntity
  8
1
  6
Continuous
 62
     7
 48
0.0050511175503093
370
     0
  0
POLYLINE
  5
27C
330
1F
100
AcDbEntity
  8
1
  6
Continuous
 62
     7
 48
0.0050511175503093
370
     0
100
AcDb2dPolyline
 66
     1
 10
0.0
 20
0.0
 30
0.0
  0
VERTEX
  5
27D
330
27C
100
AcDbEntity
  8
1
  6
Continuous
 62
     7
 48
0.0050511175503093
100
AcDbVertex
100
AcDb2dVertex
 10
1.152010376015516
 20
-0.0034320274221384
 30
0.0
 40
0.002
 41
0.002
  0
VERTEX
  5
27E
330
27C
100
AcDbEntity
  8
1
  6
Continuous
 62
     7
 48
0.0050511175503093
100
AcDbVertex
100
AcDb2dVertex
 10
1.159828949804163
 20
-0.0169741944668009
 30
0.0
 40
0.002
 41
0.002
  0
SEQEND
  5
27F
330
27C
100
AcDbEntity
  8
1
  6
Continuous
 62
     7
 48
0.0050511175503093
370
     0
  0
POLYLINE
  5
280
330
1F
100
AcDbEntity
  8
1
  6
Continuous
 62
     7
 48
0.0050511175503093
370
     0
100
AcDb2dPolyline
 66
     1
 10
0.0
 20
0.0
 30
0.0
  0
VERTEX
  5
281
330
280
100
AcDbEntity
  8
1
  6
Continuous
 62
     7
 48
0.0050511175503093
100
AcDbVertex
100
AcDb2dVertex
 10
1.159828949804163
 20
-0.0169741944668009
 30
0.0
 40
0.002
 41
0.002
  0
VERTEX
  5
282
330
280
100
AcDbEntity
  8
1
  6
Continuous
 62
     7
 48
0.0050511175503093
100
AcDbVertex
100
AcDb2dVertex
 10
1.16502510222687
 20
-0.0169741944668009
 30
0.0
 40
0.002
 41
0.002
  0
SEQEND
  5
283
330
280
100
AcDbEntity
  8
1
  6
Continuous
 62
     7
 48
0.0050511175503093
370
     0
  0
POLYLINE
  5
284
330
1F
100
AcDbEntity
  8
1
  6
Continuous
 62
     7
 48
0.0050511175503093
370
     0
100
AcDb2dPolyline
 66
     1
 10
0.0
 20
0.0
 30
0.0
  0
VERTEX
  5
285
330
284
100
AcDbEntity
  8
1
  6
Continuous
 62
     7
 48
0.0050511175503093
100
AcDbVertex
100
AcDb2dVertex
 10
1.188456478438223
 20
0.0056101396225236
 30
0.0
 40
0.002
 41
0.002
  0
VERTEX
  5
286
330
284
100
AcDbEntity
  8
1
  6
Continuous
 62
     7
 48
0.0050511175503093
100
AcDbVertex
100
AcDb2dVertex
 10
1.200753509858313
 20
-0.0156889435793423
 30
0.0
 40
0.002
 41
0.002
  0
SEQEND
  5
287
330
284
100
AcDbEntity
  8
1
  6
Continuous
 62
     7
 48
0.0050511175503093
370
     0
  0
POLYLINE
  5
288
330
1F
100
AcDbEntity
  8
1
  6
Continuous
 62
     7
 48
0.0050511175503093
370
     0
100
AcDb2dPolyline
 66
     1
 10
0.0
 20
0.0
 30
0.0
  0
VERTEX
  5
289
330
288
100
AcDbEntity
  8
1
  6
Continuous
 62
     7
 48
0.0050511175503093
100
AcDbVertex
100
AcDb2dVertex
 10
1.17806417359281
 20
0.0056101396225236
 30
0.0
 40
0.002
 41
0.002
  0
VERTEX
  5
28A
330
288
100
AcDbEntity
  8
1
  6
Continuous
 62
     7
 48
0.0050511175503093
100
AcDbVertex
100
AcDb2dVertex
 10
1.16502510222687
 20
-0.0169741944668009
 30
0.0
 40
0.002
 41
0.002
  0
SEQEND
  5
28B
330
288
100
AcDbEntity
  8
1
  6
Continuous
 62
     7
 48
0.0050511175503093
370
     0
  0
POLYLINE
  5
28C
330
1F
100
AcDbEntity
  8
1
  6
Continuous
 62
     7
 48
0.0050511175503093
370
     0
100
AcDb2dPolyline
 66
     1
 10
0.0
 20
0.0
 30
0.0
  0
VERTEX
  5
28D
330
28C
100
AcDbEntity
  8
1
  6
Continuous
 62
     7
 48
0.0050511175503093
100
AcDbVertex
100
AcDb2dVertex
 10
1.17806417359281
 20
0.0056101396225236
 30
0.0
 40
0.002
 41
0.002
  0
VERTEX
  5
28E
330
28C
100
AcDbEntity
  8
1
  6
Continuous
 62
     7
 48
0.0050511175503093
100
AcDbVertex
100
AcDb2dVertex
 10
1.188456478438223
 20
0.0056101396225236
 30
0.0
 40
0.002
 41
0.002
  0
SEQEND
  5
28F
330
28C
100
AcDbEntity
  8
1
  6
Continuous
 62
     7
 48
0.0050511175503093
370
     0
  0
POLYLINE
  5
290
330
1F
100
AcDbEntity
  8
1
  6
Continuous
 62
     7
 48
0.0050511175503093
370
     0
100
AcDb2dPolyline
 66
     1
 10
0.0
 20
0.0
 30
0.0
 70
   128
  0
VERTEX
  5
291
330
290
100
AcDbEntity
  8
1
  6
Continuous
 62
     7
 48
0.0050511175503093
100
AcDbVertex
100
AcDb2dVertex
 10
1.013260426015516
 20
0.0118179725778616
 30
0.0
 40
0.002
 41
0.002
  0
VERTEX
  5
292
330
290
100
AcDbEntity
  8
1
  6
Continuous
 62
     7
 48
0.0050511175503093
100
AcDbVertex
100
AcDb2dVertex
 10
1.019468258970854
 20
0.0056101396225236
 30
0.0
 40
0.002
 41
0.002
  0
VERTEX
  5
293
330
290
100
AcDbEntity
  8
1
  6
Continuous
 62
     7
 48
0.0050511175503093
100
AcDbVertex
100
AcDb2dVertex
 10
1.021790078438224
 20
0.0056101396225236
 30
0.0
 40
0.002
 41
0.002
  0
VERTEX
  5
294
330
290
100
AcDbEntity
  8
1
  6
Continuous
 62
     7
 48
0.0050511175503093
100
AcDbVertex
100
AcDb2dVertex
 10
1.024961742813651
 20
0.0001166557797271
 30
0.0
 40
0.002
 41
0.002
  0
VERTEX
  5
295
330
290
100
AcDbEntity
  8
1
  6
Continuous
 62
     7
 48
0.0050511175503093
100
AcDbVertex
100
AcDb2dVertex
 10
1.040767342172721
 20
-0.0156889435793425
 30
0.0
 40
0.002
 41
0.002
  0
SEQEND
  5
296
330
290
100
AcDbEntity
  8
1
  6
Continuous
 62
     7
 48
0.0050511175503093
370
     0
  0
POLYLINE
  5
297
330
1F
100
AcDbEntity
  8
1
  6
Continuous
 62
     7
 48
0.0050511175503093
370
     0
100
AcDb2dPolyline
 66
     1
 10
0.0
 20
0.0
 30
0.0
  0
VERTEX
  5
298
330
297
100
AcDbEntity
  8
1
  6
Continuous
 62
     7
 48
0.0050511175503093
100
AcDbVertex
100
AcDb2dVertex
 10
1.040767342172721
 20
-0.0156889435793425
 30
0.0
 40
0.002
 41
0.002
  0
VERTEX
  5
299
330
297
100
AcDbEntity
  8
1
  6
Continuous
 62
     7
 48
0.0050511175503093
100
AcDbVertex
100
AcDb2dVertex
 10
1.05306437359281
 20
0.0056101396225236
 30
0.0
 40
0.002
 41
0.002
  0
SEQEND
  5
29A
330
297
100
AcDbEntity
  8
1
  6
Continuous
 62
     7
 48
0.0050511175503093
370
     0
  0
POLYLINE
  5
29B
330
1F
100
AcDbEntity
  8
1
  6
Continuous
 62
     7
 48
0.0050511175503093
370
     0
100
AcDb2dPolyline
 66
     1
 10
0.0
 20
0.0
 30
0.0
 70
   128
  0
VERTEX
  5
29C
330
29B
100
AcDbEntity
  8
1
  6
Continuous
 62
     7
 48
0.0050511175503093
100
AcDbVertex
100
AcDb2dVertex
 10
1.200753509858313
 20
-0.0156889435793422
 30
0.0
 40
0.002
 41
0.002
  0
VERTEX
  5
29D
330
29B
100
AcDbEntity
  8
1
  6
Continuous
 62
     7
 48
0.0050511175503093
100
AcDbVertex
100
AcDb2dVertex
 10
1.216559109217383
 20
0.0001166557797278
 30
0.0
 40
0.002
 41
0.002
  0
VERTEX
  5
29E
330
29B
100
AcDbEntity
  8
1
  6
Continuous
 62
     7
 48
0.0050511175503093
100
AcDbVertex
100
AcDb2dVertex
 10
1.21973077359281
 20
0.0056101396225236
 30
0.0
 40
0.002
 41
0.002
  0
VERTEX
  5
29F
330
29B
100
AcDbEntity
  8
1
  6
Continuous
 62
     7
 48
0.0050511175503093
100
AcDbVertex
100
AcDb2dVertex
 10
1.222052593060178
 20
0.0056101396225236
 30
0.0
 40
0.002
 41
0.002
  0
VERTEX
  5
2A0
330
29B
100
AcDbEntity
  8
1
  6
Continuous
 62
     7
 48
0.0050511175503093
100
AcDbVertex
100
AcDb2dVertex
 10
1.231260426015517
 20
0.0148179725778616
 30
0.0
 40
0.002
 41
0.002
  0
SEQEND
  5
2A1
330
29B
100
AcDbEntity
  8
1
  6
Continuous
 62
     7
 48
0.0050511175503093
370
     0
  0
DIMENSION
  5
2A2
330
1F
100
AcDbEntity
  8
1
  6
Continuous
 62
     7
 48
0.0000242569374665
370
     0
100
AcDbDimension
  2
*D2
 10
0.6662604260155164
 20
0.4088179725778617
 30
0.0
 11
0.647495829000591
 21
0.1678179725778617
 31
0.0
 70
    32
 71
     5
 42
0.4820000000000001
  3
Standard
100
AcDbAlignedDimension
 13
0.7474972681207797
 23
-0.0731820274221384
 33
0.0
 14
0.7474972681207794
 24
0.4088179725778617
 34
0.0
 50
90.0
100
AcDbRotatedDimension
1001
ACAD
1000
DSTYLE
1002
{
1070
   172
1070
     1
1070
    77
1070
     1
1070
   280
1070
     0
1070
   279
1070
     0
1070
    74
1070
     0
1070
    73
1070
     0
1070
   174
1070
     0
1070
   147
1040
0.0090805970149254
1070
    42
1040
0.0130905671641791
1070
   290
1070
     0
1070
   340
1005
2A3
1070
    78
1070
     0
1070
   272
1070
     3
1070
    71
1070
     0
1070
     3
1000
HEX TIP Ø<>
1070
   146
1040
1.0
1070
   140
1040
0.018
1070
   271
1070
     3
1070
    41
1040
0.018
1070
   342
1005
0
1070
   173
1070
     0
1070
   277
1070
     2
1070
    44
1040
0.006545552238806
1002
}
  0
TEXT
  5
2B1
330
1F
100
AcDbEntity
  8
1
  6
DASHED
 62
     7
370
     0
100
AcDbText
 10
0.9806629695511374
 20
0.4403679725778623
 30
0.0
 40
0.0179999999999999
  1
1
  7
DC_TEXTSTYLE5
 72
     1
 11
0.9876469695511374
 21
0.4403679725778623
 31
0.0
100
AcDbText
  0
CIRCLE
  5
2B2
330
1F
100
AcDbEntity
  8
1
  6
Continuous
 62
     7
 48
0.0003881109994638
370
     0
100
AcDbCircle
 10
0.9876469695511367
 20
0.4493679725778613
 30
0.0
 40
0.0180000000000001
  0
DIMENSION
  5
2B3
330
1F
100
AcDbEntity
  8
1
  6
Continuous
 62
     7
 48
0.0000242569374665
370
     0
100
AcDbDimension
  2
*D3
 10
1.408260426015517
 20
0.4988179725778618
 30
0.0
 11
1.073260426015517
 21
0.5170875695927871
 31
0.0
 70
    32
 71
     5
 42
0.6700000000000004
  3
Standard
100
AcDbAlignedDimension
 13
0.7382604260155163
 23
0.3818179725778615
 33
0.0
 14
1.408260426015517
 24
0.2418179725778616
 34
0.0
100
AcDbRotatedDimension
1001
ACAD
1000
DSTYLE
1002
{
1070
   172
1070
     1
1070
    77
1070
     1
1070
   280
1070
     0
1070
   279
1070
     0
1070
    74
1070
     0
1070
    73
1070
     0
1070
   174
1070
     0
1070
   147
1040
0.0090805970149254
1070
    42
1040
0.0130905671641791
1070
   290
1070
     0
1070
   340
1005
2A3
1070
    78
1070
     0
1070
   272
1070
     3
1070
    71
1070
     0
1070
   146
1040
1.0
1070
   140
1040
0.018
1070
   271
1070
     3
1070
    41
1040
0.018
1070
   342
1005
0
1070
   173
1070
     0
1070
   277
1070
     2
1070
    44
1040
0.006545552238806
1002
}
  0
TEXT
  5
2C0
330
1F
100
AcDbEntity
  8
1
  6
DASHED
 62
     5
420
      255
370
     0
100
AcDbText
 10
0.8721796784382239
 20
-0.1563898603775732
 30
0.0
 40
0.018
  1
PART NET WEIGHT IS 3 GRAMS
  7
DC_TEXTSTYLE5
 72
     1
 11
1.063456678438224
 21
-0.1563898603775732
 31
0.0
100
AcDbText
  0
LINE
  5
2C1
330
1F
100
AcDbEntity
  8
1
  6
Continuous
 62
     7
 48
0.0003881109994638
370
     0
100
AcDbLine
 10
0.9336469695511365
 20
0.3953679725778613
 30
0.0
 11
0.9749190474897788
 21
0.4366400505165033
 31
0.0
  0
TEXT
  5
2C2
330
1F
100
AcDbEntity
  8
1
  6
DASHED
 62
     5
420
      255
370
     0
100
AcDbText
 10
1.109512426014014
 20
0.5078316211912375
 30
0.0
 40
0.0180000000000001
  1
(17.0mm)
  7
DC_TEXTSTYLE5
 72
     1
 11
1.163260426014014
 21
0.5078316211912375
 31
0.0
100
AcDbText
  0
TEXT
  5
2C3
330
1F
100
AcDbEntity
  8
1
  6
DASHED
 62
     5
420
      255
370
     0
100
AcDbText
 10
0.6914713449061837
 20
0.11406997257798
 30
0.0
 40
0.018
  1
(12.2mm)
 50
90.0
  7
DC_TEXTSTYLE5
 72
     1
 11
0.6914713449061837
 21
0.16781797257798
 31
0.0
100
AcDbText
  0
TEXT
  5
2C4
330
1F
100
AcDbEntity
  8
1
  6
HIDDEN
 62
     7
370
     0
100
AcDbText
 10
1.691657929833646
 20
-0.4034028583206735
 30
0.0
 40
0.018
  1
HEX AF = HEX TIP %%c / 1.125
  7
DC_TEXTSTYLE5
 72
     2
 11
2.019131929833645
 21
-0.4034028583206735
 31
0.0
100
AcDbText
  0
ENDSEC
  0
SECTION
  2
OBJECTS
  0
DICTIONARY
  5
C
330
0
100
AcDbDictionary
281
     1
  3
ACAD_DETAILVIEWSTYLE
350
309
  3
ACAD_GROUP
350
D
  3
ACAD_IMAGE_VARS
350
99
  3
ACAD_LAYOUT
350
1A
  3
ACAD_MATERIAL
350
91
  3
ACAD_MLEADERSTYLE
350
97
  3
ACAD_MLINESTYLE
350
17
  3
ACAD_PLOTSETTINGS
350
19
  3
ACAD_PLOTSTYLENAME
350
E
  3
ACAD_SCALELIST
350
6F
  3
ACAD_SECTIONVIEWSTYLE
350
30A
  3
ACAD_TABLESTYLE
350
95
  3
ACAD_VISUALSTYLE
350
56
  3
ACDB_RECOMPOSE_DATA
350
305
  3
AcDbVariableDictionary
350
4E
  0
DICTIONARY
  5
2C5
330
8
100
AcDbDictionary
280
     1
281
     1
  3
ACAD_XREC_ROUNDTRIP
360
2C6
  0
DICTIONARY
  5
309
102
{ACAD_REACTORS
330
C
102
}
330
C
100
AcDbDictionary
281
     1
  0
DICTIONARY
  5
D
102
{ACAD_REACTORS
330
C
102
}
330
C
100
AcDbDictionary
281
     1
  0
RASTERVARIABLES
  5
99
102
{ACAD_REACTORS
330
C
102
}
330
C
100
AcDbRasterVariables
 90
        0
 70
     0
 71
     1
 72
     5
  0
DICTIONARY
  5
1A
102
{ACAD_REACTORS
330
C
102
}
330
C
100
AcDbDictionary
281
     1
  3
Layout1
350
1E
  3
Model
350
22
  0
DICTIONARY
  5
91
102
{ACAD_REACTORS
330
C
102
}
330
C
100
AcDbDictionary
281
     1
  3
ByBlock
350
93
  3
ByLayer
350
92
  3
Global
350
94
  0
DICTIONARY
  5
97
102
{ACAD_REACTORS
330
C
102
}
330
C
100
AcDbDictionary
281
     1
  3
Standard
350
98
  0
DICTIONARY
  5
17
102
{ACAD_REACTORS
330
C
102
}
330
C
100
AcDbDictionary
281
     1
  3
Standard
350
18
  0
DICTIONARY
  5
19
102
{ACAD_REACTORS
330
C
102
}
330
C
100
AcDbDictionary
281
     1
  0
ACDBDICTIONARYWDFLT
  5
E
102
{ACAD_REACTORS
330
C
102
}
330
C
100
AcDbDictionary
281
     1
  3
Normal
350
F
100
AcDbDictionaryWithDefault
340
F
  0
DICTIONARY
  5
6F
102
{ACAD_REACTORS
330
C
102
}
330
C
100
AcDbDictionary
281
     1
  3
A0
350
70
  3
A1
350
71
  3
A2
350
72
  3
A3
350
73
  3
A4
350
74
  3
A5
350
75
  3
A6
350
76
  3
A7
350
77
  3
A8
350
78
  3
A9
350
79
  3
B0
350
7A
  3
B1
350
7B
  3
B2
350
7C
  3
B3
350
7D
  3
B4
350
7E
  3
B5
350
7F
  3
B6
350
80
  3
B7
350
81
  3
B8
350
82
  3
B9
350
83
  3
C0
350
84
  3
C1
350
85
  3
C2
350
86
  3
C3
350
87
  3
C4
350
88
  3
C5
350
89
  3
C6
350
8A
  3
C7
350
8B
  3
C8
350
8C
  3
C9
350
8D
  3
D0
350
8E
  3
D1
350
8F
  3
D2
350
90
  0
DICTIONARY
  5
30A
102
{ACAD_REACTORS
330
C
102
}
330
C
100
AcDbDictionary
281
     1
  0
DICTIONARY
  5
95
102
{ACAD_REACTORS
330
C
102
}
330
C
100
AcDbDictionary
281
     1
  3
Standard
350
96
  0
DICTIONARY
  5
56
102
{ACAD_REACTORS
330
C
102
}
330
C
100
AcDbDictionary
281
     1
  3
2dWireframe
350
5B
  3
Basic
350
5E
  3
Brighten
350
62
  3
ColorChange
350
66
  3
Conceptual
350
60
  3
Dim
350
61
  3
EdgeColorOff
350
69
  3
Facepattern
350
65
  3
Flat
350
57
  3
FlatWithEdges
350
58
  3
Gouraud
350
59
  3
GouraudWithEdges
350
5A
  3
Hidden
350
5D
  3
JitterOff
350
67
  3
Linepattern
350
64
  3
OverhangOff
350
68
  3
Realistic
350
5F
  3
Shaded
350
6E
  3
Shaded with edges
350
6D
  3
Shades of Gray
350
6A
  3
Sketchy
350
6B
  3
Thicken
350
63
  3
Wireframe
350
5C
  3
X-Ray
350
6C
  0
XRECORD
  5
305
102
{ACAD_REACTORS
330
C
102
}
330
C
100
AcDbXrecord
280
     1
 90
        1
330
96
  0
DICTIONARY
  5
4E
102
{ACAD_REACTORS
330
C
102
}
330
C
100
AcDbDictionary
281
     1
  3
CANNOSCALE
350
2C7
  3
CMLEADERSTYLE
350
307
  3
CTABLESTYLE
350
306
  3
DIMASSOC
350
4F
  3
MSLTSCALE
350
308
  3
XCLIPFRAME
350
2C8
  0
XRECORD
  5
2C6
102
{ACAD_REACTORS
330
2C5
102
}
330
2C5
100
AcDbXrecord
280
     1
102
VTR_0.000_0.000_1.000_1.000_VISUALSTYLE
340
5B
102
VTR_0.000_0.000_1.000_1.000_GRIDDISPLAY
 70
     3
102
VTR_0.000_0.000_1.000_1.000_GRIDMAJOR
 70
     5
102
VTR_0.000_0.000_1.000_1.000_DEFAULTLIGHTING
280
     1
102
VTR_0.000_0.000_1.000_1.000_DEFAULTLIGHTINGTYPE
 70
     1
102
VTR_0.000_0.000_1.000_1.000_BRIGHTNESS
141
0.0
102
VTR_0.000_0.000_1.000_1.000_CONTRAST
142
0.0
  0
LAYOUT
  5
1E
102
{ACAD_REACTORS
330
1A
102
}
330
1A
100
AcDbPlotSettings
  1

  2
HP DeskJet 720C v10.3
  4

  6

 40
0.0
 41
0.0
 42
0.0
 43
0.0
 44
0.0
 45
0.0
 46
0.0
 47
0.0
 48
0.0
 49
0.0
140
0.0
141
0.0
142
1.0
143
1.0
 70
   688
 72
     0
 73
     0
 74
     5
  7

 75
    16
 76
     0
 77
     2
 78
   300
147
1.0
148
0.0
149
0.0
100
AcDbLayout
  1
Layout1
 70
     1
 71
     1
 10
0.0
 20
0.0
 11
12.0
 21
9.0
 12
0.0
 22
0.0
 32
0.0
 14
1.000000000000000E+20
 24
1.000000000000000E+20
 34
1.000000000000000E+20
 15
-1.000000000000000E+20
 25
-1.000000000000000E+20
 35
-1.000000000000000E+20
146
0.0
 13
0.0
 23
0.0
 33
0.0
 16
1.0
 26
0.0
 36
0.0
 17
0.0
 27
1.0
 37
0.0
 76
     0
330
1B
  0
LAYOUT
  5
22
102
{ACAD_REACTORS
330
1A
102
}
330
1A
100
AcDbPlotSettings
  1

  2
None
  4
Custom Paper
  6

 40
0.5
 41
0.5
 42
0.5
 43
0.5
 44
296.9683333333333
 45
209.9733333333333
 46
0.2101666666666517
 47
0.0
 48
0.0
 49
0.0
140
0.0
141
0.0
142
1.0
143
0.0074955687618551
 70
  5796
 72
     2
 73
     0
 74
     0
  7

 75
     0
 76
     0
 77
     2
 78
   300
147
133.4121574721576
148
1.107650178214378
149
0.7831869946970347
100
AcDbLayout
  1
Model
 70
     1
 71
     0
 10
0.0
 20
0.0
 11
12.0
 21
9.0
 12
0.0
 22
0.0
 32
0.0
 14
0.0371319298336456
 24
-0.6028826327634097
 34
0.002
 15
2.051041344768879
 25
0.8210937212312001
 35
-0.002
146
0.0
 13
0.0
 23
0.0
 33
0.0
 16
1.0
 26
0.0
 36
0.0
 17
0.0
 27
1.0
 37
0.0
 76
     0
330
1F
331
55
  0
MATERIAL
  5
93
102
{ACAD_REACTORS
330
91
102
}
102
{ACAD_XDICTIONARY
360
2FB
102
}
330
91
100
AcDbMaterial
  1
ByBlock
  0
MATERIAL
  5
92
102
{ACAD_REACTORS
330
91
102
}
102
{ACAD_XDICTIONARY
360
2F9
102
}
330
91
100
AcDbMaterial
  1
ByLayer
  0
MATERIAL
  5
94
102
{ACAD_REACTORS
330
91
102
}
102
{ACAD_XDICTIONARY
360
2FD
102
}
330
91
100
AcDbMaterial
  1
Global
  0
MLEADERSTYLE
  5
98
102
{ACAD_REACTORS
330
97
102
}
102
{ACAD_XDICTIONARY
360
303
102
}
330
97
100
AcDbMLeaderStyle
170
     2
171
     1
172
     0
 90
        2
 40
0.0
 41
0.0
173
     1
 91
-1056964608
340
14
 92
       -2
290
     1
 42
0.09
291
     1
 43
0.36
  3
Standard
341
0
 44
0.18
300

342
11
174
     1
178
     6
175
     1
176
     0
 93
-1056964608
 45
0.18
292
     0
297
     0
 46
0.18
343
0
 94
-1056964608
 47
1.0
 49
1.0
140
1.0
293
     1
141
0.0
294
     1
177
     0
142
1.0
295
     0
296
     0
143
0.125
1001
ACAD_MLEADERVER
1070
     2
  0
MLINESTYLE
  5
18
102
{ACAD_REACTORS
330
17
102
}
330
17
100
AcDbMlineStyle
  2
STANDARD
 70
     0
  3

 62
   256
 51
90.0
 52
90.0
 71
     2
 49
0.5
 62
   256
  6
BYLAYER
 49
-0.5
 62
   256
  6
BYLAYER
  0
ACDBPLACEHOLDER
  5
F
102
{ACAD_REACTORS
330
E
102
}
330
E
  0
SCALE
  5
70
102
{ACAD_REACTORS
330
6F
102
}
330
6F
100
AcDbScale
 70
     0
300
1:1
140
1.0
141
1.0
290
     1
  0
SCALE
  5
71
102
{ACAD_REACTORS
330
6F
102
}
330
6F
100
AcDbScale
 70
     0
300
1:2
140
1.0
141
2.0
290
     0
  0
SCALE
  5
72
102
{ACAD_REACTORS
330
6F
102
}
330
6F
100
AcDbScale
 70
     0
300
1:4
140
1.0
141
4.0
290
     0
  0
SCALE
  5
73
102
{ACAD_REACTORS
330
6F
102
}
330
6F
100
AcDbScale
 70
     0
300
1:5
140
1.0
141
5.0
290
     0
  0
SCALE
  5
74
102
{ACAD_REACTORS
330
6F
102
}
330
6F
100
AcDbScale
 70
     0
300
1:8
140
1.0
141
8.0
290
     0
  0
SCALE
  5
75
102
{ACAD_REACTORS
330
6F
102
}
330
6F
100
AcDbScale
 70
     0
300
1:10
140
1.0
141
10.0
290
     0
  0
SCALE
  5
76
102
{ACAD_REACTORS
330
6F
102
}
330
6F
100
AcDbScale
 70
     0
300
1:16
140
1.0
141
16.0
290
     0
  0
SCALE
  5
77
102
{ACAD_REACTORS
330
6F
102
}
330
6F
100
AcDbScale
 70
     0
300
1:20
140
1.0
141
20.0
290
     0
  0
SCALE
  5
78
102
{ACAD_REACTORS
330
6F
102
}
330
6F
100
AcDbScale
 70
     0
300
1:30
140
1.0
141
30.0
290
     0
  0
SCALE
  5
79
102
{ACAD_REACTORS
330
6F
102
}
330
6F
100
AcDbScale
 70
     0
300
1:40
140
1.0
141
40.0
290
     0
  0
SCALE
  5
7A
102
{ACAD_REACTORS
330
6F
102
}
330
6F
100
AcDbScale
 70
     0
300
1:50
140
1.0
141
50.0
290
     0
  0
SCALE
  5
7B
102
{ACAD_REACTORS
330
6F
102
}
330
6F
100
AcDbScale
 70
     0
300
1:100
140
1.0
141
100.0
290
     0
  0
SCALE
  5
7C
102
{ACAD_REACTORS
330
6F
102
}
330
6F
100
AcDbScale
 70
     0
300
2:1
140
2.0
141
1.0
290
     0
  0
SCALE
  5
7D
102
{ACAD_REACTORS
330
6F
102
}
330
6F
100
AcDbScale
 70
     0
300
4:1
140
4.0
141
1.0
290
     0
  0
SCALE
  5
7E
102
{ACAD_REACTORS
330
6F
102
}
330
6F
100
AcDbScale
 70
     0
300
8:1
140
8.0
141
1.0
290
     0
  0
SCALE
  5
7F
102
{ACAD_REACTORS
330
6F
102
}
330
6F
100
AcDbScale
 70
     0
300
10:1
140
10.0
141
1.0
290
     0
  0
SCALE
  5
80
102
{ACAD_REACTORS
330
6F
102
}
330
6F
100
AcDbScale
 70
     0
300
100:1
140
100.0
141
1.0
290
     0
  0
SCALE
  5
81
102
{ACAD_REACTORS
330
6F
102
}
330
6F
100
AcDbScale
 70
     0
300
1/128" = 1'-0"
140
0.0078125
141
12.0
290
     0
  0
SCALE
  5
82
102
{ACAD_REACTORS
330
6F
102
}
330
6F
100
AcDbScale
 70
     0
300
1/64" = 1'-0"
140
0.015625
141
12.0
290
     0
  0
SCALE
  5
83
102
{ACAD_REACTORS
330
6F
102
}
330
6F
100
AcDbScale
 70
     0
300
1/32" = 1'-0"
140
0.03125
141
12.0
290
     0
  0
SCALE
  5
84
102
{ACAD_REACTORS
330
6F
102
}
330
6F
100
AcDbScale
 70
     0
300
1/16" = 1'-0"
140
0.0625
141
12.0
290
     0
  0
SCALE
  5
85
102
{ACAD_REACTORS
330
6F
102
}
330
6F
100
AcDbScale
 70
     0
300
3/32" = 1'-0"
140
0.09375
141
12.0
290
     0
  0
SCALE
  5
86
102
{ACAD_REACTORS
330
6F
102
}
330
6F
100
AcDbScale
 70
     0
300
1/8" = 1'-0"
140
0.125
141
12.0
290
     0
  0
SCALE
  5
87
102
{ACAD_REACTORS
330
6F
102
}
330
6F
100
AcDbScale
 70
     0
300
3/16" = 1'-0"
140
0.1875
141
12.0
290
     0
  0
SCALE
  5
88
102
{ACAD_REACTORS
330
6F
102
}
330
6F
100
AcDbScale
 70
     0
300
1/4" = 1'-0"
140
0.25
141
12.0
290
     0
  0
SCALE
  5
89
102
{ACAD_REACTORS
330
6F
102
}
330
6F
100
AcDbScale
 70
     0
300
3/8" = 1'-0"
140
0.375
141
12.0
290
     0
  0
SCALE
  5
8A
102
{ACAD_REACTORS
330
6F
102
}
330
6F
100
AcDbScale
 70
     0
300
1/2" = 1'-0"
140
0.5
141
12.0
290
     0
  0
SCALE
  5
8B
102
{ACAD_REACTORS
330
6F
102
}
330
6F
100
AcDbScale
 70
     0
300
3/4" = 1'-0"
140
0.75
141
12.0
290
     0
  0
SCALE
  5
8C
102
{ACAD_REACTORS
330
6F
102
}
330
6F
100
AcDbScale
 70
     0
300
1" = 1'-0"
140
1.0
141
12.0
290
     0
  0
SCALE
  5
8D
102
{ACAD_REACTORS
330
6F
102
}
330
6F
100
AcDbScale
 70
     0
300
1-1/2" = 1'-0"
140
1.5
141
12.0
290
     0
  0
SCALE
  5
8E
102
{ACAD_REACTORS
330
6F
102
}
330
6F
100
AcDbScale
 70
     0
300
3" = 1'-0"
140
3.0
141
12.0
290
     0
  0
SCALE
  5
8F
102
{ACAD_REACTORS
330
6F
102
}
330
6F
100
AcDbScale
 70
     0
300
6" = 1'-0"
140
6.0
141
12.0
290
     0
  0
SCALE
  5
90
102
{ACAD_REACTORS
330
6F
102
}
330
6F
100
AcDbScale
 70
     0
300
1'-0" = 1'-0"
140
12.0
141
12.0
290
     0
  0
TABLESTYLE
  5
96
102
{ACAD_REACTORS
330
95
102
}
102
{ACAD_XDICTIONARY
360
2FF
102
}
330
95
100
AcDbTableStyle
  3
Standard
 70
     0
 71
     0
 40
0.06
 41
0.06
280
     0
281
     0
  7
Standard
140
0.18
170
     2
 62
     0
 63
   257
283
     0
274
    -2
284
     1
 64
     0
275
    -2
285
     1
 65
     0
276
    -2
286
     1
 66
     0
277
    -2
287
     1
 67
     0
278
    -2
288
     1
 68
     0
279
    -2
289
     1
 69
     0
  7
Standard
140
0.25
170
     5
 62
     0
 63
   257
283
     0
274
    -2
284
     1
 64
     0
275
    -2
285
     1
 65
     0
276
    -2
286
     1
 66
     0
277
    -2
287
     1
 67
     0
278
    -2
288
     1
 68
     0
279
    -2
289
     1
 69
     0
  7
Standard
140
0.18
170
     5
 62
     0
 63
   257
283
     0
274
    -2
284
     1
 64
     0
275
    -2
285
     1
 65
     0
276
    -2
286
     1
 66
     0
277
    -2
287
     1
 67
     0
278
    -2
288
     1
 68
     0
279
    -2
289
     1
 69
     0
  0
VISUALSTYLE
  5
5B
102
{ACAD_REACTORS
330
56
102
}
102
{ACAD_XDICTIONARY
360
2D1
102
}
330
56
100
AcDbVisualStyle
  2
2dWireframe
 70
     4
 71
     0
 72
     2
 73
     0
 90
        0
 40
0.6
 41
30.0
 62
     5
 63
     7
421
 16777215
 74
     1
 91
        4
 64
     7
 65
   257
 75
     1
175
     1
 42
1.0
 92
        0
 66
   257
 43
1.0
 76
     1
 77
     6
 78
     2
 67
     7
 79
     5
170
     0
171
     0
290
     0
174
     0
 93
        1
 44
0.0
173
     0
291
     0
 45
0.0
1001
ACAD
1000
AcDbSavedByObjectVersion
1070
     0
  0
VISUALSTYLE
  5
5E
102
{ACAD_REACTORS
330
56
102
}
102
{ACAD_XDICTIONARY
360
2D7
102
}
330
56
100
AcDbVisualStyle
  2
Basic
 70
     7
 71
     1
 72
     0
 73
     1
 90
        0
 40
0.6
 41
30.0
 62
     5
 63
     7
421
 16777215
 74
     0
 91
        4
 64
     7
 65
   257
 75
     1
175
     1
 42
1.0
 92
        8
 66
     7
 43
1.0
 76
     1
 77
     6
 78
     2
 67
     7
 79
     5
170
     0
171
     0
290
     0
174
     0
 93
        1
 44
0.0
173
     0
291
     1
 45
0.0
1001
ACAD
1000
AcDbSavedByObjectVersion
1070
     0
  0
VISUALSTYLE
  5
62
102
{ACAD_REACTORS
330
56
102
}
102
{ACAD_XDICTIONARY
360
2DF
102
}
330
56
100
AcDbVisualStyle
  2
Brighten
 70
    12
 71
     2
 72
     2
 73
     0
 90
        0
 40
0.6
 41
30.0
 62
     5
 63
     7
421
 16777215
 74
     1
 91
        4
 64
     7
 65
   257
 75
     1
175
     1
 42
1.0
 92
        8
 66
     7
 43
1.0
 76
     1
 77
     6
 78
     2
 67
     7
 79
     5
170
     0
171
     0
290
     0
174
     0
 93
        1
 44
50.0
173
     0
291
     1
 45
0.0
1001
ACAD
1000
AcDbSavedByObjectVersion
1070
     0
  0
VISUALSTYLE
  5
66
102
{ACAD_REACTORS
330
56
102
}
102
{ACAD_XDICTIONARY
360
2E7
102
}
330
56
100
AcDbVisualStyle
  2
ColorChange
 70
    16
 71
     2
 72
     2
 73
     3
 90
        0
 40
0.6
 41
30.0
 62
     5
 63
     8
421
  8421504
 74
     1
 91
        4
 64
     7
 65
   257
 75
     1
175
     1
 42
1.0
 92
        8
 66
     8
424
  8421504
 43
1.0
 76
     1
 77
     6
 78
     2
 67
     7
 79
     5
170
     0
171
     0
290
     0
174
     0
 93
        1
 44
0.0
173
     0
291
     1
 45
0.0
1001
ACAD
1000
AcDbSavedByObjectVersion
1070
     0
  0
VISUALSTYLE
  5
60
102
{ACAD_REACTORS
330
56
102
}
102
{ACAD_XDICTIONARY
360
2DB
102
}
330
56
100
AcDbVisualStyle
  2
Conceptual
 70
     9
 71
     3
 72
     2
 73
     0
 90
        0
 40
0.6
 41
30.0
 62
     5
 63
     7
421
 16777215
 74
     2
 91
        2
 64
     7
 65
   257
 75
     1
175
     1
 42
179.0
 92
        8
 66
     7
 43
1.0
 76
     1
 77
     6
 78
     2
 67
     7
 79
     3
170
     0
171
     0
290
     0
174
     0
 93
        1
 44
0.0
173
     0
291
     0
 45
0.0
1001
ACAD
1000
AcDbSavedByObjectVersion
1070
     0
  0
VISUALSTYLE
  5
61
102
{ACAD_REACTORS
330
56
102
}
102
{ACAD_XDICTIONARY
360
2DD
102
}
330
56
100
AcDbVisualStyle
  2
Dim
 70
    11
 71
     2
 72
     2
 73
     0
 90
        0
 40
0.6
 41
30.0
 62
     5
 63
     7
421
 16777215
 74
     1
 91
        4
 64
     7
 65
   257
 75
     1
175
     1
 42
1.0
 92
        8
 66
     7
 43
1.0
 76
     1
 77
     6
 78
     2
 67
     7
 79
     5
170
     0
171
     0
290
     0
174
     0
 93
        1
 44
-50.0
173
     0
291
     1
 45
0.0
1001
ACAD
1000
AcDbSavedByObjectVersion
1070
     0
  0
VISUALSTYLE
  5
69
102
{ACAD_REACTORS
330
56
102
}
102
{ACAD_XDICTIONARY
360
2ED
102
}
330
56
100
AcDbVisualStyle
  2
EdgeColorOff
 70
    22
 71
     2
 72
     2
 73
     0
 90
        0
 40
0.6
 41
30.0
 62
     5
 63
     7
421
 16777215
 74
     1
 91
        4
 64
     7
 65
   257
 75
     1
175
     1
 42
1.0
 92
        8
 66
     7
 43
1.0
 76
     1
 77
     6
 78
     2
 67
     7
 79
     5
170
     0
171
     0
290
     0
174
     0
 93
        1
 44
0.0
173
     0
291
     1
 45
0.0
1001
ACAD
1000
AcDbSavedByObjectVersion
1070
     0
  0
VISUALSTYLE
  5
65
102
{ACAD_REACTORS
330
56
102
}
102
{ACAD_XDICTIONARY
360
2E5
102
}
330
56
100
AcDbVisualStyle
  2
Facepattern
 70
    15
 71
     2
 72
     2
 73
     0
 90
        0
 40
0.6
 41
30.0
 62
     5
 63
     7
421
 16777215
 74
     1
 91
        4
 64
     7
 65
   257
 75
     1
175
     1
 42
1.0
 92
        8
 66
     7
 43
1.0
 76
     1
 77
     6
 78
     2
 67
     7
 79
     5
170
     0
171
     0
290
     0
174
     0
 93
        1
 44
0.0
173
     0
291
     1
 45
0.0
1001
ACAD
1000
AcDbSavedByObjectVersion
1070
     0
  0
VISUALSTYLE
  5
57
102
{ACAD_REACTORS
330
56
102
}
102
{ACAD_XDICTIONARY
360
2C9
102
}
330
56
100
AcDbVisualStyle
  2
Flat
 70
     0
 71
     2
 72
     1
 73
     1
 90
        2
 40
0.6
 41
30.0
 62
     5
 63
     7
421
 16777215
 74
     0
 91
        0
 64
     7
 65
   257
 75
     1
175
     1
 42
1.0
 92
        8
 66
     7
 43
1.0
 76
     1
 77
     6
 78
     2
 67
     7
 79
     5
170
     0
171
     0
290
     0
174
     0
 93
       13
 44
0.0
173
     0
291
     1
 45
0.0
1001
ACAD
1000
AcDbSavedByObjectVersion
1070
     0
  0
VISUALSTYLE
  5
58
102
{ACAD_REACTORS
330
56
102
}
102
{ACAD_XDICTIONARY
360
2CB
102
}
330
56
100
AcDbVisualStyle
  2
FlatWithEdges
 70
     1
 71
     2
 72
     1
 73
     1
 90
        2
 40
0.6
 41
30.0
 62
     5
 63
     7
421
 16777215
 74
     1
 91
        0
 64
     7
 65
   257
 75
     1
175
     1
 42
1.0
 92
        0
 66
   257
 43
1.0
 76
     1
 77
     6
 78
     2
 67
     7
 79
     5
170
     0
171
     0
290
     0
174
     0
 93
       13
 44
0.0
173
     0
291
     1
 45
0.0
1001
ACAD
1000
AcDbSavedByObjectVersion
1070
     0
  0
VISUALSTYLE
  5
59
102
{ACAD_REACTORS
330
56
102
}
102
{ACAD_XDICTIONARY
360
2CD
102
}
330
56
100
AcDbVisualStyle
  2
Gouraud
 70
     2
 71
     2
 72
     2
 73
     1
 90
        2
 40
0.6
 41
30.0
 62
     5
 63
     7
421
 16777215
 74
     0
 91
        0
 64
     7
 65
   257
 75
     1
175
     1
 42
1.0
 92
        0
 66
     7
 43
1.0
 76
     1
 77
     6
 78
     2
 67
     7
 79
     5
170
     0
171
     0
290
     0
174
     0
 93
       13
 44
0.0
173
     0
291
     1
 45
0.0
1001
ACAD
1000
AcDbSavedByObjectVersion
1070
     0
  0
VISUALSTYLE
  5
5A
102
{ACAD_REACTORS
330
56
102
}
102
{ACAD_XDICTIONARY
360
2CF
102
}
330
56
100
AcDbVisualStyle
  2
GouraudWithEdges
 70
     3
 71
     2
 72
     2
 73
     1
 90
        2
 40
0.6
 41
30.0
 62
     5
 63
     7
421
 16777215
 74
     1
 91
        0
 64
     7
 65
   257
 75
     1
175
     1
 42
1.0
 92
        0
 66
   257
 43
1.0
 76
     1
 77
     6
 78
     2
 67
     7
 79
     5
170
     0
171
     0
290
     0
174
     0
 93
       13
 44
0.0
173
     0
291
     1
 45
0.0
1001
ACAD
1000
AcDbSavedByObjectVersion
1070
     0
  0
VISUALSTYLE
  5
5D
102
{ACAD_REACTORS
330
56
102
}
102
{ACAD_XDICTIONARY
360
2D5
102
}
330
56
100
AcDbVisualStyle
  2
Hidden
 70
     6
 71
     1
 72
     2
 73
     2
 90
        0
 40
0.6
 41
30.0
 62
     5
 63
     7
421
 16777215
 74
     2
 91
        2
 64
     7
 65
   257
 75
     2
175
     1
 42
40.0
 92
        0
 66
   257
 43
1.0
 76
     1
 77
     6
 78
     2
 67
     7
 79
     3
170
     0
171
     0
290
     0
174
     0
 93
        1
 44
0.0
173
     0
291
     0
 45
0.0
1001
ACAD
1000
AcDbSavedByObjectVersion
1070
     0
  0
VISUALSTYLE
  5
67
102
{ACAD_REACTORS
330
56
102
}
102
{ACAD_XDICTIONARY
360
2E9
102
}
330
56
100
AcDbVisualStyle
  2
JitterOff
 70
    20
 71
     2
 72
     2
 73
     0
 90
        0
 40
0.6
 41
30.0
 62
     5
 63
     7
421
 16777215
 74
     1
 91
        4
 64
     7
 65
   257
 75
     1
175
     1
 42
1.0
 92
       10
 66
     7
 43
1.0
 76
     1
 77
     6
 78
     2
 67
     7
 79
     5
170
     0
171
     0
290
     0
174
     0
 93
        1
 44
0.0
173
     0
291
     1
 45
0.0
1001
ACAD
1000
AcDbSavedByObjectVersion
1070
     0
  0
VISUALSTYLE
  5
64
102
{ACAD_REACTORS
330
56
102
}
102
{ACAD_XDICTIONARY
360
2E3
102
}
330
56
100
AcDbVisualStyle
  2
Linepattern
 70
    14
 71
     2
 72
     2
 73
     0
 90
        0
 40
0.6
 41
30.0
 62
     5
 63
     7
421
 16777215
 74
     1
 91
        4
 64
     7
 65
   257
 75
     7
175
     7
 42
1.0
 92
        8
 66
     7
 43
1.0
 76
     1
 77
     6
 78
     2
 67
     7
 79
     5
170
     0
171
     0
290
     0
174
     0
 93
        1
 44
0.0
173
     0
291
     1
 45
0.0
1001
ACAD
1000
AcDbSavedByObjectVersion
1070
     0
  0
VISUALSTYLE
  5
68
102
{ACAD_REACTORS
330
56
102
}
102
{ACAD_XDICTIONARY
360
2EB
102
}
330
56
100
AcDbVisualStyle
  2
OverhangOff
 70
    21
 71
     2
 72
     2
 73
     0
 90
        0
 40
0.6
 41
30.0
 62
     5
 63
     7
421
 16777215
 74
     1
 91
        4
 64
     7
 65
   257
 75
     1
175
     1
 42
1.0
 92
        9
 66
     7
 43
1.0
 76
     1
 77
     6
 78
     2
 67
     7
 79
     5
170
     0
171
     0
290
     0
174
     0
 93
        1
 44
0.0
173
     0
291
     1
 45
0.0
1001
ACAD
1000
AcDbSavedByObjectVersion
1070
     0
  0
VISUALSTYLE
  5
5F
102
{ACAD_REACTORS
330
56
102
}
102
{ACAD_XDICTIONARY
360
2D9
102
}
330
56
100
AcDbVisualStyle
  2
Realistic
 70
     8
 71
     2
 72
     3
 73
     0
 90
        2
 40
0.6
 41
30.0
 62
     5
 63
     7
421
 16777215
 74
     0
 91
        0
 64
     7
 65
   257
 75
     1
175
     1
 42
1.0
 92
        8
 66
   257
 43
1.0
 76
     1
 77
     6
 78
     2
 67
     7
 79
     3
170
     0
171
     0
290
     0
174
     0
 93
       13
 44
0.0
173
     0
291
     0
 45
0.0
1001
ACAD
1000
AcDbSavedByObjectVersion
1070
     0
  0
VISUALSTYLE
  5
6E
102
{ACAD_REACTORS
330
56
102
}
102
{ACAD_XDICTIONARY
360
2F7
102
}
330
56
100
AcDbVisualStyle
  2
Shaded
 70
    27
 71
     2
 72
     2
 73
     1
 90
        2
 40
0.6
 41
30.0
 62
     5
 63
     7
421
 16777215
 74
     0
 91
        4
 64
     7
 65
   257
 75
     1
175
     1
 42
1.0
 92
        8
 66
   257
 43
1.0
 76
     1
 77
     6
 78
     2
 67
     8
425
  7895160
 79
     3
170
     0
171
     0
290
     0
174
     0
 93
        5
 44
0.0
173
     0
291
     0
 45
0.0
1001
ACAD
1000
AcDbSavedByObjectVersion
1070
     0
  0
VISUALSTYLE
  5
6D
102
{ACAD_REACTORS
330
56
102
}
102
{ACAD_XDICTIONARY
360
2F5
102
}
330
56
100
AcDbVisualStyle
  2
Shaded with edges
 70
    26
 71
     2
 72
     2
 73
     1
 90
        2
 40
0.6
 41
30.0
 62
     5
 63
     7
421
 16777215
 74
     1
 91
       10
 64
     7
 65
   257
 75
     2
175
     1
 42
1.0
 92
        8
 66
   257
 43
1.0
 76
     1
 77
     6
 78
     2
 67
     7
 79
     3
170
     0
171
     0
290
     0
174
     0
 93
        5
 44
0.0
173
     0
291
     0
 45
0.0
1001
ACAD
1000
AcDbSavedByObjectVersion
1070
     0
  0
VISUALSTYLE
  5
6A
102
{ACAD_REACTORS
330
56
102
}
102
{ACAD_XDICTIONARY
360
2EF
102
}
330
56
100
AcDbVisualStyle
  2
Shades of Gray
 70
    23
 71
     2
 72
     2
 73
     3
 90
        0
 40
0.6
 41
30.0
 62
     5
 63
     7
421
 16777215
 74
     2
 91
        2
 64
     7
 65
     7
 75
     1
175
     1
 42
40.0
 92
        8
 66
     7
 43
1.0
 76
     1
 77
     6
 78
     2
 67
     7
 79
     3
170
     0
171
     0
290
     0
174
     0
 93
        1
 44
0.0
173
     0
291
     0
 45
0.0
1001
ACAD
1000
AcDbSavedByObjectVersion
1070
     0
  0
VISUALSTYLE
  5
6B
102
{ACAD_REACTORS
330
56
102
}
102
{ACAD_XDICTIONARY
360
2F1
102
}
330
56
100
AcDbVisualStyle
  2
Sketchy
 70
    24
 71
     1
 72
     2
 73
     2
 90
        0
 40
0.6
 41
30.0
 62
     5
 63
     7
421
 16777215
 74
     2
 91
        2
 64
     7
 65
     7
 75
     1
175
     1
 42
40.0
 92
       11
 66
     7
 43
1.0
 76
     1
 77
     6
 78
     2
 67
     7
 79
     6
170
     0
171
     0
290
     0
174
     0
 93
        1
 44
0.0
173
     0
291
     0
 45
0.0
1001
ACAD
1000
AcDbSavedByObjectVersion
1070
     0
  0
VISUALSTYLE
  5
63
102
{ACAD_REACTORS
330
56
102
}
102
{ACAD_XDICTIONARY
360
2E1
102
}
330
56
100
AcDbVisualStyle
  2
Thicken
 70
    13
 71
     2
 72
     2
 73
     0
 90
        0
 40
0.6
 41
30.0
 62
     5
 63
     7
421
 16777215
 74
     1
 91
        4
 64
     7
 65
   257
 75
     1
175
     1
 42
1.0
 92
       12
 66
     7
 43
1.0
 76
     1
 77
     6
 78
     2
 67
     7
 79
     5
170
     0
171
     0
290
     0
174
     0
 93
        1
 44
0.0
173
     0
291
     1
 45
0.0
1001
ACAD
1000
AcDbSavedByObjectVersion
1070
     0
  0
VISUALSTYLE
  5
5C
102
{ACAD_REACTORS
330
56
102
}
102
{ACAD_XDICTIONARY
360
2D3
102
}
330
56
100
AcDbVisualStyle
  2
Wireframe
 70
     5
 71
     0
 72
     2
 73
     0
 90
        0
 40
0.6
 41
30.0
 62
     5
 63
     7
421
 16777215
 74
     1
 91
        4
 64
     7
 65
   257
 75
     1
175
     1
 42
1.0
 92
        0
 66
   257
 43
1.0
 76
     1
 77
     6
 78
     2
 67
     7
 79
     3
170
     0
171
     0
290
     0
174
     0
 93
        1
 44
0.0
173
     0
291
     0
 45
0.0
1001
ACAD
1000
AcDbSavedByObjectVersion
1070
     0
  0
VISUALSTYLE
  5
6C
102
{ACAD_REACTORS
330
56
102
}
102
{ACAD_XDICTIONARY
360
2F3
102
}
330
56
100
AcDbVisualStyle
  2
X-Ray
 70
    25
 71
     2
 72
     2
 73
     1
 90
        1
 40
0.5
 41
30.0
 62
     5
 63
     7
421
 16777215
 74
     1
 91
        0
 64
     7
 65
   257
 75
     1
175
     1
 42
1.0
 92
        8
 66
     7
 43
1.0
 76
     1
 77
     6
 78
     2
 67
     7
 79
     3
170
     0
171
     0
290
     0
174
     0
 93
       13
 44
0.0
173
     0
291
     0
 45
0.0
1001
ACAD
1000
AcDbSavedByObjectVersion
1070
     0
  0
DICTIONARYVAR
  5
2C7
102
{ACAD_REACTORS
330
4E
102
}
330
4E
100
DictionaryVariables
280
     0
  1
1:1
  0
DICTIONARYVAR
  5
307
102
{ACAD_REACTORS
330
4E
102
}
330
4E
100
DictionaryVariables
280
     0
  1
Standard
  0
DICTIONARYVAR
  5
306
102
{ACAD_REACTORS
330
4E
102
}
330
4E
100
DictionaryVariables
280
     0
  1
Standard
  0
DICTIONARYVAR
  5
4F
102
{ACAD_REACTORS
330
4E
102
}
330
4E
100
DictionaryVariables
280
     0
  1
1
  0
DICTIONARYVAR
  5
308
102
{ACAD_REACTORS
330
4E
102
}
330
4E
100
DictionaryVariables
280
     0
  1
0
  0
DICTIONARYVAR
  5
2C8
102
{ACAD_REACTORS
330
4E
102
}
330
4E
100
DictionaryVariables
280
     0
  1
2
  0
DICTIONARY
  5
2FB
330
93
100
AcDbDictionary
280
     1
281
     1
  3
ACAD_XREC_ROUNDTRIP
360
2FC
  0
DICTIONARY
  5
2F9
330
92
100
AcDbDictionary
280
     1
281
     1
  3
ACAD_XREC_ROUNDTRIP
360
2FA
  0
DICTIONARY
  5
2FD
330
94
100
AcDbDictionary
280
     1
281
     1
  3
ACAD_XREC_ROUNDTRIP
360
2FE
  0
DICTIONARY
  5
303
330
98
100
AcDbDictionary
280
     1
281
     1
  3
ACAD_XREC_ROUNDTRIP
360
304
  0
DICTIONARY
  5
2FF
330
96
100
AcDbDictionary
280
     1
281
     1
  3
ACAD_ROUNDTRIP_2008_TABLESTYLE_CELLSTYLEMAP
360
301
  3
ACAD_XREC_ROUNDTRIP
360
300
  0
DICTIONARY
  5
2D1
330
5B
100
AcDbDictionary
280
     1
281
     1
  3
ACAD_XREC_ROUNDTRIP
360
2D2
  0
DICTIONARY
  5
2D7
330
5E
100
AcDbDictionary
280
     1
281
     1
  3
ACAD_XREC_ROUNDTRIP
360
2D8
  0
DICTIONARY
  5
2DF
330
62
100
AcDbDictionary
280
     1
281
     1
  3
ACAD_XREC_ROUNDTRIP
360
2E0
  0
DICTIONARY
  5
2E7
330
66
100
AcDbDictionary
280
     1
281
     1
  3
ACAD_XREC_ROUNDTRIP
360
2E8
  0
DICTIONARY
  5
2DB
330
60
100
AcDbDictionary
280
     1
281
     1
  3
ACAD_XREC_ROUNDTRIP
360
2DC
  0
DICTIONARY
  5
2DD
330
61
100
AcDbDictionary
280
     1
281
     1
  3
ACAD_XREC_ROUNDTRIP
360
2DE
  0
DICTIONARY
  5
2ED
330
69
100
AcDbDictionary
280
     1
281
     1
  3
ACAD_XREC_ROUNDTRIP
360
2EE
  0
DICTIONARY
  5
2E5
330
65
100
AcDbDictionary
280
     1
281
     1
  3
ACAD_XREC_ROUNDTRIP
360
2E6
  0
DICTIONARY
  5
2C9
330
57
100
AcDbDictionary
280
     1
281
     1
  3
ACAD_XREC_ROUNDTRIP
360
2CA
  0
DICTIONARY
  5
2CB
330
58
100
AcDbDictionary
280
     1
281
     1
  3
ACAD_XREC_ROUNDTRIP
360
2CC
  0
DICTIONARY
  5
2CD
330
59
100
AcDbDictionary
280
     1
281
     1
  3
ACAD_XREC_ROUNDTRIP
360
2CE
  0
DICTIONARY
  5
2CF
330
5A
100
AcDbDictionary
280
     1
281
     1
  3
ACAD_XREC_ROUNDTRIP
360
2D0
  0
DICTIONARY
  5
2D5
330
5D
100
AcDbDictionary
280
     1
281
     1
  3
ACAD_XREC_ROUNDTRIP
360
2D6
  0
DICTIONARY
  5
2E9
330
67
100
AcDbDictionary
280
     1
281
     1
  3
ACAD_XREC_ROUNDTRIP
360
2EA
  0
DICTIONARY
  5
2E3
330
64
100
AcDbDictionary
280
     1
281
     1
  3
ACAD_XREC_ROUNDTRIP
360
2E4
  0
DICTIONARY
  5
2EB
330
68
100
AcDbDictionary
280
     1
281
     1
  3
ACAD_XREC_ROUNDTRIP
360
2EC
  0
DICTIONARY
  5
2D9
330
5F
100
AcDbDictionary
280
     1
281
     1
  3
ACAD_XREC_ROUNDTRIP
360
2DA
  0
DICTIONARY
  5
2F7
330
6E
100
AcDbDictionary
280
     1
281
     1
  3
ACAD_XREC_ROUNDTRIP
360
2F8
  0
DICTIONARY
  5
2F5
330
6D
100
AcDbDictionary
280
     1
281
     1
  3
ACAD_XREC_ROUNDTRIP
360
2F6
  0
DICTIONARY
  5
2EF
330
6A
100
AcDbDictionary
280
     1
281
     1
  3
ACAD_XREC_ROUNDTRIP
360
2F0
  0
DICTIONARY
  5
2F1
330
6B
100
AcDbDictionary
280
     1
281
     1
  3
ACAD_XREC_ROUNDTRIP
360
2F2
  0
DICTIONARY
  5
2E1
330
63
100
AcDbDictionary
280
     1
281
     1
  3
ACAD_XREC_ROUNDTRIP
360
2E2
  0
DICTIONARY
  5
2D3
330
5C
100
AcDbDictionary
280
     1
281
     1
  3
ACAD_XREC_ROUNDTRIP
360
2D4
  0
DICTIONARY
  5
2F3
330
6C
100
AcDbDictionary
280
     1
281
     1
  3
ACAD_XREC_ROUNDTRIP
360
2F4
  0
XRECORD
  5
2FC
102
{ACAD_REACTORS
330
2FB
102
}
330
2FB
100
AcDbXrecord
280
     1
102
MATERIAL
148
0.0
149
0.0
149
0.0
 93
        0
 94
      127
282
     0
 72
     1
 77
     1
171
     1
175
     1
179
     1
273
     0
  0
XRECORD
  5
2FA
102
{ACAD_REACTORS
330
2F9
102
}
330
2F9
100
AcDbXrecord
280
     1
102
MATERIAL
148
0.0
149
0.0
149
0.0
 93
        0
 94
      127
282
     0
 72
     1
 77
     1
171
     1
175
     1
179
     1
273
     0
  0
XRECORD
  5
2FE
102
{ACAD_REACTORS
330
2FD
102
}
330
2FD
100
AcDbXrecord
280
     1
102
MATERIAL
148
0.0
149
0.0
149
0.0
 93
        0
 94
      127
282
     0
 72
     1
 77
     1
171
     1
175
     1
179
     1
273
     0
  0
XRECORD
  5
304
102
{ACAD_REACTORS
330
303
102
}
330
303
100
AcDbXrecord
280
     1
102
ACAD_ROUNDTRIP_2010_MLEADER_STYLE
  0
CELLSTYLEMAP
  5
301
102
{ACAD_REACTORS
330
2FF
102
}
330
2FF
100
AcDbCellStyleMap
 90
        3
300
CELLSTYLE
  1
TABLEFORMAT_BEGIN
 90
        5
170
     1
 91
        0
 92
    32768
 62
   257
 93
        1
300
CONTENTFORMAT
  1
CONTENTFORMAT_BEGIN
 90
        0
 91
        0
 92
        4
 93
        0
300

 40
0.0
140
1.0
 94
        5
 62
     0
340
11
144
0.25
309
CONTENTFORMAT_END
171
     1
301
MARGIN
  1
CELLMARGIN_BEGIN
 40
0.06
 40
0.06
 40
0.06
 40
0.06
 40
0.06
 40
0.06
309
CELLMARGIN_END
 94
        6
 95
        1
302
GRIDFORMAT
  1
GRIDFORMAT_BEGIN
 90
        0
 91
        1
 62
     0
 92
       -2
340
14
 93
        0
 40
0.045
309
GRIDFORMAT_END
 95
        2
302
GRIDFORMAT
  1
GRIDFORMAT_BEGIN
 90
        0
 91
        1
 62
     0
 92
       -2
340
14
 93
        0
 40
0.045
309
GRIDFORMAT_END
 95
        4
302
GRIDFORMAT
  1
GRIDFORMAT_BEGIN
 90
        0
 91
        1
 62
     0
 92
       -2
340
14
 93
        0
 40
0.045
309
GRIDFORMAT_END
 95
        8
302
GRIDFORMAT
  1
GRIDFORMAT_BEGIN
 90
        0
 91
        1
 62
     0
 92
       -2
340
14
 93
        0
 40
0.045
309
GRIDFORMAT_END
 95
       16
302
GRIDFORMAT
  1
GRIDFORMAT_BEGIN
 90
        0
 91
        1
 62
     0
 92
       -2
340
14
 93
        0
 40
0.045
309
GRIDFORMAT_END
 95
       32
302
GRIDFORMAT
  1
GRIDFORMAT_BEGIN
 90
        0
 91
        1
 62
     0
 92
       -2
340
14
 93
        0
 40
0.045
309
GRIDFORMAT_END
309
TABLEFORMAT_END
  1
CELLSTYLE_BEGIN
 90
        1
 91
        1
300
_TITLE
309
CELLSTYLE_END
300
CELLSTYLE
  1
TABLEFORMAT_BEGIN
 90
        5
170
     1
 91
        0
 92
        0
 62
   257
 93
        1
300
CONTENTFORMAT
  1
CONTENTFORMAT_BEGIN
 90
        0
 91
        0
 92
        4
 93
        0
300

 40
0.0
140
1.0
 94
        5
 62
     0
340
11
144
0.18
309
CONTENTFORMAT_END
171
     1
301
MARGIN
  1
CELLMARGIN_BEGIN
 40
0.06
 40
0.06
 40
0.06
 40
0.06
 40
0.06
 40
0.06
309
CELLMARGIN_END
 94
        6
 95
        1
302
GRIDFORMAT
  1
GRIDFORMAT_BEGIN
 90
        0
 91
        1
 62
     0
 92
       -2
340
14
 93
        0
 40
0.045
309
GRIDFORMAT_END
 95
        2
302
GRIDFORMAT
  1
GRIDFORMAT_BEGIN
 90
        0
 91
        1
 62
     0
 92
       -2
340
14
 93
        0
 40
0.045
309
GRIDFORMAT_END
 95
        4
302
GRIDFORMAT
  1
GRIDFORMAT_BEGIN
 90
        0
 91
        1
 62
     0
 92
       -2
340
14
 93
        0
 40
0.045
309
GRIDFORMAT_END
 95
        8
302
GRIDFORMAT
  1
GRIDFORMAT_BEGIN
 90
        0
 91
        1
 62
     0
 92
       -2
340
14
 93
        0
 40
0.045
309
GRIDFORMAT_END
 95
       16
302
GRIDFORMAT
  1
GRIDFORMAT_BEGIN
 90
        0
 91
        1
 62
     0
 92
       -2
340
14
 93
        0
 40
0.045
309
GRIDFORMAT_END
 95
       32
302
GRIDFORMAT
  1
GRIDFORMAT_BEGIN
 90
        0
 91
        1
 62
     0
 92
       -2
340
14
 93
        0
 40
0.045
309
GRIDFORMAT_END
309
TABLEFORMAT_END
  1
CELLSTYLE_BEGIN
 90
        2
 91
        1
300
_HEADER
309
CELLSTYLE_END
300
CELLSTYLE
  1
TABLEFORMAT_BEGIN
 90
        5
170
     1
 91
        0
 92
        0
 62
   257
 93
        1
300
CONTENTFORMAT
  1
CONTENTFORMAT_BEGIN
 90
        0
 91
        0
 92
        4
 93
        0
300

 40
0.0
140
1.0
 94
        2
 62
     0
340
11
144
0.18
309
CONTENTFORMAT_END
171
     1
301
MARGIN
  1
CELLMARGIN_BEGIN
 40
0.06
 40
0.06
 40
0.06
 40
0.06
 40
0.06
 40
0.06
309
CELLMARGIN_END
 94
        6
 95
        1
302
GRIDFORMAT
  1
GRIDFORMAT_BEGIN
 90
        0
 91
        1
 62
     0
 92
       -2
340
14
 93
        0
 40
0.045
309
GRIDFORMAT_END
 95
        2
302
GRIDFORMAT
  1
GRIDFORMAT_BEGIN
 90
        0
 91
        1
 62
     0
 92
       -2
340
14
 93
        0
 40
0.045
309
GRIDFORMAT_END
 95
        4
302
GRIDFORMAT
  1
GRIDFORMAT_BEGIN
 90
        0
 91
        1
 62
     0
 92
       -2
340
14
 93
        0
 40
0.045
309
GRIDFORMAT_END
 95
        8
302
GRIDFORMAT
  1
GRIDFORMAT_BEGIN
 90
        0
 91
        1
 62
     0
 92
       -2
340
14
 93
        0
 40
0.045
309
GRIDFORMAT_END
 95
       16
302
GRIDFORMAT
  1
GRIDFORMAT_BEGIN
 90
        0
 91
        1
 62
     0
 92
       -2
340
14
 93
        0
 40
0.045
309
GRIDFORMAT_END
 95
       32
302
GRIDFORMAT
  1
GRIDFORMAT_BEGIN
 90
        0
 91
        1
 62
     0
 92
       -2
340
14
 93
        0
 40
0.045
309
GRIDFORMAT_END
309
TABLEFORMAT_END
  1
CELLSTYLE_BEGIN
 90
        3
 91
        2
300
_DATA
309
CELLSTYLE_END
  0
XRECORD
  5
300
102
{ACAD_REACTORS
330
2FF
102
}
330
2FF
100
AcDbXrecord
280
     1
102
ACAD_ROUNDTRIP_PRE2007_TABLESTYLE
 90
        4
 91
        0
  1

 92
        4
 93
        0
  2

 94
        4
 95
        0
  3

  0
XRECORD
  5
2D2
102
{ACAD_REACTORS
330
2D1
102
}
330
2D1
100
AcDbXrecord
280
     1
102
RTVSPropertyOp0
 70
     1
102
RTVSPropertyOp1
 70
     1
102
RTVSPropertyOp2
 70
     1
102
RTVSPropertyOp3
 70
     1
102
RTVSPropertyOp4
 70
     1
102
RTVSPropertyOp5
 70
     1
102
RTVSPropertyOp6
 70
     1
102
RTVSPropertyOp7
 70
     1
102
RTVSPropertyOp8
 70
     1
102
RTVSPropertyOp9
 70
     1
102
RTVSPropertyOp10
 70
     1
102
RTVSPropertyOp11
 70
     1
102
RTVSPropertyOp12
 70
     1
102
RTVSPropertyOp13
 70
     1
102
RTVSPropertyOp14
 70
     1
102
RTVSPropertyOp15
 70
     1
102
RTVSPropertyOp16
 70
     1
102
RTVSPropertyOp17
 70
     1
102
RTVSPropertyOp18
 70
     1
102
RTVSPropertyOp19
 70
     1
102
RTVSPropertyOp20
 70
     1
102
RTVSPropertyOp21
 70
     1
102
RTVSPropertyOp22
 70
     1
102
RTVSPropertyOp23
 70
     1
102
RTVSPropertyOp24
 70
     1
102
RTVSPropertyOp25
 70
     1
102
RTVSPropertyOp26
 70
     1
102
RTVSPropertyOp27
 70
     1
102
RTVSPropertyOp28
 70
     1
102
RTVSPropertyOp29
 70
     1
102
RTVSPropertyOp30
 70
     1
102
RTVSPropertyOp31
 70
     1
102
RTVSPropertyOp32
 70
     1
102
RTVSPropertyOp33
 70
     1
102
RTVSPropertyOp34
 70
     1
102
RTVSPropertyOp35
 70
     1
102
RTVSPropertyOp36
 70
     1
102
RTVSPropertyOp37
 70
     1
102
RTVSPropertyOp38
 70
     1
102
RTVSPropertyOp39
 70
     1
102
RTVSPropertyOp40
 70
     1
102
RTVSPropertyOp41
 70
     1
102
RTVSPropertyOp42
 70
     1
102
RTVSPropertyOp43
 70
     1
102
RTVSPropertyOp44
 70
     1
102
RTVSPropertyOp45
 70
     1
102
RTVSPropertyOp46
 70
     1
102
RTVSPropertyOp47
 70
     1
102
RTVSPropertyOp48
 70
     1
102
RTVSPropertyOp49
 70
     1
102
RTVSPropertyOp50
 70
     1
102
RTVSPropertyOp51
 70
     0
102
RTVSPropertyOp52
 70
     0
102
RTVSPropertyOp53
 70
     1
102
RTVSPropertyOp54
 70
     1
102
RTVSPropertyOp55
 70
     1
102
RTVSPropertyOp56
 70
     1
102
RTVSPropertyOp57
 70
     1
102
RTVSPost2010Prop28
280
     1
102
RTVSPost2010PropOp28
 70
     1
102
RTVSPost2010Prop29
280
     1
102
RTVSPost2010PropOp29
 70
     1
102
RTVSPost2010Prop30
280
     0
102
RTVSPost2010PropOp30
 70
     1
102
RTVSPost2010Prop31
280
     0
102
RTVSPost2010PropOp31
 70
     1
102
RTVSPost2010Prop32
280
     0
102
RTVSPost2010PropOp32
 70
     1
102
RTVSPost2010Prop33
280
     0
102
RTVSPost2010PropOp33
 70
     1
102
RTVSPost2010Prop34
280
     0
102
RTVSPost2010PropOp34
 70
     1
102
RTVSPost2010Prop35
280
     0
102
RTVSPost2010PropOp35
 70
     1
102
RTVSPost2010Prop36
280
     0
102
RTVSPost2010PropOp36
 70
     1
102
RTVSPost2010Prop37
 90
       50
102
RTVSPost2010PropOp37
 70
     1
102
RTVSPost2010Prop38
140
0.0
102
RTVSPost2010PropOp38
 70
     1
102
RTVSPost2010Prop39
140
1.0
102
RTVSPost2010PropOp39
 70
     1
102
RTVSPost2010Prop40
 90
        0
102
RTVSPost2010PropOp40
 70
     1
102
RTVSPost2010Prop41ColorIndex
 90
       18
102
RTVSPost2010Prop41ColorRGB
 90
        0
102
RTVSPost2010PropOp41
 70
     1
102
RTVSPost2010Prop42
 90
       50
102
RTVSPost2010PropOp42
 70
     1
102
RTVSPost2010Prop43
 90
        3
102
RTVSPost2010PropOp43
 70
     1
102
RTVSPost2010Prop44ColorIndex
 90
        5
102
RTVSPost2010Prop44ColorRGB
 90
      255
102
RTVSPost2010PropOp44
 70
     1
102
RTVSPost2010Prop45
280
     0
102
RTVSPost2010PropOp45
 70
     1
102
RTVSPost2010Prop46
 90
       50
102
RTVSPost2010PropOp46
 70
     1
102
RTVSPost2010Prop47
 90
       50
102
RTVSPost2010PropOp47
 70
     1
102
RTVSPost2010Prop48
 90
       50
102
RTVSPost2010PropOp48
 70
     1
102
RTVSPost2010Prop49
280
     0
102
RTVSPost2010PropOp49
 70
     1
102
RTVSPost2010Prop50
 90
       50
102
RTVSPost2010PropOp50
 70
     1
102
RTVSPost2010Prop51ColorIndex
 90
      256
102
RTVSPost2010Prop51ColorRGB
 90
-16777216
102
RTVSPost2010PropOp51
 70
     0
102
RTVSPost2010Prop52
140
1.0
102
RTVSPost2010PropOp52
 70
     0
102
RTVSPost2010Prop53
 90
        2
102
RTVSPost2010PropOp53
 70
     1
102
RTVSPost2010Prop54
  1
strokes_ogs.tif
102
RTVSPost2010PropOp54
 70
     1
102
RTVSPost2010Prop55
280
     0
102
RTVSPost2010PropOp55
 70
     1
102
RTVSPost2010Prop56
140
1.0
102
RTVSPost2010PropOp56
 70
     1
102
RTVSPost2010Prop57
140
1.0
102
RTVSPost2010PropOp57
 70
     1
  0
XRECORD
  5
2D8
102
{ACAD_REACTORS
330
2D7
102
}
330
2D7
100
AcDbXrecord
280
     1
102
RTVSPropertyOp0
 70
     1
102
RTVSPropertyOp1
 70
     1
102
RTVSPropertyOp2
 70
     1
102
RTVSPropertyOp3
 70
     1
102
RTVSPropertyOp4
 70
     1
102
RTVSPropertyOp5
 70
     1
102
RTVSPropertyOp6
 70
     1
102
RTVSPropertyOp7
 70
     1
102
RTVSPropertyOp8
 70
     1
102
RTVSPropertyOp9
 70
     1
102
RTVSPropertyOp10
 70
     1
102
RTVSPropertyOp11
 70
     1
102
RTVSPropertyOp12
 70
     1
102
RTVSPropertyOp13
 70
     1
102
RTVSPropertyOp14
 70
     1
102
RTVSPropertyOp15
 70
     1
102
RTVSPropertyOp16
 70
     1
102
RTVSPropertyOp17
 70
     1
102
RTVSPropertyOp18
 70
     1
102
RTVSPropertyOp19
 70
     1
102
RTVSPropertyOp20
 70
     1
102
RTVSPropertyOp21
 70
     1
102
RTVSPropertyOp22
 70
     1
102
RTVSPropertyOp23
 70
     1
102
RTVSPropertyOp24
 70
     1
102
RTVSPropertyOp25
 70
     1
102
RTVSPropertyOp26
 70
     1
102
RTVSPropertyOp27
 70
     1
102
RTVSPropertyOp28
 70
     1
102
RTVSPropertyOp29
 70
     1
102
RTVSPropertyOp30
 70
     1
102
RTVSPropertyOp31
 70
     1
102
RTVSPropertyOp32
 70
     1
102
RTVSPropertyOp33
 70
     1
102
RTVSPropertyOp34
 70
     1
102
RTVSPropertyOp35
 70
     1
102
RTVSPropertyOp36
 70
     1
102
RTVSPropertyOp37
 70
     1
102
RTVSPropertyOp38
 70
     1
102
RTVSPropertyOp39
 70
     1
102
RTVSPropertyOp40
 70
     1
102
RTVSPropertyOp41
 70
     1
102
RTVSPropertyOp42
 70
     1
102
RTVSPropertyOp43
 70
     1
102
RTVSPropertyOp44
 70
     1
102
RTVSPropertyOp45
 70
     1
102
RTVSPropertyOp46
 70
     1
102
RTVSPropertyOp47
 70
     1
102
RTVSPropertyOp48
 70
     1
102
RTVSPropertyOp49
 70
     1
102
RTVSPropertyOp50
 70
     1
102
RTVSPropertyOp51
 70
     0
102
RTVSPropertyOp52
 70
     0
102
RTVSPropertyOp53
 70
     1
102
RTVSPropertyOp54
 70
     1
102
RTVSPropertyOp55
 70
     1
102
RTVSPropertyOp56
 70
     1
102
RTVSPropertyOp57
 70
     1
102
RTVSPost2010Prop28
280
     0
102
RTVSPost2010PropOp28
 70
     1
102
RTVSPost2010Prop29
280
     1
102
RTVSPost2010PropOp29
 70
     1
102
RTVSPost2010Prop30
280
     1
102
RTVSPost2010PropOp30
 70
     1
102
RTVSPost2010Prop31
280
     0
102
RTVSPost2010PropOp31
 70
     1
102
RTVSPost2010Prop32
280
     0
102
RTVSPost2010PropOp32
 70
     1
102
RTVSPost2010Prop33
280
     0
102
RTVSPost2010PropOp33
 70
     1
102
RTVSPost2010Prop34
280
     0
102
RTVSPost2010PropOp34
 70
     1
102
RTVSPost2010Prop35
280
     0
102
RTVSPost2010PropOp35
 70
     1
102
RTVSPost2010Prop36
280
     0
102
RTVSPost2010PropOp36
 70
     1
102
RTVSPost2010Prop37
 90
       50
102
RTVSPost2010PropOp37
 70
     1
102
RTVSPost2010Prop38
140
0.0
102
RTVSPost2010PropOp38
 70
     1
102
RTVSPost2010Prop39
140
1.0
102
RTVSPost2010PropOp39
 70
     1
102
RTVSPost2010Prop40
 90
        0
102
RTVSPost2010PropOp40
 70
     1
102
RTVSPost2010Prop41ColorIndex
 90
       18
102
RTVSPost2010Prop41ColorRGB
 90
        0
102
RTVSPost2010PropOp41
 70
     1
102
RTVSPost2010Prop42
 90
       50
102
RTVSPost2010PropOp42
 70
     1
102
RTVSPost2010Prop43
 90
        3
102
RTVSPost2010PropOp43
 70
     1
102
RTVSPost2010Prop44ColorIndex
 90
        5
102
RTVSPost2010Prop44ColorRGB
 90
      255
102
RTVSPost2010PropOp44
 70
     1
102
RTVSPost2010Prop45
280
     0
102
RTVSPost2010PropOp45
 70
     1
102
RTVSPost2010Prop46
 90
       50
102
RTVSPost2010PropOp46
 70
     1
102
RTVSPost2010Prop47
 90
       50
102
RTVSPost2010PropOp47
 70
     1
102
RTVSPost2010Prop48
 90
       50
102
RTVSPost2010PropOp48
 70
     1
102
RTVSPost2010Prop49
280
     0
102
RTVSPost2010PropOp49
 70
     1
102
RTVSPost2010Prop50
 90
       50
102
RTVSPost2010PropOp50
 70
     1
102
RTVSPost2010Prop51ColorIndex
 90
      256
102
RTVSPost2010Prop51ColorRGB
 90
-16777216
102
RTVSPost2010PropOp51
 70
     0
102
RTVSPost2010Prop52
140
1.0
102
RTVSPost2010PropOp52
 70
     0
102
RTVSPost2010Prop53
 90
        2
102
RTVSPost2010PropOp53
 70
     1
102
RTVSPost2010Prop54
  1
strokes_ogs.tif
102
RTVSPost2010PropOp54
 70
     1
102
RTVSPost2010Prop55
280
     0
102
RTVSPost2010PropOp55
 70
     1
102
RTVSPost2010Prop56
140
1.0
102
RTVSPost2010PropOp56
 70
     1
102
RTVSPost2010Prop57
140
1.0
102
RTVSPost2010PropOp57
 70
     1
  0
XRECORD
  5
2E0
102
{ACAD_REACTORS
330
2DF
102
}
330
2DF
100
AcDbXrecord
280
     1
102
RTVSPropertyOp0
 70
     1
102
RTVSPropertyOp1
 70
     1
102
RTVSPropertyOp2
 70
     1
102
RTVSPropertyOp3
 70
     1
102
RTVSPropertyOp4
 70
     1
102
RTVSPropertyOp5
 70
     1
102
RTVSPropertyOp6
 70
     1
102
RTVSPropertyOp7
 70
     1
102
RTVSPropertyOp8
 70
     1
102
RTVSPropertyOp9
 70
     1
102
RTVSPropertyOp10
 70
     1
102
RTVSPropertyOp11
 70
     1
102
RTVSPropertyOp12
 70
     1
102
RTVSPropertyOp13
 70
     1
102
RTVSPropertyOp14
 70
     1
102
RTVSPropertyOp15
 70
     1
102
RTVSPropertyOp16
 70
     1
102
RTVSPropertyOp17
 70
     1
102
RTVSPropertyOp18
 70
     1
102
RTVSPropertyOp19
 70
     1
102
RTVSPropertyOp20
 70
     1
102
RTVSPropertyOp21
 70
     1
102
RTVSPropertyOp22
 70
     1
102
RTVSPropertyOp23
 70
     1
102
RTVSPropertyOp24
 70
     1
102
RTVSPropertyOp25
 70
     1
102
RTVSPropertyOp26
 70
     1
102
RTVSPropertyOp27
 70
     1
102
RTVSPropertyOp28
 70
     1
102
RTVSPropertyOp29
 70
     1
102
RTVSPropertyOp30
 70
     1
102
RTVSPropertyOp31
 70
     1
102
RTVSPropertyOp32
 70
     1
102
RTVSPropertyOp33
 70
     1
102
RTVSPropertyOp34
 70
     1
102
RTVSPropertyOp35
 70
     1
102
RTVSPropertyOp36
 70
     1
102
RTVSPropertyOp37
 70
     1
102
RTVSPropertyOp38
 70
     1
102
RTVSPropertyOp39
 70
     1
102
RTVSPropertyOp40
 70
     1
102
RTVSPropertyOp41
 70
     1
102
RTVSPropertyOp42
 70
     1
102
RTVSPropertyOp43
 70
     1
102
RTVSPropertyOp44
 70
     1
102
RTVSPropertyOp45
 70
     1
102
RTVSPropertyOp46
 70
     1
102
RTVSPropertyOp47
 70
     1
102
RTVSPropertyOp48
 70
     1
102
RTVSPropertyOp49
 70
     1
102
RTVSPropertyOp50
 70
     1
102
RTVSPropertyOp51
 70
     0
102
RTVSPropertyOp52
 70
     0
102
RTVSPropertyOp53
 70
     1
102
RTVSPropertyOp54
 70
     1
102
RTVSPropertyOp55
 70
     1
102
RTVSPropertyOp56
 70
     1
102
RTVSPropertyOp57
 70
     1
102
RTVSPost2010Prop28
280
     0
102
RTVSPost2010PropOp28
 70
     1
102
RTVSPost2010Prop29
280
     1
102
RTVSPost2010PropOp29
 70
     1
102
RTVSPost2010Prop30
280
     1
102
RTVSPost2010PropOp30
 70
     1
102
RTVSPost2010Prop31
280
     0
102
RTVSPost2010PropOp31
 70
     1
102
RTVSPost2010Prop32
280
     0
102
RTVSPost2010PropOp32
 70
     1
102
RTVSPost2010Prop33
280
     0
102
RTVSPost2010PropOp33
 70
     1
102
RTVSPost2010Prop34
280
     0
102
RTVSPost2010PropOp34
 70
     1
102
RTVSPost2010Prop35
280
     0
102
RTVSPost2010PropOp35
 70
     1
102
RTVSPost2010Prop36
280
     0
102
RTVSPost2010PropOp36
 70
     1
102
RTVSPost2010Prop37
 90
       50
102
RTVSPost2010PropOp37
 70
     1
102
RTVSPost2010Prop38
140
0.0
102
RTVSPost2010PropOp38
 70
     1
102
RTVSPost2010Prop39
140
1.0
102
RTVSPost2010PropOp39
 70
     1
102
RTVSPost2010Prop40
 90
        0
102
RTVSPost2010PropOp40
 70
     1
102
RTVSPost2010Prop41ColorIndex
 90
       18
102
RTVSPost2010Prop41ColorRGB
 90
        0
102
RTVSPost2010PropOp41
 70
     1
102
RTVSPost2010Prop42
 90
       50
102
RTVSPost2010PropOp42
 70
     1
102
RTVSPost2010Prop43
 90
        3
102
RTVSPost2010PropOp43
 70
     1
102
RTVSPost2010Prop44ColorIndex
 90
        5
102
RTVSPost2010Prop44ColorRGB
 90
      255
102
RTVSPost2010PropOp44
 70
     1
102
RTVSPost2010Prop45
280
     0
102
RTVSPost2010PropOp45
 70
     1
102
RTVSPost2010Prop46
 90
       50
102
RTVSPost2010PropOp46
 70
     1
102
RTVSPost2010Prop47
 90
       50
102
RTVSPost2010PropOp47
 70
     1
102
RTVSPost2010Prop48
 90
       50
102
RTVSPost2010PropOp48
 70
     1
102
RTVSPost2010Prop49
280
     0
102
RTVSPost2010PropOp49
 70
     1
102
RTVSPost2010Prop50
 90
       50
102
RTVSPost2010PropOp50
 70
     1
102
RTVSPost2010Prop51ColorIndex
 90
      256
102
RTVSPost2010Prop51ColorRGB
 90
-16777216
102
RTVSPost2010PropOp51
 70
     0
102
RTVSPost2010Prop52
140
1.0
102
RTVSPost2010PropOp52
 70
     0
102
RTVSPost2010Prop53
 90
        2
102
RTVSPost2010PropOp53
 70
     1
102
RTVSPost2010Prop54
  1
strokes_ogs.tif
102
RTVSPost2010PropOp54
 70
     1
102
RTVSPost2010Prop55
280
     0
102
RTVSPost2010PropOp55
 70
     1
102
RTVSPost2010Prop56
140
1.0
102
RTVSPost2010PropOp56
 70
     1
102
RTVSPost2010Prop57
140
1.0
102
RTVSPost2010PropOp57
 70
     1
  0
XRECORD
  5
2E8
102
{ACAD_REACTORS
330
2E7
102
}
330
2E7
100
AcDbXrecord
280
     1
102
RTVSPropertyOp0
 70
     1
102
RTVSPropertyOp1
 70
     1
102
RTVSPropertyOp2
 70
     1
102
RTVSPropertyOp3
 70
     1
102
RTVSPropertyOp4
 70
     1
102
RTVSPropertyOp5
 70
     1
102
RTVSPropertyOp6
 70
     1
102
RTVSPropertyOp7
 70
     1
102
RTVSPropertyOp8
 70
     1
102
RTVSPropertyOp9
 70
     1
102
RTVSPropertyOp10
 70
     1
102
RTVSPropertyOp11
 70
     1
102
RTVSPropertyOp12
 70
     1
102
RTVSPropertyOp13
 70
     1
102
RTVSPropertyOp14
 70
     1
102
RTVSPropertyOp15
 70
     1
102
RTVSPropertyOp16
 70
     1
102
RTVSPropertyOp17
 70
     1
102
RTVSPropertyOp18
 70
     1
102
RTVSPropertyOp19
 70
     1
102
RTVSPropertyOp20
 70
     1
102
RTVSPropertyOp21
 70
     1
102
RTVSPropertyOp22
 70
     1
102
RTVSPropertyOp23
 70
     1
102
RTVSPropertyOp24
 70
     1
102
RTVSPropertyOp25
 70
     1
102
RTVSPropertyOp26
 70
     1
102
RTVSPropertyOp27
 70
     1
102
RTVSPropertyOp28
 70
     1
102
RTVSPropertyOp29
 70
     1
102
RTVSPropertyOp30
 70
     1
102
RTVSPropertyOp31
 70
     1
102
RTVSPropertyOp32
 70
     1
102
RTVSPropertyOp33
 70
     1
102
RTVSPropertyOp34
 70
     1
102
RTVSPropertyOp35
 70
     1
102
RTVSPropertyOp36
 70
     1
102
RTVSPropertyOp37
 70
     1
102
RTVSPropertyOp38
 70
     1
102
RTVSPropertyOp39
 70
     1
102
RTVSPropertyOp40
 70
     1
102
RTVSPropertyOp41
 70
     1
102
RTVSPropertyOp42
 70
     1
102
RTVSPropertyOp43
 70
     1
102
RTVSPropertyOp44
 70
     1
102
RTVSPropertyOp45
 70
     1
102
RTVSPropertyOp46
 70
     1
102
RTVSPropertyOp47
 70
     1
102
RTVSPropertyOp48
 70
     1
102
RTVSPropertyOp49
 70
     1
102
RTVSPropertyOp50
 70
     1
102
RTVSPropertyOp51
 70
     0
102
RTVSPropertyOp52
 70
     0
102
RTVSPropertyOp53
 70
     1
102
RTVSPropertyOp54
 70
     1
102
RTVSPropertyOp55
 70
     1
102
RTVSPropertyOp56
 70
     1
102
RTVSPropertyOp57
 70
     1
102
RTVSPost2010Prop28
280
     0
102
RTVSPost2010PropOp28
 70
     1
102
RTVSPost2010Prop29
280
     1
102
RTVSPost2010PropOp29
 70
     1
102
RTVSPost2010Prop30
280
     1
102
RTVSPost2010PropOp30
 70
     1
102
RTVSPost2010Prop31
280
     0
102
RTVSPost2010PropOp31
 70
     1
102
RTVSPost2010Prop32
280
     0
102
RTVSPost2010PropOp32
 70
     1
102
RTVSPost2010Prop33
280
     0
102
RTVSPost2010PropOp33
 70
     1
102
RTVSPost2010Prop34
280
     0
102
RTVSPost2010PropOp34
 70
     1
102
RTVSPost2010Prop35
280
     0
102
RTVSPost2010PropOp35
 70
     1
102
RTVSPost2010Prop36
280
     0
102
RTVSPost2010PropOp36
 70
     1
102
RTVSPost2010Prop37
 90
       50
102
RTVSPost2010PropOp37
 70
     1
102
RTVSPost2010Prop38
140
0.0
102
RTVSPost2010PropOp38
 70
     1
102
RTVSPost2010Prop39
140
1.0
102
RTVSPost2010PropOp39
 70
     1
102
RTVSPost2010Prop40
 90
        0
102
RTVSPost2010PropOp40
 70
     1
102
RTVSPost2010Prop41ColorIndex
 90
       18
102
RTVSPost2010Prop41ColorRGB
 90
        0
102
RTVSPost2010PropOp41
 70
     1
102
RTVSPost2010Prop42
 90
       50
102
RTVSPost2010PropOp42
 70
     1
102
RTVSPost2010Prop43
 90
        3
102
RTVSPost2010PropOp43
 70
     1
102
RTVSPost2010Prop44ColorIndex
 90
        5
102
RTVSPost2010Prop44ColorRGB
 90
      255
102
RTVSPost2010PropOp44
 70
     1
102
RTVSPost2010Prop45
280
     0
102
RTVSPost2010PropOp45
 70
     1
102
RTVSPost2010Prop46
 90
       50
102
RTVSPost2010PropOp46
 70
     1
102
RTVSPost2010Prop47
 90
       50
102
RTVSPost2010PropOp47
 70
     1
102
RTVSPost2010Prop48
 90
       50
102
RTVSPost2010PropOp48
 70
     1
102
RTVSPost2010Prop49
280
     0
102
RTVSPost2010PropOp49
 70
     1
102
RTVSPost2010Prop50
 90
       50
102
RTVSPost2010PropOp50
 70
     1
102
RTVSPost2010Prop51ColorIndex
 90
      256
102
RTVSPost2010Prop51ColorRGB
 90
-16777216
102
RTVSPost2010PropOp51
 70
     0
102
RTVSPost2010Prop52
140
1.0
102
RTVSPost2010PropOp52
 70
     0
102
RTVSPost2010Prop53
 90
        2
102
RTVSPost2010PropOp53
 70
     1
102
RTVSPost2010Prop54
  1
strokes_ogs.tif
102
RTVSPost2010PropOp54
 70
     1
102
RTVSPost2010Prop55
280
     0
102
RTVSPost2010PropOp55
 70
     1
102
RTVSPost2010Prop56
140
1.0
102
RTVSPost2010PropOp56
 70
     1
102
RTVSPost2010Prop57
140
1.0
102
RTVSPost2010PropOp57
 70
     1
  0
XRECORD
  5
2DC
102
{ACAD_REACTORS
330
2DB
102
}
330
2DB
100
AcDbXrecord
280
     1
102
RTVSPropertyOp0
 70
     1
102
RTVSPropertyOp1
 70
     1
102
RTVSPropertyOp2
 70
     1
102
RTVSPropertyOp3
 70
     1
102
RTVSPropertyOp4
 70
     1
102
RTVSPropertyOp5
 70
     1
102
RTVSPropertyOp6
 70
     1
102
RTVSPropertyOp7
 70
     1
102
RTVSPropertyOp8
 70
     1
102
RTVSPropertyOp9
 70
     1
102
RTVSPropertyOp10
 70
     1
102
RTVSPropertyOp11
 70
     1
102
RTVSPropertyOp12
 70
     1
102
RTVSPropertyOp13
 70
     1
102
RTVSPropertyOp14
 70
     1
102
RTVSPropertyOp15
 70
     1
102
RTVSPropertyOp16
 70
     1
102
RTVSPropertyOp17
 70
     1
102
RTVSPropertyOp18
 70
     1
102
RTVSPropertyOp19
 70
     1
102
RTVSPropertyOp20
 70
     1
102
RTVSPropertyOp21
 70
     1
102
RTVSPropertyOp22
 70
     1
102
RTVSPropertyOp23
 70
     1
102
RTVSPropertyOp24
 70
     1
102
RTVSPropertyOp25
 70
     1
102
RTVSPropertyOp26
 70
     1
102
RTVSPropertyOp27
 70
     1
102
RTVSPropertyOp28
 70
     1
102
RTVSPropertyOp29
 70
     1
102
RTVSPropertyOp30
 70
     1
102
RTVSPropertyOp31
 70
     1
102
RTVSPropertyOp32
 70
     1
102
RTVSPropertyOp33
 70
     1
102
RTVSPropertyOp34
 70
     1
102
RTVSPropertyOp35
 70
     1
102
RTVSPropertyOp36
 70
     1
102
RTVSPropertyOp37
 70
     1
102
RTVSPropertyOp38
 70
     1
102
RTVSPropertyOp39
 70
     1
102
RTVSPropertyOp40
 70
     1
102
RTVSPropertyOp41
 70
     1
102
RTVSPropertyOp42
 70
     1
102
RTVSPropertyOp43
 70
     1
102
RTVSPropertyOp44
 70
     1
102
RTVSPropertyOp45
 70
     1
102
RTVSPropertyOp46
 70
     1
102
RTVSPropertyOp47
 70
     1
102
RTVSPropertyOp48
 70
     1
102
RTVSPropertyOp49
 70
     1
102
RTVSPropertyOp50
 70
     1
102
RTVSPropertyOp51
 70
     0
102
RTVSPropertyOp52
 70
     0
102
RTVSPropertyOp53
 70
     1
102
RTVSPropertyOp54
 70
     1
102
RTVSPropertyOp55
 70
     1
102
RTVSPropertyOp56
 70
     1
102
RTVSPropertyOp57
 70
     1
102
RTVSPost2010Prop28
280
     0
102
RTVSPost2010PropOp28
 70
     1
102
RTVSPost2010Prop29
280
     1
102
RTVSPost2010PropOp29
 70
     1
102
RTVSPost2010Prop30
280
     1
102
RTVSPost2010PropOp30
 70
     1
102
RTVSPost2010Prop31
280
     0
102
RTVSPost2010PropOp31
 70
     1
102
RTVSPost2010Prop32
280
     0
102
RTVSPost2010PropOp32
 70
     1
102
RTVSPost2010Prop33
280
     0
102
RTVSPost2010PropOp33
 70
     1
102
RTVSPost2010Prop34
280
     0
102
RTVSPost2010PropOp34
 70
     1
102
RTVSPost2010Prop35
280
     0
102
RTVSPost2010PropOp35
 70
     1
102
RTVSPost2010Prop36
280
     0
102
RTVSPost2010PropOp36
 70
     1
102
RTVSPost2010Prop37
 90
       50
102
RTVSPost2010PropOp37
 70
     1
102
RTVSPost2010Prop38
140
0.0
102
RTVSPost2010PropOp38
 70
     1
102
RTVSPost2010Prop39
140
1.0
102
RTVSPost2010PropOp39
 70
     1
102
RTVSPost2010Prop40
 90
        0
102
RTVSPost2010PropOp40
 70
     1
102
RTVSPost2010Prop41ColorIndex
 90
       18
102
RTVSPost2010Prop41ColorRGB
 90
        0
102
RTVSPost2010PropOp41
 70
     1
102
RTVSPost2010Prop42
 90
       50
102
RTVSPost2010PropOp42
 70
     1
102
RTVSPost2010Prop43
 90
        3
102
RTVSPost2010PropOp43
 70
     1
102
RTVSPost2010Prop44ColorIndex
 90
        5
102
RTVSPost2010Prop44ColorRGB
 90
      255
102
RTVSPost2010PropOp44
 70
     1
102
RTVSPost2010Prop45
280
     0
102
RTVSPost2010PropOp45
 70
     1
102
RTVSPost2010Prop46
 90
       50
102
RTVSPost2010PropOp46
 70
     1
102
RTVSPost2010Prop47
 90
       50
102
RTVSPost2010PropOp47
 70
     1
102
RTVSPost2010Prop48
 90
       50
102
RTVSPost2010PropOp48
 70
     1
102
RTVSPost2010Prop49
280
     0
102
RTVSPost2010PropOp49
 70
     1
102
RTVSPost2010Prop50
 90
       50
102
RTVSPost2010PropOp50
 70
     1
102
RTVSPost2010Prop51ColorIndex
 90
      256
102
RTVSPost2010Prop51ColorRGB
 90
-16777216
102
RTVSPost2010PropOp51
 70
     0
102
RTVSPost2010Prop52
140
1.0
102
RTVSPost2010PropOp52
 70
     0
102
RTVSPost2010Prop53
 90
        2
102
RTVSPost2010PropOp53
 70
     1
102
RTVSPost2010Prop54
  1
strokes_ogs.tif
102
RTVSPost2010PropOp54
 70
     1
102
RTVSPost2010Prop55
280
     0
102
RTVSPost2010PropOp55
 70
     1
102
RTVSPost2010Prop56
140
1.0
102
RTVSPost2010PropOp56
 70
     1
102
RTVSPost2010Prop57
140
1.0
102
RTVSPost2010PropOp57
 70
     1
  0
XRECORD
  5
2DE
102
{ACAD_REACTORS
330
2DD
102
}
330
2DD
100
AcDbXrecord
280
     1
102
RTVSPropertyOp0
 70
     1
102
RTVSPropertyOp1
 70
     1
102
RTVSPropertyOp2
 70
     1
102
RTVSPropertyOp3
 70
     1
102
RTVSPropertyOp4
 70
     1
102
RTVSPropertyOp5
 70
     1
102
RTVSPropertyOp6
 70
     1
102
RTVSPropertyOp7
 70
     1
102
RTVSPropertyOp8
 70
     1
102
RTVSPropertyOp9
 70
     1
102
RTVSPropertyOp10
 70
     1
102
RTVSPropertyOp11
 70
     1
102
RTVSPropertyOp12
 70
     1
102
RTVSPropertyOp13
 70
     1
102
RTVSPropertyOp14
 70
     1
102
RTVSPropertyOp15
 70
     1
102
RTVSPropertyOp16
 70
     1
102
RTVSPropertyOp17
 70
     1
102
RTVSPropertyOp18
 70
     1
102
RTVSPropertyOp19
 70
     1
102
RTVSPropertyOp20
 70
     1
102
RTVSPropertyOp21
 70
     1
102
RTVSPropertyOp22
 70
     1
102
RTVSPropertyOp23
 70
     1
102
RTVSPropertyOp24
 70
     1
102
RTVSPropertyOp25
 70
     1
102
RTVSPropertyOp26
 70
     1
102
RTVSPropertyOp27
 70
     1
102
RTVSPropertyOp28
 70
     1
102
RTVSPropertyOp29
 70
     1
102
RTVSPropertyOp30
 70
     1
102
RTVSPropertyOp31
 70
     1
102
RTVSPropertyOp32
 70
     1
102
RTVSPropertyOp33
 70
     1
102
RTVSPropertyOp34
 70
     1
102
RTVSPropertyOp35
 70
     1
102
RTVSPropertyOp36
 70
     1
102
RTVSPropertyOp37
 70
     1
102
RTVSPropertyOp38
 70
     1
102
RTVSPropertyOp39
 70
     1
102
RTVSPropertyOp40
 70
     1
102
RTVSPropertyOp41
 70
     1
102
RTVSPropertyOp42
 70
     1
102
RTVSPropertyOp43
 70
     1
102
RTVSPropertyOp44
 70
     1
102
RTVSPropertyOp45
 70
     1
102
RTVSPropertyOp46
 70
     1
102
RTVSPropertyOp47
 70
     1
102
RTVSPropertyOp48
 70
     1
102
RTVSPropertyOp49
 70
     1
102
RTVSPropertyOp50
 70
     1
102
RTVSPropertyOp51
 70
     0
102
RTVSPropertyOp52
 70
     0
102
RTVSPropertyOp53
 70
     1
102
RTVSPropertyOp54
 70
     1
102
RTVSPropertyOp55
 70
     1
102
RTVSPropertyOp56
 70
     1
102
RTVSPropertyOp57
 70
     1
102
RTVSPost2010Prop28
280
     0
102
RTVSPost2010PropOp28
 70
     1
102
RTVSPost2010Prop29
280
     1
102
RTVSPost2010PropOp29
 70
     1
102
RTVSPost2010Prop30
280
     1
102
RTVSPost2010PropOp30
 70
     1
102
RTVSPost2010Prop31
280
     0
102
RTVSPost2010PropOp31
 70
     1
102
RTVSPost2010Prop32
280
     0
102
RTVSPost2010PropOp32
 70
     1
102
RTVSPost2010Prop33
280
     0
102
RTVSPost2010PropOp33
 70
     1
102
RTVSPost2010Prop34
280
     0
102
RTVSPost2010PropOp34
 70
     1
102
RTVSPost2010Prop35
280
     0
102
RTVSPost2010PropOp35
 70
     1
102
RTVSPost2010Prop36
280
     0
102
RTVSPost2010PropOp36
 70
     1
102
RTVSPost2010Prop37
 90
       50
102
RTVSPost2010PropOp37
 70
     1
102
RTVSPost2010Prop38
140
0.0
102
RTVSPost2010PropOp38
 70
     1
102
RTVSPost2010Prop39
140
1.0
102
RTVSPost2010PropOp39
 70
     1
102
RTVSPost2010Prop40
 90
        0
102
RTVSPost2010PropOp40
 70
     1
102
RTVSPost2010Prop41ColorIndex
 90
       18
102
RTVSPost2010Prop41ColorRGB
 90
        0
102
RTVSPost2010PropOp41
 70
     1
102
RTVSPost2010Prop42
 90
       50
102
RTVSPost2010PropOp42
 70
     1
102
RTVSPost2010Prop43
 90
        3
102
RTVSPost2010PropOp43
 70
     1
102
RTVSPost2010Prop44ColorIndex
 90
        5
102
RTVSPost2010Prop44ColorRGB
 90
      255
102
RTVSPost2010PropOp44
 70
     1
102
RTVSPost2010Prop45
280
     0
102
RTVSPost2010PropOp45
 70
     1
102
RTVSPost2010Prop46
 90
       50
102
RTVSPost2010PropOp46
 70
     1
102
RTVSPost2010Prop47
 90
       50
102
RTVSPost2010PropOp47
 70
     1
102
RTVSPost2010Prop48
 90
       50
102
RTVSPost2010PropOp48
 70
     1
102
RTVSPost2010Prop49
280
     0
102
RTVSPost2010PropOp49
 70
     1
102
RTVSPost2010Prop50
 90
       50
102
RTVSPost2010PropOp50
 70
     1
102
RTVSPost2010Prop51ColorIndex
 90
      256
102
RTVSPost2010Prop51ColorRGB
 90
-16777216
102
RTVSPost2010PropOp51
 70
     0
102
RTVSPost2010Prop52
140
1.0
102
RTVSPost2010PropOp52
 70
     0
102
RTVSPost2010Prop53
 90
        2
102
RTVSPost2010PropOp53
 70
     1
102
RTVSPost2010Prop54
  1
strokes_ogs.tif
102
RTVSPost2010PropOp54
 70
     1
102
RTVSPost2010Prop55
280
     0
102
RTVSPost2010PropOp55
 70
     1
102
RTVSPost2010Prop56
140
1.0
102
RTVSPost2010PropOp56
 70
     1
102
RTVSPost2010Prop57
140
1.0
102
RTVSPost2010PropOp57
 70
     1
  0
XRECORD
  5
2EE
102
{ACAD_REACTORS
330
2ED
102
}
330
2ED
100
AcDbXrecord
280
     1
102
RTVSPropertyOp0
 70
     0
102
RTVSPropertyOp1
 70
     0
102
RTVSPropertyOp2
 70
     0
102
RTVSPropertyOp3
 70
     0
102
RTVSPropertyOp4
 70
     0
102
RTVSPropertyOp5
 70
     0
102
RTVSPropertyOp6
 70
     0
102
RTVSPropertyOp7
 70
     0
102
RTVSPropertyOp8
 70
     0
102
RTVSPropertyOp9
 70
     0
102
RTVSPropertyOp10
 70
     0
102
RTVSPropertyOp11
 70
     0
102
RTVSPropertyOp12
 70
     0
102
RTVSPropertyOp13
 70
     0
102
RTVSPropertyOp14
 70
     2
102
RTVSPropertyOp15
 70
     0
102
RTVSPropertyOp16
 70
     0
102
RTVSPropertyOp17
 70
     0
102
RTVSPropertyOp18
 70
     0
102
RTVSPropertyOp19
 70
     0
102
RTVSPropertyOp20
 70
     0
102
RTVSPropertyOp21
 70
     0
102
RTVSPropertyOp22
 70
     0
102
RTVSPropertyOp23
 70
     0
102
RTVSPropertyOp24
 70
     0
102
RTVSPropertyOp25
 70
     0
102
RTVSPropertyOp26
 70
     0
102
RTVSPropertyOp27
 70
     0
102
RTVSPropertyOp28
 70
     0
102
RTVSPropertyOp29
 70
     0
102
RTVSPropertyOp30
 70
     0
102
RTVSPropertyOp31
 70
     0
102
RTVSPropertyOp32
 70
     0
102
RTVSPropertyOp33
 70
     0
102
RTVSPropertyOp34
 70
     0
102
RTVSPropertyOp35
 70
     0
102
RTVSPropertyOp36
 70
     0
102
RTVSPropertyOp37
 70
     0
102
RTVSPropertyOp38
 70
     0
102
RTVSPropertyOp39
 70
     0
102
RTVSPropertyOp40
 70
     0
102
RTVSPropertyOp41
 70
     0
102
RTVSPropertyOp42
 70
     0
102
RTVSPropertyOp43
 70
     0
102
RTVSPropertyOp44
 70
     0
102
RTVSPropertyOp45
 70
     0
102
RTVSPropertyOp46
 70
     0
102
RTVSPropertyOp47
 70
     0
102
RTVSPropertyOp48
 70
     0
102
RTVSPropertyOp49
 70
     0
102
RTVSPropertyOp50
 70
     0
102
RTVSPropertyOp51
 70
     0
102
RTVSPropertyOp52
 70
     0
102
RTVSPropertyOp53
 70
     0
102
RTVSPropertyOp54
 70
     0
102
RTVSPropertyOp55
 70
     0
102
RTVSPropertyOp56
 70
     0
102
RTVSPropertyOp57
 70
     0
102
RTVSPost2010Prop28
280
     0
102
RTVSPost2010PropOp28
 70
     0
102
RTVSPost2010Prop29
280
     1
102
RTVSPost2010PropOp29
 70
     0
102
RTVSPost2010Prop30
280
     1
102
RTVSPost2010PropOp30
 70
     0
102
RTVSPost2010Prop31
280
     0
102
RTVSPost2010PropOp31
 70
     0
102
RTVSPost2010Prop32
280
     0
102
RTVSPost2010PropOp32
 70
     0
102
RTVSPost2010Prop33
280
     0
102
RTVSPost2010PropOp33
 70
     0
102
RTVSPost2010Prop34
280
     0
102
RTVSPost2010PropOp34
 70
     0
102
RTVSPost2010Prop35
280
     0
102
RTVSPost2010PropOp35
 70
     0
102
RTVSPost2010Prop36
280
     0
102
RTVSPost2010PropOp36
 70
     0
102
RTVSPost2010Prop37
 90
       50
102
RTVSPost2010PropOp37
 70
     0
102
RTVSPost2010Prop38
140
0.0
102
RTVSPost2010PropOp38
 70
     0
102
RTVSPost2010Prop39
140
1.0
102
RTVSPost2010PropOp39
 70
     0
102
RTVSPost2010Prop40
 90
        0
102
RTVSPost2010PropOp40
 70
     0
102
RTVSPost2010Prop41ColorIndex
 90
       18
102
RTVSPost2010Prop41ColorRGB
 90
        0
102
RTVSPost2010PropOp41
 70
     0
102
RTVSPost2010Prop42
 90
       50
102
RTVSPost2010PropOp42
 70
     0
102
RTVSPost2010Prop43
 90
        3
102
RTVSPost2010PropOp43
 70
     0
102
RTVSPost2010Prop44ColorIndex
 90
        5
102
RTVSPost2010Prop44ColorRGB
 90
      255
102
RTVSPost2010PropOp44
 70
     0
102
RTVSPost2010Prop45
280
     0
102
RTVSPost2010PropOp45
 70
     0
102
RTVSPost2010Prop46
 90
       50
102
RTVSPost2010PropOp46
 70
     0
102
RTVSPost2010Prop47
 90
       50
102
RTVSPost2010PropOp47
 70
     0
102
RTVSPost2010Prop48
 90
       50
102
RTVSPost2010PropOp48
 70
     0
102
RTVSPost2010Prop49
280
     0
102
RTVSPost2010PropOp49
 70
     0
102
RTVSPost2010Prop50
 90
       50
102
RTVSPost2010PropOp50
 70
     0
102
RTVSPost2010Prop51ColorIndex
 90
      256
102
RTVSPost2010Prop51ColorRGB
 90
-16777216
102
RTVSPost2010PropOp51
 70
     0
102
RTVSPost2010Prop52
140
1.0
102
RTVSPost2010PropOp52
 70
     0
102
RTVSPost2010Prop53
 90
        2
102
RTVSPost2010PropOp53
 70
     0
102
RTVSPost2010Prop54
  1
strokes_ogs.tif
102
RTVSPost2010PropOp54
 70
     0
102
RTVSPost2010Prop55
280
     0
102
RTVSPost2010PropOp55
 70
     0
102
RTVSPost2010Prop56
140
1.0
102
RTVSPost2010PropOp56
 70
     0
102
RTVSPost2010Prop57
140
1.0
102
RTVSPost2010PropOp57
 70
     0
  0
XRECORD
  5
2E6
102
{ACAD_REACTORS
330
2E5
102
}
330
2E5
100
AcDbXrecord
280
     1
102
RTVSPropertyOp0
 70
     1
102
RTVSPropertyOp1
 70
     1
102
RTVSPropertyOp2
 70
     1
102
RTVSPropertyOp3
 70
     1
102
RTVSPropertyOp4
 70
     1
102
RTVSPropertyOp5
 70
     1
102
RTVSPropertyOp6
 70
     1
102
RTVSPropertyOp7
 70
     1
102
RTVSPropertyOp8
 70
     1
102
RTVSPropertyOp9
 70
     1
102
RTVSPropertyOp10
 70
     1
102
RTVSPropertyOp11
 70
     1
102
RTVSPropertyOp12
 70
     1
102
RTVSPropertyOp13
 70
     1
102
RTVSPropertyOp14
 70
     1
102
RTVSPropertyOp15
 70
     1
102
RTVSPropertyOp16
 70
     1
102
RTVSPropertyOp17
 70
     1
102
RTVSPropertyOp18
 70
     1
102
RTVSPropertyOp19
 70
     1
102
RTVSPropertyOp20
 70
     1
102
RTVSPropertyOp21
 70
     1
102
RTVSPropertyOp22
 70
     1
102
RTVSPropertyOp23
 70
     1
102
RTVSPropertyOp24
 70
     1
102
RTVSPropertyOp25
 70
     1
102
RTVSPropertyOp26
 70
     1
102
RTVSPropertyOp27
 70
     1
102
RTVSPropertyOp28
 70
     1
102
RTVSPropertyOp29
 70
     1
102
RTVSPropertyOp30
 70
     1
102
RTVSPropertyOp31
 70
     1
102
RTVSPropertyOp32
 70
     1
102
RTVSPropertyOp33
 70
     1
102
RTVSPropertyOp34
 70
     1
102
RTVSPropertyOp35
 70
     1
102
RTVSPropertyOp36
 70
     1
102
RTVSPropertyOp37
 70
     1
102
RTVSPropertyOp38
 70
     1
102
RTVSPropertyOp39
 70
     1
102
RTVSPropertyOp40
 70
     1
102
RTVSPropertyOp41
 70
     1
102
RTVSPropertyOp42
 70
     1
102
RTVSPropertyOp43
 70
     1
102
RTVSPropertyOp44
 70
     1
102
RTVSPropertyOp45
 70
     1
102
RTVSPropertyOp46
 70
     1
102
RTVSPropertyOp47
 70
     1
102
RTVSPropertyOp48
 70
     1
102
RTVSPropertyOp49
 70
     1
102
RTVSPropertyOp50
 70
     1
102
RTVSPropertyOp51
 70
     0
102
RTVSPropertyOp52
 70
     0
102
RTVSPropertyOp53
 70
     1
102
RTVSPropertyOp54
 70
     1
102
RTVSPropertyOp55
 70
     1
102
RTVSPropertyOp56
 70
     1
102
RTVSPropertyOp57
 70
     1
102
RTVSPost2010Prop28
280
     0
102
RTVSPost2010PropOp28
 70
     1
102
RTVSPost2010Prop29
280
     1
102
RTVSPost2010PropOp29
 70
     1
102
RTVSPost2010Prop30
280
     1
102
RTVSPost2010PropOp30
 70
     1
102
RTVSPost2010Prop31
280
     0
102
RTVSPost2010PropOp31
 70
     1
102
RTVSPost2010Prop32
280
     0
102
RTVSPost2010PropOp32
 70
     1
102
RTVSPost2010Prop33
280
     0
102
RTVSPost2010PropOp33
 70
     1
102
RTVSPost2010Prop34
280
     0
102
RTVSPost2010PropOp34
 70
     1
102
RTVSPost2010Prop35
280
     0
102
RTVSPost2010PropOp35
 70
     1
102
RTVSPost2010Prop36
280
     0
102
RTVSPost2010PropOp36
 70
     1
102
RTVSPost2010Prop37
 90
       50
102
RTVSPost2010PropOp37
 70
     1
102
RTVSPost2010Prop38
140
0.0
102
RTVSPost2010PropOp38
 70
     1
102
RTVSPost2010Prop39
140
1.0
102
RTVSPost2010PropOp39
 70
     1
102
RTVSPost2010Prop40
 90
        0
102
RTVSPost2010PropOp40
 70
     1
102
RTVSPost2010Prop41ColorIndex
 90
       18
102
RTVSPost2010Prop41ColorRGB
 90
        0
102
RTVSPost2010PropOp41
 70
     1
102
RTVSPost2010Prop42
 90
       50
102
RTVSPost2010PropOp42
 70
     1
102
RTVSPost2010Prop43
 90
        3
102
RTVSPost2010PropOp43
 70
     1
102
RTVSPost2010Prop44ColorIndex
 90
        5
102
RTVSPost2010Prop44ColorRGB
 90
      255
102
RTVSPost2010PropOp44
 70
     1
102
RTVSPost2010Prop45
280
     0
102
RTVSPost2010PropOp45
 70
     1
102
RTVSPost2010Prop46
 90
       50
102
RTVSPost2010PropOp46
 70
     1
102
RTVSPost2010Prop47
 90
       50
102
RTVSPost2010PropOp47
 70
     1
102
RTVSPost2010Prop48
 90
       50
102
RTVSPost2010PropOp48
 70
     1
102
RTVSPost2010Prop49
280
     0
102
RTVSPost2010PropOp49
 70
     1
102
RTVSPost2010Prop50
 90
       50
102
RTVSPost2010PropOp50
 70
     1
102
RTVSPost2010Prop51ColorIndex
 90
      256
102
RTVSPost2010Prop51ColorRGB
 90
-16777216
102
RTVSPost2010PropOp51
 70
     0
102
RTVSPost2010Prop52
140
1.0
102
RTVSPost2010PropOp52
 70
     0
102
RTVSPost2010Prop53
 90
        2
102
RTVSPost2010PropOp53
 70
     1
102
RTVSPost2010Prop54
  1
strokes_ogs.tif
102
RTVSPost2010PropOp54
 70
     1
102
RTVSPost2010Prop55
280
     0
102
RTVSPost2010PropOp55
 70
     1
102
RTVSPost2010Prop56
140
1.0
102
RTVSPost2010PropOp56
 70
     1
102
RTVSPost2010Prop57
140
1.0
102
RTVSPost2010PropOp57
 70
     1
  0
XRECORD
  5
2CA
102
{ACAD_REACTORS
330
2C9
102
}
330
2C9
100
AcDbXrecord
280
     1
102
RTVSPropertyOp0
 70
     1
102
RTVSPropertyOp1
 70
     1
102
RTVSPropertyOp2
 70
     1
102
RTVSPropertyOp3
 70
     1
102
RTVSPropertyOp4
 70
     1
102
RTVSPropertyOp5
 70
     1
102
RTVSPropertyOp6
 70
     1
102
RTVSPropertyOp7
 70
     1
102
RTVSPropertyOp8
 70
     1
102
RTVSPropertyOp9
 70
     1
102
RTVSPropertyOp10
 70
     1
102
RTVSPropertyOp11
 70
     1
102
RTVSPropertyOp12
 70
     1
102
RTVSPropertyOp13
 70
     1
102
RTVSPropertyOp14
 70
     1
102
RTVSPropertyOp15
 70
     1
102
RTVSPropertyOp16
 70
     1
102
RTVSPropertyOp17
 70
     1
102
RTVSPropertyOp18
 70
     1
102
RTVSPropertyOp19
 70
     1
102
RTVSPropertyOp20
 70
     1
102
RTVSPropertyOp21
 70
     1
102
RTVSPropertyOp22
 70
     1
102
RTVSPropertyOp23
 70
     1
102
RTVSPropertyOp24
 70
     1
102
RTVSPropertyOp25
 70
     1
102
RTVSPropertyOp26
 70
     1
102
RTVSPropertyOp27
 70
     1
102
RTVSPropertyOp28
 70
     1
102
RTVSPropertyOp29
 70
     1
102
RTVSPropertyOp30
 70
     1
102
RTVSPropertyOp31
 70
     1
102
RTVSPropertyOp32
 70
     1
102
RTVSPropertyOp33
 70
     1
102
RTVSPropertyOp34
 70
     1
102
RTVSPropertyOp35
 70
     1
102
RTVSPropertyOp36
 70
     1
102
RTVSPropertyOp37
 70
     1
102
RTVSPropertyOp38
 70
     1
102
RTVSPropertyOp39
 70
     1
102
RTVSPropertyOp40
 70
     1
102
RTVSPropertyOp41
 70
     1
102
RTVSPropertyOp42
 70
     1
102
RTVSPropertyOp43
 70
     1
102
RTVSPropertyOp44
 70
     1
102
RTVSPropertyOp45
 70
     1
102
RTVSPropertyOp46
 70
     1
102
RTVSPropertyOp47
 70
     1
102
RTVSPropertyOp48
 70
     1
102
RTVSPropertyOp49
 70
     1
102
RTVSPropertyOp50
 70
     1
102
RTVSPropertyOp51
 70
     0
102
RTVSPropertyOp52
 70
     0
102
RTVSPropertyOp53
 70
     1
102
RTVSPropertyOp54
 70
     1
102
RTVSPropertyOp55
 70
     1
102
RTVSPropertyOp56
 70
     1
102
RTVSPropertyOp57
 70
     1
102
RTVSPost2010Prop28
280
     0
102
RTVSPost2010PropOp28
 70
     1
102
RTVSPost2010Prop29
280
     1
102
RTVSPost2010PropOp29
 70
     1
102
RTVSPost2010Prop30
280
     1
102
RTVSPost2010PropOp30
 70
     1
102
RTVSPost2010Prop31
280
     0
102
RTVSPost2010PropOp31
 70
     1
102
RTVSPost2010Prop32
280
     0
102
RTVSPost2010PropOp32
 70
     1
102
RTVSPost2010Prop33
280
     0
102
RTVSPost2010PropOp33
 70
     1
102
RTVSPost2010Prop34
280
     0
102
RTVSPost2010PropOp34
 70
     1
102
RTVSPost2010Prop35
280
     0
102
RTVSPost2010PropOp35
 70
     1
102
RTVSPost2010Prop36
280
     0
102
RTVSPost2010PropOp36
 70
     1
102
RTVSPost2010Prop37
 90
       50
102
RTVSPost2010PropOp37
 70
     1
102
RTVSPost2010Prop38
140
0.0
102
RTVSPost2010PropOp38
 70
     1
102
RTVSPost2010Prop39
140
1.0
102
RTVSPost2010PropOp39
 70
     1
102
RTVSPost2010Prop40
 90
        0
102
RTVSPost2010PropOp40
 70
     1
102
RTVSPost2010Prop41ColorIndex
 90
       18
102
RTVSPost2010Prop41ColorRGB
 90
        0
102
RTVSPost2010PropOp41
 70
     1
102
RTVSPost2010Prop42
 90
       50
102
RTVSPost2010PropOp42
 70
     1
102
RTVSPost2010Prop43
 90
        3
102
RTVSPost2010PropOp43
 70
     1
102
RTVSPost2010Prop44ColorIndex
 90
        5
102
RTVSPost2010Prop44ColorRGB
 90
      255
102
RTVSPost2010PropOp44
 70
     1
102
RTVSPost2010Prop45
280
     0
102
RTVSPost2010PropOp45
 70
     1
102
RTVSPost2010Prop46
 90
       50
102
RTVSPost2010PropOp46
 70
     1
102
RTVSPost2010Prop47
 90
       50
102
RTVSPost2010PropOp47
 70
     1
102
RTVSPost2010Prop48
 90
       50
102
RTVSPost2010PropOp48
 70
     1
102
RTVSPost2010Prop49
280
     0
102
RTVSPost2010PropOp49
 70
     1
102
RTVSPost2010Prop50
 90
       50
102
RTVSPost2010PropOp50
 70
     1
102
RTVSPost2010Prop51ColorIndex
 90
      256
102
RTVSPost2010Prop51ColorRGB
 90
-16777216
102
RTVSPost2010PropOp51
 70
     0
102
RTVSPost2010Prop52
140
1.0
102
RTVSPost2010PropOp52
 70
     0
102
RTVSPost2010Prop53
 90
        2
102
RTVSPost2010PropOp53
 70
     1
102
RTVSPost2010Prop54
  1
strokes_ogs.tif
102
RTVSPost2010PropOp54
 70
     1
102
RTVSPost2010Prop55
280
     0
102
RTVSPost2010PropOp55
 70
     1
102
RTVSPost2010Prop56
140
1.0
102
RTVSPost2010PropOp56
 70
     1
102
RTVSPost2010Prop57
140
1.0
102
RTVSPost2010PropOp57
 70
     1
  0
XRECORD
  5
2CC
102
{ACAD_REACTORS
330
2CB
102
}
330
2CB
100
AcDbXrecord
280
     1
102
RTVSPropertyOp0
 70
     1
102
RTVSPropertyOp1
 70
     1
102
RTVSPropertyOp2
 70
     1
102
RTVSPropertyOp3
 70
     1
102
RTVSPropertyOp4
 70
     1
102
RTVSPropertyOp5
 70
     1
102
RTVSPropertyOp6
 70
     1
102
RTVSPropertyOp7
 70
     1
102
RTVSPropertyOp8
 70
     1
102
RTVSPropertyOp9
 70
     1
102
RTVSPropertyOp10
 70
     1
102
RTVSPropertyOp11
 70
     1
102
RTVSPropertyOp12
 70
     1
102
RTVSPropertyOp13
 70
     1
102
RTVSPropertyOp14
 70
     1
102
RTVSPropertyOp15
 70
     1
102
RTVSPropertyOp16
 70
     1
102
RTVSPropertyOp17
 70
     1
102
RTVSPropertyOp18
 70
     1
102
RTVSPropertyOp19
 70
     1
102
RTVSPropertyOp20
 70
     1
102
RTVSPropertyOp21
 70
     1
102
RTVSPropertyOp22
 70
     1
102
RTVSPropertyOp23
 70
     1
102
RTVSPropertyOp24
 70
     1
102
RTVSPropertyOp25
 70
     1
102
RTVSPropertyOp26
 70
     1
102
RTVSPropertyOp27
 70
     1
102
RTVSPropertyOp28
 70
     1
102
RTVSPropertyOp29
 70
     1
102
RTVSPropertyOp30
 70
     1
102
RTVSPropertyOp31
 70
     1
102
RTVSPropertyOp32
 70
     1
102
RTVSPropertyOp33
 70
     1
102
RTVSPropertyOp34
 70
     1
102
RTVSPropertyOp35
 70
     1
102
RTVSPropertyOp36
 70
     1
102
RTVSPropertyOp37
 70
     1
102
RTVSPropertyOp38
 70
     1
102
RTVSPropertyOp39
 70
     1
102
RTVSPropertyOp40
 70
     1
102
RTVSPropertyOp41
 70
     1
102
RTVSPropertyOp42
 70
     1
102
RTVSPropertyOp43
 70
     1
102
RTVSPropertyOp44
 70
     1
102
RTVSPropertyOp45
 70
     1
102
RTVSPropertyOp46
 70
     1
102
RTVSPropertyOp47
 70
     1
102
RTVSPropertyOp48
 70
     1
102
RTVSPropertyOp49
 70
     1
102
RTVSPropertyOp50
 70
     1
102
RTVSPropertyOp51
 70
     0
102
RTVSPropertyOp52
 70
     0
102
RTVSPropertyOp53
 70
     1
102
RTVSPropertyOp54
 70
     1
102
RTVSPropertyOp55
 70
     1
102
RTVSPropertyOp56
 70
     1
102
RTVSPropertyOp57
 70
     1
102
RTVSPost2010Prop28
280
     0
102
RTVSPost2010PropOp28
 70
     1
102
RTVSPost2010Prop29
280
     1
102
RTVSPost2010PropOp29
 70
     1
102
RTVSPost2010Prop30
280
     1
102
RTVSPost2010PropOp30
 70
     1
102
RTVSPost2010Prop31
280
     0
102
RTVSPost2010PropOp31
 70
     1
102
RTVSPost2010Prop32
280
     0
102
RTVSPost2010PropOp32
 70
     1
102
RTVSPost2010Prop33
280
     0
102
RTVSPost2010PropOp33
 70
     1
102
RTVSPost2010Prop34
280
     0
102
RTVSPost2010PropOp34
 70
     1
102
RTVSPost2010Prop35
280
     0
102
RTVSPost2010PropOp35
 70
     1
102
RTVSPost2010Prop36
280
     0
102
RTVSPost2010PropOp36
 70
     1
102
RTVSPost2010Prop37
 90
       50
102
RTVSPost2010PropOp37
 70
     1
102
RTVSPost2010Prop38
140
0.0
102
RTVSPost2010PropOp38
 70
     1
102
RTVSPost2010Prop39
140
1.0
102
RTVSPost2010PropOp39
 70
     1
102
RTVSPost2010Prop40
 90
        0
102
RTVSPost2010PropOp40
 70
     1
102
RTVSPost2010Prop41ColorIndex
 90
       18
102
RTVSPost2010Prop41ColorRGB
 90
        0
102
RTVSPost2010PropOp41
 70
     1
102
RTVSPost2010Prop42
 90
       50
102
RTVSPost2010PropOp42
 70
     1
102
RTVSPost2010Prop43
 90
        3
102
RTVSPost2010PropOp43
 70
     1
102
RTVSPost2010Prop44ColorIndex
 90
        5
102
RTVSPost2010Prop44ColorRGB
 90
      255
102
RTVSPost2010PropOp44
 70
     1
102
RTVSPost2010Prop45
280
     0
102
RTVSPost2010PropOp45
 70
     1
102
RTVSPost2010Prop46
 90
       50
102
RTVSPost2010PropOp46
 70
     1
102
RTVSPost2010Prop47
 90
       50
102
RTVSPost2010PropOp47
 70
     1
102
RTVSPost2010Prop48
 90
       50
102
RTVSPost2010PropOp48
 70
     1
102
RTVSPost2010Prop49
280
     0
102
RTVSPost2010PropOp49
 70
     1
102
RTVSPost2010Prop50
 90
       50
102
RTVSPost2010PropOp50
 70
     1
102
RTVSPost2010Prop51ColorIndex
 90
      256
102
RTVSPost2010Prop51ColorRGB
 90
-16777216
102
RTVSPost2010PropOp51
 70
     0
102
RTVSPost2010Prop52
140
1.0
102
RTVSPost2010PropOp52
 70
     0
102
RTVSPost2010Prop53
 90
        2
102
RTVSPost2010PropOp53
 70
     1
102
RTVSPost2010Prop54
  1
strokes_ogs.tif
102
RTVSPost2010PropOp54
 70
     1
102
RTVSPost2010Prop55
280
     0
102
RTVSPost2010PropOp55
 70
     1
102
RTVSPost2010Prop56
140
1.0
102
RTVSPost2010PropOp56
 70
     1
102
RTVSPost2010Prop57
140
1.0
102
RTVSPost2010PropOp57
 70
     1
  0
XRECORD
  5
2CE
102
{ACAD_REACTORS
330
2CD
102
}
330
2CD
100
AcDbXrecord
280
     1
102
RTVSPropertyOp0
 70
     1
102
RTVSPropertyOp1
 70
     1
102
RTVSPropertyOp2
 70
     1
102
RTVSPropertyOp3
 70
     1
102
RTVSPropertyOp4
 70
     1
102
RTVSPropertyOp5
 70
     1
102
RTVSPropertyOp6
 70
     1
102
RTVSPropertyOp7
 70
     1
102
RTVSPropertyOp8
 70
     1
102
RTVSPropertyOp9
 70
     1
102
RTVSPropertyOp10
 70
     1
102
RTVSPropertyOp11
 70
     1
102
RTVSPropertyOp12
 70
     1
102
RTVSPropertyOp13
 70
     1
102
RTVSPropertyOp14
 70
     1
102
RTVSPropertyOp15
 70
     1
102
RTVSPropertyOp16
 70
     1
102
RTVSPropertyOp17
 70
     1
102
RTVSPropertyOp18
 70
     1
102
RTVSPropertyOp19
 70
     1
102
RTVSPropertyOp20
 70
     1
102
RTVSPropertyOp21
 70
     1
102
RTVSPropertyOp22
 70
     1
102
RTVSPropertyOp23
 70
     1
102
RTVSPropertyOp24
 70
     1
102
RTVSPropertyOp25
 70
     1
102
RTVSPropertyOp26
 70
     1
102
RTVSPropertyOp27
 70
     1
102
RTVSPropertyOp28
 70
     1
102
RTVSPropertyOp29
 70
     1
102
RTVSPropertyOp30
 70
     1
102
RTVSPropertyOp31
 70
     1
102
RTVSPropertyOp32
 70
     1
102
RTVSPropertyOp33
 70
     1
102
RTVSPropertyOp34
 70
     1
102
RTVSPropertyOp35
 70
     1
102
RTVSPropertyOp36
 70
     1
102
RTVSPropertyOp37
 70
     1
102
RTVSPropertyOp38
 70
     1
102
RTVSPropertyOp39
 70
     1
102
RTVSPropertyOp40
 70
     1
102
RTVSPropertyOp41
 70
     1
102
RTVSPropertyOp42
 70
     1
102
RTVSPropertyOp43
 70
     1
102
RTVSPropertyOp44
 70
     1
102
RTVSPropertyOp45
 70
     1
102
RTVSPropertyOp46
 70
     1
102
RTVSPropertyOp47
 70
     1
102
RTVSPropertyOp48
 70
     1
102
RTVSPropertyOp49
 70
     1
102
RTVSPropertyOp50
 70
     1
102
RTVSPropertyOp51
 70
     0
102
RTVSPropertyOp52
 70
     0
102
RTVSPropertyOp53
 70
     1
102
RTVSPropertyOp54
 70
     1
102
RTVSPropertyOp55
 70
     1
102
RTVSPropertyOp56
 70
     1
102
RTVSPropertyOp57
 70
     1
102
RTVSPost2010Prop28
280
     0
102
RTVSPost2010PropOp28
 70
     1
102
RTVSPost2010Prop29
280
     1
102
RTVSPost2010PropOp29
 70
     1
102
RTVSPost2010Prop30
280
     1
102
RTVSPost2010PropOp30
 70
     1
102
RTVSPost2010Prop31
280
     0
102
RTVSPost2010PropOp31
 70
     1
102
RTVSPost2010Prop32
280
     0
102
RTVSPost2010PropOp32
 70
     1
102
RTVSPost2010Prop33
280
     0
102
RTVSPost2010PropOp33
 70
     1
102
RTVSPost2010Prop34
280
     0
102
RTVSPost2010PropOp34
 70
     1
102
RTVSPost2010Prop35
280
     0
102
RTVSPost2010PropOp35
 70
     1
102
RTVSPost2010Prop36
280
     0
102
RTVSPost2010PropOp36
 70
     1
102
RTVSPost2010Prop37
 90
       50
102
RTVSPost2010PropOp37
 70
     1
102
RTVSPost2010Prop38
140
0.0
102
RTVSPost2010PropOp38
 70
     1
102
RTVSPost2010Prop39
140
1.0
102
RTVSPost2010PropOp39
 70
     1
102
RTVSPost2010Prop40
 90
        0
102
RTVSPost2010PropOp40
 70
     1
102
RTVSPost2010Prop41ColorIndex
 90
       18
102
RTVSPost2010Prop41ColorRGB
 90
        0
102
RTVSPost2010PropOp41
 70
     1
102
RTVSPost2010Prop42
 90
       50
102
RTVSPost2010PropOp42
 70
     1
102
RTVSPost2010Prop43
 90
        3
102
RTVSPost2010PropOp43
 70
     1
102
RTVSPost2010Prop44ColorIndex
 90
        5
102
RTVSPost2010Prop44ColorRGB
 90
      255
102
RTVSPost2010PropOp44
 70
     1
102
RTVSPost2010Prop45
280
     0
102
RTVSPost2010PropOp45
 70
     1
102
RTVSPost2010Prop46
 90
       50
102
RTVSPost2010PropOp46
 70
     1
102
RTVSPost2010Prop47
 90
       50
102
RTVSPost2010PropOp47
 70
     1
102
RTVSPost2010Prop48
 90
       50
102
RTVSPost2010PropOp48
 70
     1
102
RTVSPost2010Prop49
280
     0
102
RTVSPost2010PropOp49
 70
     1
102
RTVSPost2010Prop50
 90
       50
102
RTVSPost2010PropOp50
 70
     1
102
RTVSPost2010Prop51ColorIndex
 90
      256
102
RTVSPost2010Prop51ColorRGB
 90
-16777216
102
RTVSPost2010PropOp51
 70
     0
102
RTVSPost2010Prop52
140
1.0
102
RTVSPost2010PropOp52
 70
     0
102
RTVSPost2010Prop53
 90
        2
102
RTVSPost2010PropOp53
 70
     1
102
RTVSPost2010Prop54
  1
strokes_ogs.tif
102
RTVSPost2010PropOp54
 70
     1
102
RTVSPost2010Prop55
280
     0
102
RTVSPost2010PropOp55
 70
     1
102
RTVSPost2010Prop56
140
1.0
102
RTVSPost2010PropOp56
 70
     1
102
RTVSPost2010Prop57
140
1.0
102
RTVSPost2010PropOp57
 70
     1
  0
XRECORD
  5
2D0
102
{ACAD_REACTORS
330
2CF
102
}
330
2CF
100
AcDbXrecord
280
     1
102
RTVSPropertyOp0
 70
     1
102
RTVSPropertyOp1
 70
     1
102
RTVSPropertyOp2
 70
     1
102
RTVSPropertyOp3
 70
     1
102
RTVSPropertyOp4
 70
     1
102
RTVSPropertyOp5
 70
     1
102
RTVSPropertyOp6
 70
     1
102
RTVSPropertyOp7
 70
     1
102
RTVSPropertyOp8
 70
     1
102
RTVSPropertyOp9
 70
     1
102
RTVSPropertyOp10
 70
     1
102
RTVSPropertyOp11
 70
     1
102
RTVSPropertyOp12
 70
     1
102
RTVSPropertyOp13
 70
     1
102
RTVSPropertyOp14
 70
     1
102
RTVSPropertyOp15
 70
     1
102
RTVSPropertyOp16
 70
     1
102
RTVSPropertyOp17
 70
     1
102
RTVSPropertyOp18
 70
     1
102
RTVSPropertyOp19
 70
     1
102
RTVSPropertyOp20
 70
     1
102
RTVSPropertyOp21
 70
     1
102
RTVSPropertyOp22
 70
     1
102
RTVSPropertyOp23
 70
     1
102
RTVSPropertyOp24
 70
     1
102
RTVSPropertyOp25
 70
     1
102
RTVSPropertyOp26
 70
     1
102
RTVSPropertyOp27
 70
     1
102
RTVSPropertyOp28
 70
     1
102
RTVSPropertyOp29
 70
     1
102
RTVSPropertyOp30
 70
     1
102
RTVSPropertyOp31
 70
     1
102
RTVSPropertyOp32
 70
     1
102
RTVSPropertyOp33
 70
     1
102
RTVSPropertyOp34
 70
     1
102
RTVSPropertyOp35
 70
     1
102
RTVSPropertyOp36
 70
     1
102
RTVSPropertyOp37
 70
     1
102
RTVSPropertyOp38
 70
     1
102
RTVSPropertyOp39
 70
     1
102
RTVSPropertyOp40
 70
     1
102
RTVSPropertyOp41
 70
     1
102
RTVSPropertyOp42
 70
     1
102
RTVSPropertyOp43
 70
     1
102
RTVSPropertyOp44
 70
     1
102
RTVSPropertyOp45
 70
     1
102
RTVSPropertyOp46
 70
     1
102
RTVSPropertyOp47
 70
     1
102
RTVSPropertyOp48
 70
     1
102
RTVSPropertyOp49
 70
     1
102
RTVSPropertyOp50
 70
     1
102
RTVSPropertyOp51
 70
     0
102
RTVSPropertyOp52
 70
     0
102
RTVSPropertyOp53
 70
     1
102
RTVSPropertyOp54
 70
     1
102
RTVSPropertyOp55
 70
     1
102
RTVSPropertyOp56
 70
     1
102
RTVSPropertyOp57
 70
     1
102
RTVSPost2010Prop28
280
     0
102
RTVSPost2010PropOp28
 70
     1
102
RTVSPost2010Prop29
280
     1
102
RTVSPost2010PropOp29
 70
     1
102
RTVSPost2010Prop30
280
     1
102
RTVSPost2010PropOp30
 70
     1
102
RTVSPost2010Prop31
280
     0
102
RTVSPost2010PropOp31
 70
     1
102
RTVSPost2010Prop32
280
     0
102
RTVSPost2010PropOp32
 70
     1
102
RTVSPost2010Prop33
280
     0
102
RTVSPost2010PropOp33
 70
     1
102
RTVSPost2010Prop34
280
     0
102
RTVSPost2010PropOp34
 70
     1
102
RTVSPost2010Prop35
280
     0
102
RTVSPost2010PropOp35
 70
     1
102
RTVSPost2010Prop36
280
     0
102
RTVSPost2010PropOp36
 70
     1
102
RTVSPost2010Prop37
 90
       50
102
RTVSPost2010PropOp37
 70
     1
102
RTVSPost2010Prop38
140
0.0
102
RTVSPost2010PropOp38
 70
     1
102
RTVSPost2010Prop39
140
1.0
102
RTVSPost2010PropOp39
 70
     1
102
RTVSPost2010Prop40
 90
        0
102
RTVSPost2010PropOp40
 70
     1
102
RTVSPost2010Prop41ColorIndex
 90
       18
102
RTVSPost2010Prop41ColorRGB
 90
        0
102
RTVSPost2010PropOp41
 70
     1
102
RTVSPost2010Prop42
 90
       50
102
RTVSPost2010PropOp42
 70
     1
102
RTVSPost2010Prop43
 90
        3
102
RTVSPost2010PropOp43
 70
     1
102
RTVSPost2010Prop44ColorIndex
 90
        5
102
RTVSPost2010Prop44ColorRGB
 90
      255
102
RTVSPost2010PropOp44
 70
     1
102
RTVSPost2010Prop45
280
     0
102
RTVSPost2010PropOp45
 70
     1
102
RTVSPost2010Prop46
 90
       50
102
RTVSPost2010PropOp46
 70
     1
102
RTVSPost2010Prop47
 90
       50
102
RTVSPost2010PropOp47
 70
     1
102
RTVSPost2010Prop48
 90
       50
102
RTVSPost2010PropOp48
 70
     1
102
RTVSPost2010Prop49
280
     0
102
RTVSPost2010PropOp49
 70
     1
102
RTVSPost2010Prop50
 90
       50
102
RTVSPost2010PropOp50
 70
     1
102
RTVSPost2010Prop51ColorIndex
 90
      256
102
RTVSPost2010Prop51ColorRGB
 90
-16777216
102
RTVSPost2010PropOp51
 70
     0
102
RTVSPost2010Prop52
140
1.0
102
RTVSPost2010PropOp52
 70
     0
102
RTVSPost2010Prop53
 90
        2
102
RTVSPost2010PropOp53
 70
     1
102
RTVSPost2010Prop54
  1
strokes_ogs.tif
102
RTVSPost2010PropOp54
 70
     1
102
RTVSPost2010Prop55
280
     0
102
RTVSPost2010PropOp55
 70
     1
102
RTVSPost2010Prop56
140
1.0
102
RTVSPost2010PropOp56
 70
     1
102
RTVSPost2010Prop57
140
1.0
102
RTVSPost2010PropOp57
 70
     1
  0
XRECORD
  5
2D6
102
{ACAD_REACTORS
330
2D5
102
}
330
2D5
100
AcDbXrecord
280
     1
102
RTVSPropertyOp0
 70
     1
102
RTVSPropertyOp1
 70
     1
102
RTVSPropertyOp2
 70
     1
102
RTVSPropertyOp3
 70
     1
102
RTVSPropertyOp4
 70
     1
102
RTVSPropertyOp5
 70
     1
102
RTVSPropertyOp6
 70
     1
102
RTVSPropertyOp7
 70
     1
102
RTVSPropertyOp8
 70
     1
102
RTVSPropertyOp9
 70
     1
102
RTVSPropertyOp10
 70
     1
102
RTVSPropertyOp11
 70
     1
102
RTVSPropertyOp12
 70
     1
102
RTVSPropertyOp13
 70
     1
102
RTVSPropertyOp14
 70
     1
102
RTVSPropertyOp15
 70
     1
102
RTVSPropertyOp16
 70
     1
102
RTVSPropertyOp17
 70
     1
102
RTVSPropertyOp18
 70
     1
102
RTVSPropertyOp19
 70
     1
102
RTVSPropertyOp20
 70
     1
102
RTVSPropertyOp21
 70
     1
102
RTVSPropertyOp22
 70
     1
102
RTVSPropertyOp23
 70
     1
102
RTVSPropertyOp24
 70
     1
102
RTVSPropertyOp25
 70
     1
102
RTVSPropertyOp26
 70
     1
102
RTVSPropertyOp27
 70
     1
102
RTVSPropertyOp28
 70
     1
102
RTVSPropertyOp29
 70
     1
102
RTVSPropertyOp30
 70
     1
102
RTVSPropertyOp31
 70
     1
102
RTVSPropertyOp32
 70
     1
102
RTVSPropertyOp33
 70
     1
102
RTVSPropertyOp34
 70
     1
102
RTVSPropertyOp35
 70
     1
102
RTVSPropertyOp36
 70
     1
102
RTVSPropertyOp37
 70
     1
102
RTVSPropertyOp38
 70
     1
102
RTVSPropertyOp39
 70
     1
102
RTVSPropertyOp40
 70
     1
102
RTVSPropertyOp41
 70
     1
102
RTVSPropertyOp42
 70
     1
102
RTVSPropertyOp43
 70
     1
102
RTVSPropertyOp44
 70
     1
102
RTVSPropertyOp45
 70
     1
102
RTVSPropertyOp46
 70
     1
102
RTVSPropertyOp47
 70
     1
102
RTVSPropertyOp48
 70
     1
102
RTVSPropertyOp49
 70
     1
102
RTVSPropertyOp50
 70
     1
102
RTVSPropertyOp51
 70
     0
102
RTVSPropertyOp52
 70
     0
102
RTVSPropertyOp53
 70
     1
102
RTVSPropertyOp54
 70
     1
102
RTVSPropertyOp55
 70
     1
102
RTVSPropertyOp56
 70
     1
102
RTVSPropertyOp57
 70
     1
102
RTVSPost2010Prop28
280
     0
102
RTVSPost2010PropOp28
 70
     1
102
RTVSPost2010Prop29
280
     1
102
RTVSPost2010PropOp29
 70
     1
102
RTVSPost2010Prop30
280
     1
102
RTVSPost2010PropOp30
 70
     1
102
RTVSPost2010Prop31
280
     0
102
RTVSPost2010PropOp31
 70
     1
102
RTVSPost2010Prop32
280
     0
102
RTVSPost2010PropOp32
 70
     1
102
RTVSPost2010Prop33
280
     0
102
RTVSPost2010PropOp33
 70
     1
102
RTVSPost2010Prop34
280
     0
102
RTVSPost2010PropOp34
 70
     1
102
RTVSPost2010Prop35
280
     0
102
RTVSPost2010PropOp35
 70
     1
102
RTVSPost2010Prop36
280
     0
102
RTVSPost2010PropOp36
 70
     1
102
RTVSPost2010Prop37
 90
       50
102
RTVSPost2010PropOp37
 70
     1
102
RTVSPost2010Prop38
140
0.0
102
RTVSPost2010PropOp38
 70
     1
102
RTVSPost2010Prop39
140
1.0
102
RTVSPost2010PropOp39
 70
     1
102
RTVSPost2010Prop40
 90
        0
102
RTVSPost2010PropOp40
 70
     1
102
RTVSPost2010Prop41ColorIndex
 90
       18
102
RTVSPost2010Prop41ColorRGB
 90
        0
102
RTVSPost2010PropOp41
 70
     1
102
RTVSPost2010Prop42
 90
       50
102
RTVSPost2010PropOp42
 70
     1
102
RTVSPost2010Prop43
 90
        3
102
RTVSPost2010PropOp43
 70
     1
102
RTVSPost2010Prop44ColorIndex
 90
        5
102
RTVSPost2010Prop44ColorRGB
 90
      255
102
RTVSPost2010PropOp44
 70
     1
102
RTVSPost2010Prop45
280
     0
102
RTVSPost2010PropOp45
 70
     1
102
RTVSPost2010Prop46
 90
       50
102
RTVSPost2010PropOp46
 70
     1
102
RTVSPost2010Prop47
 90
       50
102
RTVSPost2010PropOp47
 70
     1
102
RTVSPost2010Prop48
 90
       50
102
RTVSPost2010PropOp48
 70
     1
102
RTVSPost2010Prop49
280
     0
102
RTVSPost2010PropOp49
 70
     1
102
RTVSPost2010Prop50
 90
       50
102
RTVSPost2010PropOp50
 70
     1
102
RTVSPost2010Prop51ColorIndex
 90
      256
102
RTVSPost2010Prop51ColorRGB
 90
-16777216
102
RTVSPost2010PropOp51
 70
     0
102
RTVSPost2010Prop52
140
1.0
102
RTVSPost2010PropOp52
 70
     0
102
RTVSPost2010Prop53
 90
        2
102
RTVSPost2010PropOp53
 70
     1
102
RTVSPost2010Prop54
  1
strokes_ogs.tif
102
RTVSPost2010PropOp54
 70
     1
102
RTVSPost2010Prop55
280
     0
102
RTVSPost2010PropOp55
 70
     1
102
RTVSPost2010Prop56
140
1.0
102
RTVSPost2010PropOp56
 70
     1
102
RTVSPost2010Prop57
140
1.0
102
RTVSPost2010PropOp57
 70
     1
  0
XRECORD
  5
2EA
102
{ACAD_REACTORS
330
2E9
102
}
330
2E9
100
AcDbXrecord
280
     1
102
RTVSPropertyOp0
 70
     0
102
RTVSPropertyOp1
 70
     0
102
RTVSPropertyOp2
 70
     0
102
RTVSPropertyOp3
 70
     0
102
RTVSPropertyOp4
 70
     0
102
RTVSPropertyOp5
 70
     0
102
RTVSPropertyOp6
 70
     0
102
RTVSPropertyOp7
 70
     0
102
RTVSPropertyOp8
 70
     0
102
RTVSPropertyOp9
 70
     0
102
RTVSPropertyOp10
 70
     0
102
RTVSPropertyOp11
 70
     0
102
RTVSPropertyOp12
 70
     0
102
RTVSPropertyOp13
 70
     0
102
RTVSPropertyOp14
 70
     2
102
RTVSPropertyOp15
 70
     0
102
RTVSPropertyOp16
 70
     0
102
RTVSPropertyOp17
 70
     0
102
RTVSPropertyOp18
 70
     0
102
RTVSPropertyOp19
 70
     0
102
RTVSPropertyOp20
 70
     0
102
RTVSPropertyOp21
 70
     0
102
RTVSPropertyOp22
 70
     0
102
RTVSPropertyOp23
 70
     0
102
RTVSPropertyOp24
 70
     0
102
RTVSPropertyOp25
 70
     0
102
RTVSPropertyOp26
 70
     0
102
RTVSPropertyOp27
 70
     0
102
RTVSPropertyOp28
 70
     0
102
RTVSPropertyOp29
 70
     0
102
RTVSPropertyOp30
 70
     0
102
RTVSPropertyOp31
 70
     0
102
RTVSPropertyOp32
 70
     0
102
RTVSPropertyOp33
 70
     0
102
RTVSPropertyOp34
 70
     0
102
RTVSPropertyOp35
 70
     0
102
RTVSPropertyOp36
 70
     0
102
RTVSPropertyOp37
 70
     0
102
RTVSPropertyOp38
 70
     0
102
RTVSPropertyOp39
 70
     0
102
RTVSPropertyOp40
 70
     0
102
RTVSPropertyOp41
 70
     0
102
RTVSPropertyOp42
 70
     0
102
RTVSPropertyOp43
 70
     0
102
RTVSPropertyOp44
 70
     0
102
RTVSPropertyOp45
 70
     0
102
RTVSPropertyOp46
 70
     0
102
RTVSPropertyOp47
 70
     0
102
RTVSPropertyOp48
 70
     0
102
RTVSPropertyOp49
 70
     0
102
RTVSPropertyOp50
 70
     0
102
RTVSPropertyOp51
 70
     0
102
RTVSPropertyOp52
 70
     0
102
RTVSPropertyOp53
 70
     0
102
RTVSPropertyOp54
 70
     0
102
RTVSPropertyOp55
 70
     0
102
RTVSPropertyOp56
 70
     0
102
RTVSPropertyOp57
 70
     0
102
RTVSPost2010Prop28
280
     0
102
RTVSPost2010PropOp28
 70
     0
102
RTVSPost2010Prop29
280
     1
102
RTVSPost2010PropOp29
 70
     0
102
RTVSPost2010Prop30
280
     1
102
RTVSPost2010PropOp30
 70
     0
102
RTVSPost2010Prop31
280
     0
102
RTVSPost2010PropOp31
 70
     0
102
RTVSPost2010Prop32
280
     0
102
RTVSPost2010PropOp32
 70
     0
102
RTVSPost2010Prop33
280
     0
102
RTVSPost2010PropOp33
 70
     0
102
RTVSPost2010Prop34
280
     0
102
RTVSPost2010PropOp34
 70
     0
102
RTVSPost2010Prop35
280
     0
102
RTVSPost2010PropOp35
 70
     0
102
RTVSPost2010Prop36
280
     0
102
RTVSPost2010PropOp36
 70
     0
102
RTVSPost2010Prop37
 90
       50
102
RTVSPost2010PropOp37
 70
     0
102
RTVSPost2010Prop38
140
0.0
102
RTVSPost2010PropOp38
 70
     0
102
RTVSPost2010Prop39
140
1.0
102
RTVSPost2010PropOp39
 70
     0
102
RTVSPost2010Prop40
 90
        0
102
RTVSPost2010PropOp40
 70
     0
102
RTVSPost2010Prop41ColorIndex
 90
       18
102
RTVSPost2010Prop41ColorRGB
 90
        0
102
RTVSPost2010PropOp41
 70
     0
102
RTVSPost2010Prop42
 90
       50
102
RTVSPost2010PropOp42
 70
     0
102
RTVSPost2010Prop43
 90
        3
102
RTVSPost2010PropOp43
 70
     0
102
RTVSPost2010Prop44ColorIndex
 90
        5
102
RTVSPost2010Prop44ColorRGB
 90
      255
102
RTVSPost2010PropOp44
 70
     0
102
RTVSPost2010Prop45
280
     0
102
RTVSPost2010PropOp45
 70
     0
102
RTVSPost2010Prop46
 90
       50
102
RTVSPost2010PropOp46
 70
     0
102
RTVSPost2010Prop47
 90
       50
102
RTVSPost2010PropOp47
 70
     0
102
RTVSPost2010Prop48
 90
       50
102
RTVSPost2010PropOp48
 70
     0
102
RTVSPost2010Prop49
280
     0
102
RTVSPost2010PropOp49
 70
     0
102
RTVSPost2010Prop50
 90
       50
102
RTVSPost2010PropOp50
 70
     0
102
RTVSPost2010Prop51ColorIndex
 90
      256
102
RTVSPost2010Prop51ColorRGB
 90
-16777216
102
RTVSPost2010PropOp51
 70
     0
102
RTVSPost2010Prop52
140
1.0
102
RTVSPost2010PropOp52
 70
     0
102
RTVSPost2010Prop53
 90
        2
102
RTVSPost2010PropOp53
 70
     0
102
RTVSPost2010Prop54
  1
strokes_ogs.tif
102
RTVSPost2010PropOp54
 70
     0
102
RTVSPost2010Prop55
280
     0
102
RTVSPost2010PropOp55
 70
     0
102
RTVSPost2010Prop56
140
1.0
102
RTVSPost2010PropOp56
 70
     0
102
RTVSPost2010Prop57
140
1.0
102
RTVSPost2010PropOp57
 70
     0
  0
XRECORD
  5
2E4
102
{ACAD_REACTORS
330
2E3
102
}
330
2E3
100
AcDbXrecord
280
     1
102
RTVSPropertyOp0
 70
     1
102
RTVSPropertyOp1
 70
     1
102
RTVSPropertyOp2
 70
     1
102
RTVSPropertyOp3
 70
     1
102
RTVSPropertyOp4
 70
     1
102
RTVSPropertyOp5
 70
     1
102
RTVSPropertyOp6
 70
     1
102
RTVSPropertyOp7
 70
     1
102
RTVSPropertyOp8
 70
     1
102
RTVSPropertyOp9
 70
     1
102
RTVSPropertyOp10
 70
     1
102
RTVSPropertyOp11
 70
     1
102
RTVSPropertyOp12
 70
     1
102
RTVSPropertyOp13
 70
     1
102
RTVSPropertyOp14
 70
     1
102
RTVSPropertyOp15
 70
     1
102
RTVSPropertyOp16
 70
     1
102
RTVSPropertyOp17
 70
     1
102
RTVSPropertyOp18
 70
     1
102
RTVSPropertyOp19
 70
     1
102
RTVSPropertyOp20
 70
     1
102
RTVSPropertyOp21
 70
     1
102
RTVSPropertyOp22
 70
     1
102
RTVSPropertyOp23
 70
     1
102
RTVSPropertyOp24
 70
     1
102
RTVSPropertyOp25
 70
     1
102
RTVSPropertyOp26
 70
     1
102
RTVSPropertyOp27
 70
     1
102
RTVSPropertyOp28
 70
     1
102
RTVSPropertyOp29
 70
     1
102
RTVSPropertyOp30
 70
     1
102
RTVSPropertyOp31
 70
     1
102
RTVSPropertyOp32
 70
     1
102
RTVSPropertyOp33
 70
     1
102
RTVSPropertyOp34
 70
     1
102
RTVSPropertyOp35
 70
     1
102
RTVSPropertyOp36
 70
     1
102
RTVSPropertyOp37
 70
     1
102
RTVSPropertyOp38
 70
     1
102
RTVSPropertyOp39
 70
     1
102
RTVSPropertyOp40
 70
     1
102
RTVSPropertyOp41
 70
     1
102
RTVSPropertyOp42
 70
     1
102
RTVSPropertyOp43
 70
     1
102
RTVSPropertyOp44
 70
     1
102
RTVSPropertyOp45
 70
     1
102
RTVSPropertyOp46
 70
     1
102
RTVSPropertyOp47
 70
     1
102
RTVSPropertyOp48
 70
     1
102
RTVSPropertyOp49
 70
     1
102
RTVSPropertyOp50
 70
     1
102
RTVSPropertyOp51
 70
     0
102
RTVSPropertyOp52
 70
     0
102
RTVSPropertyOp53
 70
     1
102
RTVSPropertyOp54
 70
     1
102
RTVSPropertyOp55
 70
     1
102
RTVSPropertyOp56
 70
     1
102
RTVSPropertyOp57
 70
     1
102
RTVSPost2010Prop28
280
     0
102
RTVSPost2010PropOp28
 70
     1
102
RTVSPost2010Prop29
280
     1
102
RTVSPost2010PropOp29
 70
     1
102
RTVSPost2010Prop30
280
     1
102
RTVSPost2010PropOp30
 70
     1
102
RTVSPost2010Prop31
280
     0
102
RTVSPost2010PropOp31
 70
     1
102
RTVSPost2010Prop32
280
     0
102
RTVSPost2010PropOp32
 70
     1
102
RTVSPost2010Prop33
280
     0
102
RTVSPost2010PropOp33
 70
     1
102
RTVSPost2010Prop34
280
     0
102
RTVSPost2010PropOp34
 70
     1
102
RTVSPost2010Prop35
280
     0
102
RTVSPost2010PropOp35
 70
     1
102
RTVSPost2010Prop36
280
     0
102
RTVSPost2010PropOp36
 70
     1
102
RTVSPost2010Prop37
 90
       50
102
RTVSPost2010PropOp37
 70
     1
102
RTVSPost2010Prop38
140
0.0
102
RTVSPost2010PropOp38
 70
     1
102
RTVSPost2010Prop39
140
1.0
102
RTVSPost2010PropOp39
 70
     1
102
RTVSPost2010Prop40
 90
        0
102
RTVSPost2010PropOp40
 70
     1
102
RTVSPost2010Prop41ColorIndex
 90
       18
102
RTVSPost2010Prop41ColorRGB
 90
        0
102
RTVSPost2010PropOp41
 70
     1
102
RTVSPost2010Prop42
 90
       50
102
RTVSPost2010PropOp42
 70
     1
102
RTVSPost2010Prop43
 90
        3
102
RTVSPost2010PropOp43
 70
     1
102
RTVSPost2010Prop44ColorIndex
 90
        5
102
RTVSPost2010Prop44ColorRGB
 90
      255
102
RTVSPost2010PropOp44
 70
     1
102
RTVSPost2010Prop45
280
     0
102
RTVSPost2010PropOp45
 70
     1
102
RTVSPost2010Prop46
 90
       50
102
RTVSPost2010PropOp46
 70
     1
102
RTVSPost2010Prop47
 90
       50
102
RTVSPost2010PropOp47
 70
     1
102
RTVSPost2010Prop48
 90
       50
102
RTVSPost2010PropOp48
 70
     1
102
RTVSPost2010Prop49
280
     0
102
RTVSPost2010PropOp49
 70
     1
102
RTVSPost2010Prop50
 90
       50
102
RTVSPost2010PropOp50
 70
     1
102
RTVSPost2010Prop51ColorIndex
 90
      256
102
RTVSPost2010Prop51ColorRGB
 90
-16777216
102
RTVSPost2010PropOp51
 70
     0
102
RTVSPost2010Prop52
140
1.0
102
RTVSPost2010PropOp52
 70
     0
102
RTVSPost2010Prop53
 90
        2
102
RTVSPost2010PropOp53
 70
     1
102
RTVSPost2010Prop54
  1
strokes_ogs.tif
102
RTVSPost2010PropOp54
 70
     1
102
RTVSPost2010Prop55
280
     0
102
RTVSPost2010PropOp55
 70
     1
102
RTVSPost2010Prop56
140
1.0
102
RTVSPost2010PropOp56
 70
     1
102
RTVSPost2010Prop57
140
1.0
102
RTVSPost2010PropOp57
 70
     1
  0
XRECORD
  5
2EC
102
{ACAD_REACTORS
330
2EB
102
}
330
2EB
100
AcDbXrecord
280
     1
102
RTVSPropertyOp0
 70
     0
102
RTVSPropertyOp1
 70
     0
102
RTVSPropertyOp2
 70
     0
102
RTVSPropertyOp3
 70
     0
102
RTVSPropertyOp4
 70
     0
102
RTVSPropertyOp5
 70
     0
102
RTVSPropertyOp6
 70
     0
102
RTVSPropertyOp7
 70
     0
102
RTVSPropertyOp8
 70
     0
102
RTVSPropertyOp9
 70
     0
102
RTVSPropertyOp10
 70
     0
102
RTVSPropertyOp11
 70
     0
102
RTVSPropertyOp12
 70
     0
102
RTVSPropertyOp13
 70
     0
102
RTVSPropertyOp14
 70
     2
102
RTVSPropertyOp15
 70
     0
102
RTVSPropertyOp16
 70
     0
102
RTVSPropertyOp17
 70
     0
102
RTVSPropertyOp18
 70
     0
102
RTVSPropertyOp19
 70
     0
102
RTVSPropertyOp20
 70
     0
102
RTVSPropertyOp21
 70
     0
102
RTVSPropertyOp22
 70
     0
102
RTVSPropertyOp23
 70
     0
102
RTVSPropertyOp24
 70
     0
102
RTVSPropertyOp25
 70
     0
102
RTVSPropertyOp26
 70
     0
102
RTVSPropertyOp27
 70
     0
102
RTVSPropertyOp28
 70
     0
102
RTVSPropertyOp29
 70
     0
102
RTVSPropertyOp30
 70
     0
102
RTVSPropertyOp31
 70
     0
102
RTVSPropertyOp32
 70
     0
102
RTVSPropertyOp33
 70
     0
102
RTVSPropertyOp34
 70
     0
102
RTVSPropertyOp35
 70
     0
102
RTVSPropertyOp36
 70
     0
102
RTVSPropertyOp37
 70
     0
102
RTVSPropertyOp38
 70
     0
102
RTVSPropertyOp39
 70
     0
102
RTVSPropertyOp40
 70
     0
102
RTVSPropertyOp41
 70
     0
102
RTVSPropertyOp42
 70
     0
102
RTVSPropertyOp43
 70
     0
102
RTVSPropertyOp44
 70
     0
102
RTVSPropertyOp45
 70
     0
102
RTVSPropertyOp46
 70
     0
102
RTVSPropertyOp47
 70
     0
102
RTVSPropertyOp48
 70
     0
102
RTVSPropertyOp49
 70
     0
102
RTVSPropertyOp50
 70
     0
102
RTVSPropertyOp51
 70
     0
102
RTVSPropertyOp52
 70
     0
102
RTVSPropertyOp53
 70
     0
102
RTVSPropertyOp54
 70
     0
102
RTVSPropertyOp55
 70
     0
102
RTVSPropertyOp56
 70
     0
102
RTVSPropertyOp57
 70
     0
102
RTVSPost2010Prop28
280
     0
102
RTVSPost2010PropOp28
 70
     0
102
RTVSPost2010Prop29
280
     1
102
RTVSPost2010PropOp29
 70
     0
102
RTVSPost2010Prop30
280
     1
102
RTVSPost2010PropOp30
 70
     0
102
RTVSPost2010Prop31
280
     0
102
RTVSPost2010PropOp31
 70
     0
102
RTVSPost2010Prop32
280
     0
102
RTVSPost2010PropOp32
 70
     0
102
RTVSPost2010Prop33
280
     0
102
RTVSPost2010PropOp33
 70
     0
102
RTVSPost2010Prop34
280
     0
102
RTVSPost2010PropOp34
 70
     0
102
RTVSPost2010Prop35
280
     0
102
RTVSPost2010PropOp35
 70
     0
102
RTVSPost2010Prop36
280
     0
102
RTVSPost2010PropOp36
 70
     0
102
RTVSPost2010Prop37
 90
       50
102
RTVSPost2010PropOp37
 70
     0
102
RTVSPost2010Prop38
140
0.0
102
RTVSPost2010PropOp38
 70
     0
102
RTVSPost2010Prop39
140
1.0
102
RTVSPost2010PropOp39
 70
     0
102
RTVSPost2010Prop40
 90
        0
102
RTVSPost2010PropOp40
 70
     0
102
RTVSPost2010Prop41ColorIndex
 90
       18
102
RTVSPost2010Prop41ColorRGB
 90
        0
102
RTVSPost2010PropOp41
 70
     0
102
RTVSPost2010Prop42
 90
       50
102
RTVSPost2010PropOp42
 70
     0
102
RTVSPost2010Prop43
 90
        3
102
RTVSPost2010PropOp43
 70
     0
102
RTVSPost2010Prop44ColorIndex
 90
        5
102
RTVSPost2010Prop44ColorRGB
 90
      255
102
RTVSPost2010PropOp44
 70
     0
102
RTVSPost2010Prop45
280
     0
102
RTVSPost2010PropOp45
 70
     0
102
RTVSPost2010Prop46
 90
       50
102
RTVSPost2010PropOp46
 70
     0
102
RTVSPost2010Prop47
 90
       50
102
RTVSPost2010PropOp47
 70
     0
102
RTVSPost2010Prop48
 90
       50
102
RTVSPost2010PropOp48
 70
     0
102
RTVSPost2010Prop49
280
     0
102
RTVSPost2010PropOp49
 70
     0
102
RTVSPost2010Prop50
 90
       50
102
RTVSPost2010PropOp50
 70
     0
102
RTVSPost2010Prop51ColorIndex
 90
      256
102
RTVSPost2010Prop51ColorRGB
 90
-16777216
102
RTVSPost2010PropOp51
 70
     0
102
RTVSPost2010Prop52
140
1.0
102
RTVSPost2010PropOp52
 70
     0
102
RTVSPost2010Prop53
 90
        2
102
RTVSPost2010PropOp53
 70
     0
102
RTVSPost2010Prop54
  1
strokes_ogs.tif
102
RTVSPost2010PropOp54
 70
     0
102
RTVSPost2010Prop55
280
     0
102
RTVSPost2010PropOp55
 70
     0
102
RTVSPost2010Prop56
140
1.0
102
RTVSPost2010PropOp56
 70
     0
102
RTVSPost2010Prop57
140
1.0
102
RTVSPost2010PropOp57
 70
     0
  0
XRECORD
  5
2DA
102
{ACAD_REACTORS
330
2D9
102
}
330
2D9
100
AcDbXrecord
280
     1
102
RTVSPropertyOp0
 70
     1
102
RTVSPropertyOp1
 70
     1
102
RTVSPropertyOp2
 70
     1
102
RTVSPropertyOp3
 70
     1
102
RTVSPropertyOp4
 70
     1
102
RTVSPropertyOp5
 70
     1
102
RTVSPropertyOp6
 70
     1
102
RTVSPropertyOp7
 70
     1
102
RTVSPropertyOp8
 70
     1
102
RTVSPropertyOp9
 70
     1
102
RTVSPropertyOp10
 70
     1
102
RTVSPropertyOp11
 70
     1
102
RTVSPropertyOp12
 70
     1
102
RTVSPropertyOp13
 70
     1
102
RTVSPropertyOp14
 70
     1
102
RTVSPropertyOp15
 70
     1
102
RTVSPropertyOp16
 70
     1
102
RTVSPropertyOp17
 70
     1
102
RTVSPropertyOp18
 70
     1
102
RTVSPropertyOp19
 70
     1
102
RTVSPropertyOp20
 70
     1
102
RTVSPropertyOp21
 70
     1
102
RTVSPropertyOp22
 70
     1
102
RTVSPropertyOp23
 70
     1
102
RTVSPropertyOp24
 70
     1
102
RTVSPropertyOp25
 70
     1
102
RTVSPropertyOp26
 70
     1
102
RTVSPropertyOp27
 70
     1
102
RTVSPropertyOp28
 70
     1
102
RTVSPropertyOp29
 70
     1
102
RTVSPropertyOp30
 70
     1
102
RTVSPropertyOp31
 70
     1
102
RTVSPropertyOp32
 70
     1
102
RTVSPropertyOp33
 70
     1
102
RTVSPropertyOp34
 70
     1
102
RTVSPropertyOp35
 70
     1
102
RTVSPropertyOp36
 70
     1
102
RTVSPropertyOp37
 70
     1
102
RTVSPropertyOp38
 70
     1
102
RTVSPropertyOp39
 70
     1
102
RTVSPropertyOp40
 70
     1
102
RTVSPropertyOp41
 70
     1
102
RTVSPropertyOp42
 70
     1
102
RTVSPropertyOp43
 70
     1
102
RTVSPropertyOp44
 70
     1
102
RTVSPropertyOp45
 70
     1
102
RTVSPropertyOp46
 70
     1
102
RTVSPropertyOp47
 70
     1
102
RTVSPropertyOp48
 70
     1
102
RTVSPropertyOp49
 70
     1
102
RTVSPropertyOp50
 70
     1
102
RTVSPropertyOp51
 70
     0
102
RTVSPropertyOp52
 70
     0
102
RTVSPropertyOp53
 70
     1
102
RTVSPropertyOp54
 70
     1
102
RTVSPropertyOp55
 70
     1
102
RTVSPropertyOp56
 70
     1
102
RTVSPropertyOp57
 70
     1
102
RTVSPost2010Prop28
280
     0
102
RTVSPost2010PropOp28
 70
     1
102
RTVSPost2010Prop29
280
     1
102
RTVSPost2010PropOp29
 70
     1
102
RTVSPost2010Prop30
280
     1
102
RTVSPost2010PropOp30
 70
     1
102
RTVSPost2010Prop31
280
     0
102
RTVSPost2010PropOp31
 70
     1
102
RTVSPost2010Prop32
280
     0
102
RTVSPost2010PropOp32
 70
     1
102
RTVSPost2010Prop33
280
     0
102
RTVSPost2010PropOp33
 70
     1
102
RTVSPost2010Prop34
280
     0
102
RTVSPost2010PropOp34
 70
     1
102
RTVSPost2010Prop35
280
     0
102
RTVSPost2010PropOp35
 70
     1
102
RTVSPost2010Prop36
280
     0
102
RTVSPost2010PropOp36
 70
     1
102
RTVSPost2010Prop37
 90
       50
102
RTVSPost2010PropOp37
 70
     1
102
RTVSPost2010Prop38
140
0.0
102
RTVSPost2010PropOp38
 70
     1
102
RTVSPost2010Prop39
140
1.0
102
RTVSPost2010PropOp39
 70
     1
102
RTVSPost2010Prop40
 90
        0
102
RTVSPost2010PropOp40
 70
     1
102
RTVSPost2010Prop41ColorIndex
 90
       18
102
RTVSPost2010Prop41ColorRGB
 90
        0
102
RTVSPost2010PropOp41
 70
     1
102
RTVSPost2010Prop42
 90
       50
102
RTVSPost2010PropOp42
 70
     1
102
RTVSPost2010Prop43
 90
        3
102
RTVSPost2010PropOp43
 70
     1
102
RTVSPost2010Prop44ColorIndex
 90
        5
102
RTVSPost2010Prop44ColorRGB
 90
      255
102
RTVSPost2010PropOp44
 70
     1
102
RTVSPost2010Prop45
280
     0
102
RTVSPost2010PropOp45
 70
     1
102
RTVSPost2010Prop46
 90
       50
102
RTVSPost2010PropOp46
 70
     1
102
RTVSPost2010Prop47
 90
       50
102
RTVSPost2010PropOp47
 70
     1
102
RTVSPost2010Prop48
 90
       50
102
RTVSPost2010PropOp48
 70
     1
102
RTVSPost2010Prop49
280
     0
102
RTVSPost2010PropOp49
 70
     1
102
RTVSPost2010Prop50
 90
       50
102
RTVSPost2010PropOp50
 70
     1
102
RTVSPost2010Prop51ColorIndex
 90
      256
102
RTVSPost2010Prop51ColorRGB
 90
-16777216
102
RTVSPost2010PropOp51
 70
     0
102
RTVSPost2010Prop52
140
1.0
102
RTVSPost2010PropOp52
 70
     0
102
RTVSPost2010Prop53
 90
        2
102
RTVSPost2010PropOp53
 70
     1
102
RTVSPost2010Prop54
  1
strokes_ogs.tif
102
RTVSPost2010PropOp54
 70
     1
102
RTVSPost2010Prop55
280
     0
102
RTVSPost2010PropOp55
 70
     1
102
RTVSPost2010Prop56
140
1.0
102
RTVSPost2010PropOp56
 70
     1
102
RTVSPost2010Prop57
140
1.0
102
RTVSPost2010PropOp57
 70
     1
  0
XRECORD
  5
2F8
102
{ACAD_REACTORS
330
2F7
102
}
330
2F7
100
AcDbXrecord
280
     1
102
RTVSPropertyOp0
 70
     1
102
RTVSPropertyOp1
 70
     1
102
RTVSPropertyOp2
 70
     1
102
RTVSPropertyOp3
 70
     1
102
RTVSPropertyOp4
 70
     1
102
RTVSPropertyOp5
 70
     1
102
RTVSPropertyOp6
 70
     1
102
RTVSPropertyOp7
 70
     1
102
RTVSPropertyOp8
 70
     1
102
RTVSPropertyOp9
 70
     1
102
RTVSPropertyOp10
 70
     1
102
RTVSPropertyOp11
 70
     1
102
RTVSPropertyOp12
 70
     1
102
RTVSPropertyOp13
 70
     1
102
RTVSPropertyOp14
 70
     1
102
RTVSPropertyOp15
 70
     1
102
RTVSPropertyOp16
 70
     1
102
RTVSPropertyOp17
 70
     1
102
RTVSPropertyOp18
 70
     1
102
RTVSPropertyOp19
 70
     1
102
RTVSPropertyOp20
 70
     1
102
RTVSPropertyOp21
 70
     1
102
RTVSPropertyOp22
 70
     1
102
RTVSPropertyOp23
 70
     1
102
RTVSPropertyOp24
 70
     1
102
RTVSPropertyOp25
 70
     1
102
RTVSPropertyOp26
 70
     1
102
RTVSPropertyOp27
 70
     1
102
RTVSPropertyOp28
 70
     1
102
RTVSPropertyOp29
 70
     1
102
RTVSPropertyOp30
 70
     1
102
RTVSPropertyOp31
 70
     1
102
RTVSPropertyOp32
 70
     1
102
RTVSPropertyOp33
 70
     1
102
RTVSPropertyOp34
 70
     1
102
RTVSPropertyOp35
 70
     1
102
RTVSPropertyOp36
 70
     1
102
RTVSPropertyOp37
 70
     1
102
RTVSPropertyOp38
 70
     1
102
RTVSPropertyOp39
 70
     1
102
RTVSPropertyOp40
 70
     1
102
RTVSPropertyOp41
 70
     1
102
RTVSPropertyOp42
 70
     1
102
RTVSPropertyOp43
 70
     1
102
RTVSPropertyOp44
 70
     1
102
RTVSPropertyOp45
 70
     1
102
RTVSPropertyOp46
 70
     1
102
RTVSPropertyOp47
 70
     1
102
RTVSPropertyOp48
 70
     1
102
RTVSPropertyOp49
 70
     1
102
RTVSPropertyOp50
 70
     1
102
RTVSPropertyOp51
 70
     0
102
RTVSPropertyOp52
 70
     0
102
RTVSPropertyOp53
 70
     1
102
RTVSPropertyOp54
 70
     1
102
RTVSPropertyOp55
 70
     1
102
RTVSPropertyOp56
 70
     1
102
RTVSPropertyOp57
 70
     1
102
RTVSPost2010Prop28
280
     0
102
RTVSPost2010PropOp28
 70
     1
102
RTVSPost2010Prop29
280
     1
102
RTVSPost2010PropOp29
 70
     1
102
RTVSPost2010Prop30
280
     1
102
RTVSPost2010PropOp30
 70
     1
102
RTVSPost2010Prop31
280
     0
102
RTVSPost2010PropOp31
 70
     1
102
RTVSPost2010Prop32
280
     0
102
RTVSPost2010PropOp32
 70
     1
102
RTVSPost2010Prop33
280
     0
102
RTVSPost2010PropOp33
 70
     1
102
RTVSPost2010Prop34
280
     0
102
RTVSPost2010PropOp34
 70
     1
102
RTVSPost2010Prop35
280
     0
102
RTVSPost2010PropOp35
 70
     1
102
RTVSPost2010Prop36
280
     0
102
RTVSPost2010PropOp36
 70
     1
102
RTVSPost2010Prop37
 90
       50
102
RTVSPost2010PropOp37
 70
     1
102
RTVSPost2010Prop38
140
0.0
102
RTVSPost2010PropOp38
 70
     1
102
RTVSPost2010Prop39
140
1.0
102
RTVSPost2010PropOp39
 70
     1
102
RTVSPost2010Prop40
 90
        0
102
RTVSPost2010PropOp40
 70
     1
102
RTVSPost2010Prop41ColorIndex
 90
       18
102
RTVSPost2010Prop41ColorRGB
 90
        0
102
RTVSPost2010PropOp41
 70
     1
102
RTVSPost2010Prop42
 90
       50
102
RTVSPost2010PropOp42
 70
     1
102
RTVSPost2010Prop43
 90
        3
102
RTVSPost2010PropOp43
 70
     1
102
RTVSPost2010Prop44ColorIndex
 90
        5
102
RTVSPost2010Prop44ColorRGB
 90
      255
102
RTVSPost2010PropOp44
 70
     1
102
RTVSPost2010Prop45
280
     0
102
RTVSPost2010PropOp45
 70
     1
102
RTVSPost2010Prop46
 90
       50
102
RTVSPost2010PropOp46
 70
     1
102
RTVSPost2010Prop47
 90
       50
102
RTVSPost2010PropOp47
 70
     1
102
RTVSPost2010Prop48
 90
       50
102
RTVSPost2010PropOp48
 70
     1
102
RTVSPost2010Prop49
280
     0
102
RTVSPost2010PropOp49
 70
     1
102
RTVSPost2010Prop50
 90
       50
102
RTVSPost2010PropOp50
 70
     1
102
RTVSPost2010Prop51ColorIndex
 90
      256
102
RTVSPost2010Prop51ColorRGB
 90
-16777216
102
RTVSPost2010PropOp51
 70
     0
102
RTVSPost2010Prop52
140
1.0
102
RTVSPost2010PropOp52
 70
     0
102
RTVSPost2010Prop53
 90
        2
102
RTVSPost2010PropOp53
 70
     1
102
RTVSPost2010Prop54
  1
strokes_ogs.tif
102
RTVSPost2010PropOp54
 70
     1
102
RTVSPost2010Prop55
280
     0
102
RTVSPost2010PropOp55
 70
     1
102
RTVSPost2010Prop56
140
1.0
102
RTVSPost2010PropOp56
 70
     1
102
RTVSPost2010Prop57
140
1.0
102
RTVSPost2010PropOp57
 70
     1
  0
XRECORD
  5
2F6
102
{ACAD_REACTORS
330
2F5
102
}
330
2F5
100
AcDbXrecord
280
     1
102
RTVSPropertyOp0
 70
     1
102
RTVSPropertyOp1
 70
     1
102
RTVSPropertyOp2
 70
     1
102
RTVSPropertyOp3
 70
     1
102
RTVSPropertyOp4
 70
     1
102
RTVSPropertyOp5
 70
     1
102
RTVSPropertyOp6
 70
     1
102
RTVSPropertyOp7
 70
     1
102
RTVSPropertyOp8
 70
     1
102
RTVSPropertyOp9
 70
     1
102
RTVSPropertyOp10
 70
     1
102
RTVSPropertyOp11
 70
     1
102
RTVSPropertyOp12
 70
     1
102
RTVSPropertyOp13
 70
     1
102
RTVSPropertyOp14
 70
     1
102
RTVSPropertyOp15
 70
     1
102
RTVSPropertyOp16
 70
     1
102
RTVSPropertyOp17
 70
     1
102
RTVSPropertyOp18
 70
     1
102
RTVSPropertyOp19
 70
     1
102
RTVSPropertyOp20
 70
     1
102
RTVSPropertyOp21
 70
     1
102
RTVSPropertyOp22
 70
     1
102
RTVSPropertyOp23
 70
     1
102
RTVSPropertyOp24
 70
     1
102
RTVSPropertyOp25
 70
     1
102
RTVSPropertyOp26
 70
     1
102
RTVSPropertyOp27
 70
     1
102
RTVSPropertyOp28
 70
     1
102
RTVSPropertyOp29
 70
     1
102
RTVSPropertyOp30
 70
     1
102
RTVSPropertyOp31
 70
     1
102
RTVSPropertyOp32
 70
     1
102
RTVSPropertyOp33
 70
     1
102
RTVSPropertyOp34
 70
     1
102
RTVSPropertyOp35
 70
     1
102
RTVSPropertyOp36
 70
     1
102
RTVSPropertyOp37
 70
     1
102
RTVSPropertyOp38
 70
     1
102
RTVSPropertyOp39
 70
     1
102
RTVSPropertyOp40
 70
     1
102
RTVSPropertyOp41
 70
     1
102
RTVSPropertyOp42
 70
     1
102
RTVSPropertyOp43
 70
     1
102
RTVSPropertyOp44
 70
     1
102
RTVSPropertyOp45
 70
     1
102
RTVSPropertyOp46
 70
     1
102
RTVSPropertyOp47
 70
     1
102
RTVSPropertyOp48
 70
     1
102
RTVSPropertyOp49
 70
     1
102
RTVSPropertyOp50
 70
     1
102
RTVSPropertyOp51
 70
     0
102
RTVSPropertyOp52
 70
     0
102
RTVSPropertyOp53
 70
     1
102
RTVSPropertyOp54
 70
     1
102
RTVSPropertyOp55
 70
     1
102
RTVSPropertyOp56
 70
     1
102
RTVSPropertyOp57
 70
     1
102
RTVSPost2010Prop28
280
     0
102
RTVSPost2010PropOp28
 70
     1
102
RTVSPost2010Prop29
280
     1
102
RTVSPost2010PropOp29
 70
     1
102
RTVSPost2010Prop30
280
     1
102
RTVSPost2010PropOp30
 70
     1
102
RTVSPost2010Prop31
280
     0
102
RTVSPost2010PropOp31
 70
     1
102
RTVSPost2010Prop32
280
     0
102
RTVSPost2010PropOp32
 70
     1
102
RTVSPost2010Prop33
280
     0
102
RTVSPost2010PropOp33
 70
     1
102
RTVSPost2010Prop34
280
     0
102
RTVSPost2010PropOp34
 70
     1
102
RTVSPost2010Prop35
280
     0
102
RTVSPost2010PropOp35
 70
     1
102
RTVSPost2010Prop36
280
     0
102
RTVSPost2010PropOp36
 70
     1
102
RTVSPost2010Prop37
 90
       50
102
RTVSPost2010PropOp37
 70
     1
102
RTVSPost2010Prop38
140
0.0
102
RTVSPost2010PropOp38
 70
     1
102
RTVSPost2010Prop39
140
1.0
102
RTVSPost2010PropOp39
 70
     1
102
RTVSPost2010Prop40
 90
        0
102
RTVSPost2010PropOp40
 70
     1
102
RTVSPost2010Prop41ColorIndex
 90
       18
102
RTVSPost2010Prop41ColorRGB
 90
        0
102
RTVSPost2010PropOp41
 70
     1
102
RTVSPost2010Prop42
 90
       50
102
RTVSPost2010PropOp42
 70
     1
102
RTVSPost2010Prop43
 90
        3
102
RTVSPost2010PropOp43
 70
     1
102
RTVSPost2010Prop44ColorIndex
 90
        5
102
RTVSPost2010Prop44ColorRGB
 90
      255
102
RTVSPost2010PropOp44
 70
     1
102
RTVSPost2010Prop45
280
     0
102
RTVSPost2010PropOp45
 70
     1
102
RTVSPost2010Prop46
 90
       50
102
RTVSPost2010PropOp46
 70
     1
102
RTVSPost2010Prop47
 90
       50
102
RTVSPost2010PropOp47
 70
     1
102
RTVSPost2010Prop48
 90
       50
102
RTVSPost2010PropOp48
 70
     1
102
RTVSPost2010Prop49
280
     0
102
RTVSPost2010PropOp49
 70
     1
102
RTVSPost2010Prop50
 90
       50
102
RTVSPost2010PropOp50
 70
     1
102
RTVSPost2010Prop51ColorIndex
 90
      256
102
RTVSPost2010Prop51ColorRGB
 90
-16777216
102
RTVSPost2010PropOp51
 70
     0
102
RTVSPost2010Prop52
140
1.0
102
RTVSPost2010PropOp52
 70
     0
102
RTVSPost2010Prop53
 90
        2
102
RTVSPost2010PropOp53
 70
     1
102
RTVSPost2010Prop54
  1
strokes_ogs.tif
102
RTVSPost2010PropOp54
 70
     1
102
RTVSPost2010Prop55
280
     0
102
RTVSPost2010PropOp55
 70
     1
102
RTVSPost2010Prop56
140
1.0
102
RTVSPost2010PropOp56
 70
     1
102
RTVSPost2010Prop57
140
1.0
102
RTVSPost2010PropOp57
 70
     1
  0
XRECORD
  5
2F0
102
{ACAD_REACTORS
330
2EF
102
}
330
2EF
100
AcDbXrecord
280
     1
102
RTVSPropertyOp0
 70
     1
102
RTVSPropertyOp1
 70
     1
102
RTVSPropertyOp2
 70
     1
102
RTVSPropertyOp3
 70
     1
102
RTVSPropertyOp4
 70
     1
102
RTVSPropertyOp5
 70
     1
102
RTVSPropertyOp6
 70
     1
102
RTVSPropertyOp7
 70
     1
102
RTVSPropertyOp8
 70
     1
102
RTVSPropertyOp9
 70
     1
102
RTVSPropertyOp10
 70
     1
102
RTVSPropertyOp11
 70
     1
102
RTVSPropertyOp12
 70
     1
102
RTVSPropertyOp13
 70
     1
102
RTVSPropertyOp14
 70
     1
102
RTVSPropertyOp15
 70
     1
102
RTVSPropertyOp16
 70
     1
102
RTVSPropertyOp17
 70
     1
102
RTVSPropertyOp18
 70
     1
102
RTVSPropertyOp19
 70
     1
102
RTVSPropertyOp20
 70
     1
102
RTVSPropertyOp21
 70
     1
102
RTVSPropertyOp22
 70
     1
102
RTVSPropertyOp23
 70
     1
102
RTVSPropertyOp24
 70
     1
102
RTVSPropertyOp25
 70
     1
102
RTVSPropertyOp26
 70
     1
102
RTVSPropertyOp27
 70
     1
102
RTVSPropertyOp28
 70
     1
102
RTVSPropertyOp29
 70
     1
102
RTVSPropertyOp30
 70
     1
102
RTVSPropertyOp31
 70
     1
102
RTVSPropertyOp32
 70
     1
102
RTVSPropertyOp33
 70
     1
102
RTVSPropertyOp34
 70
     1
102
RTVSPropertyOp35
 70
     1
102
RTVSPropertyOp36
 70
     1
102
RTVSPropertyOp37
 70
     1
102
RTVSPropertyOp38
 70
     1
102
RTVSPropertyOp39
 70
     1
102
RTVSPropertyOp40
 70
     1
102
RTVSPropertyOp41
 70
     1
102
RTVSPropertyOp42
 70
     1
102
RTVSPropertyOp43
 70
     1
102
RTVSPropertyOp44
 70
     1
102
RTVSPropertyOp45
 70
     1
102
RTVSPropertyOp46
 70
     1
102
RTVSPropertyOp47
 70
     1
102
RTVSPropertyOp48
 70
     1
102
RTVSPropertyOp49
 70
     1
102
RTVSPropertyOp50
 70
     1
102
RTVSPropertyOp51
 70
     0
102
RTVSPropertyOp52
 70
     0
102
RTVSPropertyOp53
 70
     1
102
RTVSPropertyOp54
 70
     1
102
RTVSPropertyOp55
 70
     1
102
RTVSPropertyOp56
 70
     1
102
RTVSPropertyOp57
 70
     1
102
RTVSPost2010Prop28
280
     0
102
RTVSPost2010PropOp28
 70
     1
102
RTVSPost2010Prop29
280
     1
102
RTVSPost2010PropOp29
 70
     1
102
RTVSPost2010Prop30
280
     1
102
RTVSPost2010PropOp30
 70
     1
102
RTVSPost2010Prop31
280
     0
102
RTVSPost2010PropOp31
 70
     1
102
RTVSPost2010Prop32
280
     0
102
RTVSPost2010PropOp32
 70
     1
102
RTVSPost2010Prop33
280
     0
102
RTVSPost2010PropOp33
 70
     1
102
RTVSPost2010Prop34
280
     0
102
RTVSPost2010PropOp34
 70
     1
102
RTVSPost2010Prop35
280
     0
102
RTVSPost2010PropOp35
 70
     1
102
RTVSPost2010Prop36
280
     0
102
RTVSPost2010PropOp36
 70
     1
102
RTVSPost2010Prop37
 90
       50
102
RTVSPost2010PropOp37
 70
     1
102
RTVSPost2010Prop38
140
0.0
102
RTVSPost2010PropOp38
 70
     1
102
RTVSPost2010Prop39
140
1.0
102
RTVSPost2010PropOp39
 70
     1
102
RTVSPost2010Prop40
 90
        0
102
RTVSPost2010PropOp40
 70
     1
102
RTVSPost2010Prop41ColorIndex
 90
       18
102
RTVSPost2010Prop41ColorRGB
 90
        0
102
RTVSPost2010PropOp41
 70
     1
102
RTVSPost2010Prop42
 90
       50
102
RTVSPost2010PropOp42
 70
     1
102
RTVSPost2010Prop43
 90
        3
102
RTVSPost2010PropOp43
 70
     1
102
RTVSPost2010Prop44ColorIndex
 90
        5
102
RTVSPost2010Prop44ColorRGB
 90
      255
102
RTVSPost2010PropOp44
 70
     1
102
RTVSPost2010Prop45
280
     0
102
RTVSPost2010PropOp45
 70
     1
102
RTVSPost2010Prop46
 90
       50
102
RTVSPost2010PropOp46
 70
     1
102
RTVSPost2010Prop47
 90
       50
102
RTVSPost2010PropOp47
 70
     1
102
RTVSPost2010Prop48
 90
       50
102
RTVSPost2010PropOp48
 70
     1
102
RTVSPost2010Prop49
280
     0
102
RTVSPost2010PropOp49
 70
     1
102
RTVSPost2010Prop50
 90
       50
102
RTVSPost2010PropOp50
 70
     1
102
RTVSPost2010Prop51ColorIndex
 90
      256
102
RTVSPost2010Prop51ColorRGB
 90
-16777216
102
RTVSPost2010PropOp51
 70
     0
102
RTVSPost2010Prop52
140
1.0
102
RTVSPost2010PropOp52
 70
     0
102
RTVSPost2010Prop53
 90
        2
102
RTVSPost2010PropOp53
 70
     1
102
RTVSPost2010Prop54
  1
strokes_ogs.tif
102
RTVSPost2010PropOp54
 70
     1
102
RTVSPost2010Prop55
280
     0
102
RTVSPost2010PropOp55
 70
     1
102
RTVSPost2010Prop56
140
1.0
102
RTVSPost2010PropOp56
 70
     1
102
RTVSPost2010Prop57
140
1.0
102
RTVSPost2010PropOp57
 70
     1
  0
XRECORD
  5
2F2
102
{ACAD_REACTORS
330
2F1
102
}
330
2F1
100
AcDbXrecord
280
     1
102
RTVSPropertyOp0
 70
     1
102
RTVSPropertyOp1
 70
     1
102
RTVSPropertyOp2
 70
     1
102
RTVSPropertyOp3
 70
     1
102
RTVSPropertyOp4
 70
     1
102
RTVSPropertyOp5
 70
     1
102
RTVSPropertyOp6
 70
     1
102
RTVSPropertyOp7
 70
     1
102
RTVSPropertyOp8
 70
     1
102
RTVSPropertyOp9
 70
     1
102
RTVSPropertyOp10
 70
     1
102
RTVSPropertyOp11
 70
     1
102
RTVSPropertyOp12
 70
     1
102
RTVSPropertyOp13
 70
     1
102
RTVSPropertyOp14
 70
     1
102
RTVSPropertyOp15
 70
     1
102
RTVSPropertyOp16
 70
     1
102
RTVSPropertyOp17
 70
     1
102
RTVSPropertyOp18
 70
     1
102
RTVSPropertyOp19
 70
     1
102
RTVSPropertyOp20
 70
     1
102
RTVSPropertyOp21
 70
     1
102
RTVSPropertyOp22
 70
     1
102
RTVSPropertyOp23
 70
     1
102
RTVSPropertyOp24
 70
     1
102
RTVSPropertyOp25
 70
     1
102
RTVSPropertyOp26
 70
     1
102
RTVSPropertyOp27
 70
     1
102
RTVSPropertyOp28
 70
     1
102
RTVSPropertyOp29
 70
     1
102
RTVSPropertyOp30
 70
     1
102
RTVSPropertyOp31
 70
     1
102
RTVSPropertyOp32
 70
     1
102
RTVSPropertyOp33
 70
     1
102
RTVSPropertyOp34
 70
     1
102
RTVSPropertyOp35
 70
     1
102
RTVSPropertyOp36
 70
     1
102
RTVSPropertyOp37
 70
     1
102
RTVSPropertyOp38
 70
     1
102
RTVSPropertyOp39
 70
     1
102
RTVSPropertyOp40
 70
     1
102
RTVSPropertyOp41
 70
     1
102
RTVSPropertyOp42
 70
     1
102
RTVSPropertyOp43
 70
     1
102
RTVSPropertyOp44
 70
     1
102
RTVSPropertyOp45
 70
     1
102
RTVSPropertyOp46
 70
     1
102
RTVSPropertyOp47
 70
     1
102
RTVSPropertyOp48
 70
     1
102
RTVSPropertyOp49
 70
     1
102
RTVSPropertyOp50
 70
     1
102
RTVSPropertyOp51
 70
     0
102
RTVSPropertyOp52
 70
     0
102
RTVSPropertyOp53
 70
     1
102
RTVSPropertyOp54
 70
     1
102
RTVSPropertyOp55
 70
     1
102
RTVSPropertyOp56
 70
     1
102
RTVSPropertyOp57
 70
     1
102
RTVSPost2010Prop28
280
     0
102
RTVSPost2010PropOp28
 70
     1
102
RTVSPost2010Prop29
280
     1
102
RTVSPost2010PropOp29
 70
     1
102
RTVSPost2010Prop30
280
     1
102
RTVSPost2010PropOp30
 70
     1
102
RTVSPost2010Prop31
280
     0
102
RTVSPost2010PropOp31
 70
     1
102
RTVSPost2010Prop32
280
     0
102
RTVSPost2010PropOp32
 70
     1
102
RTVSPost2010Prop33
280
     0
102
RTVSPost2010PropOp33
 70
     1
102
RTVSPost2010Prop34
280
     0
102
RTVSPost2010PropOp34
 70
     1
102
RTVSPost2010Prop35
280
     0
102
RTVSPost2010PropOp35
 70
     1
102
RTVSPost2010Prop36
280
     0
102
RTVSPost2010PropOp36
 70
     1
102
RTVSPost2010Prop37
 90
       50
102
RTVSPost2010PropOp37
 70
     1
102
RTVSPost2010Prop38
140
0.0
102
RTVSPost2010PropOp38
 70
     1
102
RTVSPost2010Prop39
140
1.0
102
RTVSPost2010PropOp39
 70
     1
102
RTVSPost2010Prop40
 90
        0
102
RTVSPost2010PropOp40
 70
     1
102
RTVSPost2010Prop41ColorIndex
 90
       18
102
RTVSPost2010Prop41ColorRGB
 90
        0
102
RTVSPost2010PropOp41
 70
     1
102
RTVSPost2010Prop42
 90
       50
102
RTVSPost2010PropOp42
 70
     1
102
RTVSPost2010Prop43
 90
        3
102
RTVSPost2010PropOp43
 70
     1
102
RTVSPost2010Prop44ColorIndex
 90
        5
102
RTVSPost2010Prop44ColorRGB
 90
      255
102
RTVSPost2010PropOp44
 70
     1
102
RTVSPost2010Prop45
280
     0
102
RTVSPost2010PropOp45
 70
     1
102
RTVSPost2010Prop46
 90
       50
102
RTVSPost2010PropOp46
 70
     1
102
RTVSPost2010Prop47
 90
       50
102
RTVSPost2010PropOp47
 70
     1
102
RTVSPost2010Prop48
 90
       50
102
RTVSPost2010PropOp48
 70
     1
102
RTVSPost2010Prop49
280
     0
102
RTVSPost2010PropOp49
 70
     1
102
RTVSPost2010Prop50
 90
       50
102
RTVSPost2010PropOp50
 70
     1
102
RTVSPost2010Prop51ColorIndex
 90
      256
102
RTVSPost2010Prop51ColorRGB
 90
-16777216
102
RTVSPost2010PropOp51
 70
     0
102
RTVSPost2010Prop52
140
1.0
102
RTVSPost2010PropOp52
 70
     0
102
RTVSPost2010Prop53
 90
        2
102
RTVSPost2010PropOp53
 70
     1
102
RTVSPost2010Prop54
  1
strokes_ogs.tif
102
RTVSPost2010PropOp54
 70
     1
102
RTVSPost2010Prop55
280
     0
102
RTVSPost2010PropOp55
 70
     1
102
RTVSPost2010Prop56
140
1.0
102
RTVSPost2010PropOp56
 70
     1
102
RTVSPost2010Prop57
140
1.0
102
RTVSPost2010PropOp57
 70
     1
  0
XRECORD
  5
2E2
102
{ACAD_REACTORS
330
2E1
102
}
330
2E1
100
AcDbXrecord
280
     1
102
RTVSPropertyOp0
 70
     1
102
RTVSPropertyOp1
 70
     1
102
RTVSPropertyOp2
 70
     1
102
RTVSPropertyOp3
 70
     1
102
RTVSPropertyOp4
 70
     1
102
RTVSPropertyOp5
 70
     1
102
RTVSPropertyOp6
 70
     1
102
RTVSPropertyOp7
 70
     1
102
RTVSPropertyOp8
 70
     1
102
RTVSPropertyOp9
 70
     1
102
RTVSPropertyOp10
 70
     1
102
RTVSPropertyOp11
 70
     1
102
RTVSPropertyOp12
 70
     1
102
RTVSPropertyOp13
 70
     1
102
RTVSPropertyOp14
 70
     1
102
RTVSPropertyOp15
 70
     1
102
RTVSPropertyOp16
 70
     1
102
RTVSPropertyOp17
 70
     1
102
RTVSPropertyOp18
 70
     1
102
RTVSPropertyOp19
 70
     1
102
RTVSPropertyOp20
 70
     1
102
RTVSPropertyOp21
 70
     1
102
RTVSPropertyOp22
 70
     1
102
RTVSPropertyOp23
 70
     1
102
RTVSPropertyOp24
 70
     1
102
RTVSPropertyOp25
 70
     1
102
RTVSPropertyOp26
 70
     1
102
RTVSPropertyOp27
 70
     1
102
RTVSPropertyOp28
 70
     1
102
RTVSPropertyOp29
 70
     1
102
RTVSPropertyOp30
 70
     1
102
RTVSPropertyOp31
 70
     1
102
RTVSPropertyOp32
 70
     1
102
RTVSPropertyOp33
 70
     1
102
RTVSPropertyOp34
 70
     1
102
RTVSPropertyOp35
 70
     1
102
RTVSPropertyOp36
 70
     1
102
RTVSPropertyOp37
 70
     1
102
RTVSPropertyOp38
 70
     1
102
RTVSPropertyOp39
 70
     1
102
RTVSPropertyOp40
 70
     1
102
RTVSPropertyOp41
 70
     1
102
RTVSPropertyOp42
 70
     1
102
RTVSPropertyOp43
 70
     1
102
RTVSPropertyOp44
 70
     1
102
RTVSPropertyOp45
 70
     1
102
RTVSPropertyOp46
 70
     1
102
RTVSPropertyOp47
 70
     1
102
RTVSPropertyOp48
 70
     1
102
RTVSPropertyOp49
 70
     1
102
RTVSPropertyOp50
 70
     1
102
RTVSPropertyOp51
 70
     0
102
RTVSPropertyOp52
 70
     0
102
RTVSPropertyOp53
 70
     1
102
RTVSPropertyOp54
 70
     1
102
RTVSPropertyOp55
 70
     1
102
RTVSPropertyOp56
 70
     1
102
RTVSPropertyOp57
 70
     1
102
RTVSPost2010Prop28
280
     0
102
RTVSPost2010PropOp28
 70
     1
102
RTVSPost2010Prop29
280
     1
102
RTVSPost2010PropOp29
 70
     1
102
RTVSPost2010Prop30
280
     1
102
RTVSPost2010PropOp30
 70
     1
102
RTVSPost2010Prop31
280
     0
102
RTVSPost2010PropOp31
 70
     1
102
RTVSPost2010Prop32
280
     0
102
RTVSPost2010PropOp32
 70
     1
102
RTVSPost2010Prop33
280
     0
102
RTVSPost2010PropOp33
 70
     1
102
RTVSPost2010Prop34
280
     0
102
RTVSPost2010PropOp34
 70
     1
102
RTVSPost2010Prop35
280
     0
102
RTVSPost2010PropOp35
 70
     1
102
RTVSPost2010Prop36
280
     0
102
RTVSPost2010PropOp36
 70
     1
102
RTVSPost2010Prop37
 90
       50
102
RTVSPost2010PropOp37
 70
     1
102
RTVSPost2010Prop38
140
0.0
102
RTVSPost2010PropOp38
 70
     1
102
RTVSPost2010Prop39
140
1.0
102
RTVSPost2010PropOp39
 70
     1
102
RTVSPost2010Prop40
 90
        0
102
RTVSPost2010PropOp40
 70
     1
102
RTVSPost2010Prop41ColorIndex
 90
       18
102
RTVSPost2010Prop41ColorRGB
 90
        0
102
RTVSPost2010PropOp41
 70
     1
102
RTVSPost2010Prop42
 90
       50
102
RTVSPost2010PropOp42
 70
     1
102
RTVSPost2010Prop43
 90
        3
102
RTVSPost2010PropOp43
 70
     1
102
RTVSPost2010Prop44ColorIndex
 90
        5
102
RTVSPost2010Prop44ColorRGB
 90
      255
102
RTVSPost2010PropOp44
 70
     1
102
RTVSPost2010Prop45
280
     0
102
RTVSPost2010PropOp45
 70
     1
102
RTVSPost2010Prop46
 90
       50
102
RTVSPost2010PropOp46
 70
     1
102
RTVSPost2010Prop47
 90
       50
102
RTVSPost2010PropOp47
 70
     1
102
RTVSPost2010Prop48
 90
       50
102
RTVSPost2010PropOp48
 70
     1
102
RTVSPost2010Prop49
280
     0
102
RTVSPost2010PropOp49
 70
     1
102
RTVSPost2010Prop50
 90
       50
102
RTVSPost2010PropOp50
 70
     1
102
RTVSPost2010Prop51ColorIndex
 90
      256
102
RTVSPost2010Prop51ColorRGB
 90
-16777216
102
RTVSPost2010PropOp51
 70
     0
102
RTVSPost2010Prop52
140
1.0
102
RTVSPost2010PropOp52
 70
     0
102
RTVSPost2010Prop53
 90
        2
102
RTVSPost2010PropOp53
 70
     1
102
RTVSPost2010Prop54
  1
strokes_ogs.tif
102
RTVSPost2010PropOp54
 70
     1
102
RTVSPost2010Prop55
280
     0
102
RTVSPost2010PropOp55
 70
     1
102
RTVSPost2010Prop56
140
1.0
102
RTVSPost2010PropOp56
 70
     1
102
RTVSPost2010Prop57
140
1.0
102
RTVSPost2010PropOp57
 70
     1
  0
XRECORD
  5
2D4
102
{ACAD_REACTORS
330
2D3
102
}
330
2D3
100
AcDbXrecord
280
     1
102
RTVSPropertyOp0
 70
     1
102
RTVSPropertyOp1
 70
     1
102
RTVSPropertyOp2
 70
     1
102
RTVSPropertyOp3
 70
     1
102
RTVSPropertyOp4
 70
     1
102
RTVSPropertyOp5
 70
     1
102
RTVSPropertyOp6
 70
     1
102
RTVSPropertyOp7
 70
     1
102
RTVSPropertyOp8
 70
     1
102
RTVSPropertyOp9
 70
     1
102
RTVSPropertyOp10
 70
     1
102
RTVSPropertyOp11
 70
     1
102
RTVSPropertyOp12
 70
     1
102
RTVSPropertyOp13
 70
     1
102
RTVSPropertyOp14
 70
     1
102
RTVSPropertyOp15
 70
     1
102
RTVSPropertyOp16
 70
     1
102
RTVSPropertyOp17
 70
     1
102
RTVSPropertyOp18
 70
     1
102
RTVSPropertyOp19
 70
     1
102
RTVSPropertyOp20
 70
     1
102
RTVSPropertyOp21
 70
     1
102
RTVSPropertyOp22
 70
     1
102
RTVSPropertyOp23
 70
     1
102
RTVSPropertyOp24
 70
     1
102
RTVSPropertyOp25
 70
     1
102
RTVSPropertyOp26
 70
     1
102
RTVSPropertyOp27
 70
     1
102
RTVSPropertyOp28
 70
     1
102
RTVSPropertyOp29
 70
     1
102
RTVSPropertyOp30
 70
     1
102
RTVSPropertyOp31
 70
     1
102
RTVSPropertyOp32
 70
     1
102
RTVSPropertyOp33
 70
     1
102
RTVSPropertyOp34
 70
     1
102
RTVSPropertyOp35
 70
     1
102
RTVSPropertyOp36
 70
     1
102
RTVSPropertyOp37
 70
     1
102
RTVSPropertyOp38
 70
     1
102
RTVSPropertyOp39
 70
     1
102
RTVSPropertyOp40
 70
     1
102
RTVSPropertyOp41
 70
     1
102
RTVSPropertyOp42
 70
     1
102
RTVSPropertyOp43
 70
     1
102
RTVSPropertyOp44
 70
     1
102
RTVSPropertyOp45
 70
     1
102
RTVSPropertyOp46
 70
     1
102
RTVSPropertyOp47
 70
     1
102
RTVSPropertyOp48
 70
     1
102
RTVSPropertyOp49
 70
     1
102
RTVSPropertyOp50
 70
     1
102
RTVSPropertyOp51
 70
     0
102
RTVSPropertyOp52
 70
     0
102
RTVSPropertyOp53
 70
     1
102
RTVSPropertyOp54
 70
     1
102
RTVSPropertyOp55
 70
     1
102
RTVSPropertyOp56
 70
     1
102
RTVSPropertyOp57
 70
     1
102
RTVSPost2010Prop28
280
     0
102
RTVSPost2010PropOp28
 70
     1
102
RTVSPost2010Prop29
280
     1
102
RTVSPost2010PropOp29
 70
     1
102
RTVSPost2010Prop30
280
     1
102
RTVSPost2010PropOp30
 70
     1
102
RTVSPost2010Prop31
280
     0
102
RTVSPost2010PropOp31
 70
     1
102
RTVSPost2010Prop32
280
     0
102
RTVSPost2010PropOp32
 70
     1
102
RTVSPost2010Prop33
280
     0
102
RTVSPost2010PropOp33
 70
     1
102
RTVSPost2010Prop34
280
     0
102
RTVSPost2010PropOp34
 70
     1
102
RTVSPost2010Prop35
280
     0
102
RTVSPost2010PropOp35
 70
     1
102
RTVSPost2010Prop36
280
     0
102
RTVSPost2010PropOp36
 70
     1
102
RTVSPost2010Prop37
 90
       50
102
RTVSPost2010PropOp37
 70
     1
102
RTVSPost2010Prop38
140
0.0
102
RTVSPost2010PropOp38
 70
     1
102
RTVSPost2010Prop39
140
1.0
102
RTVSPost2010PropOp39
 70
     1
102
RTVSPost2010Prop40
 90
        0
102
RTVSPost2010PropOp40
 70
     1
102
RTVSPost2010Prop41ColorIndex
 90
       18
102
RTVSPost2010Prop41ColorRGB
 90
        0
102
RTVSPost2010PropOp41
 70
     1
102
RTVSPost2010Prop42
 90
       50
102
RTVSPost2010PropOp42
 70
     1
102
RTVSPost2010Prop43
 90
        3
102
RTVSPost2010PropOp43
 70
     1
102
RTVSPost2010Prop44ColorIndex
 90
        5
102
RTVSPost2010Prop44ColorRGB
 90
      255
102
RTVSPost2010PropOp44
 70
     1
102
RTVSPost2010Prop45
280
     0
102
RTVSPost2010PropOp45
 70
     1
102
RTVSPost2010Prop46
 90
       50
102
RTVSPost2010PropOp46
 70
     1
102
RTVSPost2010Prop47
 90
       50
102
RTVSPost2010PropOp47
 70
     1
102
RTVSPost2010Prop48
 90
       50
102
RTVSPost2010PropOp48
 70
     1
102
RTVSPost2010Prop49
280
     0
102
RTVSPost2010PropOp49
 70
     1
102
RTVSPost2010Prop50
 90
       50
102
RTVSPost2010PropOp50
 70
     1
102
RTVSPost2010Prop51ColorIndex
 90
      256
102
RTVSPost2010Prop51ColorRGB
 90
-16777216
102
RTVSPost2010PropOp51
 70
     0
102
RTVSPost2010Prop52
140
1.0
102
RTVSPost2010PropOp52
 70
     0
102
RTVSPost2010Prop53
 90
        2
102
RTVSPost2010PropOp53
 70
     1
102
RTVSPost2010Prop54
  1
strokes_ogs.tif
102
RTVSPost2010PropOp54
 70
     1
102
RTVSPost2010Prop55
280
     0
102
RTVSPost2010PropOp55
 70
     1
102
RTVSPost2010Prop56
140
1.0
102
RTVSPost2010PropOp56
 70
     1
102
RTVSPost2010Prop57
140
1.0
102
RTVSPost2010PropOp57
 70
     1
  0
XRECORD
  5
2F4
102
{ACAD_REACTORS
330
2F3
102
}
330
2F3
100
AcDbXrecord
280
     1
102
RTVSPropertyOp0
 70
     1
102
RTVSPropertyOp1
 70
     1
102
RTVSPropertyOp2
 70
     1
102
RTVSPropertyOp3
 70
     1
102
RTVSPropertyOp4
 70
     1
102
RTVSPropertyOp5
 70
     1
102
RTVSPropertyOp6
 70
     1
102
RTVSPropertyOp7
 70
     1
102
RTVSPropertyOp8
 70
     1
102
RTVSPropertyOp9
 70
     1
102
RTVSPropertyOp10
 70
     1
102
RTVSPropertyOp11
 70
     1
102
RTVSPropertyOp12
 70
     1
102
RTVSPropertyOp13
 70
     1
102
RTVSPropertyOp14
 70
     1
102
RTVSPropertyOp15
 70
     1
102
RTVSPropertyOp16
 70
     1
102
RTVSPropertyOp17
 70
     1
102
RTVSPropertyOp18
 70
     1
102
RTVSPropertyOp19
 70
     1
102
RTVSPropertyOp20
 70
     1
102
RTVSPropertyOp21
 70
     1
102
RTVSPropertyOp22
 70
     1
102
RTVSPropertyOp23
 70
     1
102
RTVSPropertyOp24
 70
     1
102
RTVSPropertyOp25
 70
     1
102
RTVSPropertyOp26
 70
     1
102
RTVSPropertyOp27
 70
     1
102
RTVSPropertyOp28
 70
     1
102
RTVSPropertyOp29
 70
     1
102
RTVSPropertyOp30
 70
     1
102
RTVSPropertyOp31
 70
     1
102
RTVSPropertyOp32
 70
     1
102
RTVSPropertyOp33
 70
     1
102
RTVSPropertyOp34
 70
     1
102
RTVSPropertyOp35
 70
     1
102
RTVSPropertyOp36
 70
     1
102
RTVSPropertyOp37
 70
     1
102
RTVSPropertyOp38
 70
     1
102
RTVSPropertyOp39
 70
     1
102
RTVSPropertyOp40
 70
     1
102
RTVSPropertyOp41
 70
     1
102
RTVSPropertyOp42
 70
     1
102
RTVSPropertyOp43
 70
     1
102
RTVSPropertyOp44
 70
     1
102
RTVSPropertyOp45
 70
     1
102
RTVSPropertyOp46
 70
     1
102
RTVSPropertyOp47
 70
     1
102
RTVSPropertyOp48
 70
     1
102
RTVSPropertyOp49
 70
     1
102
RTVSPropertyOp50
 70
     1
102
RTVSPropertyOp51
 70
     0
102
RTVSPropertyOp52
 70
     0
102
RTVSPropertyOp53
 70
     1
102
RTVSPropertyOp54
 70
     1
102
RTVSPropertyOp55
 70
     1
102
RTVSPropertyOp56
 70
     1
102
RTVSPropertyOp57
 70
     1
102
RTVSPost2010Prop28
280
     0
102
RTVSPost2010PropOp28
 70
     1
102
RTVSPost2010Prop29
280
     1
102
RTVSPost2010PropOp29
 70
     1
102
RTVSPost2010Prop30
280
     1
102
RTVSPost2010PropOp30
 70
     1
102
RTVSPost2010Prop31
280
     0
102
RTVSPost2010PropOp31
 70
     1
102
RTVSPost2010Prop32
280
     0
102
RTVSPost2010PropOp32
 70
     1
102
RTVSPost2010Prop33
280
     0
102
RTVSPost2010PropOp33
 70
     1
102
RTVSPost2010Prop34
280
     0
102
RTVSPost2010PropOp34
 70
     1
102
RTVSPost2010Prop35
280
     0
102
RTVSPost2010PropOp35
 70
     1
102
RTVSPost2010Prop36
280
     0
102
RTVSPost2010PropOp36
 70
     1
102
RTVSPost2010Prop37
 90
       50
102
RTVSPost2010PropOp37
 70
     1
102
RTVSPost2010Prop38
140
0.0
102
RTVSPost2010PropOp38
 70
     1
102
RTVSPost2010Prop39
140
1.0
102
RTVSPost2010PropOp39
 70
     1
102
RTVSPost2010Prop40
 90
        0
102
RTVSPost2010PropOp40
 70
     1
102
RTVSPost2010Prop41ColorIndex
 90
       18
102
RTVSPost2010Prop41ColorRGB
 90
        0
102
RTVSPost2010PropOp41
 70
     1
102
RTVSPost2010Prop42
 90
       50
102
RTVSPost2010PropOp42
 70
     1
102
RTVSPost2010Prop43
 90
        3
102
RTVSPost2010PropOp43
 70
     1
102
RTVSPost2010Prop44ColorIndex
 90
        5
102
RTVSPost2010Prop44ColorRGB
 90
      255
102
RTVSPost2010PropOp44
 70
     1
102
RTVSPost2010Prop45
280
     0
102
RTVSPost2010PropOp45
 70
     1
102
RTVSPost2010Prop46
 90
       50
102
RTVSPost2010PropOp46
 70
     1
102
RTVSPost2010Prop47
 90
       50
102
RTVSPost2010PropOp47
 70
     1
102
RTVSPost2010Prop48
 90
       50
102
RTVSPost2010PropOp48
 70
     1
102
RTVSPost2010Prop49
280
     0
102
RTVSPost2010PropOp49
 70
     1
102
RTVSPost2010Prop50
 90
       50
102
RTVSPost2010PropOp50
 70
     1
102
RTVSPost2010Prop51ColorIndex
 90
      256
102
RTVSPost2010Prop51ColorRGB
 90
-16777216
102
RTVSPost2010PropOp51
 70
     0
102
RTVSPost2010Prop52
140
1.0
102
RTVSPost2010PropOp52
 70
     0
102
RTVSPost2010Prop53
 90
        2
102
RTVSPost2010PropOp53
 70
     1
102
RTVSPost2010Prop54
  1
strokes_ogs.tif
102
RTVSPost2010PropOp54
 70
     1
102
RTVSPost2010Prop55
280
     0
102
RTVSPost2010PropOp55
 70
     1
102
RTVSPost2010Prop56
140
1.0
102
RTVSPost2010PropOp56
 70
     1
102
RTVSPost2010Prop57
140
1.0
102
RTVSPost2010PropOp57
 70
     1
  0
ENDSEC
  0
EOF
