  0
SECTION
  2
HEADER
  9
$ACADVER
  1
AC1018
  9
$ACADMAINTVER
 70
     0
  9
$DWGCODEPAGE
  3
ANSI_1252
  9
$INSBASE
 10
0.0
 20
0.0
 30
0.0
  9
$EXTMIN
 10
0.0649808772088798
 20
-1.055044607335967
 30
0.0035
  9
$EXTMAX
 10
3.589322353345539
 20
1.4369140121546
 30
-0.0035
  9
$LIMMIN
 10
0.0
 20
0.0
  9
$LIMMAX
 10
12.0
 20
9.0
  9
$ORTHOMODE
 70
     0
  9
$REGENMODE
 70
     1
  9
$FILLMODE
 70
     1
  9
$QTEXTMODE
 70
     0
  9
$MIRRTEXT
 70
     1
  9
$LTSCALE
 40
1.0
  9
$ATTMODE
 70
     1
  9
$TEXTSIZE
 40
0.2
  9
$TRACEWID
 40
0.05
  9
$TEXTSTYLE
  7
Simplex
  9
$CLAYER
  8
0
  9
$CELTYPE
  6
ByLayer
  9
$CECOLOR
 62
   256
  9
$CELTSCALE
 40
1.0
  9
$DISPSILH
 70
     0
  9
$DIMSCALE
 40
1.0
  9
$DIMASZ
 40
0.18
  9
$DIMEXO
 40
0.0625
  9
$DIMDLI
 40
0.38
  9
$DIMRND
 40
0.0
  9
$DIMDLE
 40
0.0
  9
$DIMEXE
 40
0.18
  9
$DIMTP
 40
0.0
  9
$DIMTM
 40
0.0
  9
$DIMTXT
 40
0.18
  9
$DIMCEN
 40
0.09
  9
$DIMTSZ
 40
0.0
  9
$DIMTOL
 70
     0
  9
$DIMLIM
 70
     0
  9
$DIMTIH
 70
     1
  9
$DIMTOH
 70
     1
  9
$DIMSE1
 70
     0
  9
$DIMSE2
 70
     0
  9
$DIMTAD
 70
     0
  9
$DIMZIN
 70
     0
  9
$DIMBLK
  1

  9
$DIMASO
 70
     1
  9
$DIMSHO
 70
     1
  9
$DIMPOST
  1

  9
$DIMAPOST
  1

  9
$DIMALT
 70
     0
  9
$DIMALTD
 70
     2
  9
$DIMALTF
 40
25.4
  9
$DIMLFAC
 40
1.0
  9
$DIMTOFL
 70
     0
  9
$DIMTVP
 40
0.0
  9
$DIMTIX
 70
     0
  9
$DIMSOXD
 70
     0
  9
$DIMSAH
 70
     0
  9
$DIMBLK1
  1

  9
$DIMBLK2
  1

  9
$DIMSTYLE
  2
Standard
  9
$DIMCLRD
 70
     0
  9
$DIMCLRE
 70
     0
  9
$DIMCLRT
 70
     0
  9
$DIMTFAC
 40
1.0
  9
$DIMGAP
 40
0.09
  9
$DIMJUST
 70
     0
  9
$DIMSD1
 70
     0
  9
$DIMSD2
 70
     0
  9
$DIMTOLJ
 70
     1
  9
$DIMTZIN
 70
     0
  9
$DIMALTZ
 70
     0
  9
$DIMALTTZ
 70
     0
  9
$DIMUPT
 70
     0
  9
$DIMDEC
 70
     4
  9
$DIMTDEC
 70
     4
  9
$DIMALTU
 70
     2
  9
$DIMALTTD
 70
     2
  9
$DIMTXSTY
  7
Standard
  9
$DIMAUNIT
 70
     0
  9
$DIMADEC
 70
     0
  9
$DIMALTRND
 40
0.0
  9
$DIMAZIN
 70
     0
  9
$DIMDSEP
 70
    46
  9
$DIMATFIT
 70
     3
  9
$DIMFRAC
 70
     0
  9
$DIMLDRBLK
  1

  9
$DIMLUNIT
 70
     2
  9
$DIMLWD
 70
    -2
  9
$DIMLWE
 70
    -2
  9
$DIMTMOVE
 70
     0
  9
$LUNITS
 70
     2
  9
$LUPREC
 70
     4
  9
$SKETCHINC
 40
0.1
  9
$FILLETRAD
 40
0.5
  9
$AUNITS
 70
     0
  9
$AUPREC
 70
     0
  9
$MENU
  1
.
  9
$ELEVATION
 40
0.0
  9
$PELEVATION
 40
0.0
  9
$THICKNESS
 40
0.0
  9
$LIMCHECK
 70
     0
  9
$CHAMFERA
 40
0.5
  9
$CHAMFERB
 40
0.5
  9
$CHAMFERC
 40
1.0
  9
$CHAMFERD
 40
0.0
  9
$SKPOLY
 70
     0
  9
$TDCREATE
 40
2452381.314152083
  9
$TDUCREATE
 40
2452380.897485417
  9
$TDUPDATE
 40
2457966.331144259
  9
$TDUUPDATE
 40
2457965.914477593
  9
$TDINDWG
 40
0.0040921296
  9
$TDUSRTIMER
 40
0.0040921296
  9
$USRTIMER
 70
     1
  9
$ANGBASE
 50
0.0
  9
$ANGDIR
 70
     0
  9
$PDMODE
 70
     0
  9
$PDSIZE
 40
0.0
  9
$PLINEWID
 40
0.0
  9
$SPLFRAME
 70
     0
  9
$SPLINETYPE
 70
     6
  9
$SPLINESEGS
 70
     8
  9
$HANDSEED
  5
4C2
  9
$SURFTAB1
 70
     6
  9
$SURFTAB2
 70
     6
  9
$SURFTYPE
 70
     6
  9
$SURFU
 70
     6
  9
$SURFV
 70
     6
  9
$UCSBASE
  2

  9
$UCSNAME
  2

  9
$UCSORG
 10
0.0
 20
0.0
 30
0.0
  9
$UCSXDIR
 10
1.0
 20
0.0
 30
0.0
  9
$UCSYDIR
 10
0.0
 20
1.0
 30
0.0
  9
$UCSORTHOREF
  2

  9
$UCSORTHOVIEW
 70
     0
  9
$UCSORGTOP
 10
0.0
 20
0.0
 30
0.0
  9
$UCSORGBOTTOM
 10
0.0
 20
0.0
 30
0.0
  9
$UCSORGLEFT
 10
0.0
 20
0.0
 30
0.0
  9
$UCSORGRIGHT
 10
0.0
 20
0.0
 30
0.0
  9
$UCSORGFRONT
 10
0.0
 20
0.0
 30
0.0
  9
$UCSORGBACK
 10
0.0
 20
0.0
 30
0.0
  9
$PUCSBASE
  2

  9
$PUCSNAME
  2

  9
$PUCSORG
 10
0.0
 20
0.0
 30
0.0
  9
$PUCSXDIR
 10
1.0
 20
0.0
 30
0.0
  9
$PUCSYDIR
 10
0.0
 20
1.0
 30
0.0
  9
$PUCSORTHOREF
  2

  9
$PUCSORTHOVIEW
 70
     0
  9
$PUCSORGTOP
 10
0.0
 20
0.0
 30
0.0
  9
$PUCSORGBOTTOM
 10
0.0
 20
0.0
 30
0.0
  9
$PUCSORGLEFT
 10
0.0
 20
0.0
 30
0.0
  9
$PUCSORGRIGHT
 10
0.0
 20
0.0
 30
0.0
  9
$PUCSORGFRONT
 10
0.0
 20
0.0
 30
0.0
  9
$PUCSORGBACK
 10
0.0
 20
0.0
 30
0.0
  9
$USERI1
 70
     0
  9
$USERI2
 70
     0
  9
$USERI3
 70
     0
  9
$USERI4
 70
     0
  9
$USERI5
 70
     0
  9
$USERR1
 40
0.0
  9
$USERR2
 40
0.0
  9
$USERR3
 40
0.0
  9
$USERR4
 40
0.0
  9
$USERR5
 40
0.0
  9
$WORLDVIEW
 70
     1
  9
$SHADEDGE
 70
     3
  9
$SHADEDIF
 70
    70
  9
$TILEMODE
 70
     1
  9
$MAXACTVP
 70
    64
  9
$PINSBASE
 10
0.0
 20
0.0
 30
0.0
  9
$PLIMCHECK
 70
     0
  9
$PEXTMIN
 10
1.000000000000000E+20
 20
1.000000000000000E+20
 30
1.000000000000000E+20
  9
$PEXTMAX
 10
-1.000000000000000E+20
 20
-1.000000000000000E+20
 30
-1.000000000000000E+20
  9
$PLIMMIN
 10
0.0
 20
0.0
  9
$PLIMMAX
 10
12.0
 20
9.0
  9
$UNITMODE
 70
     0
  9
$VISRETAIN
 70
     1
  9
$PLINEGEN
 70
     0
  9
$PSLTSCALE
 70
     1
  9
$TREEDEPTH
 70
  3020
  9
$CMLSTYLE
  2
Standard
  9
$CMLJUST
 70
     0
  9
$CMLSCALE
 40
1.0
  9
$PROXYGRAPHICS
 70
     1
  9
$MEASUREMENT
 70
     0
  9
$CELWEIGHT
370
    -1
  9
$ENDCAPS
280
     0
  9
$JOINSTYLE
280
     0
  9
$LWDISPLAY
290
     1
  9
$INSUNITS
 70
     0
  9
$HYPERLINKBASE
  1

  9
$STYLESHEET
  1

  9
$XEDIT
290
     1
  9
$CEPSNTYPE
380
     0
  9
$PSTYLEMODE
290
     1
  9
$FINGERPRINTGUID
  2
{2DA8D5D2-0A6F-4433-BE9F-7C818D36D6ED}
  9
$VERSIONGUID
  2
{A098EE71-2063-4C44-BF23-3920F6FD3DB3}
  9
$EXTNAMES
290
     1
  9
$PSVPSCALE
 40
0.0
  9
$OLESTARTUP
290
     0
  9
$SORTENTS
280
   127
  9
$INDEXCTL
280
     0
  9
$HIDETEXT
280
     1
  9
$XCLIPFRAME
290
     0
  9
$HALOGAP
280
     0
  9
$OBSCOLOR
 70
   257
  9
$OBSLTYPE
280
     0
  9
$INTERSECTIONDISPLAY
280
     0
  9
$INTERSECTIONCOLOR
 70
   257
  9
$DIMASSOC
280
     1
  9
$PROJECTNAME
  1

  0
ENDSEC
  0
SECTION
  2
CLASSES
  0
CLASS
  1
ACDBDICTIONARYWDFLT
  2
AcDbDictionaryWithDefault
  3
ObjectDBX Classes
 90
        0
 91
        4
280
     0
281
     0
  0
CLASS
  1
ACDBPLACEHOLDER
  2
AcDbPlaceHolder
  3
ObjectDBX Classes
 90
        0
 91
        1
280
     0
281
     0
  0
CLASS
  1
LAYOUT
  2
AcDbLayout
  3
ObjectDBX Classes
 90
        0
 91
        1
280
     0
281
     0
  0
CLASS
  1
DICTIONARYVAR
  2
AcDbDictionaryVar
  3
ObjectDBX Classes
 90
        0
 91
        4
280
     0
281
     0
  0
CLASS
  1
VISUALSTYLE
  2
AcDbVisualStyle
  3
ObjectDBX Classes
 90
     4095
 91
        4
280
     0
281
     0
  0
CLASS
  1
SCALE
  2
AcDbScale
  3
ObjectDBX Classes
 90
     1153
 91
        4
280
     0
281
     0
  0
CLASS
  1
MATERIAL
  2
AcDbMaterial
  3
ObjectDBX Classes
 90
     1153
 91
        4
280
     0
281
     0
  0
CLASS
  1
TABLESTYLE
  2
AcDbTableStyle
  3
ObjectDBX Classes
 90
     4095
 91
        4
280
     0
281
     0
  0
CLASS
  1
MLEADERSTYLE
  2
AcDbMLeaderStyle
  3
ACDB_MLEADERSTYLE_CLASS
 90
     4095
 91
        4
280
     0
281
     0
  0
CLASS
  1
RASTERVARIABLES
  2
AcDbRasterVariables
  3
ISM
 90
        0
 91
        4
280
     0
281
     0
  0
CLASS
  1
SUN
  2
AcDbSun
  3
SCENEOE
 90
     1153
 91
        4
280
     0
281
     0
  0
CLASS
  1
CELLSTYLEMAP
  2
AcDbCellStyleMap
  3
ObjectDBX Classes
 90
     1152
 91
        4
280
     0
281
     0
  0
ENDSEC
  0
SECTION
  2
TABLES
  0
TABLE
  2
VPORT
  5
8
102
{ACAD_XDICTIONARY
360
47C
102
}
330
0
100
AcDbSymbolTable
 70
     2
  0
VPORT
  5
55
330
8
100
AcDbSymbolTableRecord
100
AcDbViewportTableRecord
  2
*Active
 70
     0
 10
0.0
 20
0.0
 11
1.0
 21
1.0
 12
0.0
 22
0.0
 13
0.0
 23
0.0
 14
0.5
 24
0.5
 15
0.5
 25
0.5
 16
0.0
 26
0.0
 36
1.0
 17
1.82715161527721
 27
0.1909347024093166
 37
0.0
 40
2.741154481439622
 41
1.414285714285714
 42
50.0
 43
0.0
 44
0.0
 50
0.0
 51
0.0
 71
     8
 72
   100
 73
     1
 74
     3
 75
     0
 76
     0
 77
     0
 78
     0
281
     0
 65
     1
110
0.0
120
0.0
130
0.0
111
1.0
121
0.0
131
0.0
112
0.0
122
1.0
132
0.0
 79
     0
146
0.0
  0
ENDTAB
  0
TABLE
  2
LTYPE
  5
5
330
0
100
AcDbSymbolTable
 70
    25
  0
LTYPE
  5
14
330
5
100
AcDbSymbolTableRecord
100
AcDbLinetypeTableRecord
  2
ByBlock
 70
     0
  3

 72
    65
 73
     0
 40
0.0
  0
LTYPE
  5
15
330
5
100
AcDbSymbolTableRecord
100
AcDbLinetypeTableRecord
  2
ByLayer
 70
     0
  3

 72
    65
 73
     0
 40
0.0
  0
LTYPE
  5
16
330
5
100
AcDbSymbolTableRecord
100
AcDbLinetypeTableRecord
  2
Continuous
 70
     0
  3
Solid line
 72
    65
 73
     0
 40
0.0
  0
LTYPE
  5
2D
330
5
100
AcDbSymbolTableRecord
100
AcDbLinetypeTableRecord
  2
BORDER
 70
     0
  3
Border __ __ . __ __ . __ __ . __ __ . __ __ .
 72
    65
 73
     6
 40
1.75
 49
0.5
 74
     0
 49
-0.25
 74
     0
 49
0.5
 74
     0
 49
-0.25
 74
     0
 49
0.0
 74
     0
 49
-0.25
 74
     0
  0
LTYPE
  5
2E
330
5
100
AcDbSymbolTableRecord
100
AcDbLinetypeTableRecord
  2
BORDER2
 70
     0
  3
Border (.5x) __.__.__.__.__.__.__.__.__.__.__.
 72
    65
 73
     6
 40
0.875
 49
0.25
 74
     0
 49
-0.125
 74
     0
 49
0.25
 74
     0
 49
-0.125
 74
     0
 49
0.0
 74
     0
 49
-0.125
 74
     0
  0
LTYPE
  5
2F
330
5
100
AcDbSymbolTableRecord
100
AcDbLinetypeTableRecord
  2
BORDERX2
 70
     0
  3
Border (2x) ____  ____  .  ____  ____  .  ___
 72
    65
 73
     6
 40
3.5
 49
1.0
 74
     0
 49
-0.5
 74
     0
 49
1.0
 74
     0
 49
-0.5
 74
     0
 49
0.0
 74
     0
 49
-0.5
 74
     0
  0
LTYPE
  5
30
330
5
100
AcDbSymbolTableRecord
100
AcDbLinetypeTableRecord
  2
CENTER
 70
     0
  3
Center ____ _ ____ _ ____ _ ____ _ ____ _ ____
 72
    65
 73
     4
 40
2.0
 49
1.25
 74
     0
 49
-0.25
 74
     0
 49
0.25
 74
     0
 49
-0.25
 74
     0
  0
LTYPE
  5
31
330
5
100
AcDbSymbolTableRecord
100
AcDbLinetypeTableRecord
  2
CENTER2
 70
     0
  3
Center (.5x) ___ _ ___ _ ___ _ ___ _ ___ _ ___
 72
    65
 73
     4
 40
1.125
 49
0.75
 74
     0
 49
-0.125
 74
     0
 49
0.125
 74
     0
 49
-0.125
 74
     0
  0
LTYPE
  5
32
330
5
100
AcDbSymbolTableRecord
100
AcDbLinetypeTableRecord
  2
CENTERX2
 70
     0
  3
Center (2x) ________  __  ________  __  _____
 72
    65
 73
     4
 40
4.0
 49
2.5
 74
     0
 49
-0.5
 74
     0
 49
0.5
 74
     0
 49
-0.5
 74
     0
  0
LTYPE
  5
33
330
5
100
AcDbSymbolTableRecord
100
AcDbLinetypeTableRecord
  2
DASHDOT
 70
     0
  3
Dash dot __ . __ . __ . __ . __ . __ . __ . __
 72
    65
 73
     4
 40
1.0
 49
0.5
 74
     0
 49
-0.25
 74
     0
 49
0.0
 74
     0
 49
-0.25
 74
     0
  0
LTYPE
  5
34
330
5
100
AcDbSymbolTableRecord
100
AcDbLinetypeTableRecord
  2
DASHDOT2
 70
     0
  3
Dash dot (.5x) _._._._._._._._._._._._._._._.
 72
    65
 73
     4
 40
0.5
 49
0.25
 74
     0
 49
-0.125
 74
     0
 49
0.0
 74
     0
 49
-0.125
 74
     0
  0
LTYPE
  5
35
330
5
100
AcDbSymbolTableRecord
100
AcDbLinetypeTableRecord
  2
DASHDOTX2
 70
     0
  3
Dash dot (2x) ____  .  ____  .  ____  .  ___
 72
    65
 73
     4
 40
2.0
 49
1.0
 74
     0
 49
-0.5
 74
     0
 49
0.0
 74
     0
 49
-0.5
 74
     0
  0
LTYPE
  5
36
330
5
100
AcDbSymbolTableRecord
100
AcDbLinetypeTableRecord
  2
DASHED
 70
     0
  3
Dashed __ __ __ __ __ __ __ __ __ __ __ __ __ _
 72
    65
 73
     2
 40
0.75
 49
0.5
 74
     0
 49
-0.25
 74
     0
  0
LTYPE
  5
37
330
5
100
AcDbSymbolTableRecord
100
AcDbLinetypeTableRecord
  2
DASHED2
 70
     0
  3
Dashed (.5x) _ _ _ _ _ _ _ _ _ _ _ _ _ _ _ _ _
 72
    65
 73
     2
 40
0.375
 49
0.25
 74
     0
 49
-0.125
 74
     0
  0
LTYPE
  5
38
330
5
100
AcDbSymbolTableRecord
100
AcDbLinetypeTableRecord
  2
DASHEDX2
 70
     0
  3
Dashed (2x) ____  ____  ____  ____  ____  ___
 72
    65
 73
     2
 40
1.5
 49
1.0
 74
     0
 49
-0.5
 74
     0
  0
LTYPE
  5
39
330
5
100
AcDbSymbolTableRecord
100
AcDbLinetypeTableRecord
  2
DIVIDE
 70
     0
  3
Divide ____ . . ____ . . ____ . . ____ . . ____
 72
    65
 73
     6
 40
1.25
 49
0.5
 74
     0
 49
-0.25
 74
     0
 49
0.0
 74
     0
 49
-0.25
 74
     0
 49
0.0
 74
     0
 49
-0.25
 74
     0
  0
LTYPE
  5
3A
330
5
100
AcDbSymbolTableRecord
100
AcDbLinetypeTableRecord
  2
DIVIDE2
 70
     0
  3
Divide (.5x) __..__..__..__..__..__..__..__.._
 72
    65
 73
     6
 40
0.625
 49
0.25
 74
     0
 49
-0.125
 74
     0
 49
0.0
 74
     0
 49
-0.125
 74
     0
 49
0.0
 74
     0
 49
-0.125
 74
     0
  0
LTYPE
  5
3B
330
5
100
AcDbSymbolTableRecord
100
AcDbLinetypeTableRecord
  2
DIVIDEX2
 70
     0
  3
Divide (2x) ________  .  .  ________  .  .  _
 72
    65
 73
     6
 40
2.5
 49
1.0
 74
     0
 49
-0.5
 74
     0
 49
0.0
 74
     0
 49
-0.5
 74
     0
 49
0.0
 74
     0
 49
-0.5
 74
     0
  0
LTYPE
  5
3C
330
5
100
AcDbSymbolTableRecord
100
AcDbLinetypeTableRecord
  2
DOT
 70
     0
  3
Dot . . . . . . . . . . . . . . . . . . . . . .
 72
    65
 73
     2
 40
0.25
 49
0.0
 74
     0
 49
-0.25
 74
     0
  0
LTYPE
  5
3D
330
5
100
AcDbSymbolTableRecord
100
AcDbLinetypeTableRecord
  2
DOT2
 70
     0
  3
Dot (.5x) .....................................
 72
    65
 73
     2
 40
0.125
 49
0.0
 74
     0
 49
-0.125
 74
     0
  0
LTYPE
  5
3E
330
5
100
AcDbSymbolTableRecord
100
AcDbLinetypeTableRecord
  2
DOTX2
 70
     0
  3
Dot (2x) .  .  .  .  .  .  .  .  .  .  .  .  . 
 72
    65
 73
     2
 40
0.5
 49
0.0
 74
     0
 49
-0.5
 74
     0
  0
LTYPE
  5
3F
330
5
100
AcDbSymbolTableRecord
100
AcDbLinetypeTableRecord
  2
HIDDEN
 70
     0
  3
Hidden __ __ __ __ __ __ __ __ __ __ __ __ __ _
 72
    65
 73
     2
 40
0.375
 49
0.25
 74
     0
 49
-0.125
 74
     0
  0
LTYPE
  5
40
330
5
100
AcDbSymbolTableRecord
100
AcDbLinetypeTableRecord
  2
HIDDEN2
 70
     0
  3
Hidden (.5x) _ _ _ _ _ _ _ _ _ _ _ _ _ _ _ _ _
 72
    65
 73
     2
 40
0.1875
 49
0.125
 74
     0
 49
-0.0625
 74
     0
  0
LTYPE
  5
41
330
5
100
AcDbSymbolTableRecord
100
AcDbLinetypeTableRecord
  2
HIDDENX2
 70
     0
  3
Hidden (2x) ____ ____ ____ ____ ____ ____ ____
 72
    65
 73
     2
 40
0.75
 49
0.5
 74
     0
 49
-0.25
 74
     0
  0
LTYPE
  5
42
330
5
100
AcDbSymbolTableRecord
100
AcDbLinetypeTableRecord
  2
PHANTOM
 70
     0
  3
Phantom ______  __  __  ______  __  __  ______
 72
    65
 73
     6
 40
2.5
 49
1.25
 74
     0
 49
-0.25
 74
     0
 49
0.25
 74
     0
 49
-0.25
 74
     0
 49
0.25
 74
     0
 49
-0.25
 74
     0
  0
LTYPE
  5
43
330
5
100
AcDbSymbolTableRecord
100
AcDbLinetypeTableRecord
  2
PHANTOM2
 70
     0
  3
Phantom (.5x) ___ _ _ ___ _ _ ___ _ _ ___ _ _
 72
    65
 73
     6
 40
1.25
 49
0.625
 74
     0
 49
-0.125
 74
     0
 49
0.125
 74
     0
 49
-0.125
 74
     0
 49
0.125
 74
     0
 49
-0.125
 74
     0
  0
LTYPE
  5
44
330
5
100
AcDbSymbolTableRecord
100
AcDbLinetypeTableRecord
  2
PHANTOMX2
 70
     0
  3
Phantom (2x) ____________    ____    ____   _
 72
    65
 73
     6
 40
5.0
 49
2.5
 74
     0
 49
-0.5
 74
     0
 49
0.5
 74
     0
 49
-0.5
 74
     0
 49
0.5
 74
     0
 49
-0.5
 74
     0
  0
ENDTAB
  0
TABLE
  2
LAYER
  5
2
330
0
100
AcDbSymbolTable
 70
     4
  0
LAYER
  5
10
330
2
100
AcDbSymbolTableRecord
100
AcDbLayerTableRecord
  2
0
 70
     0
 62
     7
  6
Continuous
370
    -3
390
F
  0
LAYER
  5
9B
330
2
100
AcDbSymbolTableRecord
100
AcDbLayerTableRecord
  2
1
 70
     0
 62
     7
  6
Continuous
370
     0
390
F
  0
LAYER
  5
9C
330
2
100
AcDbSymbolTableRecord
100
AcDbLayerTableRecord
  2
2
 70
     0
 62
     7
  6
Continuous
370
     0
390
F
  0
LAYER
  5
444
330
2
100
AcDbSymbolTableRecord
100
AcDbLayerTableRecord
  2
Defpoints
 70
     0
 62
     7
  6
Continuous
290
     0
370
    -3
390
F
  0
ENDTAB
  0
TABLE
  2
STYLE
  5
3
330
0
100
AcDbSymbolTable
 70
     8
  0
STYLE
  5
11
330
3
100
AcDbSymbolTableRecord
100
AcDbTextStyleTableRecord
  2
Standard
 70
     0
 40
0.0
 41
1.0
 50
0.0
 71
     0
 42
0.2
  3
txt
  4

  0
STYLE
  5
2C
330
3
100
AcDbSymbolTableRecord
100
AcDbTextStyleTableRecord
  2

 70
     1
 40
0.0
 41
1.0
 50
0.0
 71
     0
 42
0.2
  3
ltypeshp.shx
  4

  0
STYLE
  5
4A
330
3
100
AcDbSymbolTableRecord
100
AcDbTextStyleTableRecord
  2
Simplex
 70
     0
 40
0.0
 41
1.0
 50
0.0
 71
     0
 42
0.2
  3
simplex.shx
  4

  0
STYLE
  5
4B
330
3
100
AcDbSymbolTableRecord
100
AcDbTextStyleTableRecord
  2
BigFont
 70
     0
 40
0.0
 41
1.0
 50
0.0
 71
     0
 42
0.2
  3
simplex.shx
  4
bigfont.shx
  0
STYLE
  5
E0
330
3
100
AcDbSymbolTableRecord
100
AcDbTextStyleTableRecord
  2
DC_TEXTSTYLE4
 70
     0
 40
0.2
 41
1.0
 50
0.0
 71
     0
 42
0.2
  3
arialbi.ttf
  4

1001
ACAD
1000
Arial
1071
 50331682
  0
STYLE
  5
E5
330
3
100
AcDbSymbolTableRecord
100
AcDbTextStyleTableRecord
  2
DC_TEXTSTYLE5
 70
     0
 40
0.2
 41
1.0
 50
0.0
 71
     0
 42
0.2
  3
arial.ttf
  4

1001
ACAD
1000
Arial
1071
       34
  0
STYLE
  5
101
330
3
100
AcDbSymbolTableRecord
100
AcDbTextStyleTableRecord
  2
DC_TEXTSTYLE6
 70
     0
 40
0.2
 41
1.0
 50
0.0
 71
     0
 42
0.2
  3
timesbd.ttf
  4

1001
ACAD
1000
Times New Roman
1071
 33554450
  0
STYLE
  5
443
330
3
100
AcDbSymbolTableRecord
100
AcDbTextStyleTableRecord
  2
DC_TEXTSTYLE7
 70
     0
 40
0.031
 41
1.0
 50
0.0
 71
     0
 42
0.2
  3
arial.ttf
  4

1001
ACAD
1000
Arial
1071
        4
  0
ENDTAB
  0
TABLE
  2
VIEW
  5
6
330
0
100
AcDbSymbolTable
 70
     0
  0
ENDTAB
  0
TABLE
  2
UCS
  5
7
330
0
100
AcDbSymbolTable
 70
     0
  0
ENDTAB
  0
TABLE
  2
APPID
  5
9
330
0
100
AcDbSymbolTable
 70
     2
  0
APPID
  5
12
330
9
100
AcDbSymbolTableRecord
100
AcDbRegAppTableRecord
  2
ACAD
 70
     0
  0
APPID
  5
4B9
330
9
100
AcDbSymbolTableRecord
100
AcDbRegAppTableRecord
  2
ACAD_MLEADERVER
 70
     0
  0
ENDTAB
  0
TABLE
  2
DIMSTYLE
  5
A
330
0
100
AcDbSymbolTable
 70
     1
100
AcDbDimStyleTable
  0
DIMSTYLE
105
27
102
{ACAD_REACTORS
330
442
330
451
330
45E
102
}
330
A
100
AcDbSymbolTableRecord
100
AcDbDimStyleTableRecord
  2
Standard
 70
     0
178
     0
340
11
  0
ENDTAB
  0
TABLE
  2
BLOCK_RECORD
  5
1
330
0
100
AcDbSymbolTable
 70
     5
  0
BLOCK_RECORD
  5
1F
330
1
100
AcDbSymbolTableRecord
100
AcDbBlockTableRecord
  2
*Model_Space
340
22
  0
BLOCK_RECORD
  5
1B
330
1
100
AcDbSymbolTableRecord
100
AcDbBlockTableRecord
  2
*Paper_Space
340
1E
  0
BLOCK_RECORD
  5
9D
330
1
100
AcDbSymbolTableRecord
100
AcDbBlockTableRecord
  2
1
340
0
  0
BLOCK_RECORD
  5
445
330
1
100
AcDbSymbolTableRecord
100
AcDbBlockTableRecord
  2
*D2
340
0
  0
BLOCK_RECORD
  5
452
330
1
100
AcDbSymbolTableRecord
100
AcDbBlockTableRecord
  2
*D3
340
0
  0
BLOCK_RECORD
  5
45F
330
1
100
AcDbSymbolTableRecord
100
AcDbBlockTableRecord
  2
*D4
340
0
  0
ENDTAB
  0
ENDSEC
  0
SECTION
  2
BLOCKS
  0
BLOCK
  5
20
330
1F
100
AcDbEntity
  8
0
100
AcDbBlockBegin
  2
*Model_Space
 70
     0
 10
0.0
 20
0.0
 30
0.0
  3
*Model_Space
  1

  0
ENDBLK
  5
21
330
1F
100
AcDbEntity
  8
0
100
AcDbBlockEnd
  0
BLOCK
  5
1C
330
1B
100
AcDbEntity
 67
     1
  8
0
100
AcDbBlockBegin
  2
*Paper_Space
 70
     0
 10
0.0
 20
0.0
 30
0.0
  3
*Paper_Space
  1

  0
ENDBLK
  5
1D
330
1B
100
AcDbEntity
 67
     1
  8
0
100
AcDbBlockEnd
  0
BLOCK
  5
D3
330
9D
100
AcDbEntity
  8
0
100
AcDbBlockBegin
  2
1
 70
     0
 10
2.070519440650411
 20
0.0289406770784656
 30
0.0
  3
1
  1

  0
POLYLINE
  5
9E
330
9D
100
AcDbEntity
  8
1
  6
Continuous
 62
     7
 48
0.0007778464144901
370
     0
100
AcDb2dPolyline
 66
     1
 10
0.0
 20
0.0
 30
0.0
  0
VERTEX
  5
9F
330
9E
100
AcDbEntity
  8
1
  6
Continuous
 62
     7
 48
0.0007778464144901
100
AcDbVertex
100
AcDb2dVertex
 10
1.955720805690217
 20
-0.0352176592544551
 30
0.0
 40
14.95258802544959
 41
14.95258802544959
  0
VERTEX
  5
A0
330
9E
100
AcDbEntity
  8
1
  6
Continuous
 62
     7
 48
0.0007778464144901
100
AcDbVertex
100
AcDb2dVertex
 10
1.955720805690217
 20
-0.0352176592544551
 30
0.0
 40
14.95258802544959
 41
14.95258802544959
  0
SEQEND
  5
A1
330
9E
100
AcDbEntity
  8
1
  6
Continuous
 62
     7
 48
0.0007778464144901
370
     0
  0
POLYLINE
  5
A2
330
9D
100
AcDbEntity
  8
1
  6
Continuous
 62
     7
 48
0.0007778464144901
370
     0
100
AcDb2dPolyline
 66
     1
 10
0.0
 20
0.0
 30
0.0
  0
VERTEX
  5
A3
330
A2
100
AcDbEntity
  8
1
  6
Continuous
 62
     7
 48
0.0007778464144901
100
AcDbVertex
100
AcDb2dVertex
 10
2.158527691105051
 20
-0.0493014707415963
 30
0.0
 40
14.95258802544959
 41
14.95258802544959
  0
VERTEX
  5
A4
330
A2
100
AcDbEntity
  8
1
  6
Continuous
 62
     7
 48
0.0007778464144901
100
AcDbVertex
100
AcDb2dVertex
 10
2.139837842002362
 20
-0.0352176592544551
 30
0.0
 40
14.95258802544959
 41
14.95258802544959
  0
SEQEND
  5
A5
330
A2
100
AcDbEntity
  8
1
  6
Continuous
 62
     7
 48
0.0007778464144901
370
     0
  0
POLYLINE
  5
A6
330
9D
100
AcDbEntity
  8
1
  6
Continuous
 62
     7
 48
0.0007778464144901
370
     0
100
AcDb2dPolyline
 66
     1
 10
0.0
 20
0.0
 30
0.0
  0
VERTEX
  5
A7
330
A6
100
AcDbEntity
  8
1
  6
Continuous
 62
     7
 48
0.0007778464144901
100
AcDbVertex
100
AcDb2dVertex
 10
1.961354330285074
 20
-0.0352176592544551
 30
0.0
 40
14.95258802544959
 41
14.95258802544959
  0
VERTEX
  5
A8
330
A6
100
AcDbEntity
  8
1
  6
Continuous
 62
     7
 48
0.0007778464144901
100
AcDbVertex
100
AcDb2dVertex
 10
1.955720805690217
 20
-0.029584134659599
 30
0.0
 40
14.95258802544959
 41
14.95258802544959
  0
SEQEND
  5
A9
330
A6
100
AcDbEntity
  8
1
  6
Continuous
 62
     7
 48
0.0007778464144901
370
     0
  0
POLYLINE
  5
AA
330
9D
100
AcDbEntity
  8
1
  6
Continuous
 62
     7
 48
0.0007778464144901
370
     0
100
AcDb2dPolyline
 66
     1
 10
0.0
 20
0.0
 30
0.0
  0
VERTEX
  5
AB
330
AA
100
AcDbEntity
  8
1
  6
Continuous
 62
     7
 48
0.0007778464144901
100
AcDbVertex
100
AcDb2dVertex
 10
2.158527691105051
 20
0.0549187342632486
 30
0.0
 40
14.95258802544959
 41
14.95258802544959
  0
VERTEX
  5
AC
330
AA
100
AcDbEntity
  8
1
  6
Continuous
 62
     7
 48
0.0007778464144901
100
AcDbVertex
100
AcDb2dVertex
 10
1.955720805690217
 20
0.0549187342632486
 30
0.0
 40
14.95258802544959
 41
14.95258802544959
  0
SEQEND
  5
AD
330
AA
100
AcDbEntity
  8
1
  6
Continuous
 62
     7
 48
0.0007778464144901
370
     0
  0
POLYLINE
  5
AE
330
9D
100
AcDbEntity
  8
1
  6
Continuous
 62
     7
 48
0.0007778464144901
370
     0
100
AcDb2dPolyline
 66
     1
 10
0.0
 20
0.0
 30
0.0
  0
VERTEX
  5
AF
330
AE
100
AcDbEntity
  8
1
  6
Continuous
 62
     7
 48
0.0007778464144901
100
AcDbVertex
100
AcDb2dVertex
 10
2.158527691105051
 20
0.1140707425092417
 30
0.0
 40
14.95258802544959
 41
14.95258802544959
  0
VERTEX
  5
B0
330
AE
100
AcDbEntity
  8
1
  6
Continuous
 62
     7
 48
0.0007778464144901
100
AcDbVertex
100
AcDb2dVertex
 10
2.139837842002362
 20
0.0999869310221004
 30
0.0
 40
14.95258802544959
 41
14.95258802544959
  0
SEQEND
  5
B1
330
AE
100
AcDbEntity
  8
1
  6
Continuous
 62
     7
 48
0.0007778464144901
370
     0
  0
POLYLINE
  5
B2
330
9D
100
AcDbEntity
  8
1
  6
Continuous
 62
     7
 48
0.0007778464144901
370
     0
100
AcDb2dPolyline
 66
     1
 10
0.0
 20
0.0
 30
0.0
  0
VERTEX
  5
B3
330
B2
100
AcDbEntity
  8
1
  6
Continuous
 62
     7
 48
0.0007778464144901
100
AcDbVertex
100
AcDb2dVertex
 10
1.961354330285074
 20
0.0999869310221004
 30
0.0
 40
14.95258802544959
 41
14.95258802544959
  0
VERTEX
  5
B4
330
B2
100
AcDbEntity
  8
1
  6
Continuous
 62
     7
 48
0.0007778464144901
100
AcDbVertex
100
AcDb2dVertex
 10
1.955720805690217
 20
0.0943534064272444
 30
0.0
 40
14.95258802544959
 41
14.95258802544959
  0
SEQEND
  5
B5
330
B2
100
AcDbEntity
  8
1
  6
Continuous
 62
     7
 48
0.0007778464144901
370
     0
  0
POLYLINE
  5
B6
330
9D
100
AcDbEntity
  8
1
  6
Continuous
 62
     7
 48
0.0007778464144901
370
     0
100
AcDb2dPolyline
 66
     1
 10
0.0
 20
0.0
 30
0.0
  0
VERTEX
  5
B7
330
B6
100
AcDbEntity
  8
1
  6
Continuous
 62
     7
 48
0.0007778464144901
100
AcDbVertex
100
AcDb2dVertex
 10
2.158527691105051
 20
0.0098505375043967
 30
0.0
 40
14.95258802544959
 41
14.95258802544959
  0
VERTEX
  5
B8
330
B6
100
AcDbEntity
  8
1
  6
Continuous
 62
     7
 48
0.0007778464144901
100
AcDbVertex
100
AcDb2dVertex
 10
1.955720805690217
 20
0.0098505375043967
 30
0.0
 40
14.95258802544959
 41
14.95258802544959
  0
SEQEND
  5
B9
330
B6
100
AcDbEntity
  8
1
  6
Continuous
 62
     7
 48
0.0007778464144901
370
     0
  0
POLYLINE
  5
BA
330
9D
100
AcDbEntity
  8
1
  6
Continuous
 62
     7
 48
0.0007778464144901
370
     0
100
AcDb2dPolyline
 66
     1
 10
0.0
 20
0.0
 30
0.0
  0
VERTEX
  5
BB
330
BA
100
AcDbEntity
  8
1
  6
Continuous
 62
     7
 48
0.0007778464144901
100
AcDbVertex
100
AcDb2dVertex
 10
2.152894166510194
 20
0.0549187342632486
 30
0.0
 40
14.95258802544959
 41
14.95258802544959
  0
VERTEX
  5
BC
330
BA
100
AcDbEntity
  8
1
  6
Continuous
 62
     7
 48
0.0007778464144901
100
AcDbVertex
100
AcDb2dVertex
 10
1.961354330285074
 20
0.0549187342632486
 30
0.0
 40
14.95258802544959
 41
14.95258802544959
  0
SEQEND
  5
BD
330
BA
100
AcDbEntity
  8
1
  6
Continuous
 62
     7
 48
0.0007778464144901
370
     0
  0
POLYLINE
  5
BE
330
9D
100
AcDbEntity
  8
1
  6
Continuous
 62
     7
 48
0.0007778464144901
370
     0
100
AcDb2dPolyline
 66
     1
 10
0.0
 20
0.0
 30
0.0
  0
VERTEX
  5
BF
330
BE
100
AcDbEntity
  8
1
  6
Continuous
 62
     7
 48
0.0007778464144901
100
AcDbVertex
100
AcDb2dVertex
 10
2.158527691105051
 20
-0.0493014707415963
 30
0.0
 40
14.95258802544959
 41
14.95258802544959
  0
VERTEX
  5
C0
330
BE
100
AcDbEntity
  8
1
  6
Continuous
 62
     7
 48
0.0007778464144901
100
AcDbVertex
100
AcDb2dVertex
 10
2.158527691105051
 20
0.1140707425092422
 30
0.0
 40
14.95258802544959
 41
14.95258802544959
  0
SEQEND
  5
C1
330
BE
100
AcDbEntity
  8
1
  6
Continuous
 62
     7
 48
0.0007778464144901
370
     0
  0
POLYLINE
  5
C2
330
9D
100
AcDbEntity
  8
1
  6
Continuous
 62
     7
 48
0.0007778464144901
370
     0
100
AcDb2dPolyline
 66
     1
 10
0.0
 20
0.0
 30
0.0
 70
   128
  0
VERTEX
  5
C3
330
C2
100
AcDbEntity
  8
1
  6
Continuous
 62
     7
 48
0.0007778464144901
100
AcDbVertex
100
AcDb2dVertex
 10
2.139837842002362
 20
0.0999869310221004
 30
0.0
 40
14.95258802544959
 41
14.95258802544959
  0
VERTEX
  5
C4
330
C2
100
AcDbEntity
  8
1
  6
Continuous
 62
     7
 48
0.0007778464144901
100
AcDbVertex
100
AcDb2dVertex
 10
1.961354330285074
 20
0.0999869310221004
 30
0.0
 40
14.95258802544959
 41
14.95258802544959
  0
VERTEX
  5
C5
330
C2
100
AcDbEntity
  8
1
  6
Continuous
 62
     7
 48
0.0007778464144901
100
AcDbVertex
100
AcDb2dVertex
 10
1.955720805690217
 20
0.0943534064272443
 30
0.0
 40
14.95258802544959
 41
14.95258802544959
  0
SEQEND
  5
C6
330
C2
100
AcDbEntity
  8
1
  6
Continuous
 62
     7
 48
0.0007778464144901
370
     0
  0
POLYLINE
  5
C7
330
9D
100
AcDbEntity
  8
1
  6
Continuous
 62
     7
 48
0.0007778464144901
370
     0
100
AcDb2dPolyline
 66
     1
 10
0.0
 20
0.0
 30
0.0
 70
   128
  0
VERTEX
  5
C8
330
C7
100
AcDbEntity
  8
1
  6
Continuous
 62
     7
 48
0.0007778464144901
100
AcDbVertex
100
AcDb2dVertex
 10
2.139837842002362
 20
-0.0352176592544551
 30
0.0
 40
14.95258802544959
 41
14.95258802544959
  0
VERTEX
  5
C9
330
C7
100
AcDbEntity
  8
1
  6
Continuous
 62
     7
 48
0.0007778464144901
100
AcDbVertex
100
AcDb2dVertex
 10
1.961354330285074
 20
-0.0352176592544551
 30
0.0
 40
14.95258802544959
 41
14.95258802544959
  0
VERTEX
  5
CA
330
C7
100
AcDbEntity
  8
1
  6
Continuous
 62
     7
 48
0.0007778464144901
100
AcDbVertex
100
AcDb2dVertex
 10
1.955720805690217
 20
-0.029584134659599
 30
0.0
 40
14.95258802544959
 41
14.95258802544959
  0
SEQEND
  5
CB
330
C7
100
AcDbEntity
  8
1
  6
Continuous
 62
     7
 48
0.0007778464144901
370
     0
  0
POLYLINE
  5
CC
330
9D
100
AcDbEntity
  8
1
  6
Continuous
 62
     7
 48
0.0007778464144901
370
     0
100
AcDb2dPolyline
 66
     1
 10
0.0
 20
0.0
 30
0.0
  0
VERTEX
  5
CD
330
CC
100
AcDbEntity
  8
1
  6
Continuous
 62
     7
 48
0.0007778464144901
100
AcDbVertex
100
AcDb2dVertex
 10
1.955720805690217
 20
-0.029584134659599
 30
0.0
 40
14.95258802544959
 41
14.95258802544959
  0
VERTEX
  5
CE
330
CC
100
AcDbEntity
  8
1
  6
Continuous
 62
     7
 48
0.0007778464144901
100
AcDbVertex
100
AcDb2dVertex
 10
1.955720805690217
 20
0.0943534064272442
 30
0.0
 40
14.95258802544959
 41
14.95258802544959
  0
SEQEND
  5
CF
330
CC
100
AcDbEntity
  8
1
  6
Continuous
 62
     7
 48
0.0007778464144901
370
     0
  0
HATCH
  5
D0
330
9D
100
AcDbEntity
  8
1
  6
Continuous
 62
     7
 48
0.0021224820283175
370
     0
100
AcDbHatch
 10
0.0
 20
0.0
 30
0.0
210
0.0
220
0.0
230
1.0
  2
DC_ANSI31
 70
     0
 71
     0
 91
        1
 92
        3
 72
     0
 73
     1
 93
        6
 10
2.158527691105051
 20
0.0549187342632487
 10
1.955720805690217
 20
0.0549187342632487
 10
1.955720805690217
 20
0.0943534064272431
 10
1.961354330285074
 20
0.0999869310221004
 10
2.139837842002365
 20
0.0999869310221005
 10
2.158527691105051
 20
0.1140707425092424
 97
        0
 75
     0
 76
     2
 52
0.0
 41
50.0
 77
     0
 78
     1
 53
45.0
 43
0.0
 44
0.0
 45
-0.0150082143516992
 46
0.0150082143516992
 79
     1
 49
4.244964056635093
 98
        1
 10
0.0
 20
0.0
  0
HATCH
  5
D1
330
9D
100
AcDbEntity
  8
1
  6
Continuous
 62
     7
 48
0.0021224820283175
370
     0
100
AcDbHatch
 10
0.0
 20
0.0
 30
0.0
210
0.0
220
0.0
230
1.0
  2
DC_ANSI31
 70
     0
 71
     0
 91
        1
 92
        3
 72
     0
 73
     1
 93
        6
 10
2.158527691105051
 20
-0.0493014707415962
 10
2.139837842002363
 20
-0.0352176592544551
 10
1.961354330285074
 20
-0.0352176592544551
 10
1.955720805690217
 20
-0.0295841346595981
 10
1.955720805690217
 20
0.0098505375043967
 10
2.158527691105051
 20
0.0098505375043967
 97
        0
 75
     0
 76
     2
 52
0.0
 41
50.0
 77
     0
 78
     1
 53
45.0
 43
0.0
 44
0.0
 45
-0.0150082143516992
 46
0.0150082143516992
 79
     1
 49
4.244964056635093
 98
        1
 10
0.0
 20
0.0
  0
LINE
  5
D2
330
9D
100
AcDbEntity
  8
1
  6
Continuous
 62
     7
 48
0.0006791942490616
370
     0
100
AcDbLine
 10
1.955720805690217
 20
0.0323846358838226
 30
0.0
 11
2.158527691105051
 21
0.0323846358838229
 31
0.0
  0
ENDBLK
  5
D4
330
9D
100
AcDbEntity
  8
0
100
AcDbBlockEnd
  0
BLOCK
  5
446
330
445
100
AcDbEntity
  8
0
100
AcDbBlockBegin
  2
*D2
 70
     1
 10
0.0
 20
0.0
 30
0.0
  3
*D2
  1

  0
LINE
  5
448
330
445
100
AcDbEntity
  8
1
  6
Continuous
 62
     0
 48
0.0000424496405664
370
    -2
100
AcDbLine
 10
1.890889339932633
 20
0.457131662858928
 30
0.0
 11
1.890889339932633
 21
0.6113589353134736
 31
0.0
  0
LINE
  5
449
330
445
100
AcDbEntity
  8
1
  6
Continuous
 62
     0
 48
0.0000424496405664
370
    -2
100
AcDbLine
 10
2.340889339932634
 20
0.3076316628589279
 30
0.0
 11
2.340889339932634
 21
0.6113589353134736
 31
0.0
  0
LINE
  5
44A
330
445
100
AcDbEntity
  8
1
  6
Continuous
 62
     0
 48
0.0000424496405664
370
    -2
100
AcDbLine
 10
1.921889339932633
 20
0.6000862083134736
 30
0.0
 11
2.309889339932634
 21
0.6000862083134736
 31
0.0
  0
SOLID
  5
44B
330
445
100
AcDbEntity
  8
1
 62
     0
100
AcDbTrace
 10
1.921889339932633
 20
0.6052528749801402
 30
0.0
 11
1.921889339932633
 21
0.5949195416468069
 31
0.0
 12
1.890889339932633
 22
0.6000862083134736
 32
0.0
 13
1.890889339932633
 23
0.6000862083134736
 33
0.0
  0
SOLID
  5
44C
330
445
100
AcDbEntity
  8
1
 62
     0
100
AcDbTrace
 10
2.309889339932634
 20
0.5949195416468069
 30
0.0
 11
2.309889339932634
 21
0.6052528749801402
 31
0.0
 12
2.340889339932634
 22
0.6000862083134736
 32
0.0
 13
2.340889339932634
 23
0.6000862083134736
 33
0.0
  0
MTEXT
  5
44D
330
445
100
AcDbEntity
  8
1
 62
     0
370
     0
100
AcDbMText
 10
2.115889339932633
 20
0.6314680719498372
 30
0.0
 40
0.031
 41
0.0
 71
     5
 72
     1
  1
\A1;0.450
  7
DC_TEXTSTYLE7
 73
     1
 44
1.0
  0
POINT
  5
44E
330
445
100
AcDbEntity
  8
Defpoints
 62
     0
100
AcDbPoint
 10
1.890889339932633
 20
0.4345862083134734
 30
0.0
  0
POINT
  5
44F
330
445
100
AcDbEntity
  8
Defpoints
 62
     0
100
AcDbPoint
 10
2.340889339932634
 20
0.2850862083134734
 30
0.0
  0
POINT
  5
450
330
445
100
AcDbEntity
  8
Defpoints
 62
     0
100
AcDbPoint
 10
2.340889339932634
 20
0.6000862083134736
 30
0.0
  0
ENDBLK
  5
447
330
445
100
AcDbEntity
  8
0
100
AcDbBlockEnd
  0
BLOCK
  5
453
330
452
100
AcDbEntity
  8
0
100
AcDbBlockBegin
  2
*D3
 70
     1
 10
0.0
 20
0.0
 30
0.0
  3
*D3
  1

  0
LINE
  5
455
330
452
100
AcDbEntity
  8
1
  6
Continuous
 62
     0
 48
0.0000424496405664
370
    -2
100
AcDbLine
 10
1.162889339932633
 20
0.3046316628589279
 30
0.0
 11
1.162889339932633
 21
0.7373589353134736
 31
0.0
  0
LINE
  5
456
330
452
100
AcDbEntity
  8
1
  6
Continuous
 62
     0
 48
0.0000424496405664
370
    -2
100
AcDbLine
 10
2.340889339932634
 20
0.3076316628589279
 30
0.0
 11
2.340889339932634
 21
0.7373589353134736
 31
0.0
  0
LINE
  5
457
330
452
100
AcDbEntity
  8
1
  6
Continuous
 62
     0
 48
0.0000424496405664
370
    -2
100
AcDbLine
 10
1.193889339932633
 20
0.7260862083134736
 30
0.0
 11
2.309889339932634
 21
0.7260862083134736
 31
0.0
  0
SOLID
  5
458
330
452
100
AcDbEntity
  8
1
 62
     0
100
AcDbTrace
 10
1.193889339932633
 20
0.7312528749801402
 30
0.0
 11
1.193889339932633
 21
0.7209195416468069
 31
0.0
 12
1.162889339932633
 22
0.7260862083134736
 32
0.0
 13
1.162889339932633
 23
0.7260862083134736
 33
0.0
  0
SOLID
  5
459
330
452
100
AcDbEntity
  8
1
 62
     0
100
AcDbTrace
 10
2.309889339932634
 20
0.7209195416468069
 30
0.0
 11
2.309889339932634
 21
0.7312528749801402
 31
0.0
 12
2.340889339932634
 22
0.7260862083134736
 32
0.0
 13
2.340889339932634
 23
0.7260862083134736
 33
0.0
  0
MTEXT
  5
45A
330
452
100
AcDbEntity
  8
1
 62
     0
370
     0
100
AcDbMText
 10
1.751889339932633
 20
0.7574680719498372
 30
0.0
 40
0.031
 41
0.0
 71
     5
 72
     1
  1
\A1;1.178
  7
DC_TEXTSTYLE7
 73
     1
 44
1.0
  0
POINT
  5
45B
330
452
100
AcDbEntity
  8
Defpoints
 62
     0
100
AcDbPoint
 10
1.162889339932633
 20
0.2820862083134734
 30
0.0
  0
POINT
  5
45C
330
452
100
AcDbEntity
  8
Defpoints
 62
     0
100
AcDbPoint
 10
2.340889339932634
 20
0.2850862083134734
 30
0.0
  0
POINT
  5
45D
330
452
100
AcDbEntity
  8
Defpoints
 62
     0
100
AcDbPoint
 10
2.340889339932634
 20
0.7260862083134736
 30
0.0
  0
ENDBLK
  5
454
330
452
100
AcDbEntity
  8
0
100
AcDbBlockEnd
  0
BLOCK
  5
460
330
45F
100
AcDbEntity
  8
0
100
AcDbBlockBegin
  2
*D4
 70
     1
 10
0.0
 20
0.0
 30
0.0
  3
*D4
  1

  0
LINE
  5
462
330
45F
100
AcDbEntity
  8
1
  6
Continuous
 62
     0
 48
0.0000424496405664
370
    -2
100
AcDbLine
 10
1.899057970224573
 20
-0.2299137916865265
 30
0.0
 11
2.478162067205361
 21
-0.2299137916865266
 31
0.0
  0
LINE
  5
463
330
45F
100
AcDbEntity
  8
1
  6
Continuous
 62
     0
 48
0.0000424496405664
370
    -2
100
AcDbLine
 10
1.899057970224573
 20
0.4740862083134736
 30
0.0
 11
2.478162067205361
 21
0.4740862083134736
 31
0.0
  0
LINE
  5
464
330
45F
100
AcDbEntity
  8
1
  6
Continuous
 62
     0
 48
0.0000424496405664
370
    -2
100
AcDbLine
 10
2.466889339932634
 20
-0.1989137916865266
 30
0.0
 11
2.466889339932634
 21
0.4430862083134736
 31
0.0
  0
SOLID
  5
465
330
45F
100
AcDbEntity
  8
1
 62
     0
100
AcDbTrace
 10
2.461722673265967
 20
-0.1989137916865266
 30
0.0
 11
2.472056006599301
 21
-0.1989137916865266
 31
0.0
 12
2.466889339932634
 22
-0.2299137916865266
 32
0.0
 13
2.466889339932634
 23
-0.2299137916865266
 33
0.0
  0
SOLID
  5
466
330
45F
100
AcDbEntity
  8
1
 62
     0
100
AcDbTrace
 10
2.472056006599301
 20
0.4430862083134736
 30
0.0
 11
2.461722673265967
 21
0.4430862083134736
 31
0.0
 12
2.466889339932634
 22
0.4740862083134736
 32
0.0
 13
2.466889339932634
 23
0.4740862083134736
 33
0.0
  0
MTEXT
  5
467
330
45F
100
AcDbEntity
  8
1
 62
     0
370
     0
100
AcDbMText
 10
2.434611339932634
 20
0.1220862083134735
 30
0.0
 40
0.031
 41
0.0
 71
     5
 72
     1
  1
\A1;HEX TIP Ø0.704
  7
DC_TEXTSTYLE7
 11
0.0
 21
1.0
 31
0.0
 73
     1
 44
1.0
  0
POINT
  5
468
330
45F
100
AcDbEntity
  8
Defpoints
 62
     0
100
AcDbPoint
 10
1.876512515679118
 20
-0.2299137916865265
 30
0.0
  0
POINT
  5
469
330
45F
100
AcDbEntity
  8
Defpoints
 62
     0
100
AcDbPoint
 10
1.876512515679118
 20
0.4740862083134736
 30
0.0
  0
POINT
  5
46A
330
45F
100
AcDbEntity
  8
Defpoints
 62
     0
100
AcDbPoint
 10
2.466889339932634
 20
0.4740862083134736
 30
0.0
  0
ENDBLK
  5
461
330
45F
100
AcDbEntity
  8
0
100
AcDbBlockEnd
  0
ENDSEC
  0
SECTION
  2
ENTITIES
  0
LINE
  5
D5
330
1F
100
AcDbEntity
  8
1
  6
Continuous
 62
     7
 48
0.0006791942490616
370
     0
100
AcDbLine
 10
0.0649808772088798
 20
-1.055044607335967
 30
0.0
 11
3.589322353345539
 21
-1.055044607335967
 31
0.0
  0
LINE
  5
D6
330
1F
100
AcDbEntity
  8
1
  6
Continuous
 62
     7
 48
0.0006791942490616
370
     0
100
AcDbLine
 10
0.0649808772088798
 20
-1.055044607335967
 30
0.0
 11
0.0649808772088798
 21
1.4369140121546
 31
0.0
  0
LINE
  5
D7
330
1F
100
AcDbEntity
  8
1
  6
Continuous
 62
     7
 48
0.0006791942490616
370
     0
100
AcDbLine
 10
3.589322353345539
 20
-1.055044607335967
 30
0.0
 11
3.589322353345539
 21
1.4369140121546
 31
0.0
  0
LINE
  5
D8
330
1F
100
AcDbEntity
  8
1
  6
Continuous
 62
     7
 48
0.0006791942490616
370
     0
100
AcDbLine
 10
3.589322353345539
 20
1.4369140121546
 30
0.0
 11
0.0649808772088798
 21
1.4369140121546
 31
0.0
  0
POLYLINE
  5
D9
330
1F
100
AcDbEntity
  8
1
  6
Continuous
 62
     7
 48
0.0006791942490616
370
     0
100
AcDb2dPolyline
 66
     1
 10
0.0
 20
0.0
 30
0.0
 70
   128
  0
VERTEX
  5
DA
330
D9
100
AcDbEntity
  8
1
  6
Continuous
 62
     7
 48
0.0006791942490616
100
AcDbVertex
100
AcDb2dVertex
 10
2.784196873181087
 20
-1.030703131199307
 30
0.0
  0
VERTEX
  5
DB
330
D9
100
AcDbEntity
  8
1
  6
Continuous
 62
     7
 48
0.0006791942490616
100
AcDbVertex
100
AcDb2dVertex
 10
2.784196873181087
 20
-0.9357713742663333
 30
0.0
  0
VERTEX
  5
DC
330
D9
100
AcDbEntity
  8
1
  6
Continuous
 62
     7
 48
0.0006791942490616
100
AcDbVertex
100
AcDb2dVertex
 10
0.0893223533455396
 20
-0.9357713742663332
 30
0.0
  0
SEQEND
  5
DD
330
D9
100
AcDbEntity
  8
1
  6
Continuous
 62
     7
 48
0.0006791942490616
370
     0
  0
LINE
  5
DE
330
1F
100
AcDbEntity
  8
1
  6
Continuous
 62
     7
 48
0.0006791942490616
370
     0
100
AcDbLine
 10
2.144579677521842
 20
-0.840839617333359
 30
0.0
 11
2.144579677521842
 21
-1.030703131199307
 31
0.0
  0
LINE
  5
DF
330
1F
100
AcDbEntity
  8
1
  6
Continuous
 62
     7
 48
0.0006791942490616
370
     0
100
AcDbLine
 10
1.471157526778557
 20
-0.8408396173333594
 30
0.0
 11
1.471157526778557
 21
-1.030703131199307
 31
0.0
  0
TEXT
  5
E1
330
1F
100
AcDbEntity
  8
1
  6
Continuous
 62
     1
420
 16711680
370
     0
100
AcDbText
 10
0.1358252811348556
 20
-0.9192792606578558
 30
0.0
 40
0.047465878466487
  1
SPEED
  7
DC_TEXTSTYLE4
100
AcDbText
  0
TEXT
  5
E2
330
1F
100
AcDbEntity
  8
1
  6
Continuous
 62
     5
420
      255
370
     0
100
AcDbText
 10
0.3633117338133303
 20
-0.9197300131356473
 30
0.0
 40
0.047465878466487
  1
FLOW
  7
DC_TEXTSTYLE4
100
AcDbText
  0
TEXT
  5
E3
330
1F
100
AcDbEntity
  8
1
  6
Continuous
 62
     7
370
     0
100
AcDbText
 10
0.5757961183504495
 20
-0.9199608003401747
 30
0.0
 40
0.047465878466487
  1
PRODUCTS PTY LTD
  7
DC_TEXTSTYLE4
100
AcDbText
  0
LINE
  5
E4
330
1F
100
AcDbEntity
  8
1
  6
Continuous
 62
     7
 48
0.0006791942490616
370
     0
100
AcDbLine
 10
1.292533004203036
 20
-0.8408396173333594
 30
0.0
 11
1.292533004203036
 21
-0.9357713742663332
 31
0.0
  0
TEXT
  5
E6
330
1F
100
AcDbEntity
  8
1
  6
Continuous
 62
     7
370
     0
100
AcDbText
 10
1.323431945332074
 20
-0.8844421132394925
 30
0.0
 40
0.0237329392332436
  1
MAX 3D
  7
DC_TEXTSTYLE5
100
AcDbText
  0
TEXT
  5
E7
330
1F
100
AcDbEntity
  8
1
  6
Continuous
 62
     7
370
     0
100
AcDbText
 10
1.351933810231251
 20
-0.9258103173345307
 30
0.0
 40
0.0237329392332436
  1
V14
  7
DC_TEXTSTYLE5
100
AcDbText
  0
LINE
  5
E8
330
1F
100
AcDbEntity
  8
1
  6
Continuous
 62
     7
 48
0.0006791942490616
370
     0
100
AcDbLine
 10
1.471157526778557
 20
-0.9357713742663332
 30
0.0
 11
1.471157526778557
 21
-0.9357713742663332
 31
0.0
  0
LINE
  5
E9
330
1F
100
AcDbEntity
  8
1
  6
Continuous
 62
     7
 48
0.0006791942490616
370
     0
100
AcDbLine
 10
2.144579677521842
 20
-0.9357713742663332
 30
0.0
 11
2.144579677521842
 21
-0.9357713742663332
 31
0.0
  0
TEXT
  5
EA
330
1F
100
AcDbEntity
  8
1
  6
Continuous
 62
     7
370
     0
100
AcDbText
 10
1.4948904660118
 20
-0.9120384350330896
 30
0.0
 40
0.0415326436581761
  1
Drg No: 729-06
  7
DC_TEXTSTYLE5
100
AcDbText
  0
ARC
  5
EB
330
1F
100
AcDbEntity
  8
1
  6
Continuous
 62
     7
 48
0.0006791942490616
370
     0
100
AcDbCircle
 10
0.0893235110498927
 20
1.412571378313588
 30
0.0
 40
0.0000011577043526
100
AcDbArc
 50
90.0
 51
180.0
  0
LINE
  5
EC
330
1F
100
AcDbEntity
  8
1
  6
Continuous
 62
     7
 48
0.0006791942490616
370
     0
100
AcDbLine
 10
0.0893235110498927
 20
1.41257253601794
 30
0.0
 11
3.564979719504527
 21
1.41257253601794
 31
0.0
  0
LINE
  5
ED
330
1F
100
AcDbEntity
  8
1
  6
Continuous
 62
     7
 48
0.0006791942490616
370
     0
100
AcDbLine
 10
3.56498087720888
 20
1.412571378313588
 30
0.0
 11
3.56498087720888
 21
-1.030701973494955
 31
0.0
  0
LINE
  5
EE
330
1F
100
AcDbEntity
  8
1
  6
Continuous
 62
     7
 48
0.0006791942490616
370
     0
100
AcDbLine
 10
3.564979719504527
 20
-1.030703131199307
 30
0.0
 11
0.0893235110498922
 21
-1.030703131199307
 31
0.0
  0
ARC
  5
EF
330
1F
100
AcDbEntity
  8
1
  6
Continuous
 62
     7
 48
0.0006791942490616
370
     0
100
AcDbCircle
 10
0.0893235110498927
 20
-1.030701973494954
 30
0.0
 40
0.0000011577043528
100
AcDbArc
 50
180.0
 51
269.9999999780217
  0
LINE
  5
F0
330
1F
100
AcDbEntity
  8
1
  6
Continuous
 62
     7
 48
0.0006791942490616
370
     0
100
AcDbLine
 10
0.0893223533455398
 20
-1.030701973494954
 30
0.0
 11
0.0893223533455398
 21
1.412571378313588
 31
0.0
  0
LINE
  5
F1
330
1F
100
AcDbEntity
  8
1
  6
Continuous
 62
     7
 48
0.0006791942490616
370
     0
100
AcDbLine
 10
1.82715161527721
 20
1.41257253601794
 30
0.0
 11
1.82715161527721
 21
1.4369140121546
 31
0.0
  0
LINE
  5
F2
330
1F
100
AcDbEntity
  8
1
  6
Continuous
 62
     7
 48
0.0006791942490616
370
     0
100
AcDbLine
 10
3.56498087720888
 20
0.28586645934229
 30
0.0
 11
3.589322353345539
 21
0.2858664593422897
 31
0.0
  0
LINE
  5
F3
330
1F
100
AcDbEntity
  8
1
  6
Continuous
 62
     7
 48
0.0006791942490616
370
     0
100
AcDbLine
 10
0.0893223533455395
 20
0.2858664593422897
 30
0.0
 11
0.0649808772088798
 21
0.2858664593422897
 31
0.0
  0
POLYLINE
  5
F4
330
1F
100
AcDbEntity
  8
1
  6
Continuous
 62
     7
 48
0.0003395971245308
370
     0
100
AcDb2dPolyline
 66
     1
 10
0.0
 20
0.0
 30
0.0
 70
   128
  0
VERTEX
  5
F5
330
F4
100
AcDbEntity
  8
1
  6
Continuous
 62
     7
 48
0.0003395971245308
100
AcDbVertex
100
AcDb2dVertex
 10
0.0893223533455401
 20
1.344076338095148
 30
0.0
  0
VERTEX
  5
F6
330
F4
100
AcDbEntity
  8
1
  6
Continuous
 62
     7
 48
0.0003395971245308
100
AcDbVertex
100
AcDb2dVertex
 10
1.041696030800526
 20
1.344076338095147
 30
0.0
  0
VERTEX
  5
F7
330
F4
100
AcDbEntity
  8
1
  6
Continuous
 62
     7
 48
0.0003395971245308
100
AcDbVertex
100
AcDb2dVertex
 10
1.041696030800526
 20
1.41257253601794
 30
0.0
  0
SEQEND
  5
F8
330
F4
100
AcDbEntity
  8
1
  6
Continuous
 62
     7
 48
0.0003395971245308
370
     0
  0
POLYLINE
  5
F9
330
1F
100
AcDbEntity
  8
1
  6
Continuous
 62
     7
 48
0.0033959712453081
370
     0
100
AcDb2dPolyline
 66
     1
 10
0.0
 20
0.0
 30
0.0
 70
   128
  0
VERTEX
  5
FA
330
F9
100
AcDbEntity
  8
1
  6
Continuous
 62
     7
 48
0.0033959712453081
100
AcDbVertex
100
AcDb2dVertex
 10
3.440396970300085
 20
1.412571609854458
 30
0.0
  0
VERTEX
  5
FB
330
F9
100
AcDbEntity
  8
1
  6
Continuous
 62
     7
 48
0.0033959712453081
100
AcDbVertex
100
AcDb2dVertex
 10
3.440396970300085
 20
1.336857000400711
 30
0.0
  0
VERTEX
  5
FC
330
F9
100
AcDbEntity
  8
1
  6
Continuous
 62
     7
 48
0.0033959712453081
100
AcDbVertex
100
AcDb2dVertex
 10
3.564979719504526
 20
1.336857000400711
 30
0.0
  0
SEQEND
  5
FD
330
F9
100
AcDbEntity
  8
1
  6
Continuous
 62
     7
 48
0.0033959712453081
370
     0
  0
LINE
  5
FE
330
1F
100
AcDbEntity
  8
1
  6
Continuous
 62
     7
 48
0.0006791942490616
370
     0
100
AcDbLine
 10
2.818001828265125
 20
-0.840839617333359
 30
0.0
 11
3.56498087720888
 21
-0.840839617333359
 31
0.0
  0
TEXT
  5
FF
330
1F
100
AcDbEntity
  8
1
  6
Continuous
 62
     7
370
     0
100
AcDbText
 10
2.168312616755085
 20
-0.9120384350330896
 30
0.0
 40
0.0415326436581761
  1
Drg Date: 26/07/2017
  7
DC_TEXTSTYLE5
100
AcDbText
  0
TEXT
  5
100
330
1F
100
AcDbEntity
  8
1
  6
Continuous
 62
     5
420
      255
370
     0
100
AcDbText
 10
0.0983739678792541
 20
1.358946543882142
 30
0.0
 40
0.0309039381031037
  1
-6 AN TO M10 x 1P WASHER SEAL ADAPTER
  7
DC_TEXTSTYLE5
100
AcDbText
  0
TEXT
  5
102
330
1F
100
AcDbEntity
  8
1
  6
DASHED
 62
     1
420
 16711680
370
     0
100
AcDbText
 10
3.472625835344152
 20
1.351999922291457
 30
0.0
 40
0.033221733460836
  1
A4
 41
1.000000000000003
  7
DC_TEXTSTYLE6
 72
     1
 11
3.502688344902306
 21
1.351999922291457
 31
0.0
100
AcDbText
  0
LINE
  5
103
330
1F
100
AcDbEntity
  8
1
  6
Continuous
 62
     7
 48
0.0020280743027767
370
     0
100
AcDbLine
 10
3.440396970300085
 20
1.336857000400711
 30
0.0
 11
3.229124243027357
 21
1.336857000400711
 31
0.0
  0
LINE
  5
104
330
1F
100
AcDbEntity
  8
1
  6
CENTER
 62
    94
420
    37376
 48
0.0509090909090909
370
     0
100
AcDbLine
 10
3.300907919822954
 20
1.374714305127585
 30
0.0
 11
3.245001696185619
 21
1.374714305127585
 31
0.0
  0
POLYLINE
  5
105
330
1F
100
AcDbEntity
  8
1
  6
Continuous
 62
     7
 48
0.0020280743027767
370
     0
100
AcDb2dPolyline
 66
     1
 10
0.0
 20
0.0
 30
0.0
  0
VERTEX
  5
106
330
105
100
AcDbEntity
  8
1
  6
Continuous
 62
     7
 48
0.0020280743027767
100
AcDbVertex
100
AcDb2dVertex
 10
3.414942424845541
 20
1.395077941491221
 30
0.0
 40
0.00322
 41
0.00322
  0
VERTEX
  5
107
330
105
100
AcDbEntity
  8
1
  6
Continuous
 62
     7
 48
0.0020280743027767
100
AcDbVertex
100
AcDb2dVertex
 10
3.414942424845541
 20
1.354350668763948
 30
0.0
 40
0.00322
 41
0.00322
  0
SEQEND
  5
108
330
105
100
AcDbEntity
  8
1
  6
Continuous
 62
     7
 48
0.0020280743027767
370
     0
  0
POLYLINE
  5
109
330
1F
100
AcDbEntity
  8
1
  6
Continuous
 62
     7
 48
0.0020280743027767
370
     0
100
AcDb2dPolyline
 66
     1
 10
0.0
 20
0.0
 30
0.0
  0
VERTEX
  5
10A
330
109
100
AcDbEntity
  8
1
  6
Continuous
 62
     7
 48
0.0020280743027767
100
AcDbVertex
100
AcDb2dVertex
 10
3.338578788481904
 20
1.387441577854857
 30
0.0
 40
0.00322
 41
0.00322
  0
VERTEX
  5
10B
330
109
100
AcDbEntity
  8
1
  6
Continuous
 62
     7
 48
0.0020280743027767
100
AcDbVertex
100
AcDb2dVertex
 10
3.338578788481904
 20
1.361987032400312
 30
0.0
 40
0.00322
 41
0.00322
  0
SEQEND
  5
10C
330
109
100
AcDbEntity
  8
1
  6
Continuous
 62
     7
 48
0.0020280743027767
370
     0
  0
POLYLINE
  5
10D
330
1F
100
AcDbEntity
  8
1
  6
Continuous
 62
     7
 48
0.0020280743027767
370
     0
100
AcDb2dPolyline
 66
     1
 10
0.0
 20
0.0
 30
0.0
  0
VERTEX
  5
10E
330
10D
100
AcDbEntity
  8
1
  6
Continuous
 62
     7
 48
0.0020280743027767
100
AcDbVertex
100
AcDb2dVertex
 10
3.338578788481904
 20
1.387441577854857
 30
0.0
 40
0.00322
 41
0.00322
  0
VERTEX
  5
10F
330
10D
100
AcDbEntity
  8
1
  6
Continuous
 62
     7
 48
0.0020280743027767
100
AcDbVertex
100
AcDb2dVertex
 10
3.414942424845541
 20
1.395077941491221
 30
0.0
 40
0.00322
 41
0.00322
  0
SEQEND
  5
110
330
10D
100
AcDbEntity
  8
1
  6
Continuous
 62
     7
 48
0.0020280743027767
370
     0
  0
POLYLINE
  5
111
330
1F
100
AcDbEntity
  8
1
  6
Continuous
 62
     7
 48
0.0020280743027767
370
     0
100
AcDb2dPolyline
 66
     1
 10
0.0
 20
0.0
 30
0.0
  0
VERTEX
  5
112
330
111
100
AcDbEntity
  8
1
  6
Continuous
 62
     7
 48
0.0020280743027767
100
AcDbVertex
100
AcDb2dVertex
 10
3.338578788481904
 20
1.361987032400312
 30
0.0
 40
0.00322
 41
0.00322
  0
VERTEX
  5
113
330
111
100
AcDbEntity
  8
1
  6
Continuous
 62
     7
 48
0.0020280743027767
100
AcDbVertex
100
AcDb2dVertex
 10
3.414942424845541
 20
1.354350668763948
 30
0.0
 40
0.00322
 41
0.00322
  0
SEQEND
  5
114
330
111
100
AcDbEntity
  8
1
  6
Continuous
 62
     7
 48
0.0020280743027767
370
     0
  0
LINE
  5
115
330
1F
100
AcDbEntity
  8
1
  6
CENTER
 62
    94
420
    37376
 48
0.0509090909090909
370
     0
100
AcDbLine
 10
3.274942424845541
 20
1.40016885058213
 30
0.0
 11
3.274942424845541
 21
1.349259759673039
 31
0.0
  0
LINE
  5
116
330
1F
100
AcDbEntity
  8
1
  6
Continuous
 62
     7
 48
0.0020280743027767
370
     0
100
AcDbLine
 10
3.229124243027357
 20
1.33685700040071
 30
0.0
 11
3.229124243027356
 21
1.41257253601794
 31
0.0
  0
LINE
  5
117
330
1F
100
AcDbEntity
  8
1
  6
Continuous
 62
     7
 48
0.0020280743027767
370
     0
100
AcDbLine
 10
3.229124243027357
 20
1.296129727673438
 30
0.0
 11
3.56498064566801
 21
1.296129727673439
 31
0.0
  0
TEXT
  5
118
330
1F
100
AcDbEntity
  8
1
  6
DASHED
 62
     7
370
     0
100
AcDbText
 10
3.238548563084125
 20
1.30223881796847
 30
0.0
 40
0.0183272727272724
  1
3RD ANGLE PROJECTION
 41
1.000000000000007
  7
DC_TEXTSTYLE5
 72
     1
 11
3.397051981265942
 21
1.30223881796847
 31
0.0
100
AcDbText
  0
LINE
  5
119
330
1F
100
AcDbEntity
  8
1
  6
Continuous
 62
     7
 48
0.0020280743027767
370
     0
100
AcDbLine
 10
3.229124243027357
 20
1.33685700040071
 30
0.0
 11
3.229124243027357
 21
1.296129727673438
 31
0.0
  0
TEXT
  5
11A
330
1F
100
AcDbEntity
  8
1
  6
Continuous
 62
     7
370
     0
100
AcDbText
 10
1.820740410115173
 20
-0.8267167384914275
 30
0.0
 40
0.0258461538181538
  1
MK #
 41
1.0
  7
DC_TEXTSTYLE4
100
AcDbText
  0
TEXT
  5
11B
330
1F
100
AcDbEntity
  8
1
  6
Continuous
 62
     7
370
     0
100
AcDbText
 10
1.930839251121064
 20
-0.8267167384914275
 30
0.0
 40
0.0258461538181538
  1
QTY
 41
1.000000000000001
  7
DC_TEXTSTYLE4
100
AcDbText
  0
TEXT
  5
11C
330
1F
100
AcDbEntity
  8
1
  6
Continuous
 62
     7
370
     0
100
AcDbText
 10
2.030902853464491
 20
-0.8267167384914275
 30
0.0
 40
0.0258461538181538
  1
PART #
 41
0.9999999999999999
  7
DC_TEXTSTYLE4
100
AcDbText
  0
TEXT
  5
11D
330
1F
100
AcDbEntity
  8
1
  6
Continuous
 62
     7
370
     0
100
AcDbText
 10
2.257928889321241
 20
-0.8267167384914271
 30
0.0
 40
0.0258461538181538
  1
DESCRIPTION
 41
0.9999999999999996
  7
DC_TEXTSTYLE4
100
AcDbText
  0
TEXT
  5
11E
330
1F
100
AcDbEntity
  8
1
  6
Continuous
 62
     7
370
     0
100
AcDbText
 10
2.798825004207774
 20
-0.8267167384914275
 30
0.0
 40
0.0258461538181538
  1
MATERIAL
 41
0.9999999999999993
  7
DC_TEXTSTYLE4
100
AcDbText
  0
TEXT
  5
11F
330
1F
100
AcDbEntity
  8
1
  6
Continuous
 62
     7
370
     0
100
AcDbText
 10
1.852240410115173
 20
-0.7750244308551199
 30
0.0
 40
0.0258461538181539
  1
1
 41
1.000000000000003
  7
DC_TEXTSTYLE5
100
AcDbText
  0
TEXT
  5
120
330
1F
100
AcDbEntity
  8
1
  6
Continuous
 62
     7
370
     0
100
AcDbText
 10
1.962339251121064
 20
-0.7750244308551199
 30
0.0
 40
0.0258461538181539
  1
1
 41
1.000000000000004
  7
DC_TEXTSTYLE5
100
AcDbText
  0
TEXT
  5
121
330
1F
100
AcDbEntity
  8
1
  6
Continuous
 62
     7
370
     0
100
AcDbText
 10
2.030902853464491
 20
-0.7750244308551199
 30
0.0
 40
0.0258461538181539
  1
729-06
 41
1.000000000000003
  7
DC_TEXTSTYLE5
100
AcDbText
  0
TEXT
  5
122
330
1F
100
AcDbEntity
  8
1
  6
Continuous
 62
     7
370
     0
100
AcDbText
 10
2.257928889321241
 20
-0.7750244308551196
 30
0.0
 40
0.0258461538181539
  1
-6 AN TO M10 x 1P ADAPTER
 41
0.9999999999999996
  7
DC_TEXTSTYLE5
100
AcDbText
  0
TEXT
  5
123
330
1F
100
AcDbEntity
  8
1
  6
Continuous
 62
     7
370
     0
100
AcDbText
 10
2.798825004207774
 20
-0.77502443085512
 30
0.0
 40
0.0258461538181539
  1
ALLOY
 41
0.9999999999999993
  7
DC_TEXTSTYLE5
100
AcDbText
  0
LINE
  5
124
330
1F
100
AcDbEntity
  8
1
  6
Continuous
 62
     7
 48
0.0020280743027767
370
     0
100
AcDbLine
 10
3.56498087720888
 20
-0.7374550020607435
 30
0.0
 11
1.807817333206096
 21
-0.7374550020607439
 31
0.0
  0
LINE
  5
125
330
1F
100
AcDbEntity
  8
1
  6
CENTER
 62
    94
420
    37376
 48
0.0509090909090909
370
     0
100
AcDbLine
 10
3.421647540425504
 20
1.374714305127585
 30
0.0
 11
3.331086699174056
 21
1.374714305127585
 31
0.0
  0
LINE
  5
126
330
1F
100
AcDbEntity
  8
1
  6
Continuous
 62
     7
 48
0.0020280743027767
370
     0
100
AcDbLine
 10
2.145499993757901
 20
-0.8408396173333592
 30
0.0
 11
3.56498087720888
 21
-0.8408396173333592
 31
0.0
  0
LINE
  5
127
330
1F
100
AcDbEntity
  8
1
  6
Continuous
 62
     7
 48
0.0020280743027767
370
     0
100
AcDbLine
 10
3.56498087720888
 20
-0.7891473096970514
 30
0.0
 11
1.807817333206096
 21
-0.7891473096970516
 31
0.0
  0
LINE
  5
128
330
1F
100
AcDbEntity
  8
1
  6
Continuous
 62
     7
 48
0.0020280743027767
370
     0
100
AcDbLine
 10
2.784196873181087
 20
-0.7893676249750494
 30
0.0
 11
2.784196873181087
 21
-0.7376753173387423
 31
0.0
  0
TEXT
  5
129
330
1F
100
AcDbEntity
  8
1
  6
Continuous
 62
     7
370
     0
100
AcDbText
 10
3.016582619786325
 20
-0.8279165404242822
 30
0.0
 40
0.0258461538181538
  1
SURFACE CONDITION
 41
1.000000000000001
  7
DC_TEXTSTYLE4
100
AcDbText
  0
TEXT
  5
12A
330
1F
100
AcDbEntity
  8
1
  6
Continuous
 62
     7
370
     0
100
AcDbText
 10
3.016582619786325
 20
-0.7762242327879746
 30
0.0
 40
0.0258461538181539
  1
HARD COAT ANODIZED BLACK
 41
1.000000000000004
  7
DC_TEXTSTYLE5
100
AcDbText
  0
LINE
  5
12B
330
1F
100
AcDbEntity
  8
1
  6
Continuous
 62
     7
 48
0.0020280743027767
370
     0
100
AcDbLine
 10
3.56498087720888
 20
-0.7374550020607435
 30
0.0
 11
1.934417234172524
 21
-0.7374550020607439
 31
0.0
  0
LINE
  5
12C
330
1F
100
AcDbEntity
  8
1
  6
Continuous
 62
     7
 48
0.0020280743027767
370
     0
100
AcDbLine
 10
3.56498087720888
 20
-0.6857626944244357
 30
0.0
 11
3.56498087720888
 21
-0.7374550020607435
 31
0.0
  0
LINE
  5
12D
330
1F
100
AcDbEntity
  8
1
  6
Continuous
 62
     7
 48
0.0020280743027767
370
     0
100
AcDbLine
 10
2.245005812412164
 20
-0.7377067444866451
 30
0.0
 11
2.245005812412164
 21
-0.737706744486646
 31
0.0
  0
LINE
  5
12E
330
1F
100
AcDbEntity
  8
1
  6
Continuous
 62
     7
 48
0.0020280743027767
370
     0
100
AcDbLine
 10
2.784196873181087
 20
-0.7376753173387416
 30
0.0
 11
2.784196873181087
 21
-0.7376753173387423
 31
0.0
  0
LINE
  5
12F
330
1F
100
AcDbEntity
  8
1
  6
Continuous
 62
     7
 48
0.0020280743027767
370
     0
100
AcDbLine
 10
3.00305964191082
 20
-0.7391585048253996
 30
0.0
 11
3.003059641910821
 21
-0.7391585048253987
 31
0.0
  0
LINE
  5
130
330
1F
100
AcDbEntity
  8
1
  6
Continuous
 62
     7
 48
0.0006791942490616
370
     0
100
AcDbLine
 10
0.744732571474707
 20
-1.030703131199307
 30
0.0
 11
0.744732571474707
 21
-0.935771374266333
 31
0.0
  0
TEXT
  5
131
330
1F
100
AcDbEntity
  8
1
  6
Continuous
 62
     7
370
     0
100
AcDbText
 10
2.168312616755085
 20
-1.006970191966063
 30
0.0
 40
0.0415326436581761
  1
.
  7
DC_TEXTSTYLE5
100
AcDbText
  0
TEXT
  5
132
330
1F
100
AcDbEntity
  8
1
  6
Continuous
 62
    94
420
    37376
370
     0
100
AcDbText
 10
1.4948904660118
 20
-1.006970191966064
 30
0.0
 40
0.0415326436581761
  1
.
  7
DC_TEXTSTYLE5
100
AcDbText
  0
TEXT
  5
133
330
1F
100
AcDbEntity
  8
1
  6
Continuous
 62
    94
420
    37376
370
     0
100
AcDbText
 10
0.7684655107079505
 20
-1.006970191966064
 30
0.0
 40
0.0415326436581761
  1
.
  7
DC_TEXTSTYLE5
100
AcDbText
  0
TEXT
  5
134
330
1F
100
AcDbEntity
  8
1
  6
Continuous
 62
    94
420
    37376
370
     0
100
AcDbText
 10
0.1361796949086103
 20
-1.006970191966063
 30
0.0
 40
0.0415326436581761
  1
.
  7
DC_TEXTSTYLE5
100
AcDbText
  0
ARC
  5
135
330
1F
100
AcDbEntity
  8
1
  6
Continuous
 62
     7
 48
0.0006791942490616
370
     0
100
AcDbCircle
 10
3.564979719504526
 20
1.412571609854458
 30
0.0
 40
0.0000009261634824
100
AcDbArc
 50
0.0
 51
89.99999997252705
  0
POLYLINE
  5
136
330
1F
100
AcDbEntity
  8
1
  6
Continuous
 62
     7
 48
0.0020280743027767
370
     0
100
AcDb2dPolyline
 66
     1
 10
0.0
 20
0.0
 30
0.0
 70
   129
  0
VERTEX
  5
137
330
136
100
AcDbEntity
  8
1
  6
Continuous
 62
     7
 48
0.0020280743027767
100
AcDbVertex
100
AcDb2dVertex
 10
3.295306061209178
 20
1.374714305127585
 30
0.0
 40
0.00322
 41
0.00322
  0
VERTEX
  5
138
330
136
100
AcDbEntity
  8
1
  6
Continuous
 62
     7
 48
0.0020280743027767
100
AcDbVertex
100
AcDb2dVertex
 10
3.294996691815973
 20
1.378250413472802
 30
0.0
 40
0.00322
 41
0.00322
  0
VERTEX
  5
139
330
136
100
AcDbEntity
  8
1
  6
Continuous
 62
     7
 48
0.0020280743027767
100
AcDbVertex
100
AcDb2dVertex
 10
3.294077983668819
 20
1.381679078955308
 30
0.0
 40
0.00322
 41
0.00322
  0
VERTEX
  5
13A
330
136
100
AcDbEntity
  8
1
  6
Continuous
 62
     7
 48
0.0020280743027767
100
AcDbVertex
100
AcDb2dVertex
 10
3.29257785124988
 20
1.384896123309403
 30
0.0
 40
0.00322
 41
0.00322
  0
VERTEX
  5
13B
330
136
100
AcDbEntity
  8
1
  6
Continuous
 62
     7
 48
0.0020280743027767
100
AcDbVertex
100
AcDb2dVertex
 10
3.290541875323601
 20
1.387803798270293
 30
0.0
 40
0.00322
 41
0.00322
  0
VERTEX
  5
13C
330
136
100
AcDbEntity
  8
1
  6
Continuous
 62
     7
 48
0.0020280743027767
100
AcDbVertex
100
AcDb2dVertex
 10
3.28803191798825
 20
1.390313755605644
 30
0.0
 40
0.00322
 41
0.00322
  0
VERTEX
  5
13D
330
136
100
AcDbEntity
  8
1
  6
Continuous
 62
     7
 48
0.0020280743027767
100
AcDbVertex
100
AcDb2dVertex
 10
3.28512424302736
 20
1.392349731531923
 30
0.0
 40
0.00322
 41
0.00322
  0
VERTEX
  5
13E
330
136
100
AcDbEntity
  8
1
  6
Continuous
 62
     7
 48
0.0020280743027767
100
AcDbVertex
100
AcDb2dVertex
 10
3.281907198673264
 20
1.393849863950862
 30
0.0
 40
0.00322
 41
0.00322
  0
VERTEX
  5
13F
330
136
100
AcDbEntity
  8
1
  6
Continuous
 62
     7
 48
0.0020280743027767
100
AcDbVertex
100
AcDb2dVertex
 10
3.278478533190758
 20
1.394768572098015
 30
0.0
 40
0.00322
 41
0.00322
  0
VERTEX
  5
140
330
136
100
AcDbEntity
  8
1
  6
Continuous
 62
     7
 48
0.0020280743027767
100
AcDbVertex
100
AcDb2dVertex
 10
3.274942424845541
 20
1.395077941491222
 30
0.0
 40
0.00322
 41
0.00322
  0
VERTEX
  5
141
330
136
100
AcDbEntity
  8
1
  6
Continuous
 62
     7
 48
0.0020280743027767
100
AcDbVertex
100
AcDb2dVertex
 10
3.271406316500324
 20
1.394768572098015
 30
0.0
 40
0.00322
 41
0.00322
  0
VERTEX
  5
142
330
136
100
AcDbEntity
  8
1
  6
Continuous
 62
     7
 48
0.0020280743027767
100
AcDbVertex
100
AcDb2dVertex
 10
3.267977651017818
 20
1.393849863950862
 30
0.0
 40
0.00322
 41
0.00322
  0
VERTEX
  5
143
330
136
100
AcDbEntity
  8
1
  6
Continuous
 62
     7
 48
0.0020280743027767
100
AcDbVertex
100
AcDb2dVertex
 10
3.264760606663722
 20
1.392349731531923
 30
0.0
 40
0.00322
 41
0.00322
  0
VERTEX
  5
144
330
136
100
AcDbEntity
  8
1
  6
Continuous
 62
     7
 48
0.0020280743027767
100
AcDbVertex
100
AcDb2dVertex
 10
3.261852931702832
 20
1.390313755605644
 30
0.0
 40
0.00322
 41
0.00322
  0
VERTEX
  5
145
330
136
100
AcDbEntity
  8
1
  6
Continuous
 62
     7
 48
0.0020280743027767
100
AcDbVertex
100
AcDb2dVertex
 10
3.259342974367481
 20
1.387803798270293
 30
0.0
 40
0.00322
 41
0.00322
  0
VERTEX
  5
146
330
136
100
AcDbEntity
  8
1
  6
Continuous
 62
     7
 48
0.0020280743027767
100
AcDbVertex
100
AcDb2dVertex
 10
3.257306998441202
 20
1.384896123309403
 30
0.0
 40
0.00322
 41
0.00322
  0
VERTEX
  5
147
330
136
100
AcDbEntity
  8
1
  6
Continuous
 62
     7
 48
0.0020280743027767
100
AcDbVertex
100
AcDb2dVertex
 10
3.255806866022263
 20
1.381679078955308
 30
0.0
 40
0.00322
 41
0.00322
  0
VERTEX
  5
148
330
136
100
AcDbEntity
  8
1
  6
Continuous
 62
     7
 48
0.0020280743027767
100
AcDbVertex
100
AcDb2dVertex
 10
3.254888157875109
 20
1.378250413472802
 30
0.0
 40
0.00322
 41
0.00322
  0
VERTEX
  5
149
330
136
100
AcDbEntity
  8
1
  6
Continuous
 62
     7
 48
0.0020280743027767
100
AcDbVertex
100
AcDb2dVertex
 10
3.254578788481903
 20
1.374714305127585
 30
0.0
 40
0.00322
 41
0.00322
  0
VERTEX
  5
14A
330
136
100
AcDbEntity
  8
1
  6
Continuous
 62
     7
 48
0.0020280743027767
100
AcDbVertex
100
AcDb2dVertex
 10
3.254888157875109
 20
1.371178196782367
 30
0.0
 40
0.00322
 41
0.00322
  0
VERTEX
  5
14B
330
136
100
AcDbEntity
  8
1
  6
Continuous
 62
     7
 48
0.0020280743027767
100
AcDbVertex
100
AcDb2dVertex
 10
3.255806866022263
 20
1.367749531299862
 30
0.0
 40
0.00322
 41
0.00322
  0
VERTEX
  5
14C
330
136
100
AcDbEntity
  8
1
  6
Continuous
 62
     7
 48
0.0020280743027767
100
AcDbVertex
100
AcDb2dVertex
 10
3.257306998441202
 20
1.364532486945766
 30
0.0
 40
0.00322
 41
0.00322
  0
VERTEX
  5
14D
330
136
100
AcDbEntity
  8
1
  6
Continuous
 62
     7
 48
0.0020280743027767
100
AcDbVertex
100
AcDb2dVertex
 10
3.259342974367481
 20
1.361624811984877
 30
0.0
 40
0.00322
 41
0.00322
  0
VERTEX
  5
14E
330
136
100
AcDbEntity
  8
1
  6
Continuous
 62
     7
 48
0.0020280743027767
100
AcDbVertex
100
AcDb2dVertex
 10
3.261852931702832
 20
1.359114854649525
 30
0.0
 40
0.00322
 41
0.00322
  0
VERTEX
  5
14F
330
136
100
AcDbEntity
  8
1
  6
Continuous
 62
     7
 48
0.0020280743027767
100
AcDbVertex
100
AcDb2dVertex
 10
3.264760606663722
 20
1.357078878723247
 30
0.0
 40
0.00322
 41
0.00322
  0
VERTEX
  5
150
330
136
100
AcDbEntity
  8
1
  6
Continuous
 62
     7
 48
0.0020280743027767
100
AcDbVertex
100
AcDb2dVertex
 10
3.267977651017818
 20
1.355578746304308
 30
0.0
 40
0.00322
 41
0.00322
  0
VERTEX
  5
151
330
136
100
AcDbEntity
  8
1
  6
Continuous
 62
     7
 48
0.0020280743027767
100
AcDbVertex
100
AcDb2dVertex
 10
3.271406316500324
 20
1.354660038157154
 30
0.0
 40
0.00322
 41
0.00322
  0
VERTEX
  5
152
330
136
100
AcDbEntity
  8
1
  6
Continuous
 62
     7
 48
0.0020280743027767
100
AcDbVertex
100
AcDb2dVertex
 10
3.274942424845541
 20
1.354350668763948
 30
0.0
 40
0.00322
 41
0.00322
  0
VERTEX
  5
153
330
136
100
AcDbEntity
  8
1
  6
Continuous
 62
     7
 48
0.0020280743027767
100
AcDbVertex
100
AcDb2dVertex
 10
3.278478533190758
 20
1.354660038157154
 30
0.0
 40
0.00322
 41
0.00322
  0
VERTEX
  5
154
330
136
100
AcDbEntity
  8
1
  6
Continuous
 62
     7
 48
0.0020280743027767
100
AcDbVertex
100
AcDb2dVertex
 10
3.281907198673264
 20
1.355578746304307
 30
0.0
 40
0.00322
 41
0.00322
  0
VERTEX
  5
155
330
136
100
AcDbEntity
  8
1
  6
Continuous
 62
     7
 48
0.0020280743027767
100
AcDbVertex
100
AcDb2dVertex
 10
3.28512424302736
 20
1.357078878723246
 30
0.0
 40
0.00322
 41
0.00322
  0
VERTEX
  5
156
330
136
100
AcDbEntity
  8
1
  6
Continuous
 62
     7
 48
0.0020280743027767
100
AcDbVertex
100
AcDb2dVertex
 10
3.28803191798825
 20
1.359114854649525
 30
0.0
 40
0.00322
 41
0.00322
  0
VERTEX
  5
157
330
136
100
AcDbEntity
  8
1
  6
Continuous
 62
     7
 48
0.0020280743027767
100
AcDbVertex
100
AcDb2dVertex
 10
3.290541875323601
 20
1.361624811984877
 30
0.0
 40
0.00322
 41
0.00322
  0
VERTEX
  5
158
330
136
100
AcDbEntity
  8
1
  6
Continuous
 62
     7
 48
0.0020280743027767
100
AcDbVertex
100
AcDb2dVertex
 10
3.29257785124988
 20
1.364532486945766
 30
0.0
 40
0.00322
 41
0.00322
  0
VERTEX
  5
159
330
136
100
AcDbEntity
  8
1
  6
Continuous
 62
     7
 48
0.0020280743027767
100
AcDbVertex
100
AcDb2dVertex
 10
3.294077983668819
 20
1.367749531299862
 30
0.0
 40
0.00322
 41
0.00322
  0
VERTEX
  5
15A
330
136
100
AcDbEntity
  8
1
  6
Continuous
 62
     7
 48
0.0020280743027767
100
AcDbVertex
100
AcDb2dVertex
 10
3.294996691815973
 20
1.371178196782367
 30
0.0
 40
0.00322
 41
0.00322
  0
VERTEX
  5
15B
330
136
100
AcDbEntity
  8
1
  6
Continuous
 62
     7
 48
0.0020280743027767
100
AcDbVertex
100
AcDb2dVertex
 10
3.295306061209178
 20
1.374714305127585
 30
0.0
 40
0.00322
 41
0.00322
  0
SEQEND
  5
15C
330
136
100
AcDbEntity
  8
1
  6
Continuous
 62
     7
 48
0.0020280743027767
370
     0
  0
POLYLINE
  5
15D
330
1F
100
AcDbEntity
  8
1
  6
Continuous
 62
     7
 48
0.0020280743027767
370
     0
100
AcDb2dPolyline
 66
     1
 10
0.0
 20
0.0
 30
0.0
 70
   129
  0
VERTEX
  5
15E
330
15D
100
AcDbEntity
  8
1
  6
Continuous
 62
     7
 48
0.0020280743027767
100
AcDbVertex
100
AcDb2dVertex
 10
3.287669697572814
 20
1.374714305127585
 30
0.0
 40
0.00322
 41
0.00322
  0
VERTEX
  5
15F
330
15D
100
AcDbEntity
  8
1
  6
Continuous
 62
     7
 48
0.0020280743027767
100
AcDbVertex
100
AcDb2dVertex
 10
3.28747634170206
 20
1.376924372843346
 30
0.0
 40
0.00322
 41
0.00322
  0
VERTEX
  5
160
330
15D
100
AcDbEntity
  8
1
  6
Continuous
 62
     7
 48
0.0020280743027767
100
AcDbVertex
100
AcDb2dVertex
 10
3.286902149110089
 20
1.379067288769911
 30
0.0
 40
0.00322
 41
0.00322
  0
VERTEX
  5
161
330
15D
100
AcDbEntity
  8
1
  6
Continuous
 62
     7
 48
0.0020280743027767
100
AcDbVertex
100
AcDb2dVertex
 10
3.285964566348252
 20
1.381077941491221
 30
0.0
 40
0.00322
 41
0.00322
  0
VERTEX
  5
162
330
15D
100
AcDbEntity
  8
1
  6
Continuous
 62
     7
 48
0.0020280743027767
100
AcDbVertex
100
AcDb2dVertex
 10
3.284692081394328
 20
1.382895238341777
 30
0.0
 40
0.00322
 41
0.00322
  0
VERTEX
  5
163
330
15D
100
AcDbEntity
  8
1
  6
Continuous
 62
     7
 48
0.0020280743027767
100
AcDbVertex
100
AcDb2dVertex
 10
3.283123358059733
 20
1.384463961676372
 30
0.0
 40
0.00322
 41
0.00322
  0
VERTEX
  5
164
330
15D
100
AcDbEntity
  8
1
  6
Continuous
 62
     7
 48
0.0020280743027767
100
AcDbVertex
100
AcDb2dVertex
 10
3.281306061209178
 20
1.385736446630296
 30
0.0
 40
0.00322
 41
0.00322
  0
VERTEX
  5
165
330
15D
100
AcDbEntity
  8
1
  6
Continuous
 62
     7
 48
0.0020280743027767
100
AcDbVertex
100
AcDb2dVertex
 10
3.279295408487868
 20
1.386674029392132
 30
0.0
 40
0.00322
 41
0.00322
  0
VERTEX
  5
166
330
15D
100
AcDbEntity
  8
1
  6
Continuous
 62
     7
 48
0.0020280743027767
100
AcDbVertex
100
AcDb2dVertex
 10
3.277152492561302
 20
1.387248221984104
 30
0.0
 40
0.00322
 41
0.00322
  0
VERTEX
  5
167
330
15D
100
AcDbEntity
  8
1
  6
Continuous
 62
     7
 48
0.0020280743027767
100
AcDbVertex
100
AcDb2dVertex
 10
3.274942424845541
 20
1.387441577854857
 30
0.0
 40
0.00322
 41
0.00322
  0
VERTEX
  5
168
330
15D
100
AcDbEntity
  8
1
  6
Continuous
 62
     7
 48
0.0020280743027767
100
AcDbVertex
100
AcDb2dVertex
 10
3.27273235712978
 20
1.387248221984104
 30
0.0
 40
0.00322
 41
0.00322
  0
VERTEX
  5
169
330
15D
100
AcDbEntity
  8
1
  6
Continuous
 62
     7
 48
0.0020280743027767
100
AcDbVertex
100
AcDb2dVertex
 10
3.270589441203214
 20
1.386674029392132
 30
0.0
 40
0.00322
 41
0.00322
  0
VERTEX
  5
16A
330
15D
100
AcDbEntity
  8
1
  6
Continuous
 62
     7
 48
0.0020280743027767
100
AcDbVertex
100
AcDb2dVertex
 10
3.268578788481905
 20
1.385736446630296
 30
0.0
 40
0.00322
 41
0.00322
  0
VERTEX
  5
16B
330
15D
100
AcDbEntity
  8
1
  6
Continuous
 62
     7
 48
0.0020280743027767
100
AcDbVertex
100
AcDb2dVertex
 10
3.266761491631348
 20
1.384463961676372
 30
0.0
 40
0.00322
 41
0.00322
  0
VERTEX
  5
16C
330
15D
100
AcDbEntity
  8
1
  6
Continuous
 62
     7
 48
0.0020280743027767
100
AcDbVertex
100
AcDb2dVertex
 10
3.265192768296754
 20
1.382895238341777
 30
0.0
 40
0.00322
 41
0.00322
  0
VERTEX
  5
16D
330
15D
100
AcDbEntity
  8
1
  6
Continuous
 62
     7
 48
0.0020280743027767
100
AcDbVertex
100
AcDb2dVertex
 10
3.26392028334283
 20
1.381077941491221
 30
0.0
 40
0.00322
 41
0.00322
  0
VERTEX
  5
16E
330
15D
100
AcDbEntity
  8
1
  6
Continuous
 62
     7
 48
0.0020280743027767
100
AcDbVertex
100
AcDb2dVertex
 10
3.262982700580992
 20
1.379067288769911
 30
0.0
 40
0.00322
 41
0.00322
  0
VERTEX
  5
16F
330
15D
100
AcDbEntity
  8
1
  6
Continuous
 62
     7
 48
0.0020280743027767
100
AcDbVertex
100
AcDb2dVertex
 10
3.262408507989022
 20
1.376924372843346
 30
0.0
 40
0.00322
 41
0.00322
  0
VERTEX
  5
170
330
15D
100
AcDbEntity
  8
1
  6
Continuous
 62
     7
 48
0.0020280743027767
100
AcDbVertex
100
AcDb2dVertex
 10
3.262215152118268
 20
1.374714305127585
 30
0.0
 40
0.00322
 41
0.00322
  0
VERTEX
  5
171
330
15D
100
AcDbEntity
  8
1
  6
Continuous
 62
     7
 48
0.0020280743027767
100
AcDbVertex
100
AcDb2dVertex
 10
3.262408507989022
 20
1.372504237411824
 30
0.0
 40
0.00322
 41
0.00322
  0
VERTEX
  5
172
330
15D
100
AcDbEntity
  8
1
  6
Continuous
 62
     7
 48
0.0020280743027767
100
AcDbVertex
100
AcDb2dVertex
 10
3.262982700580992
 20
1.370361321485258
 30
0.0
 40
0.00322
 41
0.00322
  0
VERTEX
  5
173
330
15D
100
AcDbEntity
  8
1
  6
Continuous
 62
     7
 48
0.0020280743027767
100
AcDbVertex
100
AcDb2dVertex
 10
3.26392028334283
 20
1.368350668763948
 30
0.0
 40
0.00322
 41
0.00322
  0
VERTEX
  5
174
330
15D
100
AcDbEntity
  8
1
  6
Continuous
 62
     7
 48
0.0020280743027767
100
AcDbVertex
100
AcDb2dVertex
 10
3.265192768296754
 20
1.366533371913392
 30
0.0
 40
0.00322
 41
0.00322
  0
VERTEX
  5
175
330
15D
100
AcDbEntity
  8
1
  6
Continuous
 62
     7
 48
0.0020280743027767
100
AcDbVertex
100
AcDb2dVertex
 10
3.266761491631348
 20
1.364964648578798
 30
0.0
 40
0.00322
 41
0.00322
  0
VERTEX
  5
176
330
15D
100
AcDbEntity
  8
1
  6
Continuous
 62
     7
 48
0.0020280743027767
100
AcDbVertex
100
AcDb2dVertex
 10
3.268578788481904
 20
1.363692163624874
 30
0.0
 40
0.00322
 41
0.00322
  0
VERTEX
  5
177
330
15D
100
AcDbEntity
  8
1
  6
Continuous
 62
     7
 48
0.0020280743027767
100
AcDbVertex
100
AcDb2dVertex
 10
3.270589441203214
 20
1.362754580863037
 30
0.0
 40
0.00322
 41
0.00322
  0
VERTEX
  5
178
330
15D
100
AcDbEntity
  8
1
  6
Continuous
 62
     7
 48
0.0020280743027767
100
AcDbVertex
100
AcDb2dVertex
 10
3.27273235712978
 20
1.362180388271066
 30
0.0
 40
0.00322
 41
0.00322
  0
VERTEX
  5
179
330
15D
100
AcDbEntity
  8
1
  6
Continuous
 62
     7
 48
0.0020280743027767
100
AcDbVertex
100
AcDb2dVertex
 10
3.274942424845541
 20
1.361987032400312
 30
0.0
 40
0.00322
 41
0.00322
  0
VERTEX
  5
17A
330
15D
100
AcDbEntity
  8
1
  6
Continuous
 62
     7
 48
0.0020280743027767
100
AcDbVertex
100
AcDb2dVertex
 10
3.277152492561302
 20
1.362180388271066
 30
0.0
 40
0.00322
 41
0.00322
  0
VERTEX
  5
17B
330
15D
100
AcDbEntity
  8
1
  6
Continuous
 62
     7
 48
0.0020280743027767
100
AcDbVertex
100
AcDb2dVertex
 10
3.279295408487868
 20
1.362754580863037
 30
0.0
 40
0.00322
 41
0.00322
  0
VERTEX
  5
17C
330
15D
100
AcDbEntity
  8
1
  6
Continuous
 62
     7
 48
0.0020280743027767
100
AcDbVertex
100
AcDb2dVertex
 10
3.281306061209177
 20
1.363692163624874
 30
0.0
 40
0.00322
 41
0.00322
  0
VERTEX
  5
17D
330
15D
100
AcDbEntity
  8
1
  6
Continuous
 62
     7
 48
0.0020280743027767
100
AcDbVertex
100
AcDb2dVertex
 10
3.283123358059733
 20
1.364964648578798
 30
0.0
 40
0.00322
 41
0.00322
  0
VERTEX
  5
17E
330
15D
100
AcDbEntity
  8
1
  6
Continuous
 62
     7
 48
0.0020280743027767
100
AcDbVertex
100
AcDb2dVertex
 10
3.284692081394328
 20
1.366533371913392
 30
0.0
 40
0.00322
 41
0.00322
  0
VERTEX
  5
17F
330
15D
100
AcDbEntity
  8
1
  6
Continuous
 62
     7
 48
0.0020280743027767
100
AcDbVertex
100
AcDb2dVertex
 10
3.285964566348252
 20
1.368350668763948
 30
0.0
 40
0.00322
 41
0.00322
  0
VERTEX
  5
180
330
15D
100
AcDbEntity
  8
1
  6
Continuous
 62
     7
 48
0.0020280743027767
100
AcDbVertex
100
AcDb2dVertex
 10
3.286902149110089
 20
1.370361321485258
 30
0.0
 40
0.00322
 41
0.00322
  0
VERTEX
  5
181
330
15D
100
AcDbEntity
  8
1
  6
Continuous
 62
     7
 48
0.0020280743027767
100
AcDbVertex
100
AcDb2dVertex
 10
3.28747634170206
 20
1.372504237411824
 30
0.0
 40
0.00322
 41
0.00322
  0
VERTEX
  5
182
330
15D
100
AcDbEntity
  8
1
  6
Continuous
 62
     7
 48
0.0020280743027767
100
AcDbVertex
100
AcDb2dVertex
 10
3.287669697572814
 20
1.374714305127585
 30
0.0
 40
0.00322
 41
0.00322
  0
SEQEND
  5
183
330
15D
100
AcDbEntity
  8
1
  6
Continuous
 62
     7
 48
0.0020280743027767
370
     0
  0
POLYLINE
  5
184
330
1F
100
AcDbEntity
  8
2
  6
Continuous
 62
     7
 48
0.0088394557130412
370
     0
100
AcDb2dPolyline
 66
     1
 10
0.0
 20
0.0
 30
0.0
  0
VERTEX
  5
185
330
184
100
AcDbEntity
  8
2
  6
Continuous
 62
     7
 48
0.0088394557130412
100
AcDbVertex
100
AcDb2dVertex
 10
1.162889339932633
 20
0.1220862083134734
 30
0.0
 40
0.0035
 41
0.0035
  0
VERTEX
  5
186
330
184
100
AcDbEntity
  8
2
  6
Continuous
 62
     7
 48
0.0088394557130412
100
AcDbVertex
100
AcDb2dVertex
 10
1.162889339932633
 20
0.2820862083134734
 30
0.0
 40
0.0035
 41
0.0035
  0
SEQEND
  5
187
330
184
100
AcDbEntity
  8
2
  6
Continuous
 62
     7
 48
0.0088394557130412
370
     0
  0
POLYLINE
  5
188
330
1F
100
AcDbEntity
  8
2
  6
Continuous
 62
     7
 48
0.0088394557130412
370
     0
100
AcDb2dPolyline
 66
     1
 10
0.0
 20
0.0
 30
0.0
  0
VERTEX
  5
189
330
188
100
AcDbEntity
  8
2
  6
Continuous
 62
     7
 48
0.0088394557130412
100
AcDbVertex
100
AcDb2dVertex
 10
1.617889339932633
 20
0.3620862083134731
 30
0.0
 40
0.0035
 41
0.0035
  0
VERTEX
  5
18A
330
188
100
AcDbEntity
  8
2
  6
Continuous
 62
     7
 48
0.0088394557130412
100
AcDbVertex
100
AcDb2dVertex
 10
1.700889339932633
 20
0.3620862083134731
 30
0.0
 40
0.0035
 41
0.0035
  0
SEQEND
  5
18B
330
188
100
AcDbEntity
  8
2
  6
Continuous
 62
     7
 48
0.0088394557130412
370
     0
  0
POLYLINE
  5
18C
330
1F
100
AcDbEntity
  8
2
  6
Continuous
 62
     7
 48
0.0088394557130412
370
     0
100
AcDb2dPolyline
 66
     1
 10
0.0
 20
0.0
 30
0.0
  0
VERTEX
  5
18D
330
18C
100
AcDbEntity
  8
2
  6
Continuous
 62
     7
100
AcDbVertex
100
AcDb2dVertex
 10
1.700889339932633
 20
0.3620862083134731
 30
0.0
 40
0.0035
 41
0.0035
 42
0.414213562373095
  0
VERTEX
  5
18E
330
18C
100
AcDbEntity
  8
2
  6
Continuous
 62
     7
100
AcDbVertex
100
AcDb2dVertex
 10
1.710889339932633
 20
0.3720862083134732
 30
0.0
 40
0.0035
 41
0.0035
  0
SEQEND
  5
18F
330
18C
100
AcDbEntity
  8
2
  6
Continuous
 62
     7
 48
0.0088394557130412
370
     0
  0
POLYLINE
  5
190
330
1F
100
AcDbEntity
  8
2
  6
Continuous
 62
     7
 48
0.0088394557130412
370
     0
100
AcDb2dPolyline
 66
     1
 10
0.0
 20
0.0
 30
0.0
  0
VERTEX
  5
191
330
190
100
AcDbEntity
  8
2
  6
Continuous
 62
     7
 48
0.0088394557130412
100
AcDbVertex
100
AcDb2dVertex
 10
1.266489339932633
 20
0.3601862083134735
 30
0.0
 40
0.0035
 41
0.0035
  0
VERTEX
  5
192
330
190
100
AcDbEntity
  8
2
  6
Continuous
 62
     7
 48
0.0088394557130412
100
AcDbVertex
100
AcDb2dVertex
 10
1.162889339932633
 20
0.2820862083134734
 30
0.0
 40
0.0035
 41
0.0035
  0
SEQEND
  5
193
330
190
100
AcDbEntity
  8
2
  6
Continuous
 62
     7
 48
0.0088394557130412
370
     0
  0
POLYLINE
  5
194
330
1F
100
AcDbEntity
  8
2
  6
Continuous
 62
     7
 48
0.0088394557130412
370
     0
100
AcDb2dPolyline
 66
     1
 10
0.0
 20
0.0
 30
0.0
  0
VERTEX
  5
195
330
194
100
AcDbEntity
  8
2
  6
Continuous
 62
     7
 48
0.0088394557130412
100
AcDbVertex
100
AcDb2dVertex
 10
1.360889339932633
 20
0.3600862083134731
 30
0.0
 40
0.0035
 41
0.0035
  0
VERTEX
  5
196
330
194
100
AcDbEntity
  8
2
  6
Continuous
 62
     7
 48
0.0088394557130412
100
AcDbVertex
100
AcDb2dVertex
 10
1.266489339932633
 20
0.3601862083134735
 30
0.0
 40
0.0035
 41
0.0035
  0
SEQEND
  5
197
330
194
100
AcDbEntity
  8
2
  6
Continuous
 62
     7
 48
0.0088394557130412
370
     0
  0
POLYLINE
  5
198
330
1F
100
AcDbEntity
  8
2
  6
Continuous
 62
     7
 48
0.0088394557130412
370
     0
100
AcDb2dPolyline
 66
     1
 10
0.0
 20
0.0
 30
0.0
  0
VERTEX
  5
199
330
198
100
AcDbEntity
  8
2
  6
Continuous
 62
     7
 48
0.0088394557130412
100
AcDbVertex
100
AcDb2dVertex
 10
1.162889339932633
 20
0.1220862083134734
 30
0.0
 40
0.0035
 41
0.0035
  0
VERTEX
  5
19A
330
198
100
AcDbEntity
  8
2
  6
Continuous
 62
     7
 48
0.0088394557130412
100
AcDbVertex
100
AcDb2dVertex
 10
1.162889339932633
 20
-0.0379137916865267
 30
0.0
 40
0.0035
 41
0.0035
  0
SEQEND
  5
19B
330
198
100
AcDbEntity
  8
2
  6
Continuous
 62
     7
 48
0.0088394557130412
370
     0
  0
POLYLINE
  5
19C
330
1F
100
AcDbEntity
  8
2
  6
Continuous
 62
     7
 48
0.0088394557130412
370
     0
100
AcDb2dPolyline
 66
     1
 10
0.0
 20
0.0
 30
0.0
  0
VERTEX
  5
19D
330
19C
100
AcDbEntity
  8
2
  6
Continuous
 62
     7
 48
0.0088394557130412
100
AcDbVertex
100
AcDb2dVertex
 10
1.617889339932633
 20
-0.1179137916865268
 30
0.0
 40
0.0035
 41
0.0035
  0
VERTEX
  5
19E
330
19C
100
AcDbEntity
  8
2
  6
Continuous
 62
     7
 48
0.0088394557130412
100
AcDbVertex
100
AcDb2dVertex
 10
1.700889339932633
 20
-0.1179137916865268
 30
0.0
 40
0.0035
 41
0.0035
  0
SEQEND
  5
19F
330
19C
100
AcDbEntity
  8
2
  6
Continuous
 62
     7
 48
0.0088394557130412
370
     0
  0
POLYLINE
  5
1A0
330
1F
100
AcDbEntity
  8
2
  6
Continuous
 62
     7
 48
0.0088394557130412
370
     0
100
AcDb2dPolyline
 66
     1
 10
0.0
 20
0.0
 30
0.0
  0
VERTEX
  5
1A1
330
1A0
100
AcDbEntity
  8
2
  6
Continuous
 62
     7
100
AcDbVertex
100
AcDb2dVertex
 10
1.710889339932633
 20
-0.1279137916865267
 30
0.0
 40
0.0035
 41
0.0035
 42
0.414213562373095
  0
VERTEX
  5
1A2
330
1A0
100
AcDbEntity
  8
2
  6
Continuous
 62
     7
100
AcDbVertex
100
AcDb2dVertex
 10
1.700889339932633
 20
-0.1179137916865268
 30
0.0
 40
0.0035
 41
0.0035
  0
SEQEND
  5
1A3
330
1A0
100
AcDbEntity
  8
2
  6
Continuous
 62
     7
 48
0.0088394557130412
370
     0
  0
POLYLINE
  5
1A4
330
1F
100
AcDbEntity
  8
2
  6
Continuous
 62
     7
 48
0.0088394557130412
370
     0
100
AcDb2dPolyline
 66
     1
 10
0.0
 20
0.0
 30
0.0
  0
VERTEX
  5
1A5
330
1A4
100
AcDbEntity
  8
2
  6
Continuous
 62
     7
 48
0.0088394557130412
100
AcDbVertex
100
AcDb2dVertex
 10
1.266489339932633
 20
-0.1159137916865266
 30
0.0
 40
0.0035
 41
0.0035
  0
VERTEX
  5
1A6
330
1A4
100
AcDbEntity
  8
2
  6
Continuous
 62
     7
 48
0.0088394557130412
100
AcDbVertex
100
AcDb2dVertex
 10
1.162889339932633
 20
-0.0379137916865267
 30
0.0
 40
0.0035
 41
0.0035
  0
SEQEND
  5
1A7
330
1A4
100
AcDbEntity
  8
2
  6
Continuous
 62
     7
 48
0.0088394557130412
370
     0
  0
POLYLINE
  5
1A8
330
1F
100
AcDbEntity
  8
2
  6
Continuous
 62
     7
 48
0.0088394557130412
370
     0
100
AcDb2dPolyline
 66
     1
 10
0.0
 20
0.0
 30
0.0
  0
VERTEX
  5
1A9
330
1A8
100
AcDbEntity
  8
2
  6
Continuous
 62
     7
 48
0.0088394557130412
100
AcDbVertex
100
AcDb2dVertex
 10
1.360889339932633
 20
-0.1159137916865266
 30
0.0
 40
0.0035
 41
0.0035
  0
VERTEX
  5
1AA
330
1A8
100
AcDbEntity
  8
2
  6
Continuous
 62
     7
 48
0.0088394557130412
100
AcDbVertex
100
AcDb2dVertex
 10
1.266489339932633
 20
-0.1159137916865266
 30
0.0
 40
0.0035
 41
0.0035
  0
SEQEND
  5
1AB
330
1A8
100
AcDbEntity
  8
2
  6
Continuous
 62
     7
 48
0.0088394557130412
370
     0
  0
POLYLINE
  5
1AC
330
1F
100
AcDbEntity
  8
2
  6
Continuous
 62
     7
 48
0.0088394557130412
370
     0
100
AcDb2dPolyline
 66
     1
 10
0.0
 20
0.0
 30
0.0
  0
VERTEX
  5
1AD
330
1AC
100
AcDbEntity
  8
2
  6
Continuous
 62
     7
 48
0.0088394557130412
100
AcDbVertex
100
AcDb2dVertex
 10
1.710889339932633
 20
0.3720862083134732
 30
0.0
 40
0.0035
 41
0.0035
  0
VERTEX
  5
1AE
330
1AC
100
AcDbEntity
  8
2
  6
Continuous
 62
     7
 48
0.0088394557130412
100
AcDbVertex
100
AcDb2dVertex
 10
1.710889339932633
 20
0.4345862083134734
 30
0.0
 40
0.0035
 41
0.0035
  0
SEQEND
  5
1AF
330
1AC
100
AcDbEntity
  8
2
  6
Continuous
 62
     7
 48
0.0088394557130412
370
     0
  0
POLYLINE
  5
1B0
330
1F
100
AcDbEntity
  8
2
  6
Continuous
 62
     7
 48
0.0088394557130412
370
     0
100
AcDb2dPolyline
 66
     1
 10
0.0
 20
0.0
 30
0.0
  0
VERTEX
  5
1B1
330
1B0
100
AcDbEntity
  8
2
  6
Continuous
 62
     7
 48
0.0088394557130412
100
AcDbVertex
100
AcDb2dVertex
 10
1.710889339932633
 20
-0.1279137916865267
 30
0.0
 40
0.0035
 41
0.0035
  0
VERTEX
  5
1B2
330
1B0
100
AcDbEntity
  8
2
  6
Continuous
 62
     7
 48
0.0088394557130412
100
AcDbVertex
100
AcDb2dVertex
 10
1.710889339932633
 20
-0.1904137916865265
 30
0.0
 40
0.0035
 41
0.0035
  0
SEQEND
  5
1B3
330
1B0
100
AcDbEntity
  8
2
  6
Continuous
 62
     7
 48
0.0088394557130412
370
     0
  0
POLYLINE
  5
1B4
330
1F
100
AcDbEntity
  8
2
  6
Continuous
 62
     7
 48
0.0088394557130412
370
     0
100
AcDb2dPolyline
 66
     1
 10
0.0
 20
0.0
 30
0.0
  0
VERTEX
  5
1B5
330
1B4
100
AcDbEntity
  8
2
  6
Continuous
 62
     7
 48
0.0088394557130412
100
AcDbVertex
100
AcDb2dVertex
 10
1.710889339932633
 20
-0.1279137916865267
 30
0.0
 40
0.0035
 41
0.0035
  0
VERTEX
  5
1B6
330
1B4
100
AcDbEntity
  8
2
  6
Continuous
 62
     7
 48
0.0088394557130412
100
AcDbVertex
100
AcDb2dVertex
 10
1.710889339932633
 20
-0.1859137916865266
 30
0.0
 40
0.0035
 41
0.0035
  0
SEQEND
  5
1B7
330
1B4
100
AcDbEntity
  8
2
  6
Continuous
 62
     7
 48
0.0088394557130412
370
     0
  0
POLYLINE
  5
1B8
330
1F
100
AcDbEntity
  8
2
  6
Continuous
 62
     7
 48
0.0088394557130412
370
     0
100
AcDb2dPolyline
 66
     1
 10
0.0
 20
0.0
 30
0.0
  0
VERTEX
  5
1B9
330
1B8
100
AcDbEntity
  8
2
  6
Continuous
 62
     7
 48
0.0088394557130412
100
AcDbVertex
100
AcDb2dVertex
 10
1.890889339932633
 20
0.3220862083134738
 30
0.0
 40
0.0035
 41
0.0035
  0
VERTEX
  5
1BA
330
1B8
100
AcDbEntity
  8
2
  6
Continuous
 62
     7
 48
0.0088394557130412
100
AcDbVertex
100
AcDb2dVertex
 10
1.890889339932633
 20
0.4345862083134734
 30
0.0
 40
0.0035
 41
0.0035
  0
SEQEND
  5
1BB
330
1B8
100
AcDbEntity
  8
2
  6
Continuous
 62
     7
 48
0.0088394557130412
370
     0
  0
POLYLINE
  5
1BC
330
1F
100
AcDbEntity
  8
2
  6
Continuous
 62
     7
 48
0.0088394557130412
370
     0
100
AcDb2dPolyline
 66
     1
 10
0.0
 20
0.0
 30
0.0
  0
VERTEX
  5
1BD
330
1BC
100
AcDbEntity
  8
2
  6
Continuous
 62
     7
 48
0.0088394557130412
100
AcDbVertex
100
AcDb2dVertex
 10
1.890889339932633
 20
-0.0779137916865277
 30
0.0
 40
0.0035
 41
0.0035
  0
VERTEX
  5
1BE
330
1BC
100
AcDbEntity
  8
2
  6
Continuous
 62
     7
 48
0.0088394557130412
100
AcDbVertex
100
AcDb2dVertex
 10
1.890889339932633
 20
-0.1904137916865265
 30
0.0
 40
0.0035
 41
0.0035
  0
SEQEND
  5
1BF
330
1BC
100
AcDbEntity
  8
2
  6
Continuous
 62
     7
 48
0.0088394557130412
370
     0
  0
LINE
  5
1C0
330
1F
100
AcDbEntity
  8
1
  6
CENTER
 62
    94
420
    43520
 48
0.1
370
     0
100
AcDbLine
 10
1.125982866459765
 20
0.1220862083134734
 30
0.0
 11
2.383348163386639
 21
0.1220862083134734
 31
0.0
  0
POLYLINE
  5
1C1
330
1F
100
AcDbEntity
  8
1
  6
Continuous
 62
     7
 48
0.0088394557130412
370
     0
100
AcDb2dPolyline
 66
     1
 10
0.0
 20
0.0
 30
0.0
  0
VERTEX
  5
1C2
330
1C1
100
AcDbEntity
  8
1
  6
Continuous
 62
     7
 48
0.0088394557130412
100
AcDbVertex
100
AcDb2dVertex
 10
1.890889339932633
 20
0.3220862083134736
 30
0.0
 40
0.0035
 41
0.0035
  0
VERTEX
  5
1C3
330
1C1
100
AcDbEntity
  8
1
  6
Continuous
 62
     7
 48
0.0088394557130412
100
AcDbVertex
100
AcDb2dVertex
 10
1.924889339932634
 20
0.2880862083134734
 30
0.0
 40
0.0035
 41
0.0035
  0
SEQEND
  5
1C4
330
1C1
100
AcDbEntity
  8
1
  6
Continuous
 62
     7
 48
0.0088394557130412
370
     0
  0
POLYLINE
  5
1C5
330
1F
100
AcDbEntity
  8
1
  6
Continuous
 62
     7
 48
0.0088394557130412
370
     0
100
AcDb2dPolyline
 66
     1
 10
0.0
 20
0.0
 30
0.0
  0
VERTEX
  5
1C6
330
1C5
100
AcDbEntity
  8
1
  6
Continuous
 62
     7
 48
0.0088394557130412
100
AcDbVertex
100
AcDb2dVertex
 10
1.924889339932634
 20
0.2880862083134734
 30
0.0
 40
0.0035
 41
0.0035
  0
VERTEX
  5
1C7
330
1C5
100
AcDbEntity
  8
1
  6
Continuous
 62
     7
 48
0.0088394557130412
100
AcDbVertex
100
AcDb2dVertex
 10
1.966889339932633
 20
0.2880862083134734
 30
0.0
 40
0.0035
 41
0.0035
  0
SEQEND
  5
1C8
330
1C5
100
AcDbEntity
  8
1
  6
Continuous
 62
     7
 48
0.0088394557130412
370
     0
  0
POLYLINE
  5
1C9
330
1F
100
AcDbEntity
  8
1
  6
Continuous
 62
     7
 48
0.0088394557130412
370
     0
100
AcDb2dPolyline
 66
     1
 10
0.0
 20
0.0
 30
0.0
  0
VERTEX
  5
1CA
330
1C9
100
AcDbEntity
  8
1
  6
Continuous
 62
     7
 48
0.0088394557130412
100
AcDbVertex
100
AcDb2dVertex
 10
1.890889339932633
 20
-0.0779137916865269
 30
0.0
 40
0.0035
 41
0.0035
  0
VERTEX
  5
1CB
330
1C9
100
AcDbEntity
  8
1
  6
Continuous
 62
     7
 48
0.0088394557130412
100
AcDbVertex
100
AcDb2dVertex
 10
1.924889339932634
 20
-0.0439137916865269
 30
0.0
 40
0.0035
 41
0.0035
  0
SEQEND
  5
1CC
330
1C9
100
AcDbEntity
  8
1
  6
Continuous
 62
     7
 48
0.0088394557130412
370
     0
  0
POLYLINE
  5
1CD
330
1F
100
AcDbEntity
  8
1
  6
Continuous
 62
     7
 48
0.0088394557130412
370
     0
100
AcDb2dPolyline
 66
     1
 10
0.0
 20
0.0
 30
0.0
  0
VERTEX
  5
1CE
330
1CD
100
AcDbEntity
  8
1
  6
Continuous
 62
     7
 48
0.0088394557130412
100
AcDbVertex
100
AcDb2dVertex
 10
1.924889339932634
 20
-0.0439137916865269
 30
0.0
 40
0.0035
 41
0.0035
  0
VERTEX
  5
1CF
330
1CD
100
AcDbEntity
  8
1
  6
Continuous
 62
     7
 48
0.0088394557130412
100
AcDbVertex
100
AcDb2dVertex
 10
1.966889339932633
 20
-0.0439137916865269
 30
0.0
 40
0.0035
 41
0.0035
  0
SEQEND
  5
1D0
330
1CD
100
AcDbEntity
  8
1
  6
Continuous
 62
     7
 48
0.0088394557130412
370
     0
  0
POLYLINE
  5
1D1
330
1F
100
AcDbEntity
  8
1
  6
Continuous
 62
     7
 48
0.0088394557130412
370
     0
100
AcDb2dPolyline
 66
     1
 10
0.0
 20
0.0
 30
0.0
  0
VERTEX
  5
1D2
330
1D1
100
AcDbEntity
  8
1
  6
Continuous
 62
     7
 48
0.0088394557130412
100
AcDbVertex
100
AcDb2dVertex
 10
1.162889339932633
 20
-0.0319137916865268
 30
0.0
 40
0.0035
 41
0.0035
  0
VERTEX
  5
1D3
330
1D1
100
AcDbEntity
  8
1
  6
Continuous
 62
     7
 48
0.0088394557130412
100
AcDbVertex
100
AcDb2dVertex
 10
1.167889339932633
 20
-0.0269137916865268
 30
0.0
 40
0.0035
 41
0.0035
  0
SEQEND
  5
1D4
330
1D1
100
AcDbEntity
  8
1
  6
Continuous
 62
     7
 48
0.0088394557130412
370
     0
  0
POLYLINE
  5
1D5
330
1F
100
AcDbEntity
  8
1
  6
Continuous
 62
     7
 48
0.0088394557130412
370
     0
100
AcDb2dPolyline
 66
     1
 10
0.0
 20
0.0
 30
0.0
  0
VERTEX
  5
1D6
330
1D5
100
AcDbEntity
  8
1
  6
Continuous
 62
     7
 48
0.0088394557130412
100
AcDbVertex
100
AcDb2dVertex
 10
1.162889339932633
 20
0.2760862083134734
 30
0.0
 40
0.0035
 41
0.0035
  0
VERTEX
  5
1D7
330
1D5
100
AcDbEntity
  8
1
  6
Continuous
 62
     7
 48
0.0088394557130412
100
AcDbVertex
100
AcDb2dVertex
 10
1.167889339932633
 20
0.2710862083134733
 30
0.0
 40
0.0035
 41
0.0035
  0
SEQEND
  5
1D8
330
1D5
100
AcDbEntity
  8
1
  6
Continuous
 62
     7
 48
0.0088394557130412
370
     0
  0
POLYLINE
  5
1D9
330
1F
100
AcDbEntity
  8
1
  6
Continuous
 62
     7
 48
0.0088394557130412
370
     0
100
AcDb2dPolyline
 66
     1
 10
0.0
 20
0.0
 30
0.0
  0
VERTEX
  5
1DA
330
1D9
100
AcDbEntity
  8
1
  6
Continuous
 62
     7
 48
0.0088394557130412
100
AcDbVertex
100
AcDb2dVertex
 10
1.725266164186148
 20
0.4740862083134736
 30
0.0
 40
0.0035
 41
0.0035
  0
VERTEX
  5
1DB
330
1D9
100
AcDbEntity
  8
1
  6
Continuous
 62
     7
 48
0.0088394557130412
100
AcDbVertex
100
AcDb2dVertex
 10
1.876512515679118
 20
0.4740862083134736
 30
0.0
 40
0.0035
 41
0.0035
  0
SEQEND
  5
1DC
330
1D9
100
AcDbEntity
  8
1
  6
Continuous
 62
     7
 48
0.0088394557130412
370
     0
  0
POLYLINE
  5
1DD
330
1F
100
AcDbEntity
  8
1
  6
Continuous
 62
     7
 48
0.0088394557130412
370
     0
100
AcDb2dPolyline
 66
     1
 10
0.0
 20
0.0
 30
0.0
  0
VERTEX
  5
1DE
330
1DD
100
AcDbEntity
  8
1
  6
Continuous
 62
     7
 48
0.0088394557130412
100
AcDbVertex
100
AcDb2dVertex
 10
1.726904030240346
 20
-0.2299137916865265
 30
0.0
 40
0.0035
 41
0.0035
  0
VERTEX
  5
1DF
330
1DD
100
AcDbEntity
  8
1
  6
Continuous
 62
     7
 48
0.0088394557130412
100
AcDbVertex
100
AcDb2dVertex
 10
1.876512515679118
 20
-0.2299137916865265
 30
0.0
 40
0.0035
 41
0.0035
  0
SEQEND
  5
1E0
330
1DD
100
AcDbEntity
  8
1
  6
Continuous
 62
     7
 48
0.0088394557130412
370
     0
  0
POLYLINE
  5
1E1
330
1F
100
AcDbEntity
  8
1
  6
Continuous
 62
     7
 48
0.0088394557130412
370
     0
100
AcDb2dPolyline
 66
     1
 10
0.0
 20
0.0
 30
0.0
  0
VERTEX
  5
1E2
330
1E1
100
AcDbEntity
  8
1
  6
Continuous
 62
     7
 48
0.0088394557130412
100
AcDbVertex
100
AcDb2dVertex
 10
1.710889339932633
 20
-0.1859137916865266
 30
0.0
 40
0.0035
 41
0.0035
  0
VERTEX
  5
1E3
330
1E1
100
AcDbEntity
  8
1
  6
Continuous
 62
     7
 48
0.0088394557130412
100
AcDbVertex
100
AcDb2dVertex
 10
1.726904030240346
 20
-0.2299137916865265
 30
0.0
 40
0.0035
 41
0.0035
  0
SEQEND
  5
1E4
330
1E1
100
AcDbEntity
  8
1
  6
Continuous
 62
     7
 48
0.0088394557130412
370
     0
  0
POLYLINE
  5
1E5
330
1F
100
AcDbEntity
  8
1
  6
Continuous
 62
     7
 48
0.0088394557130412
370
     0
100
AcDb2dPolyline
 66
     1
 10
0.0
 20
0.0
 30
0.0
  0
VERTEX
  5
1E6
330
1E5
100
AcDbEntity
  8
1
  6
Continuous
 62
     7
 48
0.0088394557130412
100
AcDbVertex
100
AcDb2dVertex
 10
1.890889339932633
 20
-0.1904137916865265
 30
0.0
 40
0.0035
 41
0.0035
  0
VERTEX
  5
1E7
330
1E5
100
AcDbEntity
  8
1
  6
Continuous
 62
     7
 48
0.0088394557130412
100
AcDbVertex
100
AcDb2dVertex
 10
1.876512515679118
 20
-0.2299137916865265
 30
0.0
 40
0.0035
 41
0.0035
  0
SEQEND
  5
1E8
330
1E5
100
AcDbEntity
  8
1
  6
Continuous
 62
     7
 48
0.0088394557130412
370
     0
  0
POLYLINE
  5
1E9
330
1F
100
AcDbEntity
  8
1
  6
Continuous
 62
     7
 48
0.0088394557130412
370
     0
100
AcDb2dPolyline
 66
     1
 10
0.0
 20
0.0
 30
0.0
  0
VERTEX
  5
1EA
330
1E9
100
AcDbEntity
  8
1
  6
Continuous
 62
     7
 48
0.0088394557130412
100
AcDbVertex
100
AcDb2dVertex
 10
1.710889339932633
 20
0.4345862083134734
 30
0.0
 40
0.0035
 41
0.0035
  0
VERTEX
  5
1EB
330
1E9
100
AcDbEntity
  8
1
  6
Continuous
 62
     7
 48
0.0088394557130412
100
AcDbVertex
100
AcDb2dVertex
 10
1.725266164186148
 20
0.4740862083134736
 30
0.0
 40
0.0035
 41
0.0035
  0
SEQEND
  5
1EC
330
1E9
100
AcDbEntity
  8
1
  6
Continuous
 62
     7
 48
0.0088394557130412
370
     0
  0
POLYLINE
  5
1ED
330
1F
100
AcDbEntity
  8
1
  6
Continuous
 62
     7
 48
0.0088394557130412
370
     0
100
AcDb2dPolyline
 66
     1
 10
0.0
 20
0.0
 30
0.0
  0
VERTEX
  5
1EE
330
1ED
100
AcDbEntity
  8
1
  6
Continuous
 62
     7
 48
0.0088394557130412
100
AcDbVertex
100
AcDb2dVertex
 10
1.890889339932633
 20
0.4345862083134734
 30
0.0
 40
0.0035
 41
0.0035
  0
VERTEX
  5
1EF
330
1ED
100
AcDbEntity
  8
1
  6
Continuous
 62
     7
 48
0.0088394557130412
100
AcDbVertex
100
AcDb2dVertex
 10
1.876512515679118
 20
0.4740862083134736
 30
0.0
 40
0.0035
 41
0.0035
  0
SEQEND
  5
1F0
330
1ED
100
AcDbEntity
  8
1
  6
Continuous
 62
     7
 48
0.0088394557130412
370
     0
  0
POLYLINE
  5
1F1
330
1F
100
AcDbEntity
  8
1
  6
Continuous
 62
     7
 48
0.0088394557130412
370
     0
100
AcDb2dPolyline
 66
     1
 10
0.0
 20
0.0
 30
0.0
  0
VERTEX
  5
1F2
330
1F1
100
AcDbEntity
  8
1
  6
Continuous
 62
     7
 48
0.0088394557130412
100
AcDbVertex
100
AcDb2dVertex
 10
1.591395354187312
 20
0.2190862083134734
 30
0.0
 40
0.0035
 41
0.0035
  0
VERTEX
  5
1F3
330
1F1
100
AcDbEntity
  8
1
  6
Continuous
 62
     7
 48
0.0088394557130412
100
AcDbVertex
100
AcDb2dVertex
 10
2.170423633460606
 20
0.2190862083134734
 30
0.0
 40
0.0035
 41
0.0035
  0
SEQEND
  5
1F4
330
1F1
100
AcDbEntity
  8
1
  6
Continuous
 62
     7
 48
0.0088394557130412
370
     0
  0
POLYLINE
  5
1F5
330
1F
100
AcDbEntity
  8
1
  6
Continuous
 62
     7
 48
0.0088394557130412
370
     0
100
AcDb2dPolyline
 66
     1
 10
0.0
 20
0.0
 30
0.0
  0
VERTEX
  5
1F6
330
1F5
100
AcDbEntity
  8
1
  6
Continuous
 62
     7
100
AcDbVertex
100
AcDb2dVertex
 10
2.170423633460606
 20
0.2190862083134734
 30
0.0
 40
0.0035
 41
0.0035
 42
0.0874886635259241
  0
VERTEX
  5
1F7
330
1F5
100
AcDbEntity
  8
1
  6
Continuous
 62
     7
100
AcDbVertex
100
AcDb2dVertex
 10
2.255928669292023
 20
0.2341630531169964
 30
0.0
 40
0.0035
 41
0.0035
  0
SEQEND
  5
1F8
330
1F5
100
AcDbEntity
  8
1
  6
Continuous
 62
     7
 48
0.0088394557130412
370
     0
  0
POLYLINE
  5
1F9
330
1F
100
AcDbEntity
  8
1
  6
Continuous
 62
     7
 48
0.0088394557130412
370
     0
100
AcDb2dPolyline
 66
     1
 10
0.0
 20
0.0
 30
0.0
  0
VERTEX
  5
1FA
330
1F9
100
AcDbEntity
  8
1
  6
Continuous
 62
     7
 48
0.0088394557130412
100
AcDbVertex
100
AcDb2dVertex
 10
1.591395354187314
 20
0.0250862083134734
 30
0.0
 40
0.0035
 41
0.0035
  0
VERTEX
  5
1FB
330
1F9
100
AcDbEntity
  8
1
  6
Continuous
 62
     7
 48
0.0088394557130412
100
AcDbVertex
100
AcDb2dVertex
 10
2.170423633460604
 20
0.0250862083134734
 30
0.0
 40
0.0035
 41
0.0035
  0
SEQEND
  5
1FC
330
1F9
100
AcDbEntity
  8
1
  6
Continuous
 62
     7
 48
0.0088394557130412
370
     0
  0
POLYLINE
  5
1FD
330
1F
100
AcDbEntity
  8
1
  6
Continuous
 62
     7
 48
0.0088394557130412
370
     0
100
AcDb2dPolyline
 66
     1
 10
0.0
 20
0.0
 30
0.0
  0
VERTEX
  5
1FE
330
1FD
100
AcDbEntity
  8
1
  6
Continuous
 62
     7
100
AcDbVertex
100
AcDb2dVertex
 10
2.255928669292021
 20
0.0100093635099507
 30
0.0
 40
0.0035
 41
0.0035
 42
0.0874886635259238
  0
VERTEX
  5
1FF
330
1FD
100
AcDbEntity
  8
1
  6
Continuous
 62
     7
100
AcDbVertex
100
AcDb2dVertex
 10
2.170423633460604
 20
0.0250862083134734
 30
0.0
 40
0.0035
 41
0.0035
  0
SEQEND
  5
200
330
1FD
100
AcDbEntity
  8
1
  6
Continuous
 62
     7
 48
0.0088394557130412
370
     0
  0
POLYLINE
  5
201
330
1F
100
AcDbEntity
  8
1
  6
Continuous
 62
     7
 48
0.0088394557130412
370
     0
100
AcDb2dPolyline
 66
     1
 10
0.0
 20
0.0
 30
0.0
  0
VERTEX
  5
202
330
201
100
AcDbEntity
  8
1
  6
Continuous
 62
     7
 48
0.0088394557130412
100
AcDbVertex
100
AcDb2dVertex
 10
1.167889339932633
 20
0.2710862083134733
 30
0.0
 40
0.0035
 41
0.0035
  0
VERTEX
  5
203
330
201
100
AcDbEntity
  8
1
  6
Continuous
 62
     7
 48
0.0088394557130412
100
AcDbVertex
100
AcDb2dVertex
 10
1.591395354187313
 20
0.2190862083134734
 30
0.0
 40
0.0035
 41
0.0035
  0
SEQEND
  5
204
330
201
100
AcDbEntity
  8
1
  6
Continuous
 62
     7
 48
0.0088394557130412
370
     0
  0
POLYLINE
  5
205
330
1F
100
AcDbEntity
  8
1
  6
Continuous
 62
     7
 48
0.0088394557130412
370
     0
100
AcDb2dPolyline
 66
     1
 10
0.0
 20
0.0
 30
0.0
  0
VERTEX
  5
206
330
205
100
AcDbEntity
  8
1
  6
Continuous
 62
     7
 48
0.0088394557130412
100
AcDbVertex
100
AcDb2dVertex
 10
1.167889339932633
 20
-0.0269137916865268
 30
0.0
 40
0.0035
 41
0.0035
  0
VERTEX
  5
207
330
205
100
AcDbEntity
  8
1
  6
Continuous
 62
     7
 48
0.0088394557130412
100
AcDbVertex
100
AcDb2dVertex
 10
1.591395354187314
 20
0.0250862083134734
 30
0.0
 40
0.0035
 41
0.0035
  0
SEQEND
  5
208
330
205
100
AcDbEntity
  8
1
  6
Continuous
 62
     7
 48
0.0088394557130412
370
     0
  0
POLYLINE
  5
209
330
1F
100
AcDbEntity
  8
1
  6
Continuous
 62
     7
 48
0.0088394557130412
370
     0
100
AcDb2dPolyline
 66
     1
 10
0.0
 20
0.0
 30
0.0
  0
VERTEX
  5
20A
330
209
100
AcDbEntity
  8
1
  6
Continuous
 62
     7
 48
0.0088394557130412
100
AcDbVertex
100
AcDb2dVertex
 10
2.255928669292023
 20
0.2341630531169964
 30
0.0
 40
0.0035
 41
0.0035
  0
VERTEX
  5
20B
330
209
100
AcDbEntity
  8
1
  6
Continuous
 62
     7
 48
0.0088394557130412
100
AcDbVertex
100
AcDb2dVertex
 10
2.331019642082519
 20
0.2614939320748302
 30
0.0
 40
0.0035
 41
0.0035
  0
SEQEND
  5
20C
330
209
100
AcDbEntity
  8
1
  6
Continuous
 62
     7
 48
0.0088394557130412
370
     0
  0
POLYLINE
  5
20D
330
1F
100
AcDbEntity
  8
1
  6
Continuous
 62
     7
 48
0.0088394557130412
370
     0
100
AcDb2dPolyline
 66
     1
 10
0.0
 20
0.0
 30
0.0
  0
VERTEX
  5
20E
330
20D
100
AcDbEntity
  8
1
  6
Continuous
 62
     7
100
AcDbVertex
100
AcDb2dVertex
 10
2.331019642082519
 20
0.2614939320748302
 30
0.0
 40
0.0035
 41
0.0035
 42
0.3152987888789675
  0
VERTEX
  5
20F
330
20D
100
AcDbEntity
  8
1
  6
Continuous
 62
     7
100
AcDbVertex
100
AcDb2dVertex
 10
2.340889339932633
 20
0.2755893213866187
 30
0.0
 40
0.0035
 41
0.0035
  0
SEQEND
  5
210
330
20D
100
AcDbEntity
  8
1
  6
Continuous
 62
     7
 48
0.0088394557130412
370
     0
  0
POLYLINE
  5
211
330
1F
100
AcDbEntity
  8
1
  6
Continuous
 62
     7
 48
0.0088394557130412
370
     0
100
AcDb2dPolyline
 66
     1
 10
0.0
 20
0.0
 30
0.0
  0
VERTEX
  5
212
330
211
100
AcDbEntity
  8
1
  6
Continuous
 62
     7
 48
0.0088394557130412
100
AcDbVertex
100
AcDb2dVertex
 10
2.340889339932634
 20
0.2755893213866191
 30
0.0
 40
0.0035
 41
0.0035
  0
VERTEX
  5
213
330
211
100
AcDbEntity
  8
1
  6
Continuous
 62
     7
 48
0.0088394557130412
100
AcDbVertex
100
AcDb2dVertex
 10
2.340889339932634
 20
0.2850862083134734
 30
0.0
 40
0.0035
 41
0.0035
  0
SEQEND
  5
214
330
211
100
AcDbEntity
  8
1
  6
Continuous
 62
     7
 48
0.0088394557130412
370
     0
  0
POLYLINE
  5
215
330
1F
100
AcDbEntity
  8
1
  6
Continuous
 62
     7
 48
0.0088394557130412
370
     0
100
AcDb2dPolyline
 66
     1
 10
0.0
 20
0.0
 30
0.0
  0
VERTEX
  5
216
330
215
100
AcDbEntity
  8
1
  6
Continuous
 62
     7
 48
0.0088394557130412
100
AcDbVertex
100
AcDb2dVertex
 10
2.255928669292021
 20
0.0100093635099507
 30
0.0
 40
0.0035
 41
0.0035
  0
VERTEX
  5
217
330
215
100
AcDbEntity
  8
1
  6
Continuous
 62
     7
 48
0.0088394557130412
100
AcDbVertex
100
AcDb2dVertex
 10
2.331019642082519
 20
-0.0173215154478839
 30
0.0
 40
0.0035
 41
0.0035
  0
SEQEND
  5
218
330
215
100
AcDbEntity
  8
1
  6
Continuous
 62
     7
 48
0.0088394557130412
370
     0
  0
POLYLINE
  5
219
330
1F
100
AcDbEntity
  8
1
  6
Continuous
 62
     7
 48
0.0088394557130412
370
     0
100
AcDb2dPolyline
 66
     1
 10
0.0
 20
0.0
 30
0.0
  0
VERTEX
  5
21A
330
219
100
AcDbEntity
  8
1
  6
Continuous
 62
     7
100
AcDbVertex
100
AcDb2dVertex
 10
2.340889339932634
 20
-0.0314169047596727
 30
0.0
 40
0.0035
 41
0.0035
 42
0.3152987888789762
  0
VERTEX
  5
21B
330
219
100
AcDbEntity
  8
1
  6
Continuous
 62
     7
100
AcDbVertex
100
AcDb2dVertex
 10
2.331019642082519
 20
-0.0173215154478842
 30
0.0
 40
0.0035
 41
0.0035
  0
SEQEND
  5
21C
330
219
100
AcDbEntity
  8
1
  6
Continuous
 62
     7
 48
0.0088394557130412
370
     0
  0
POLYLINE
  5
21D
330
1F
100
AcDbEntity
  8
1
  6
Continuous
 62
     7
 48
0.0088394557130412
370
     0
100
AcDb2dPolyline
 66
     1
 10
0.0
 20
0.0
 30
0.0
  0
VERTEX
  5
21E
330
21D
100
AcDbEntity
  8
1
  6
Continuous
 62
     7
 48
0.0088394557130412
100
AcDbVertex
100
AcDb2dVertex
 10
2.340889339932634
 20
-0.0314169047596727
 30
0.0
 40
0.0035
 41
0.0035
  0
VERTEX
  5
21F
330
21D
100
AcDbEntity
  8
1
  6
Continuous
 62
     7
 48
0.0088394557130412
100
AcDbVertex
100
AcDb2dVertex
 10
2.340889339932634
 20
-0.0409137916865267
 30
0.0
 40
0.0035
 41
0.0035
  0
SEQEND
  5
220
330
21D
100
AcDbEntity
  8
1
  6
Continuous
 62
     7
 48
0.0088394557130412
370
     0
  0
POLYLINE
  5
221
330
1F
100
AcDbEntity
  8
1
  6
Continuous
 62
     7
 48
0.0088394557130412
370
     0
100
AcDb2dPolyline
 66
     1
 10
0.0
 20
0.0
 30
0.0
  0
VERTEX
  5
222
330
221
100
AcDbEntity
  8
1
  6
Continuous
 62
     7
 48
0.0088394557130412
100
AcDbVertex
100
AcDb2dVertex
 10
2.340889339932634
 20
-0.0314169047596727
 30
0.0
 40
0.0035
 41
0.0035
  0
VERTEX
  5
223
330
221
100
AcDbEntity
  8
1
  6
Continuous
 62
     7
 48
0.0088394557130412
100
AcDbVertex
100
AcDb2dVertex
 10
2.340889339932634
 20
0.2755893213866191
 30
0.0
 40
0.0035
 41
0.0035
  0
SEQEND
  5
224
330
221
100
AcDbEntity
  8
1
  6
Continuous
 62
     7
 48
0.0088394557130412
370
     0
  0
POLYLINE
  5
225
330
1F
100
AcDbEntity
  8
1
  6
Continuous
 62
     7
 48
0.0088394557130412
370
     0
100
AcDb2dPolyline
 66
     1
 10
0.0
 20
0.0
 30
0.0
  0
VERTEX
  5
226
330
225
100
AcDbEntity
  8
1
  6
Continuous
 62
     7
 48
0.0088394557130412
100
AcDbVertex
100
AcDb2dVertex
 10
1.442317543162909
 20
0.370920509709402
 30
0.0
 40
0.0035
 41
0.0035
  0
VERTEX
  5
227
330
225
100
AcDbEntity
  8
1
  6
Continuous
 62
     7
 48
0.0088394557130412
100
AcDbVertex
100
AcDb2dVertex
 10
1.449139339932633
 20
0.3827362083134743
 30
0.0
 40
0.0035
 41
0.0035
  0
SEQEND
  5
228
330
225
100
AcDbEntity
  8
1
  6
Continuous
 62
     7
 48
0.0088394557130412
370
     0
  0
POLYLINE
  5
229
330
1F
100
AcDbEntity
  8
1
  6
Continuous
 62
     7
 48
0.0088394557130412
370
     0
100
AcDb2dPolyline
 66
     1
 10
0.0
 20
0.0
 30
0.0
  0
VERTEX
  5
22A
330
229
100
AcDbEntity
  8
1
  6
Continuous
 62
     7
 48
0.0088394557130412
100
AcDbVertex
100
AcDb2dVertex
 10
1.428461136702357
 20
0.370920509709402
 30
0.0
 40
0.0035
 41
0.0035
  0
VERTEX
  5
22B
330
229
100
AcDbEntity
  8
1
  6
Continuous
 62
     7
 48
0.0088394557130412
100
AcDbVertex
100
AcDb2dVertex
 10
1.411573641328561
 20
0.4001705097094017
 30
0.0
 40
0.0035
 41
0.0035
  0
SEQEND
  5
22C
330
229
100
AcDbEntity
  8
1
  6
Continuous
 62
     7
 48
0.0088394557130412
370
     0
  0
POLYLINE
  5
22D
330
1F
100
AcDbEntity
  8
1
  6
Continuous
 62
     7
 48
0.0088394557130412
370
     0
100
AcDb2dPolyline
 66
     1
 10
0.0
 20
0.0
 30
0.0
  0
VERTEX
  5
22E
330
22D
100
AcDbEntity
  8
1
  6
Continuous
 62
     7
 48
0.0088394557130412
100
AcDbVertex
100
AcDb2dVertex
 10
1.428461136702357
 20
0.370920509709402
 30
0.0
 40
0.0035
 41
0.0035
  0
VERTEX
  5
22F
330
22D
100
AcDbEntity
  8
1
  6
Continuous
 62
     7
 48
0.0088394557130412
100
AcDbVertex
100
AcDb2dVertex
 10
1.442317543162909
 20
0.370920509709402
 30
0.0
 40
0.0035
 41
0.0035
  0
SEQEND
  5
230
330
22D
100
AcDbEntity
  8
1
  6
Continuous
 62
     7
 48
0.0088394557130412
370
     0
  0
POLYLINE
  5
231
330
1F
100
AcDbEntity
  8
1
  6
Continuous
 62
     7
 48
0.0088394557130412
370
     0
100
AcDb2dPolyline
 66
     1
 10
0.0
 20
0.0
 30
0.0
  0
VERTEX
  5
232
330
231
100
AcDbEntity
  8
1
  6
Continuous
 62
     7
 48
0.0088394557130412
100
AcDbVertex
100
AcDb2dVertex
 10
1.449139339932633
 20
0.3827362083134743
 30
0.0
 40
0.0035
 41
0.0035
  0
VERTEX
  5
233
330
231
100
AcDbEntity
  8
1
  6
Continuous
 62
     7
 48
0.0088394557130412
100
AcDbVertex
100
AcDb2dVertex
 10
1.459425238317496
 20
0.4005519069175456
 30
0.0
 40
0.0035
 41
0.0035
  0
SEQEND
  5
234
330
231
100
AcDbEntity
  8
1
  6
Continuous
 62
     7
 48
0.0088394557130412
370
     0
  0
POLYLINE
  5
235
330
1F
100
AcDbEntity
  8
1
  6
Continuous
 62
     7
 48
0.0088394557130412
370
     0
100
AcDb2dPolyline
 66
     1
 10
0.0
 20
0.0
 30
0.0
  0
VERTEX
  5
236
330
235
100
AcDbEntity
  8
1
  6
Continuous
 62
     7
 48
0.0088394557130412
100
AcDbVertex
100
AcDb2dVertex
 10
1.497317543162908
 20
0.370920509709402
 30
0.0
 40
0.0035
 41
0.0035
  0
VERTEX
  5
237
330
235
100
AcDbEntity
  8
1
  6
Continuous
 62
     7
 48
0.0088394557130412
100
AcDbVertex
100
AcDb2dVertex
 10
1.504139339932633
 20
0.3827362083134743
 30
0.0
 40
0.0035
 41
0.0035
  0
SEQEND
  5
238
330
235
100
AcDbEntity
  8
1
  6
Continuous
 62
     7
 48
0.0088394557130412
370
     0
  0
POLYLINE
  5
239
330
1F
100
AcDbEntity
  8
1
  6
Continuous
 62
     7
 48
0.0088394557130412
370
     0
100
AcDb2dPolyline
 66
     1
 10
0.0
 20
0.0
 30
0.0
  0
VERTEX
  5
23A
330
239
100
AcDbEntity
  8
1
  6
Continuous
 62
     7
 48
0.0088394557130412
100
AcDbVertex
100
AcDb2dVertex
 10
1.483461136702358
 20
0.370920509709402
 30
0.0
 40
0.0035
 41
0.0035
  0
VERTEX
  5
23B
330
239
100
AcDbEntity
  8
1
  6
Continuous
 62
     7
 48
0.0088394557130412
100
AcDbVertex
100
AcDb2dVertex
 10
1.466353441547771
 20
0.4005519069175456
 30
0.0
 40
0.0035
 41
0.0035
  0
SEQEND
  5
23C
330
239
100
AcDbEntity
  8
1
  6
Continuous
 62
     7
 48
0.0088394557130412
370
     0
  0
POLYLINE
  5
23D
330
1F
100
AcDbEntity
  8
1
  6
Continuous
 62
     7
 48
0.0088394557130412
370
     0
100
AcDb2dPolyline
 66
     1
 10
0.0
 20
0.0
 30
0.0
  0
VERTEX
  5
23E
330
23D
100
AcDbEntity
  8
1
  6
Continuous
 62
     7
 48
0.0088394557130412
100
AcDbVertex
100
AcDb2dVertex
 10
1.459425238317496
 20
0.4005519069175456
 30
0.0
 40
0.0035
 41
0.0035
  0
VERTEX
  5
23F
330
23D
100
AcDbEntity
  8
1
  6
Continuous
 62
     7
 48
0.0088394557130412
100
AcDbVertex
100
AcDb2dVertex
 10
1.466353441547771
 20
0.4005519069175456
 30
0.0
 40
0.0035
 41
0.0035
  0
SEQEND
  5
240
330
23D
100
AcDbEntity
  8
1
  6
Continuous
 62
     7
 48
0.0088394557130412
370
     0
  0
POLYLINE
  5
241
330
1F
100
AcDbEntity
  8
1
  6
Continuous
 62
     7
 48
0.0088394557130412
370
     0
100
AcDb2dPolyline
 66
     1
 10
0.0
 20
0.0
 30
0.0
  0
VERTEX
  5
242
330
241
100
AcDbEntity
  8
1
  6
Continuous
 62
     7
 48
0.0088394557130412
100
AcDbVertex
100
AcDb2dVertex
 10
1.483461136702358
 20
0.370920509709402
 30
0.0
 40
0.0035
 41
0.0035
  0
VERTEX
  5
243
330
241
100
AcDbEntity
  8
1
  6
Continuous
 62
     7
 48
0.0088394557130412
100
AcDbVertex
100
AcDb2dVertex
 10
1.497317543162908
 20
0.370920509709402
 30
0.0
 40
0.0035
 41
0.0035
  0
SEQEND
  5
244
330
241
100
AcDbEntity
  8
1
  6
Continuous
 62
     7
 48
0.0088394557130412
370
     0
  0
POLYLINE
  5
245
330
1F
100
AcDbEntity
  8
1
  6
Continuous
 62
     7
 48
0.0088394557130412
370
     0
100
AcDb2dPolyline
 66
     1
 10
0.0
 20
0.0
 30
0.0
  0
VERTEX
  5
246
330
245
100
AcDbEntity
  8
1
  6
Continuous
 62
     7
 48
0.0088394557130412
100
AcDbVertex
100
AcDb2dVertex
 10
1.504139339932633
 20
0.3827362083134743
 30
0.0
 40
0.0035
 41
0.0035
  0
VERTEX
  5
247
330
245
100
AcDbEntity
  8
1
  6
Continuous
 62
     7
 48
0.0088394557130412
100
AcDbVertex
100
AcDb2dVertex
 10
1.514425238317495
 20
0.4005519069175449
 30
0.0
 40
0.0035
 41
0.0035
  0
SEQEND
  5
248
330
245
100
AcDbEntity
  8
1
  6
Continuous
 62
     7
 48
0.0088394557130412
370
     0
  0
POLYLINE
  5
249
330
1F
100
AcDbEntity
  8
1
  6
Continuous
 62
     7
 48
0.0088394557130412
370
     0
100
AcDb2dPolyline
 66
     1
 10
0.0
 20
0.0
 30
0.0
  0
VERTEX
  5
24A
330
249
100
AcDbEntity
  8
1
  6
Continuous
 62
     7
 48
0.0088394557130412
100
AcDbVertex
100
AcDb2dVertex
 10
1.552317543162908
 20
0.370920509709402
 30
0.0
 40
0.0035
 41
0.0035
  0
VERTEX
  5
24B
330
249
100
AcDbEntity
  8
1
  6
Continuous
 62
     7
 48
0.0088394557130412
100
AcDbVertex
100
AcDb2dVertex
 10
1.559139339932633
 20
0.3827362083134743
 30
0.0
 40
0.0035
 41
0.0035
  0
SEQEND
  5
24C
330
249
100
AcDbEntity
  8
1
  6
Continuous
 62
     7
 48
0.0088394557130412
370
     0
  0
POLYLINE
  5
24D
330
1F
100
AcDbEntity
  8
1
  6
Continuous
 62
     7
 48
0.0088394557130412
370
     0
100
AcDb2dPolyline
 66
     1
 10
0.0
 20
0.0
 30
0.0
  0
VERTEX
  5
24E
330
24D
100
AcDbEntity
  8
1
  6
Continuous
 62
     7
 48
0.0088394557130412
100
AcDbVertex
100
AcDb2dVertex
 10
1.538461136702357
 20
0.370920509709402
 30
0.0
 40
0.0035
 41
0.0035
  0
VERTEX
  5
24F
330
24D
100
AcDbEntity
  8
1
  6
Continuous
 62
     7
 48
0.0088394557130412
100
AcDbVertex
100
AcDb2dVertex
 10
1.521353441547771
 20
0.4005519069175456
 30
0.0
 40
0.0035
 41
0.0035
  0
SEQEND
  5
250
330
24D
100
AcDbEntity
  8
1
  6
Continuous
 62
     7
 48
0.0088394557130412
370
     0
  0
POLYLINE
  5
251
330
1F
100
AcDbEntity
  8
1
  6
Continuous
 62
     7
 48
0.0088394557130412
370
     0
100
AcDb2dPolyline
 66
     1
 10
0.0
 20
0.0
 30
0.0
  0
VERTEX
  5
252
330
251
100
AcDbEntity
  8
1
  6
Continuous
 62
     7
 48
0.0088394557130412
100
AcDbVertex
100
AcDb2dVertex
 10
1.514425238317495
 20
0.4005519069175449
 30
0.0
 40
0.0035
 41
0.0035
  0
VERTEX
  5
253
330
251
100
AcDbEntity
  8
1
  6
Continuous
 62
     7
 48
0.0088394557130412
100
AcDbVertex
100
AcDb2dVertex
 10
1.521353441547771
 20
0.4005519069175456
 30
0.0
 40
0.0035
 41
0.0035
  0
SEQEND
  5
254
330
251
100
AcDbEntity
  8
1
  6
Continuous
 62
     7
 48
0.0088394557130412
370
     0
  0
POLYLINE
  5
255
330
1F
100
AcDbEntity
  8
1
  6
Continuous
 62
     7
 48
0.0088394557130412
370
     0
100
AcDb2dPolyline
 66
     1
 10
0.0
 20
0.0
 30
0.0
  0
VERTEX
  5
256
330
255
100
AcDbEntity
  8
1
  6
Continuous
 62
     7
 48
0.0088394557130412
100
AcDbVertex
100
AcDb2dVertex
 10
1.538461136702357
 20
0.370920509709402
 30
0.0
 40
0.0035
 41
0.0035
  0
VERTEX
  5
257
330
255
100
AcDbEntity
  8
1
  6
Continuous
 62
     7
 48
0.0088394557130412
100
AcDbVertex
100
AcDb2dVertex
 10
1.552317543162908
 20
0.370920509709402
 30
0.0
 40
0.0035
 41
0.0035
  0
SEQEND
  5
258
330
255
100
AcDbEntity
  8
1
  6
Continuous
 62
     7
 48
0.0088394557130412
370
     0
  0
POLYLINE
  5
259
330
1F
100
AcDbEntity
  8
1
  6
Continuous
 62
     7
 48
0.0088394557130412
370
     0
100
AcDb2dPolyline
 66
     1
 10
0.0
 20
0.0
 30
0.0
  0
VERTEX
  5
25A
330
259
100
AcDbEntity
  8
1
  6
Continuous
 62
     7
 48
0.0088394557130412
100
AcDbVertex
100
AcDb2dVertex
 10
1.559139339932633
 20
0.3827362083134743
 30
0.0
 40
0.0035
 41
0.0035
  0
VERTEX
  5
25B
330
259
100
AcDbEntity
  8
1
  6
Continuous
 62
     7
 48
0.0088394557130412
100
AcDbVertex
100
AcDb2dVertex
 10
1.569425238317495
 20
0.4005519069175456
 30
0.0
 40
0.0035
 41
0.0035
  0
SEQEND
  5
25C
330
259
100
AcDbEntity
  8
1
  6
Continuous
 62
     7
 48
0.0088394557130412
370
     0
  0
POLYLINE
  5
25D
330
1F
100
AcDbEntity
  8
1
  6
Continuous
 62
     7
 48
0.0088394557130412
370
     0
100
AcDb2dPolyline
 66
     1
 10
0.0
 20
0.0
 30
0.0
  0
VERTEX
  5
25E
330
25D
100
AcDbEntity
  8
1
  6
Continuous
 62
     7
 48
0.0088394557130412
100
AcDbVertex
100
AcDb2dVertex
 10
1.593461136702357
 20
0.370920509709402
 30
0.0
 40
0.0035
 41
0.0035
  0
VERTEX
  5
25F
330
25D
100
AcDbEntity
  8
1
  6
Continuous
 62
     7
 48
0.0088394557130412
100
AcDbVertex
100
AcDb2dVertex
 10
1.57635344154777
 20
0.4005519069175456
 30
0.0
 40
0.0035
 41
0.0035
  0
SEQEND
  5
260
330
25D
100
AcDbEntity
  8
1
  6
Continuous
 62
     7
 48
0.0088394557130412
370
     0
  0
POLYLINE
  5
261
330
1F
100
AcDbEntity
  8
1
  6
Continuous
 62
     7
 48
0.0088394557130412
370
     0
100
AcDb2dPolyline
 66
     1
 10
0.0
 20
0.0
 30
0.0
  0
VERTEX
  5
262
330
261
100
AcDbEntity
  8
1
  6
Continuous
 62
     7
 48
0.0088394557130412
100
AcDbVertex
100
AcDb2dVertex
 10
1.569425238317495
 20
0.4005519069175456
 30
0.0
 40
0.0035
 41
0.0035
  0
VERTEX
  5
263
330
261
100
AcDbEntity
  8
1
  6
Continuous
 62
     7
 48
0.0088394557130412
100
AcDbVertex
100
AcDb2dVertex
 10
1.57635344154777
 20
0.4005519069175456
 30
0.0
 40
0.0035
 41
0.0035
  0
SEQEND
  5
264
330
261
100
AcDbEntity
  8
1
  6
Continuous
 62
     7
 48
0.0088394557130412
370
     0
  0
POLYLINE
  5
265
330
1F
100
AcDbEntity
  8
1
  6
Continuous
 62
     7
 48
0.0088394557130412
370
     0
100
AcDb2dPolyline
 66
     1
 10
0.0
 20
0.0
 30
0.0
  0
VERTEX
  5
266
330
265
100
AcDbEntity
  8
1
  6
Continuous
 62
     7
 48
0.0088394557130412
100
AcDbVertex
100
AcDb2dVertex
 10
1.593461136702357
 20
0.370920509709402
 30
0.0
 40
0.0035
 41
0.0035
  0
VERTEX
  5
267
330
265
100
AcDbEntity
  8
1
  6
Continuous
 62
     7
 48
0.0088394557130412
100
AcDbVertex
100
AcDb2dVertex
 10
1.607317543162908
 20
0.370920509709402
 30
0.0
 40
0.0035
 41
0.0035
  0
SEQEND
  5
268
330
265
100
AcDbEntity
  8
1
  6
Continuous
 62
     7
 48
0.0088394557130412
370
     0
  0
POLYLINE
  5
269
330
1F
100
AcDbEntity
  8
1
  6
Continuous
 62
     7
 48
0.0088394557130412
370
     0
100
AcDb2dPolyline
 66
     1
 10
0.0
 20
0.0
 30
0.0
  0
VERTEX
  5
26A
330
269
100
AcDbEntity
  8
1
  6
Continuous
 62
     7
 48
0.0088394557130412
100
AcDbVertex
100
AcDb2dVertex
 10
1.387537742943699
 20
0.3705391125012581
 30
0.0
 40
0.0035
 41
0.0035
  0
VERTEX
  5
26B
330
269
100
AcDbEntity
  8
1
  6
Continuous
 62
     7
 48
0.0088394557130412
100
AcDbVertex
100
AcDb2dVertex
 10
1.394359539713424
 20
0.3823548111053304
 30
0.0
 40
0.0035
 41
0.0035
  0
SEQEND
  5
26C
330
269
100
AcDbEntity
  8
1
  6
Continuous
 62
     7
 48
0.0088394557130412
370
     0
  0
POLYLINE
  5
26D
330
1F
100
AcDbEntity
  8
1
  6
Continuous
 62
     7
 48
0.0088394557130412
370
     0
100
AcDb2dPolyline
 66
     1
 10
0.0
 20
0.0
 30
0.0
  0
VERTEX
  5
26E
330
26D
100
AcDbEntity
  8
1
  6
Continuous
 62
     7
 48
0.0088394557130412
100
AcDbVertex
100
AcDb2dVertex
 10
1.373681336483148
 20
0.3705391125012581
 30
0.0
 40
0.0035
 41
0.0035
  0
VERTEX
  5
26F
330
26D
100
AcDbEntity
  8
1
  6
Continuous
 62
     7
 48
0.0088394557130412
100
AcDbVertex
100
AcDb2dVertex
 10
1.387537742943699
 20
0.3705391125012581
 30
0.0
 40
0.0035
 41
0.0035
  0
SEQEND
  5
270
330
26D
100
AcDbEntity
  8
1
  6
Continuous
 62
     7
 48
0.0088394557130412
370
     0
  0
POLYLINE
  5
271
330
1F
100
AcDbEntity
  8
1
  6
Continuous
 62
     7
 48
0.0088394557130412
370
     0
100
AcDb2dPolyline
 66
     1
 10
0.0
 20
0.0
 30
0.0
  0
VERTEX
  5
272
330
271
100
AcDbEntity
  8
1
  6
Continuous
 62
     7
 48
0.0088394557130412
100
AcDbVertex
100
AcDb2dVertex
 10
1.394359539713424
 20
0.3823548111053304
 30
0.0
 40
0.0035
 41
0.0035
  0
VERTEX
  5
273
330
271
100
AcDbEntity
  8
1
  6
Continuous
 62
     7
 48
0.0088394557130412
100
AcDbVertex
100
AcDb2dVertex
 10
1.404645438098286
 20
0.4001705097094017
 30
0.0
 40
0.0035
 41
0.0035
  0
SEQEND
  5
274
330
271
100
AcDbEntity
  8
1
  6
Continuous
 62
     7
 48
0.0088394557130412
370
     0
  0
POLYLINE
  5
275
330
1F
100
AcDbEntity
  8
1
  6
Continuous
 62
     7
 48
0.0088394557130412
370
     0
100
AcDb2dPolyline
 66
     1
 10
0.0
 20
0.0
 30
0.0
  0
VERTEX
  5
276
330
275
100
AcDbEntity
  8
1
  6
Continuous
 62
     7
 48
0.0088394557130412
100
AcDbVertex
100
AcDb2dVertex
 10
1.404645438098286
 20
0.4001705097094017
 30
0.0
 40
0.0035
 41
0.0035
  0
VERTEX
  5
277
330
275
100
AcDbEntity
  8
1
  6
Continuous
 62
     7
 48
0.0088394557130412
100
AcDbVertex
100
AcDb2dVertex
 10
1.411573641328561
 20
0.4001705097094017
 30
0.0
 40
0.0035
 41
0.0035
  0
SEQEND
  5
278
330
275
100
AcDbEntity
  8
1
  6
Continuous
 62
     7
 48
0.0088394557130412
370
     0
  0
POLYLINE
  5
279
330
1F
100
AcDbEntity
  8
1
  6
Continuous
 62
     7
 48
0.0088394557130412
370
     0
100
AcDb2dPolyline
 66
     1
 10
0.0
 20
0.0
 30
0.0
  0
VERTEX
  5
27A
330
279
100
AcDbEntity
  8
1
  6
Continuous
 62
     7
 48
0.0088394557130412
100
AcDbVertex
100
AcDb2dVertex
 10
1.373681336483148
 20
0.3705391125012581
 30
0.0
 40
0.0035
 41
0.0035
  0
VERTEX
  5
27B
330
279
100
AcDbEntity
  8
1
  6
Continuous
 62
     7
 48
0.0088394557130412
100
AcDbVertex
100
AcDb2dVertex
 10
1.37282516925659
 20
0.3720220376374319
 30
0.0
 40
0.0035
 41
0.0035
  0
SEQEND
  5
27C
330
279
100
AcDbEntity
  8
1
  6
Continuous
 62
     7
 48
0.0088394557130412
370
     0
  0
POLYLINE
  5
27D
330
1F
100
AcDbEntity
  8
1
  6
Continuous
 62
     7
 48
0.0088394557130412
370
     0
100
AcDb2dPolyline
 66
     1
 10
0.0
 20
0.0
 30
0.0
  0
VERTEX
  5
27E
330
27D
100
AcDbEntity
  8
1
  6
Continuous
 62
     7
 48
0.0088394557130412
100
AcDbVertex
100
AcDb2dVertex
 10
1.360889339932633
 20
0.3600862083134731
 30
0.0
 40
0.0035
 41
0.0035
  0
VERTEX
  5
27F
330
27D
100
AcDbEntity
  8
1
  6
Continuous
 62
     7
 48
0.0088394557130412
100
AcDbVertex
100
AcDb2dVertex
 10
1.37282516925659
 20
0.3720220376374319
 30
0.0
 40
0.0035
 41
0.0035
  0
SEQEND
  5
280
330
27D
100
AcDbEntity
  8
1
  6
Continuous
 62
     7
 48
0.0088394557130412
370
     0
  0
POLYLINE
  5
281
330
1F
100
AcDbEntity
  8
1
  6
Continuous
 62
     7
 48
0.0088394557130412
370
     0
100
AcDb2dPolyline
 66
     1
 10
0.0
 20
0.0
 30
0.0
  0
VERTEX
  5
282
330
281
100
AcDbEntity
  8
1
  6
Continuous
 62
     7
 48
0.0088394557130412
100
AcDbVertex
100
AcDb2dVertex
 10
1.607317543162908
 20
0.370920509709402
 30
0.0
 40
0.0035
 41
0.0035
  0
VERTEX
  5
283
330
281
100
AcDbEntity
  8
1
  6
Continuous
 62
     7
 48
0.0088394557130412
100
AcDbVertex
100
AcDb2dVertex
 10
1.607953510608676
 20
0.3720220376374312
 30
0.0
 40
0.0035
 41
0.0035
  0
SEQEND
  5
284
330
281
100
AcDbEntity
  8
1
  6
Continuous
 62
     7
 48
0.0088394557130412
370
     0
  0
POLYLINE
  5
285
330
1F
100
AcDbEntity
  8
1
  6
Continuous
 62
     7
 48
0.0088394557130412
370
     0
100
AcDb2dPolyline
 66
     1
 10
0.0
 20
0.0
 30
0.0
  0
VERTEX
  5
286
330
285
100
AcDbEntity
  8
1
  6
Continuous
 62
     7
 48
0.0088394557130412
100
AcDbVertex
100
AcDb2dVertex
 10
1.617889339932631
 20
0.3620862083134753
 30
0.0
 40
0.0035
 41
0.0035
  0
VERTEX
  5
287
330
285
100
AcDbEntity
  8
1
  6
Continuous
 62
     7
 48
0.0088394557130412
100
AcDbVertex
100
AcDb2dVertex
 10
1.607953510608676
 20
0.3720220376374312
 30
0.0
 40
0.0035
 41
0.0035
  0
SEQEND
  5
288
330
285
100
AcDbEntity
  8
1
  6
Continuous
 62
     7
 48
0.0088394557130412
370
     0
  0
POLYLINE
  5
289
330
1F
100
AcDbEntity
  8
1
  6
Continuous
 62
     7
 48
0.0088394557130412
370
     0
100
AcDb2dPolyline
 66
     1
 10
0.0
 20
0.0
 30
0.0
  0
VERTEX
  5
28A
330
289
100
AcDbEntity
  8
1
  6
Continuous
 62
     7
 48
0.0088394557130412
100
AcDbVertex
100
AcDb2dVertex
 10
1.414617543162909
 20
-0.1267480930824552
 30
0.0
 40
0.0035
 41
0.0035
  0
VERTEX
  5
28B
330
289
100
AcDbEntity
  8
1
  6
Continuous
 62
     7
 48
0.0088394557130412
100
AcDbVertex
100
AcDb2dVertex
 10
1.421439339932633
 20
-0.1385637916865273
 30
0.0
 40
0.0035
 41
0.0035
  0
SEQEND
  5
28C
330
289
100
AcDbEntity
  8
1
  6
Continuous
 62
     7
 48
0.0088394557130412
370
     0
  0
POLYLINE
  5
28D
330
1F
100
AcDbEntity
  8
1
  6
Continuous
 62
     7
 48
0.0088394557130412
370
     0
100
AcDb2dPolyline
 66
     1
 10
0.0
 20
0.0
 30
0.0
  0
VERTEX
  5
28E
330
28D
100
AcDbEntity
  8
1
  6
Continuous
 62
     7
 48
0.0088394557130412
100
AcDbVertex
100
AcDb2dVertex
 10
1.400761136702357
 20
-0.1267480930824552
 30
0.0
 40
0.0035
 41
0.0035
  0
VERTEX
  5
28F
330
28D
100
AcDbEntity
  8
1
  6
Continuous
 62
     7
 48
0.0088394557130412
100
AcDbVertex
100
AcDb2dVertex
 10
1.414617543162909
 20
-0.1267480930824552
 30
0.0
 40
0.0035
 41
0.0035
  0
SEQEND
  5
290
330
28D
100
AcDbEntity
  8
1
  6
Continuous
 62
     7
 48
0.0088394557130412
370
     0
  0
POLYLINE
  5
291
330
1F
100
AcDbEntity
  8
1
  6
Continuous
 62
     7
 48
0.0088394557130412
370
     0
100
AcDb2dPolyline
 66
     1
 10
0.0
 20
0.0
 30
0.0
  0
VERTEX
  5
292
330
291
100
AcDbEntity
  8
1
  6
Continuous
 62
     7
 48
0.0088394557130412
100
AcDbVertex
100
AcDb2dVertex
 10
1.421439339932633
 20
-0.1385637916865273
 30
0.0
 40
0.0035
 41
0.0035
  0
VERTEX
  5
293
330
291
100
AcDbEntity
  8
1
  6
Continuous
 62
     7
 48
0.0088394557130412
100
AcDbVertex
100
AcDb2dVertex
 10
1.431725238317496
 20
-0.1563794902905986
 30
0.0
 40
0.0035
 41
0.0035
  0
SEQEND
  5
294
330
291
100
AcDbEntity
  8
1
  6
Continuous
 62
     7
 48
0.0088394557130412
370
     0
  0
POLYLINE
  5
295
330
1F
100
AcDbEntity
  8
1
  6
Continuous
 62
     7
 48
0.0088394557130412
370
     0
100
AcDb2dPolyline
 66
     1
 10
0.0
 20
0.0
 30
0.0
  0
VERTEX
  5
296
330
295
100
AcDbEntity
  8
1
  6
Continuous
 62
     7
 48
0.0088394557130412
100
AcDbVertex
100
AcDb2dVertex
 10
1.469617543162908
 20
-0.1267480930824552
 30
0.0
 40
0.0035
 41
0.0035
  0
VERTEX
  5
297
330
295
100
AcDbEntity
  8
1
  6
Continuous
 62
     7
 48
0.0088394557130412
100
AcDbVertex
100
AcDb2dVertex
 10
1.476439339932633
 20
-0.1385637916865273
 30
0.0
 40
0.0035
 41
0.0035
  0
SEQEND
  5
298
330
295
100
AcDbEntity
  8
1
  6
Continuous
 62
     7
 48
0.0088394557130412
370
     0
  0
POLYLINE
  5
299
330
1F
100
AcDbEntity
  8
1
  6
Continuous
 62
     7
 48
0.0088394557130412
370
     0
100
AcDb2dPolyline
 66
     1
 10
0.0
 20
0.0
 30
0.0
  0
VERTEX
  5
29A
330
299
100
AcDbEntity
  8
1
  6
Continuous
 62
     7
 48
0.0088394557130412
100
AcDbVertex
100
AcDb2dVertex
 10
1.455761136702358
 20
-0.1267480930824552
 30
0.0
 40
0.0035
 41
0.0035
  0
VERTEX
  5
29B
330
299
100
AcDbEntity
  8
1
  6
Continuous
 62
     7
 48
0.0088394557130412
100
AcDbVertex
100
AcDb2dVertex
 10
1.438653441547771
 20
-0.1563794902905986
 30
0.0
 40
0.0035
 41
0.0035
  0
SEQEND
  5
29C
330
299
100
AcDbEntity
  8
1
  6
Continuous
 62
     7
 48
0.0088394557130412
370
     0
  0
POLYLINE
  5
29D
330
1F
100
AcDbEntity
  8
1
  6
Continuous
 62
     7
 48
0.0088394557130412
370
     0
100
AcDb2dPolyline
 66
     1
 10
0.0
 20
0.0
 30
0.0
  0
VERTEX
  5
29E
330
29D
100
AcDbEntity
  8
1
  6
Continuous
 62
     7
 48
0.0088394557130412
100
AcDbVertex
100
AcDb2dVertex
 10
1.431725238317496
 20
-0.1563794902905986
 30
0.0
 40
0.0035
 41
0.0035
  0
VERTEX
  5
29F
330
29D
100
AcDbEntity
  8
1
  6
Continuous
 62
     7
 48
0.0088394557130412
100
AcDbVertex
100
AcDb2dVertex
 10
1.438653441547771
 20
-0.1563794902905986
 30
0.0
 40
0.0035
 41
0.0035
  0
SEQEND
  5
2A0
330
29D
100
AcDbEntity
  8
1
  6
Continuous
 62
     7
 48
0.0088394557130412
370
     0
  0
POLYLINE
  5
2A1
330
1F
100
AcDbEntity
  8
1
  6
Continuous
 62
     7
 48
0.0088394557130412
370
     0
100
AcDb2dPolyline
 66
     1
 10
0.0
 20
0.0
 30
0.0
  0
VERTEX
  5
2A2
330
2A1
100
AcDbEntity
  8
1
  6
Continuous
 62
     7
 48
0.0088394557130412
100
AcDbVertex
100
AcDb2dVertex
 10
1.455761136702358
 20
-0.1267480930824552
 30
0.0
 40
0.0035
 41
0.0035
  0
VERTEX
  5
2A3
330
2A1
100
AcDbEntity
  8
1
  6
Continuous
 62
     7
 48
0.0088394557130412
100
AcDbVertex
100
AcDb2dVertex
 10
1.469617543162908
 20
-0.1267480930824552
 30
0.0
 40
0.0035
 41
0.0035
  0
SEQEND
  5
2A4
330
2A1
100
AcDbEntity
  8
1
  6
Continuous
 62
     7
 48
0.0088394557130412
370
     0
  0
POLYLINE
  5
2A5
330
1F
100
AcDbEntity
  8
1
  6
Continuous
 62
     7
 48
0.0088394557130412
370
     0
100
AcDb2dPolyline
 66
     1
 10
0.0
 20
0.0
 30
0.0
  0
VERTEX
  5
2A6
330
2A5
100
AcDbEntity
  8
1
  6
Continuous
 62
     7
 48
0.0088394557130412
100
AcDbVertex
100
AcDb2dVertex
 10
1.476439339932633
 20
-0.1385637916865273
 30
0.0
 40
0.0035
 41
0.0035
  0
VERTEX
  5
2A7
330
2A5
100
AcDbEntity
  8
1
  6
Continuous
 62
     7
 48
0.0088394557130412
100
AcDbVertex
100
AcDb2dVertex
 10
1.486725238317495
 20
-0.1563794902905984
 30
0.0
 40
0.0035
 41
0.0035
  0
SEQEND
  5
2A8
330
2A5
100
AcDbEntity
  8
1
  6
Continuous
 62
     7
 48
0.0088394557130412
370
     0
  0
POLYLINE
  5
2A9
330
1F
100
AcDbEntity
  8
1
  6
Continuous
 62
     7
 48
0.0088394557130412
370
     0
100
AcDb2dPolyline
 66
     1
 10
0.0
 20
0.0
 30
0.0
  0
VERTEX
  5
2AA
330
2A9
100
AcDbEntity
  8
1
  6
Continuous
 62
     7
 48
0.0088394557130412
100
AcDbVertex
100
AcDb2dVertex
 10
1.524617543162908
 20
-0.1267480930824552
 30
0.0
 40
0.0035
 41
0.0035
  0
VERTEX
  5
2AB
330
2A9
100
AcDbEntity
  8
1
  6
Continuous
 62
     7
 48
0.0088394557130412
100
AcDbVertex
100
AcDb2dVertex
 10
1.531439339932632
 20
-0.1385637916865273
 30
0.0
 40
0.0035
 41
0.0035
  0
SEQEND
  5
2AC
330
2A9
100
AcDbEntity
  8
1
  6
Continuous
 62
     7
 48
0.0088394557130412
370
     0
  0
POLYLINE
  5
2AD
330
1F
100
AcDbEntity
  8
1
  6
Continuous
 62
     7
 48
0.0088394557130412
370
     0
100
AcDb2dPolyline
 66
     1
 10
0.0
 20
0.0
 30
0.0
  0
VERTEX
  5
2AE
330
2AD
100
AcDbEntity
  8
1
  6
Continuous
 62
     7
 48
0.0088394557130412
100
AcDbVertex
100
AcDb2dVertex
 10
1.510761136702357
 20
-0.1267480930824552
 30
0.0
 40
0.0035
 41
0.0035
  0
VERTEX
  5
2AF
330
2AD
100
AcDbEntity
  8
1
  6
Continuous
 62
     7
 48
0.0088394557130412
100
AcDbVertex
100
AcDb2dVertex
 10
1.493653441547771
 20
-0.1563794902905986
 30
0.0
 40
0.0035
 41
0.0035
  0
SEQEND
  5
2B0
330
2AD
100
AcDbEntity
  8
1
  6
Continuous
 62
     7
 48
0.0088394557130412
370
     0
  0
POLYLINE
  5
2B1
330
1F
100
AcDbEntity
  8
1
  6
Continuous
 62
     7
 48
0.0088394557130412
370
     0
100
AcDb2dPolyline
 66
     1
 10
0.0
 20
0.0
 30
0.0
  0
VERTEX
  5
2B2
330
2B1
100
AcDbEntity
  8
1
  6
Continuous
 62
     7
 48
0.0088394557130412
100
AcDbVertex
100
AcDb2dVertex
 10
1.486725238317495
 20
-0.1563794902905984
 30
0.0
 40
0.0035
 41
0.0035
  0
VERTEX
  5
2B3
330
2B1
100
AcDbEntity
  8
1
  6
Continuous
 62
     7
 48
0.0088394557130412
100
AcDbVertex
100
AcDb2dVertex
 10
1.493653441547771
 20
-0.1563794902905986
 30
0.0
 40
0.0035
 41
0.0035
  0
SEQEND
  5
2B4
330
2B1
100
AcDbEntity
  8
1
  6
Continuous
 62
     7
 48
0.0088394557130412
370
     0
  0
POLYLINE
  5
2B5
330
1F
100
AcDbEntity
  8
1
  6
Continuous
 62
     7
 48
0.0088394557130412
370
     0
100
AcDb2dPolyline
 66
     1
 10
0.0
 20
0.0
 30
0.0
  0
VERTEX
  5
2B6
330
2B5
100
AcDbEntity
  8
1
  6
Continuous
 62
     7
 48
0.0088394557130412
100
AcDbVertex
100
AcDb2dVertex
 10
1.510761136702357
 20
-0.1267480930824552
 30
0.0
 40
0.0035
 41
0.0035
  0
VERTEX
  5
2B7
330
2B5
100
AcDbEntity
  8
1
  6
Continuous
 62
     7
 48
0.0088394557130412
100
AcDbVertex
100
AcDb2dVertex
 10
1.524617543162908
 20
-0.1267480930824552
 30
0.0
 40
0.0035
 41
0.0035
  0
SEQEND
  5
2B8
330
2B5
100
AcDbEntity
  8
1
  6
Continuous
 62
     7
 48
0.0088394557130412
370
     0
  0
POLYLINE
  5
2B9
330
1F
100
AcDbEntity
  8
1
  6
Continuous
 62
     7
 48
0.0088394557130412
370
     0
100
AcDb2dPolyline
 66
     1
 10
0.0
 20
0.0
 30
0.0
  0
VERTEX
  5
2BA
330
2B9
100
AcDbEntity
  8
1
  6
Continuous
 62
     7
 48
0.0088394557130412
100
AcDbVertex
100
AcDb2dVertex
 10
1.531439339932632
 20
-0.1385637916865273
 30
0.0
 40
0.0035
 41
0.0035
  0
VERTEX
  5
2BB
330
2B9
100
AcDbEntity
  8
1
  6
Continuous
 62
     7
 48
0.0088394557130412
100
AcDbVertex
100
AcDb2dVertex
 10
1.541725238317495
 20
-0.1563794902905986
 30
0.0
 40
0.0035
 41
0.0035
  0
SEQEND
  5
2BC
330
2B9
100
AcDbEntity
  8
1
  6
Continuous
 62
     7
 48
0.0088394557130412
370
     0
  0
POLYLINE
  5
2BD
330
1F
100
AcDbEntity
  8
1
  6
Continuous
 62
     7
 48
0.0088394557130412
370
     0
100
AcDb2dPolyline
 66
     1
 10
0.0
 20
0.0
 30
0.0
  0
VERTEX
  5
2BE
330
2BD
100
AcDbEntity
  8
1
  6
Continuous
 62
     7
 48
0.0088394557130412
100
AcDbVertex
100
AcDb2dVertex
 10
1.565761136702357
 20
-0.1267480930824552
 30
0.0
 40
0.0035
 41
0.0035
  0
VERTEX
  5
2BF
330
2BD
100
AcDbEntity
  8
1
  6
Continuous
 62
     7
 48
0.0088394557130412
100
AcDbVertex
100
AcDb2dVertex
 10
1.54865344154777
 20
-0.1563794902905986
 30
0.0
 40
0.0035
 41
0.0035
  0
SEQEND
  5
2C0
330
2BD
100
AcDbEntity
  8
1
  6
Continuous
 62
     7
 48
0.0088394557130412
370
     0
  0
POLYLINE
  5
2C1
330
1F
100
AcDbEntity
  8
1
  6
Continuous
 62
     7
 48
0.0088394557130412
370
     0
100
AcDb2dPolyline
 66
     1
 10
0.0
 20
0.0
 30
0.0
  0
VERTEX
  5
2C2
330
2C1
100
AcDbEntity
  8
1
  6
Continuous
 62
     7
 48
0.0088394557130412
100
AcDbVertex
100
AcDb2dVertex
 10
1.541725238317495
 20
-0.1563794902905986
 30
0.0
 40
0.0035
 41
0.0035
  0
VERTEX
  5
2C3
330
2C1
100
AcDbEntity
  8
1
  6
Continuous
 62
     7
 48
0.0088394557130412
100
AcDbVertex
100
AcDb2dVertex
 10
1.54865344154777
 20
-0.1563794902905986
 30
0.0
 40
0.0035
 41
0.0035
  0
SEQEND
  5
2C4
330
2C1
100
AcDbEntity
  8
1
  6
Continuous
 62
     7
 48
0.0088394557130412
370
     0
  0
POLYLINE
  5
2C5
330
1F
100
AcDbEntity
  8
1
  6
Continuous
 62
     7
 48
0.0088394557130412
370
     0
100
AcDb2dPolyline
 66
     1
 10
0.0
 20
0.0
 30
0.0
  0
VERTEX
  5
2C6
330
2C5
100
AcDbEntity
  8
1
  6
Continuous
 62
     7
 48
0.0088394557130412
100
AcDbVertex
100
AcDb2dVertex
 10
1.565761136702357
 20
-0.1267480930824552
 30
0.0
 40
0.0035
 41
0.0035
  0
VERTEX
  5
2C7
330
2C5
100
AcDbEntity
  8
1
  6
Continuous
 62
     7
 48
0.0088394557130412
100
AcDbVertex
100
AcDb2dVertex
 10
1.579617543162908
 20
-0.1267480930824552
 30
0.0
 40
0.0035
 41
0.0035
  0
SEQEND
  5
2C8
330
2C5
100
AcDbEntity
  8
1
  6
Continuous
 62
     7
 48
0.0088394557130412
370
     0
  0
POLYLINE
  5
2C9
330
1F
100
AcDbEntity
  8
1
  6
Continuous
 62
     7
 48
0.0088394557130412
370
     0
100
AcDb2dPolyline
 66
     1
 10
0.0
 20
0.0
 30
0.0
  0
VERTEX
  5
2CA
330
2C9
100
AcDbEntity
  8
1
  6
Continuous
 62
     7
 48
0.0088394557130412
100
AcDbVertex
100
AcDb2dVertex
 10
1.360889339932633
 20
-0.1159137916865262
 30
0.0
 40
0.0035
 41
0.0035
  0
VERTEX
  5
2CB
330
2C9
100
AcDbEntity
  8
1
  6
Continuous
 62
     7
 48
0.0088394557130412
100
AcDbVertex
100
AcDb2dVertex
 10
1.390132675733275
 20
-0.145157127487169
 30
0.0
 40
0.0035
 41
0.0035
  0
SEQEND
  5
2CC
330
2C9
100
AcDbEntity
  8
1
  6
Continuous
 62
     7
 48
0.0088394557130412
370
     0
  0
POLYLINE
  5
2CD
330
1F
100
AcDbEntity
  8
1
  6
Continuous
 62
     7
 48
0.0088394557130412
370
     0
100
AcDb2dPolyline
 66
     1
 10
0.0
 20
0.0
 30
0.0
  0
VERTEX
  5
2CE
330
2CD
100
AcDbEntity
  8
1
  6
Continuous
 62
     7
 48
0.0088394557130412
100
AcDbVertex
100
AcDb2dVertex
 10
1.400761136702357
 20
-0.1267480930824552
 30
0.0
 40
0.0035
 41
0.0035
  0
VERTEX
  5
2CF
330
2CD
100
AcDbEntity
  8
1
  6
Continuous
 62
     7
 48
0.0088394557130412
100
AcDbVertex
100
AcDb2dVertex
 10
1.390132675733275
 20
-0.145157127487169
 30
0.0
 40
0.0035
 41
0.0035
  0
SEQEND
  5
2D0
330
2CD
100
AcDbEntity
  8
1
  6
Continuous
 62
     7
 48
0.0088394557130412
370
     0
  0
POLYLINE
  5
2D1
330
1F
100
AcDbEntity
  8
1
  6
Continuous
 62
     7
 48
0.0088394557130412
370
     0
100
AcDb2dPolyline
 66
     1
 10
0.0
 20
0.0
 30
0.0
  0
VERTEX
  5
2D2
330
2D1
100
AcDbEntity
  8
1
  6
Continuous
 62
     7
 48
0.0088394557130412
100
AcDbVertex
100
AcDb2dVertex
 10
1.579617543162908
 20
-0.1267480930824552
 30
0.0
 40
0.0035
 41
0.0035
  0
VERTEX
  5
2D3
330
2D1
100
AcDbEntity
  8
1
  6
Continuous
 62
     7
 48
0.0088394557130412
100
AcDbVertex
100
AcDb2dVertex
 10
1.586439339932632
 20
-0.1385637916865273
 30
0.0
 40
0.0035
 41
0.0035
  0
SEQEND
  5
2D4
330
2D1
100
AcDbEntity
  8
1
  6
Continuous
 62
     7
 48
0.0088394557130412
370
     0
  0
POLYLINE
  5
2D5
330
1F
100
AcDbEntity
  8
1
  6
Continuous
 62
     7
 48
0.0088394557130412
370
     0
100
AcDb2dPolyline
 66
     1
 10
0.0
 20
0.0
 30
0.0
  0
VERTEX
  5
2D6
330
2D5
100
AcDbEntity
  8
1
  6
Continuous
 62
     7
 48
0.0088394557130412
100
AcDbVertex
100
AcDb2dVertex
 10
1.586439339932632
 20
-0.1385637916865273
 30
0.0
 40
0.0035
 41
0.0035
  0
VERTEX
  5
2D7
330
2D5
100
AcDbEntity
  8
1
  6
Continuous
 62
     7
 48
0.0088394557130412
100
AcDbVertex
100
AcDb2dVertex
 10
1.590392414293503
 20
-0.1454107173256543
 30
0.0
 40
0.0035
 41
0.0035
  0
SEQEND
  5
2D8
330
2D5
100
AcDbEntity
  8
1
  6
Continuous
 62
     7
 48
0.0088394557130412
370
     0
  0
POLYLINE
  5
2D9
330
1F
100
AcDbEntity
  8
1
  6
Continuous
 62
     7
 48
0.0088394557130412
370
     0
100
AcDb2dPolyline
 66
     1
 10
0.0
 20
0.0
 30
0.0
  0
VERTEX
  5
2DA
330
2D9
100
AcDbEntity
  8
1
  6
Continuous
 62
     7
 48
0.0088394557130412
100
AcDbVertex
100
AcDb2dVertex
 10
1.617889339932631
 20
-0.1179137916865251
 30
0.0
 40
0.0035
 41
0.0035
  0
VERTEX
  5
2DB
330
2D9
100
AcDbEntity
  8
1
  6
Continuous
 62
     7
 48
0.0088394557130412
100
AcDbVertex
100
AcDb2dVertex
 10
1.590392414293503
 20
-0.1454107173256543
 30
0.0
 40
0.0035
 41
0.0035
  0
SEQEND
  5
2DC
330
2D9
100
AcDbEntity
  8
1
  6
Continuous
 62
     7
 48
0.0088394557130412
370
     0
  0
POLYLINE
  5
2DD
330
1F
100
AcDbEntity
  8
1
  6
Continuous
 62
     7
 48
0.0088394557130412
370
     0
100
AcDb2dPolyline
 66
     1
 10
0.0
 20
0.0
 30
0.0
  0
VERTEX
  5
2DE
330
2DD
100
AcDbEntity
  8
1
  6
Continuous
 62
     7
 48
0.0088394557130412
100
AcDbVertex
100
AcDb2dVertex
 10
1.999831250977478
 20
0.2951634982399773
 30
0.0
 40
0.0035
 41
0.0035
  0
VERTEX
  5
2DF
330
2DD
100
AcDbEntity
  8
1
  6
Continuous
 62
     7
 48
0.0088394557130412
100
AcDbVertex
100
AcDb2dVertex
 10
2.004751839932636
 20
0.3036862083134735
 30
0.0
 40
0.0035
 41
0.0035
  0
SEQEND
  5
2E0
330
2DD
100
AcDbEntity
  8
1
  6
Continuous
 62
     7
 48
0.0088394557130412
370
     0
  0
POLYLINE
  5
2E1
330
1F
100
AcDbEntity
  8
1
  6
Continuous
 62
     7
 48
0.0088394557130412
370
     0
100
AcDb2dPolyline
 66
     1
 10
0.0
 20
0.0
 30
0.0
  0
VERTEX
  5
2E2
330
2E1
100
AcDbEntity
  8
1
  6
Continuous
 62
     7
 48
0.0088394557130412
100
AcDbVertex
100
AcDb2dVertex
 10
1.989987428887795
 20
0.2951634982399773
 30
0.0
 40
0.0035
 41
0.0035
  0
VERTEX
  5
2E3
330
2E1
100
AcDbEntity
  8
1
  6
Continuous
 62
     7
 48
0.0088394557130412
100
AcDbVertex
100
AcDb2dVertex
 10
1.999831250977478
 20
0.2951634982399773
 30
0.0
 40
0.0035
 41
0.0035
  0
SEQEND
  5
2E4
330
2E1
100
AcDbEntity
  8
1
  6
Continuous
 62
     7
 48
0.0088394557130412
370
     0
  0
POLYLINE
  5
2E5
330
1F
100
AcDbEntity
  8
1
  6
Continuous
 62
     7
 48
0.0088394557130412
370
     0
100
AcDb2dPolyline
 66
     1
 10
0.0
 20
0.0
 30
0.0
  0
VERTEX
  5
2E6
330
2E5
100
AcDbEntity
  8
1
  6
Continuous
 62
     7
 48
0.0088394557130412
100
AcDbVertex
100
AcDb2dVertex
 10
2.004751839932636
 20
0.3036862083134735
 30
0.0
 40
0.0035
 41
0.0035
  0
VERTEX
  5
2E7
330
2E5
100
AcDbEntity
  8
1
  6
Continuous
 62
     7
 48
0.0088394557130412
100
AcDbVertex
100
AcDb2dVertex
 10
2.012133384410216
 20
0.3164714183869705
 30
0.0
 40
0.0035
 41
0.0035
  0
SEQEND
  5
2E8
330
2E5
100
AcDbEntity
  8
1
  6
Continuous
 62
     7
 48
0.0088394557130412
370
     0
  0
POLYLINE
  5
2E9
330
1F
100
AcDbEntity
  8
1
  6
Continuous
 62
     7
 48
0.0088394557130412
370
     0
100
AcDb2dPolyline
 66
     1
 10
0.0
 20
0.0
 30
0.0
  0
VERTEX
  5
2EA
330
2E9
100
AcDbEntity
  8
1
  6
Continuous
 62
     7
 48
0.0088394557130412
100
AcDbVertex
100
AcDb2dVertex
 10
2.012133384410216
 20
0.3164714183869705
 30
0.0
 40
0.0035
 41
0.0035
  0
VERTEX
  5
2EB
330
2E9
100
AcDbEntity
  8
1
  6
Continuous
 62
     7
 48
0.0088394557130412
100
AcDbVertex
100
AcDb2dVertex
 10
2.017055295455057
 20
0.3164714183869705
 30
0.0
 40
0.0035
 41
0.0035
  0
SEQEND
  5
2EC
330
2E9
100
AcDbEntity
  8
1
  6
Continuous
 62
     7
 48
0.0088394557130412
370
     0
  0
POLYLINE
  5
2ED
330
1F
100
AcDbEntity
  8
1
  6
Continuous
 62
     7
 48
0.0088394557130412
370
     0
100
AcDb2dPolyline
 66
     1
 10
0.0
 20
0.0
 30
0.0
  0
VERTEX
  5
2EE
330
2ED
100
AcDbEntity
  8
1
  6
Continuous
 62
     7
 48
0.0088394557130412
100
AcDbVertex
100
AcDb2dVertex
 10
2.039201250977477
 20
0.2951634982399773
 30
0.0
 40
0.0035
 41
0.0035
  0
VERTEX
  5
2EF
330
2ED
100
AcDbEntity
  8
1
  6
Continuous
 62
     7
 48
0.0088394557130412
100
AcDbVertex
100
AcDb2dVertex
 10
2.044121839932635
 20
0.3036862083134735
 30
0.0
 40
0.0035
 41
0.0035
  0
SEQEND
  5
2F0
330
2ED
100
AcDbEntity
  8
1
  6
Continuous
 62
     7
 48
0.0088394557130412
370
     0
  0
POLYLINE
  5
2F1
330
1F
100
AcDbEntity
  8
1
  6
Continuous
 62
     7
 48
0.0088394557130412
370
     0
100
AcDb2dPolyline
 66
     1
 10
0.0
 20
0.0
 30
0.0
  0
VERTEX
  5
2F2
330
2F1
100
AcDbEntity
  8
1
  6
Continuous
 62
     7
 48
0.0088394557130412
100
AcDbVertex
100
AcDb2dVertex
 10
2.029357428887794
 20
0.2951634982399773
 30
0.0
 40
0.0035
 41
0.0035
  0
VERTEX
  5
2F3
330
2F1
100
AcDbEntity
  8
1
  6
Continuous
 62
     7
 48
0.0088394557130412
100
AcDbVertex
100
AcDb2dVertex
 10
2.039201250977477
 20
0.2951634982399773
 30
0.0
 40
0.0035
 41
0.0035
  0
SEQEND
  5
2F4
330
2F1
100
AcDbEntity
  8
1
  6
Continuous
 62
     7
 48
0.0088394557130412
370
     0
  0
POLYLINE
  5
2F5
330
1F
100
AcDbEntity
  8
1
  6
Continuous
 62
     7
 48
0.0088394557130412
370
     0
100
AcDb2dPolyline
 66
     1
 10
0.0
 20
0.0
 30
0.0
  0
VERTEX
  5
2F6
330
2F5
100
AcDbEntity
  8
1
  6
Continuous
 62
     7
 48
0.0088394557130412
100
AcDbVertex
100
AcDb2dVertex
 10
2.029357428887794
 20
0.2951634982399773
 30
0.0
 40
0.0035
 41
0.0035
  0
VERTEX
  5
2F7
330
2F5
100
AcDbEntity
  8
1
  6
Continuous
 62
     7
 48
0.0088394557130412
100
AcDbVertex
100
AcDb2dVertex
 10
2.017055295455057
 20
0.3164714183869705
 30
0.0
 40
0.0035
 41
0.0035
  0
SEQEND
  5
2F8
330
2F5
100
AcDbEntity
  8
1
  6
Continuous
 62
     7
 48
0.0088394557130412
370
     0
  0
POLYLINE
  5
2F9
330
1F
100
AcDbEntity
  8
1
  6
Continuous
 62
     7
 48
0.0088394557130412
370
     0
100
AcDb2dPolyline
 66
     1
 10
0.0
 20
0.0
 30
0.0
  0
VERTEX
  5
2FA
330
2F9
100
AcDbEntity
  8
1
  6
Continuous
 62
     7
 48
0.0088394557130412
100
AcDbVertex
100
AcDb2dVertex
 10
2.044121839932635
 20
0.3036862083134735
 30
0.0
 40
0.0035
 41
0.0035
  0
VERTEX
  5
2FB
330
2F9
100
AcDbEntity
  8
1
  6
Continuous
 62
     7
 48
0.0088394557130412
100
AcDbVertex
100
AcDb2dVertex
 10
2.051503384410215
 20
0.3164714183869705
 30
0.0
 40
0.0035
 41
0.0035
  0
SEQEND
  5
2FC
330
2F9
100
AcDbEntity
  8
1
  6
Continuous
 62
     7
 48
0.0088394557130412
370
     0
  0
POLYLINE
  5
2FD
330
1F
100
AcDbEntity
  8
1
  6
Continuous
 62
     7
 48
0.0088394557130412
370
     0
100
AcDb2dPolyline
 66
     1
 10
0.0
 20
0.0
 30
0.0
  0
VERTEX
  5
2FE
330
2FD
100
AcDbEntity
  8
1
  6
Continuous
 62
     7
 48
0.0088394557130412
100
AcDbVertex
100
AcDb2dVertex
 10
2.051503384410215
 20
0.3164714183869705
 30
0.0
 40
0.0035
 41
0.0035
  0
VERTEX
  5
2FF
330
2FD
100
AcDbEntity
  8
1
  6
Continuous
 62
     7
 48
0.0088394557130412
100
AcDbVertex
100
AcDb2dVertex
 10
2.056425295455056
 20
0.3164714183869705
 30
0.0
 40
0.0035
 41
0.0035
  0
SEQEND
  5
300
330
2FD
100
AcDbEntity
  8
1
  6
Continuous
 62
     7
 48
0.0088394557130412
370
     0
  0
POLYLINE
  5
301
330
1F
100
AcDbEntity
  8
1
  6
Continuous
 62
     7
 48
0.0088394557130412
370
     0
100
AcDb2dPolyline
 66
     1
 10
0.0
 20
0.0
 30
0.0
  0
VERTEX
  5
302
330
301
100
AcDbEntity
  8
1
  6
Continuous
 62
     7
 48
0.0088394557130412
100
AcDbVertex
100
AcDb2dVertex
 10
2.078571250977477
 20
0.2951634982399773
 30
0.0
 40
0.0035
 41
0.0035
  0
VERTEX
  5
303
330
301
100
AcDbEntity
  8
1
  6
Continuous
 62
     7
 48
0.0088394557130412
100
AcDbVertex
100
AcDb2dVertex
 10
2.083491839932635
 20
0.3036862083134735
 30
0.0
 40
0.0035
 41
0.0035
  0
SEQEND
  5
304
330
301
100
AcDbEntity
  8
1
  6
Continuous
 62
     7
 48
0.0088394557130412
370
     0
  0
POLYLINE
  5
305
330
1F
100
AcDbEntity
  8
1
  6
Continuous
 62
     7
 48
0.0088394557130412
370
     0
100
AcDb2dPolyline
 66
     1
 10
0.0
 20
0.0
 30
0.0
  0
VERTEX
  5
306
330
305
100
AcDbEntity
  8
1
  6
Continuous
 62
     7
 48
0.0088394557130412
100
AcDbVertex
100
AcDb2dVertex
 10
2.068727428887794
 20
0.2951634982399773
 30
0.0
 40
0.0035
 41
0.0035
  0
VERTEX
  5
307
330
305
100
AcDbEntity
  8
1
  6
Continuous
 62
     7
 48
0.0088394557130412
100
AcDbVertex
100
AcDb2dVertex
 10
2.078571250977477
 20
0.2951634982399773
 30
0.0
 40
0.0035
 41
0.0035
  0
SEQEND
  5
308
330
305
100
AcDbEntity
  8
1
  6
Continuous
 62
     7
 48
0.0088394557130412
370
     0
  0
POLYLINE
  5
309
330
1F
100
AcDbEntity
  8
1
  6
Continuous
 62
     7
 48
0.0088394557130412
370
     0
100
AcDb2dPolyline
 66
     1
 10
0.0
 20
0.0
 30
0.0
  0
VERTEX
  5
30A
330
309
100
AcDbEntity
  8
1
  6
Continuous
 62
     7
 48
0.0088394557130412
100
AcDbVertex
100
AcDb2dVertex
 10
2.068727428887794
 20
0.2951634982399773
 30
0.0
 40
0.0035
 41
0.0035
  0
VERTEX
  5
30B
330
309
100
AcDbEntity
  8
1
  6
Continuous
 62
     7
 48
0.0088394557130412
100
AcDbVertex
100
AcDb2dVertex
 10
2.056425295455056
 20
0.3164714183869705
 30
0.0
 40
0.0035
 41
0.0035
  0
SEQEND
  5
30C
330
309
100
AcDbEntity
  8
1
  6
Continuous
 62
     7
 48
0.0088394557130412
370
     0
  0
POLYLINE
  5
30D
330
1F
100
AcDbEntity
  8
1
  6
Continuous
 62
     7
 48
0.0088394557130412
370
     0
100
AcDb2dPolyline
 66
     1
 10
0.0
 20
0.0
 30
0.0
  0
VERTEX
  5
30E
330
30D
100
AcDbEntity
  8
1
  6
Continuous
 62
     7
 48
0.0088394557130412
100
AcDbVertex
100
AcDb2dVertex
 10
2.083491839932635
 20
0.3036862083134735
 30
0.0
 40
0.0035
 41
0.0035
  0
VERTEX
  5
30F
330
30D
100
AcDbEntity
  8
1
  6
Continuous
 62
     7
 48
0.0088394557130412
100
AcDbVertex
100
AcDb2dVertex
 10
2.090873384410214
 20
0.3164714183869705
 30
0.0
 40
0.0035
 41
0.0035
  0
SEQEND
  5
310
330
30D
100
AcDbEntity
  8
1
  6
Continuous
 62
     7
 48
0.0088394557130412
370
     0
  0
POLYLINE
  5
311
330
1F
100
AcDbEntity
  8
1
  6
Continuous
 62
     7
 48
0.0088394557130412
370
     0
100
AcDb2dPolyline
 66
     1
 10
0.0
 20
0.0
 30
0.0
  0
VERTEX
  5
312
330
311
100
AcDbEntity
  8
1
  6
Continuous
 62
     7
 48
0.0088394557130412
100
AcDbVertex
100
AcDb2dVertex
 10
2.090873384410214
 20
0.3164714183869705
 30
0.0
 40
0.0035
 41
0.0035
  0
VERTEX
  5
313
330
311
100
AcDbEntity
  8
1
  6
Continuous
 62
     7
 48
0.0088394557130412
100
AcDbVertex
100
AcDb2dVertex
 10
2.095795295455055
 20
0.3164714183869705
 30
0.0
 40
0.0035
 41
0.0035
  0
SEQEND
  5
314
330
311
100
AcDbEntity
  8
1
  6
Continuous
 62
     7
 48
0.0088394557130412
370
     0
  0
POLYLINE
  5
315
330
1F
100
AcDbEntity
  8
1
  6
Continuous
 62
     7
 48
0.0088394557130412
370
     0
100
AcDb2dPolyline
 66
     1
 10
0.0
 20
0.0
 30
0.0
  0
VERTEX
  5
316
330
315
100
AcDbEntity
  8
1
  6
Continuous
 62
     7
 48
0.0088394557130412
100
AcDbVertex
100
AcDb2dVertex
 10
2.117941250977476
 20
0.2951634982399773
 30
0.0
 40
0.0035
 41
0.0035
  0
VERTEX
  5
317
330
315
100
AcDbEntity
  8
1
  6
Continuous
 62
     7
 48
0.0088394557130412
100
AcDbVertex
100
AcDb2dVertex
 10
2.122861839932634
 20
0.3036862083134735
 30
0.0
 40
0.0035
 41
0.0035
  0
SEQEND
  5
318
330
315
100
AcDbEntity
  8
1
  6
Continuous
 62
     7
 48
0.0088394557130412
370
     0
  0
POLYLINE
  5
319
330
1F
100
AcDbEntity
  8
1
  6
Continuous
 62
     7
 48
0.0088394557130412
370
     0
100
AcDb2dPolyline
 66
     1
 10
0.0
 20
0.0
 30
0.0
  0
VERTEX
  5
31A
330
319
100
AcDbEntity
  8
1
  6
Continuous
 62
     7
 48
0.0088394557130412
100
AcDbVertex
100
AcDb2dVertex
 10
2.108097428887793
 20
0.2951634982399773
 30
0.0
 40
0.0035
 41
0.0035
  0
VERTEX
  5
31B
330
319
100
AcDbEntity
  8
1
  6
Continuous
 62
     7
 48
0.0088394557130412
100
AcDbVertex
100
AcDb2dVertex
 10
2.117941250977476
 20
0.2951634982399773
 30
0.0
 40
0.0035
 41
0.0035
  0
SEQEND
  5
31C
330
319
100
AcDbEntity
  8
1
  6
Continuous
 62
     7
 48
0.0088394557130412
370
     0
  0
POLYLINE
  5
31D
330
1F
100
AcDbEntity
  8
1
  6
Continuous
 62
     7
 48
0.0088394557130412
370
     0
100
AcDb2dPolyline
 66
     1
 10
0.0
 20
0.0
 30
0.0
  0
VERTEX
  5
31E
330
31D
100
AcDbEntity
  8
1
  6
Continuous
 62
     7
 48
0.0088394557130412
100
AcDbVertex
100
AcDb2dVertex
 10
2.108097428887793
 20
0.2951634982399773
 30
0.0
 40
0.0035
 41
0.0035
  0
VERTEX
  5
31F
330
31D
100
AcDbEntity
  8
1
  6
Continuous
 62
     7
 48
0.0088394557130412
100
AcDbVertex
100
AcDb2dVertex
 10
2.095795295455055
 20
0.3164714183869705
 30
0.0
 40
0.0035
 41
0.0035
  0
SEQEND
  5
320
330
31D
100
AcDbEntity
  8
1
  6
Continuous
 62
     7
 48
0.0088394557130412
370
     0
  0
POLYLINE
  5
321
330
1F
100
AcDbEntity
  8
1
  6
Continuous
 62
     7
 48
0.0088394557130412
370
     0
100
AcDb2dPolyline
 66
     1
 10
0.0
 20
0.0
 30
0.0
  0
VERTEX
  5
322
330
321
100
AcDbEntity
  8
1
  6
Continuous
 62
     7
 48
0.0088394557130412
100
AcDbVertex
100
AcDb2dVertex
 10
2.122861839932634
 20
0.3036862083134735
 30
0.0
 40
0.0035
 41
0.0035
  0
VERTEX
  5
323
330
321
100
AcDbEntity
  8
1
  6
Continuous
 62
     7
 48
0.0088394557130412
100
AcDbVertex
100
AcDb2dVertex
 10
2.130243384410213
 20
0.3164714183869705
 30
0.0
 40
0.0035
 41
0.0035
  0
SEQEND
  5
324
330
321
100
AcDbEntity
  8
1
  6
Continuous
 62
     7
 48
0.0088394557130412
370
     0
  0
POLYLINE
  5
325
330
1F
100
AcDbEntity
  8
1
  6
Continuous
 62
     7
 48
0.0088394557130412
370
     0
100
AcDb2dPolyline
 66
     1
 10
0.0
 20
0.0
 30
0.0
  0
VERTEX
  5
326
330
325
100
AcDbEntity
  8
1
  6
Continuous
 62
     7
 48
0.0088394557130412
100
AcDbVertex
100
AcDb2dVertex
 10
2.130243384410213
 20
0.3164714183869705
 30
0.0
 40
0.0035
 41
0.0035
  0
VERTEX
  5
327
330
325
100
AcDbEntity
  8
1
  6
Continuous
 62
     7
 48
0.0088394557130412
100
AcDbVertex
100
AcDb2dVertex
 10
2.135165295455054
 20
0.3164714183869705
 30
0.0
 40
0.0035
 41
0.0035
  0
SEQEND
  5
328
330
325
100
AcDbEntity
  8
1
  6
Continuous
 62
     7
 48
0.0088394557130412
370
     0
  0
POLYLINE
  5
329
330
1F
100
AcDbEntity
  8
1
  6
Continuous
 62
     7
 48
0.0088394557130412
370
     0
100
AcDb2dPolyline
 66
     1
 10
0.0
 20
0.0
 30
0.0
  0
VERTEX
  5
32A
330
329
100
AcDbEntity
  8
1
  6
Continuous
 62
     7
 48
0.0088394557130412
100
AcDbVertex
100
AcDb2dVertex
 10
2.157311250977475
 20
0.2951634982399773
 30
0.0
 40
0.0035
 41
0.0035
  0
VERTEX
  5
32B
330
329
100
AcDbEntity
  8
1
  6
Continuous
 62
     7
 48
0.0088394557130412
100
AcDbVertex
100
AcDb2dVertex
 10
2.162231839932633
 20
0.3036862083134735
 30
0.0
 40
0.0035
 41
0.0035
  0
SEQEND
  5
32C
330
329
100
AcDbEntity
  8
1
  6
Continuous
 62
     7
 48
0.0088394557130412
370
     0
  0
POLYLINE
  5
32D
330
1F
100
AcDbEntity
  8
1
  6
Continuous
 62
     7
 48
0.0088394557130412
370
     0
100
AcDb2dPolyline
 66
     1
 10
0.0
 20
0.0
 30
0.0
  0
VERTEX
  5
32E
330
32D
100
AcDbEntity
  8
1
  6
Continuous
 62
     7
 48
0.0088394557130412
100
AcDbVertex
100
AcDb2dVertex
 10
2.147467428887792
 20
0.2951634982399773
 30
0.0
 40
0.0035
 41
0.0035
  0
VERTEX
  5
32F
330
32D
100
AcDbEntity
  8
1
  6
Continuous
 62
     7
 48
0.0088394557130412
100
AcDbVertex
100
AcDb2dVertex
 10
2.157311250977475
 20
0.2951634982399773
 30
0.0
 40
0.0035
 41
0.0035
  0
SEQEND
  5
330
330
32D
100
AcDbEntity
  8
1
  6
Continuous
 62
     7
 48
0.0088394557130412
370
     0
  0
POLYLINE
  5
331
330
1F
100
AcDbEntity
  8
1
  6
Continuous
 62
     7
 48
0.0088394557130412
370
     0
100
AcDb2dPolyline
 66
     1
 10
0.0
 20
0.0
 30
0.0
  0
VERTEX
  5
332
330
331
100
AcDbEntity
  8
1
  6
Continuous
 62
     7
 48
0.0088394557130412
100
AcDbVertex
100
AcDb2dVertex
 10
2.147467428887792
 20
0.2951634982399773
 30
0.0
 40
0.0035
 41
0.0035
  0
VERTEX
  5
333
330
331
100
AcDbEntity
  8
1
  6
Continuous
 62
     7
 48
0.0088394557130412
100
AcDbVertex
100
AcDb2dVertex
 10
2.135165295455054
 20
0.3164714183869705
 30
0.0
 40
0.0035
 41
0.0035
  0
SEQEND
  5
334
330
331
100
AcDbEntity
  8
1
  6
Continuous
 62
     7
 48
0.0088394557130412
370
     0
  0
POLYLINE
  5
335
330
1F
100
AcDbEntity
  8
1
  6
Continuous
 62
     7
 48
0.0088394557130412
370
     0
100
AcDb2dPolyline
 66
     1
 10
0.0
 20
0.0
 30
0.0
  0
VERTEX
  5
336
330
335
100
AcDbEntity
  8
1
  6
Continuous
 62
     7
 48
0.0088394557130412
100
AcDbVertex
100
AcDb2dVertex
 10
2.162231839932633
 20
0.3036862083134735
 30
0.0
 40
0.0035
 41
0.0035
  0
VERTEX
  5
337
330
335
100
AcDbEntity
  8
1
  6
Continuous
 62
     7
 48
0.0088394557130412
100
AcDbVertex
100
AcDb2dVertex
 10
2.169613384410213
 20
0.3164714183869705
 30
0.0
 40
0.0035
 41
0.0035
  0
SEQEND
  5
338
330
335
100
AcDbEntity
  8
1
  6
Continuous
 62
     7
 48
0.0088394557130412
370
     0
  0
POLYLINE
  5
339
330
1F
100
AcDbEntity
  8
1
  6
Continuous
 62
     7
 48
0.0088394557130412
370
     0
100
AcDb2dPolyline
 66
     1
 10
0.0
 20
0.0
 30
0.0
  0
VERTEX
  5
33A
330
339
100
AcDbEntity
  8
1
  6
Continuous
 62
     7
 48
0.0088394557130412
100
AcDbVertex
100
AcDb2dVertex
 10
2.169613384410213
 20
0.3164714183869705
 30
0.0
 40
0.0035
 41
0.0035
  0
VERTEX
  5
33B
330
339
100
AcDbEntity
  8
1
  6
Continuous
 62
     7
 48
0.0088394557130412
100
AcDbVertex
100
AcDb2dVertex
 10
2.174535295455054
 20
0.3164714183869705
 30
0.0
 40
0.0035
 41
0.0035
  0
SEQEND
  5
33C
330
339
100
AcDbEntity
  8
1
  6
Continuous
 62
     7
 48
0.0088394557130412
370
     0
  0
POLYLINE
  5
33D
330
1F
100
AcDbEntity
  8
1
  6
Continuous
 62
     7
 48
0.0088394557130412
370
     0
100
AcDb2dPolyline
 66
     1
 10
0.0
 20
0.0
 30
0.0
  0
VERTEX
  5
33E
330
33D
100
AcDbEntity
  8
1
  6
Continuous
 62
     7
 48
0.0088394557130412
100
AcDbVertex
100
AcDb2dVertex
 10
2.196681250977474
 20
0.2951634982399773
 30
0.0
 40
0.0035
 41
0.0035
  0
VERTEX
  5
33F
330
33D
100
AcDbEntity
  8
1
  6
Continuous
 62
     7
 48
0.0088394557130412
100
AcDbVertex
100
AcDb2dVertex
 10
2.201601839932632
 20
0.3036862083134735
 30
0.0
 40
0.0035
 41
0.0035
  0
SEQEND
  5
340
330
33D
100
AcDbEntity
  8
1
  6
Continuous
 62
     7
 48
0.0088394557130412
370
     0
  0
POLYLINE
  5
341
330
1F
100
AcDbEntity
  8
1
  6
Continuous
 62
     7
 48
0.0088394557130412
370
     0
100
AcDb2dPolyline
 66
     1
 10
0.0
 20
0.0
 30
0.0
  0
VERTEX
  5
342
330
341
100
AcDbEntity
  8
1
  6
Continuous
 62
     7
 48
0.0088394557130412
100
AcDbVertex
100
AcDb2dVertex
 10
2.186837428887791
 20
0.2951634982399773
 30
0.0
 40
0.0035
 41
0.0035
  0
VERTEX
  5
343
330
341
100
AcDbEntity
  8
1
  6
Continuous
 62
     7
 48
0.0088394557130412
100
AcDbVertex
100
AcDb2dVertex
 10
2.196681250977474
 20
0.2951634982399773
 30
0.0
 40
0.0035
 41
0.0035
  0
SEQEND
  5
344
330
341
100
AcDbEntity
  8
1
  6
Continuous
 62
     7
 48
0.0088394557130412
370
     0
  0
POLYLINE
  5
345
330
1F
100
AcDbEntity
  8
1
  6
Continuous
 62
     7
 48
0.0088394557130412
370
     0
100
AcDb2dPolyline
 66
     1
 10
0.0
 20
0.0
 30
0.0
  0
VERTEX
  5
346
330
345
100
AcDbEntity
  8
1
  6
Continuous
 62
     7
 48
0.0088394557130412
100
AcDbVertex
100
AcDb2dVertex
 10
2.186837428887791
 20
0.2951634982399773
 30
0.0
 40
0.0035
 41
0.0035
  0
VERTEX
  5
347
330
345
100
AcDbEntity
  8
1
  6
Continuous
 62
     7
 48
0.0088394557130412
100
AcDbVertex
100
AcDb2dVertex
 10
2.174535295455054
 20
0.3164714183869705
 30
0.0
 40
0.0035
 41
0.0035
  0
SEQEND
  5
348
330
345
100
AcDbEntity
  8
1
  6
Continuous
 62
     7
 48
0.0088394557130412
370
     0
  0
POLYLINE
  5
349
330
1F
100
AcDbEntity
  8
1
  6
Continuous
 62
     7
 48
0.0088394557130412
370
     0
100
AcDb2dPolyline
 66
     1
 10
0.0
 20
0.0
 30
0.0
  0
VERTEX
  5
34A
330
349
100
AcDbEntity
  8
1
  6
Continuous
 62
     7
 48
0.0088394557130412
100
AcDbVertex
100
AcDb2dVertex
 10
2.201601839932632
 20
0.3036862083134735
 30
0.0
 40
0.0035
 41
0.0035
  0
VERTEX
  5
34B
330
349
100
AcDbEntity
  8
1
  6
Continuous
 62
     7
 48
0.0088394557130412
100
AcDbVertex
100
AcDb2dVertex
 10
2.208983384410212
 20
0.3164714183869705
 30
0.0
 40
0.0035
 41
0.0035
  0
SEQEND
  5
34C
330
349
100
AcDbEntity
  8
1
  6
Continuous
 62
     7
 48
0.0088394557130412
370
     0
  0
POLYLINE
  5
34D
330
1F
100
AcDbEntity
  8
1
  6
Continuous
 62
     7
 48
0.0088394557130412
370
     0
100
AcDb2dPolyline
 66
     1
 10
0.0
 20
0.0
 30
0.0
  0
VERTEX
  5
34E
330
34D
100
AcDbEntity
  8
1
  6
Continuous
 62
     7
 48
0.0088394557130412
100
AcDbVertex
100
AcDb2dVertex
 10
2.208983384410212
 20
0.3164714183869705
 30
0.0
 40
0.0035
 41
0.0035
  0
VERTEX
  5
34F
330
34D
100
AcDbEntity
  8
1
  6
Continuous
 62
     7
 48
0.0088394557130412
100
AcDbVertex
100
AcDb2dVertex
 10
2.213905295455053
 20
0.3164714183869705
 30
0.0
 40
0.0035
 41
0.0035
  0
SEQEND
  5
350
330
34D
100
AcDbEntity
  8
1
  6
Continuous
 62
     7
 48
0.0088394557130412
370
     0
  0
POLYLINE
  5
351
330
1F
100
AcDbEntity
  8
1
  6
Continuous
 62
     7
 48
0.0088394557130412
370
     0
100
AcDb2dPolyline
 66
     1
 10
0.0
 20
0.0
 30
0.0
  0
VERTEX
  5
352
330
351
100
AcDbEntity
  8
1
  6
Continuous
 62
     7
 48
0.0088394557130412
100
AcDbVertex
100
AcDb2dVertex
 10
2.236051250977474
 20
0.2951634982399773
 30
0.0
 40
0.0035
 41
0.0035
  0
VERTEX
  5
353
330
351
100
AcDbEntity
  8
1
  6
Continuous
 62
     7
 48
0.0088394557130412
100
AcDbVertex
100
AcDb2dVertex
 10
2.240971839932631
 20
0.3036862083134735
 30
0.0
 40
0.0035
 41
0.0035
  0
SEQEND
  5
354
330
351
100
AcDbEntity
  8
1
  6
Continuous
 62
     7
 48
0.0088394557130412
370
     0
  0
POLYLINE
  5
355
330
1F
100
AcDbEntity
  8
1
  6
Continuous
 62
     7
 48
0.0088394557130412
370
     0
100
AcDb2dPolyline
 66
     1
 10
0.0
 20
0.0
 30
0.0
  0
VERTEX
  5
356
330
355
100
AcDbEntity
  8
1
  6
Continuous
 62
     7
 48
0.0088394557130412
100
AcDbVertex
100
AcDb2dVertex
 10
2.226207428887791
 20
0.2951634982399773
 30
0.0
 40
0.0035
 41
0.0035
  0
VERTEX
  5
357
330
355
100
AcDbEntity
  8
1
  6
Continuous
 62
     7
 48
0.0088394557130412
100
AcDbVertex
100
AcDb2dVertex
 10
2.236051250977474
 20
0.2951634982399773
 30
0.0
 40
0.0035
 41
0.0035
  0
SEQEND
  5
358
330
355
100
AcDbEntity
  8
1
  6
Continuous
 62
     7
 48
0.0088394557130412
370
     0
  0
POLYLINE
  5
359
330
1F
100
AcDbEntity
  8
1
  6
Continuous
 62
     7
 48
0.0088394557130412
370
     0
100
AcDb2dPolyline
 66
     1
 10
0.0
 20
0.0
 30
0.0
  0
VERTEX
  5
35A
330
359
100
AcDbEntity
  8
1
  6
Continuous
 62
     7
 48
0.0088394557130412
100
AcDbVertex
100
AcDb2dVertex
 10
2.226207428887791
 20
0.2951634982399773
 30
0.0
 40
0.0035
 41
0.0035
  0
VERTEX
  5
35B
330
359
100
AcDbEntity
  8
1
  6
Continuous
 62
     7
 48
0.0088394557130412
100
AcDbVertex
100
AcDb2dVertex
 10
2.213905295455053
 20
0.3164714183869705
 30
0.0
 40
0.0035
 41
0.0035
  0
SEQEND
  5
35C
330
359
100
AcDbEntity
  8
1
  6
Continuous
 62
     7
 48
0.0088394557130412
370
     0
  0
POLYLINE
  5
35D
330
1F
100
AcDbEntity
  8
1
  6
Continuous
 62
     7
 48
0.0088394557130412
370
     0
100
AcDb2dPolyline
 66
     1
 10
0.0
 20
0.0
 30
0.0
  0
VERTEX
  5
35E
330
35D
100
AcDbEntity
  8
1
  6
Continuous
 62
     7
 48
0.0088394557130412
100
AcDbVertex
100
AcDb2dVertex
 10
2.240971839932631
 20
0.3036862083134735
 30
0.0
 40
0.0035
 41
0.0035
  0
VERTEX
  5
35F
330
35D
100
AcDbEntity
  8
1
  6
Continuous
 62
     7
 48
0.0088394557130412
100
AcDbVertex
100
AcDb2dVertex
 10
2.248353384410211
 20
0.3164714183869705
 30
0.0
 40
0.0035
 41
0.0035
  0
SEQEND
  5
360
330
35D
100
AcDbEntity
  8
1
  6
Continuous
 62
     7
 48
0.0088394557130412
370
     0
  0
POLYLINE
  5
361
330
1F
100
AcDbEntity
  8
1
  6
Continuous
 62
     7
 48
0.0088394557130412
370
     0
100
AcDb2dPolyline
 66
     1
 10
0.0
 20
0.0
 30
0.0
  0
VERTEX
  5
362
330
361
100
AcDbEntity
  8
1
  6
Continuous
 62
     7
 48
0.0088394557130412
100
AcDbVertex
100
AcDb2dVertex
 10
2.248353384410211
 20
0.3164714183869705
 30
0.0
 40
0.0035
 41
0.0035
  0
VERTEX
  5
363
330
361
100
AcDbEntity
  8
1
  6
Continuous
 62
     7
 48
0.0088394557130412
100
AcDbVertex
100
AcDb2dVertex
 10
2.253275295455052
 20
0.3164714183869705
 30
0.0
 40
0.0035
 41
0.0035
  0
SEQEND
  5
364
330
361
100
AcDbEntity
  8
1
  6
Continuous
 62
     7
 48
0.0088394557130412
370
     0
  0
POLYLINE
  5
365
330
1F
100
AcDbEntity
  8
1
  6
Continuous
 62
     7
 48
0.0088394557130412
370
     0
100
AcDb2dPolyline
 66
     1
 10
0.0
 20
0.0
 30
0.0
  0
VERTEX
  5
366
330
365
100
AcDbEntity
  8
1
  6
Continuous
 62
     7
 48
0.0088394557130412
100
AcDbVertex
100
AcDb2dVertex
 10
2.275421250977473
 20
0.2951634982399773
 30
0.0
 40
0.0035
 41
0.0035
  0
VERTEX
  5
367
330
365
100
AcDbEntity
  8
1
  6
Continuous
 62
     7
 48
0.0088394557130412
100
AcDbVertex
100
AcDb2dVertex
 10
2.280341839932631
 20
0.3036862083134735
 30
0.0
 40
0.0035
 41
0.0035
  0
SEQEND
  5
368
330
365
100
AcDbEntity
  8
1
  6
Continuous
 62
     7
 48
0.0088394557130412
370
     0
  0
POLYLINE
  5
369
330
1F
100
AcDbEntity
  8
1
  6
Continuous
 62
     7
 48
0.0088394557130412
370
     0
100
AcDb2dPolyline
 66
     1
 10
0.0
 20
0.0
 30
0.0
  0
VERTEX
  5
36A
330
369
100
AcDbEntity
  8
1
  6
Continuous
 62
     7
 48
0.0088394557130412
100
AcDbVertex
100
AcDb2dVertex
 10
2.26557742888779
 20
0.2951634982399773
 30
0.0
 40
0.0035
 41
0.0035
  0
VERTEX
  5
36B
330
369
100
AcDbEntity
  8
1
  6
Continuous
 62
     7
 48
0.0088394557130412
100
AcDbVertex
100
AcDb2dVertex
 10
2.275421250977473
 20
0.2951634982399773
 30
0.0
 40
0.0035
 41
0.0035
  0
SEQEND
  5
36C
330
369
100
AcDbEntity
  8
1
  6
Continuous
 62
     7
 48
0.0088394557130412
370
     0
  0
POLYLINE
  5
36D
330
1F
100
AcDbEntity
  8
1
  6
Continuous
 62
     7
 48
0.0088394557130412
370
     0
100
AcDb2dPolyline
 66
     1
 10
0.0
 20
0.0
 30
0.0
  0
VERTEX
  5
36E
330
36D
100
AcDbEntity
  8
1
  6
Continuous
 62
     7
 48
0.0088394557130412
100
AcDbVertex
100
AcDb2dVertex
 10
2.26557742888779
 20
0.2951634982399773
 30
0.0
 40
0.0035
 41
0.0035
  0
VERTEX
  5
36F
330
36D
100
AcDbEntity
  8
1
  6
Continuous
 62
     7
 48
0.0088394557130412
100
AcDbVertex
100
AcDb2dVertex
 10
2.253275295455052
 20
0.3164714183869705
 30
0.0
 40
0.0035
 41
0.0035
  0
SEQEND
  5
370
330
36D
100
AcDbEntity
  8
1
  6
Continuous
 62
     7
 48
0.0088394557130412
370
     0
  0
POLYLINE
  5
371
330
1F
100
AcDbEntity
  8
1
  6
Continuous
 62
     7
 48
0.0088394557130412
370
     0
100
AcDb2dPolyline
 66
     1
 10
0.0
 20
0.0
 30
0.0
  0
VERTEX
  5
372
330
371
100
AcDbEntity
  8
1
  6
Continuous
 62
     7
 48
0.0088394557130412
100
AcDbVertex
100
AcDb2dVertex
 10
2.280341839932631
 20
0.3036862083134735
 30
0.0
 40
0.0035
 41
0.0035
  0
VERTEX
  5
373
330
371
100
AcDbEntity
  8
1
  6
Continuous
 62
     7
 48
0.0088394557130412
100
AcDbVertex
100
AcDb2dVertex
 10
2.28772338441021
 20
0.3164714183869705
 30
0.0
 40
0.0035
 41
0.0035
  0
SEQEND
  5
374
330
371
100
AcDbEntity
  8
1
  6
Continuous
 62
     7
 48
0.0088394557130412
370
     0
  0
POLYLINE
  5
375
330
1F
100
AcDbEntity
  8
1
  6
Continuous
 62
     7
 48
0.0088394557130412
370
     0
100
AcDb2dPolyline
 66
     1
 10
0.0
 20
0.0
 30
0.0
  0
VERTEX
  5
376
330
375
100
AcDbEntity
  8
1
  6
Continuous
 62
     7
 48
0.0088394557130412
100
AcDbVertex
100
AcDb2dVertex
 10
2.28772338441021
 20
0.3164714183869705
 30
0.0
 40
0.0035
 41
0.0035
  0
VERTEX
  5
377
330
375
100
AcDbEntity
  8
1
  6
Continuous
 62
     7
 48
0.0088394557130412
100
AcDbVertex
100
AcDb2dVertex
 10
2.292645295455051
 20
0.3164714183869705
 30
0.0
 40
0.0035
 41
0.0035
  0
SEQEND
  5
378
330
375
100
AcDbEntity
  8
1
  6
Continuous
 62
     7
 48
0.0088394557130412
370
     0
  0
POLYLINE
  5
379
330
1F
100
AcDbEntity
  8
1
  6
Continuous
 62
     7
 48
0.0088394557130412
370
     0
100
AcDb2dPolyline
 66
     1
 10
0.0
 20
0.0
 30
0.0
  0
VERTEX
  5
37A
330
379
100
AcDbEntity
  8
1
  6
Continuous
 62
     7
 48
0.0088394557130412
100
AcDbVertex
100
AcDb2dVertex
 10
2.304947428887789
 20
0.2951634982399773
 30
0.0
 40
0.0035
 41
0.0035
  0
VERTEX
  5
37B
330
379
100
AcDbEntity
  8
1
  6
Continuous
 62
     7
 48
0.0088394557130412
100
AcDbVertex
100
AcDb2dVertex
 10
2.314791250977472
 20
0.2951634982399773
 30
0.0
 40
0.0035
 41
0.0035
  0
SEQEND
  5
37C
330
379
100
AcDbEntity
  8
1
  6
Continuous
 62
     7
 48
0.0088394557130412
370
     0
  0
POLYLINE
  5
37D
330
1F
100
AcDbEntity
  8
1
  6
Continuous
 62
     7
 48
0.0088394557130412
370
     0
100
AcDb2dPolyline
 66
     1
 10
0.0
 20
0.0
 30
0.0
  0
VERTEX
  5
37E
330
37D
100
AcDbEntity
  8
1
  6
Continuous
 62
     7
 48
0.0088394557130412
100
AcDbVertex
100
AcDb2dVertex
 10
2.304947428887789
 20
0.2951634982399773
 30
0.0
 40
0.0035
 41
0.0035
  0
VERTEX
  5
37F
330
37D
100
AcDbEntity
  8
1
  6
Continuous
 62
     7
 48
0.0088394557130412
100
AcDbVertex
100
AcDb2dVertex
 10
2.292645295455051
 20
0.3164714183869705
 30
0.0
 40
0.0035
 41
0.0035
  0
SEQEND
  5
380
330
37D
100
AcDbEntity
  8
1
  6
Continuous
 62
     7
 48
0.0088394557130412
370
     0
  0
POLYLINE
  5
381
330
1F
100
AcDbEntity
  8
1
  6
Continuous
 62
     7
 48
0.0088394557130412
370
     0
100
AcDb2dPolyline
 66
     1
 10
0.0
 20
0.0
 30
0.0
  0
VERTEX
  5
382
330
381
100
AcDbEntity
  8
1
  6
Continuous
 62
     7
 48
0.0088394557130412
100
AcDbVertex
100
AcDb2dVertex
 10
1.966889339932633
 20
0.2880862083134734
 30
0.0
 40
0.0035
 41
0.0035
  0
VERTEX
  5
383
330
381
100
AcDbEntity
  8
1
  6
Continuous
 62
     7
 48
0.0088394557130412
100
AcDbVertex
100
AcDb2dVertex
 10
1.984123409454382
 20
0.3053202778352212
 30
0.0
 40
0.0035
 41
0.0035
  0
SEQEND
  5
384
330
381
100
AcDbEntity
  8
1
  6
Continuous
 62
     7
 48
0.0088394557130412
370
     0
  0
POLYLINE
  5
385
330
1F
100
AcDbEntity
  8
1
  6
Continuous
 62
     7
 48
0.0088394557130412
370
     0
100
AcDb2dPolyline
 66
     1
 10
0.0
 20
0.0
 30
0.0
  0
VERTEX
  5
386
330
385
100
AcDbEntity
  8
1
  6
Continuous
 62
     7
 48
0.0088394557130412
100
AcDbVertex
100
AcDb2dVertex
 10
1.989987428887795
 20
0.2951634982399773
 30
0.0
 40
0.0035
 41
0.0035
  0
VERTEX
  5
387
330
385
100
AcDbEntity
  8
1
  6
Continuous
 62
     7
 48
0.0088394557130412
100
AcDbVertex
100
AcDb2dVertex
 10
1.984123409454382
 20
0.3053202778352212
 30
0.0
 40
0.0035
 41
0.0035
  0
SEQEND
  5
388
330
385
100
AcDbEntity
  8
1
  6
Continuous
 62
     7
 48
0.0088394557130412
370
     0
  0
POLYLINE
  5
389
330
1F
100
AcDbEntity
  8
1
  6
Continuous
 62
     7
 48
0.0088394557130412
370
     0
100
AcDb2dPolyline
 66
     1
 10
0.0
 20
0.0
 30
0.0
  0
VERTEX
  5
38A
330
389
100
AcDbEntity
  8
1
  6
Continuous
 62
     7
 48
0.0088394557130412
100
AcDbVertex
100
AcDb2dVertex
 10
2.314791250977472
 20
0.2951634982399773
 30
0.0
 40
0.0035
 41
0.0035
  0
VERTEX
  5
38B
330
389
100
AcDbEntity
  8
1
  6
Continuous
 62
     7
 48
0.0088394557130412
100
AcDbVertex
100
AcDb2dVertex
 10
2.320655270410886
 20
0.3053202778352217
 30
0.0
 40
0.0035
 41
0.0035
  0
SEQEND
  5
38C
330
389
100
AcDbEntity
  8
1
  6
Continuous
 62
     7
 48
0.0088394557130412
370
     0
  0
POLYLINE
  5
38D
330
1F
100
AcDbEntity
  8
1
  6
Continuous
 62
     7
 48
0.0088394557130412
370
     0
100
AcDb2dPolyline
 66
     1
 10
0.0
 20
0.0
 30
0.0
  0
VERTEX
  5
38E
330
38D
100
AcDbEntity
  8
1
  6
Continuous
 62
     7
 48
0.0088394557130412
100
AcDbVertex
100
AcDb2dVertex
 10
2.320655270410886
 20
0.3053202778352217
 30
0.0
 40
0.0035
 41
0.0035
  0
VERTEX
  5
38F
330
38D
100
AcDbEntity
  8
1
  6
Continuous
 62
     7
 48
0.0088394557130412
100
AcDbVertex
100
AcDb2dVertex
 10
2.340889339932634
 20
0.2850862083134734
 30
0.0
 40
0.0035
 41
0.0035
  0
SEQEND
  5
390
330
38D
100
AcDbEntity
  8
1
  6
Continuous
 62
     7
 48
0.0088394557130412
370
     0
  0
POLYLINE
  5
391
330
1F
100
AcDbEntity
  8
1
  6
Continuous
 62
     7
 48
0.0088394557130412
370
     0
100
AcDb2dPolyline
 66
     1
 10
0.0
 20
0.0
 30
0.0
  0
VERTEX
  5
392
330
391
100
AcDbEntity
  8
1
  6
Continuous
 62
     7
 48
0.0088394557130412
100
AcDbVertex
100
AcDb2dVertex
 10
2.019516250977478
 20
-0.0509910816130305
 30
0.0
 40
0.0035
 41
0.0035
  0
VERTEX
  5
393
330
391
100
AcDbEntity
  8
1
  6
Continuous
 62
     7
 48
0.0088394557130412
100
AcDbVertex
100
AcDb2dVertex
 10
2.024436839932636
 20
-0.0595137916865267
 30
0.0
 40
0.0035
 41
0.0035
  0
SEQEND
  5
394
330
391
100
AcDbEntity
  8
1
  6
Continuous
 62
     7
 48
0.0088394557130412
370
     0
  0
POLYLINE
  5
395
330
1F
100
AcDbEntity
  8
1
  6
Continuous
 62
     7
 48
0.0088394557130412
370
     0
100
AcDb2dPolyline
 66
     1
 10
0.0
 20
0.0
 30
0.0
  0
VERTEX
  5
396
330
395
100
AcDbEntity
  8
1
  6
Continuous
 62
     7
 48
0.0088394557130412
100
AcDbVertex
100
AcDb2dVertex
 10
2.009672428887795
 20
-0.0509910816130305
 30
0.0
 40
0.0035
 41
0.0035
  0
VERTEX
  5
397
330
395
100
AcDbEntity
  8
1
  6
Continuous
 62
     7
 48
0.0088394557130412
100
AcDbVertex
100
AcDb2dVertex
 10
2.019516250977478
 20
-0.0509910816130305
 30
0.0
 40
0.0035
 41
0.0035
  0
SEQEND
  5
398
330
395
100
AcDbEntity
  8
1
  6
Continuous
 62
     7
 48
0.0088394557130412
370
     0
  0
POLYLINE
  5
399
330
1F
100
AcDbEntity
  8
1
  6
Continuous
 62
     7
 48
0.0088394557130412
370
     0
100
AcDb2dPolyline
 66
     1
 10
0.0
 20
0.0
 30
0.0
  0
VERTEX
  5
39A
330
399
100
AcDbEntity
  8
1
  6
Continuous
 62
     7
 48
0.0088394557130412
100
AcDbVertex
100
AcDb2dVertex
 10
2.024436839932636
 20
-0.0595137916865267
 30
0.0
 40
0.0035
 41
0.0035
  0
VERTEX
  5
39B
330
399
100
AcDbEntity
  8
1
  6
Continuous
 62
     7
 48
0.0088394557130412
100
AcDbVertex
100
AcDb2dVertex
 10
2.031818384410216
 20
-0.0722990017600237
 30
0.0
 40
0.0035
 41
0.0035
  0
SEQEND
  5
39C
330
399
100
AcDbEntity
  8
1
  6
Continuous
 62
     7
 48
0.0088394557130412
370
     0
  0
POLYLINE
  5
39D
330
1F
100
AcDbEntity
  8
1
  6
Continuous
 62
     7
 48
0.0088394557130412
370
     0
100
AcDb2dPolyline
 66
     1
 10
0.0
 20
0.0
 30
0.0
  0
VERTEX
  5
39E
330
39D
100
AcDbEntity
  8
1
  6
Continuous
 62
     7
 48
0.0088394557130412
100
AcDbVertex
100
AcDb2dVertex
 10
2.031818384410216
 20
-0.0722990017600237
 30
0.0
 40
0.0035
 41
0.0035
  0
VERTEX
  5
39F
330
39D
100
AcDbEntity
  8
1
  6
Continuous
 62
     7
 48
0.0088394557130412
100
AcDbVertex
100
AcDb2dVertex
 10
2.036740295455057
 20
-0.0722990017600237
 30
0.0
 40
0.0035
 41
0.0035
  0
SEQEND
  5
3A0
330
39D
100
AcDbEntity
  8
1
  6
Continuous
 62
     7
 48
0.0088394557130412
370
     0
  0
POLYLINE
  5
3A1
330
1F
100
AcDbEntity
  8
1
  6
Continuous
 62
     7
 48
0.0088394557130412
370
     0
100
AcDb2dPolyline
 66
     1
 10
0.0
 20
0.0
 30
0.0
  0
VERTEX
  5
3A2
330
3A1
100
AcDbEntity
  8
1
  6
Continuous
 62
     7
 48
0.0088394557130412
100
AcDbVertex
100
AcDb2dVertex
 10
2.058886250977477
 20
-0.0509910816130305
 30
0.0
 40
0.0035
 41
0.0035
  0
VERTEX
  5
3A3
330
3A1
100
AcDbEntity
  8
1
  6
Continuous
 62
     7
 48
0.0088394557130412
100
AcDbVertex
100
AcDb2dVertex
 10
2.063806839932635
 20
-0.0595137916865267
 30
0.0
 40
0.0035
 41
0.0035
  0
SEQEND
  5
3A4
330
3A1
100
AcDbEntity
  8
1
  6
Continuous
 62
     7
 48
0.0088394557130412
370
     0
  0
POLYLINE
  5
3A5
330
1F
100
AcDbEntity
  8
1
  6
Continuous
 62
     7
 48
0.0088394557130412
370
     0
100
AcDb2dPolyline
 66
     1
 10
0.0
 20
0.0
 30
0.0
  0
VERTEX
  5
3A6
330
3A5
100
AcDbEntity
  8
1
  6
Continuous
 62
     7
 48
0.0088394557130412
100
AcDbVertex
100
AcDb2dVertex
 10
2.049042428887794
 20
-0.0509910816130305
 30
0.0
 40
0.0035
 41
0.0035
  0
VERTEX
  5
3A7
330
3A5
100
AcDbEntity
  8
1
  6
Continuous
 62
     7
 48
0.0088394557130412
100
AcDbVertex
100
AcDb2dVertex
 10
2.058886250977477
 20
-0.0509910816130305
 30
0.0
 40
0.0035
 41
0.0035
  0
SEQEND
  5
3A8
330
3A5
100
AcDbEntity
  8
1
  6
Continuous
 62
     7
 48
0.0088394557130412
370
     0
  0
POLYLINE
  5
3A9
330
1F
100
AcDbEntity
  8
1
  6
Continuous
 62
     7
 48
0.0088394557130412
370
     0
100
AcDb2dPolyline
 66
     1
 10
0.0
 20
0.0
 30
0.0
  0
VERTEX
  5
3AA
330
3A9
100
AcDbEntity
  8
1
  6
Continuous
 62
     7
 48
0.0088394557130412
100
AcDbVertex
100
AcDb2dVertex
 10
2.049042428887794
 20
-0.0509910816130305
 30
0.0
 40
0.0035
 41
0.0035
  0
VERTEX
  5
3AB
330
3A9
100
AcDbEntity
  8
1
  6
Continuous
 62
     7
 48
0.0088394557130412
100
AcDbVertex
100
AcDb2dVertex
 10
2.036740295455057
 20
-0.0722990017600237
 30
0.0
 40
0.0035
 41
0.0035
  0
SEQEND
  5
3AC
330
3A9
100
AcDbEntity
  8
1
  6
Continuous
 62
     7
 48
0.0088394557130412
370
     0
  0
POLYLINE
  5
3AD
330
1F
100
AcDbEntity
  8
1
  6
Continuous
 62
     7
 48
0.0088394557130412
370
     0
100
AcDb2dPolyline
 66
     1
 10
0.0
 20
0.0
 30
0.0
  0
VERTEX
  5
3AE
330
3AD
100
AcDbEntity
  8
1
  6
Continuous
 62
     7
 48
0.0088394557130412
100
AcDbVertex
100
AcDb2dVertex
 10
2.063806839932635
 20
-0.0595137916865267
 30
0.0
 40
0.0035
 41
0.0035
  0
VERTEX
  5
3AF
330
3AD
100
AcDbEntity
  8
1
  6
Continuous
 62
     7
 48
0.0088394557130412
100
AcDbVertex
100
AcDb2dVertex
 10
2.071188384410215
 20
-0.0722990017600237
 30
0.0
 40
0.0035
 41
0.0035
  0
SEQEND
  5
3B0
330
3AD
100
AcDbEntity
  8
1
  6
Continuous
 62
     7
 48
0.0088394557130412
370
     0
  0
POLYLINE
  5
3B1
330
1F
100
AcDbEntity
  8
1
  6
Continuous
 62
     7
 48
0.0088394557130412
370
     0
100
AcDb2dPolyline
 66
     1
 10
0.0
 20
0.0
 30
0.0
  0
VERTEX
  5
3B2
330
3B1
100
AcDbEntity
  8
1
  6
Continuous
 62
     7
 48
0.0088394557130412
100
AcDbVertex
100
AcDb2dVertex
 10
2.071188384410215
 20
-0.0722990017600237
 30
0.0
 40
0.0035
 41
0.0035
  0
VERTEX
  5
3B3
330
3B1
100
AcDbEntity
  8
1
  6
Continuous
 62
     7
 48
0.0088394557130412
100
AcDbVertex
100
AcDb2dVertex
 10
2.076110295455056
 20
-0.0722990017600237
 30
0.0
 40
0.0035
 41
0.0035
  0
SEQEND
  5
3B4
330
3B1
100
AcDbEntity
  8
1
  6
Continuous
 62
     7
 48
0.0088394557130412
370
     0
  0
POLYLINE
  5
3B5
330
1F
100
AcDbEntity
  8
1
  6
Continuous
 62
     7
 48
0.0088394557130412
370
     0
100
AcDb2dPolyline
 66
     1
 10
0.0
 20
0.0
 30
0.0
  0
VERTEX
  5
3B6
330
3B5
100
AcDbEntity
  8
1
  6
Continuous
 62
     7
 48
0.0088394557130412
100
AcDbVertex
100
AcDb2dVertex
 10
2.098256250977476
 20
-0.0509910816130305
 30
0.0
 40
0.0035
 41
0.0035
  0
VERTEX
  5
3B7
330
3B5
100
AcDbEntity
  8
1
  6
Continuous
 62
     7
 48
0.0088394557130412
100
AcDbVertex
100
AcDb2dVertex
 10
2.103176839932634
 20
-0.0595137916865267
 30
0.0
 40
0.0035
 41
0.0035
  0
SEQEND
  5
3B8
330
3B5
100
AcDbEntity
  8
1
  6
Continuous
 62
     7
 48
0.0088394557130412
370
     0
  0
POLYLINE
  5
3B9
330
1F
100
AcDbEntity
  8
1
  6
Continuous
 62
     7
 48
0.0088394557130412
370
     0
100
AcDb2dPolyline
 66
     1
 10
0.0
 20
0.0
 30
0.0
  0
VERTEX
  5
3BA
330
3B9
100
AcDbEntity
  8
1
  6
Continuous
 62
     7
 48
0.0088394557130412
100
AcDbVertex
100
AcDb2dVertex
 10
2.088412428887793
 20
-0.0509910816130305
 30
0.0
 40
0.0035
 41
0.0035
  0
VERTEX
  5
3BB
330
3B9
100
AcDbEntity
  8
1
  6
Continuous
 62
     7
 48
0.0088394557130412
100
AcDbVertex
100
AcDb2dVertex
 10
2.098256250977476
 20
-0.0509910816130305
 30
0.0
 40
0.0035
 41
0.0035
  0
SEQEND
  5
3BC
330
3B9
100
AcDbEntity
  8
1
  6
Continuous
 62
     7
 48
0.0088394557130412
370
     0
  0
POLYLINE
  5
3BD
330
1F
100
AcDbEntity
  8
1
  6
Continuous
 62
     7
 48
0.0088394557130412
370
     0
100
AcDb2dPolyline
 66
     1
 10
0.0
 20
0.0
 30
0.0
  0
VERTEX
  5
3BE
330
3BD
100
AcDbEntity
  8
1
  6
Continuous
 62
     7
 48
0.0088394557130412
100
AcDbVertex
100
AcDb2dVertex
 10
2.088412428887793
 20
-0.0509910816130305
 30
0.0
 40
0.0035
 41
0.0035
  0
VERTEX
  5
3BF
330
3BD
100
AcDbEntity
  8
1
  6
Continuous
 62
     7
 48
0.0088394557130412
100
AcDbVertex
100
AcDb2dVertex
 10
2.076110295455056
 20
-0.0722990017600237
 30
0.0
 40
0.0035
 41
0.0035
  0
SEQEND
  5
3C0
330
3BD
100
AcDbEntity
  8
1
  6
Continuous
 62
     7
 48
0.0088394557130412
370
     0
  0
POLYLINE
  5
3C1
330
1F
100
AcDbEntity
  8
1
  6
Continuous
 62
     7
 48
0.0088394557130412
370
     0
100
AcDb2dPolyline
 66
     1
 10
0.0
 20
0.0
 30
0.0
  0
VERTEX
  5
3C2
330
3C1
100
AcDbEntity
  8
1
  6
Continuous
 62
     7
 48
0.0088394557130412
100
AcDbVertex
100
AcDb2dVertex
 10
2.103176839932634
 20
-0.0595137916865267
 30
0.0
 40
0.0035
 41
0.0035
  0
VERTEX
  5
3C3
330
3C1
100
AcDbEntity
  8
1
  6
Continuous
 62
     7
 48
0.0088394557130412
100
AcDbVertex
100
AcDb2dVertex
 10
2.110558384410214
 20
-0.0722990017600237
 30
0.0
 40
0.0035
 41
0.0035
  0
SEQEND
  5
3C4
330
3C1
100
AcDbEntity
  8
1
  6
Continuous
 62
     7
 48
0.0088394557130412
370
     0
  0
POLYLINE
  5
3C5
330
1F
100
AcDbEntity
  8
1
  6
Continuous
 62
     7
 48
0.0088394557130412
370
     0
100
AcDb2dPolyline
 66
     1
 10
0.0
 20
0.0
 30
0.0
  0
VERTEX
  5
3C6
330
3C5
100
AcDbEntity
  8
1
  6
Continuous
 62
     7
 48
0.0088394557130412
100
AcDbVertex
100
AcDb2dVertex
 10
2.110558384410214
 20
-0.0722990017600237
 30
0.0
 40
0.0035
 41
0.0035
  0
VERTEX
  5
3C7
330
3C5
100
AcDbEntity
  8
1
  6
Continuous
 62
     7
 48
0.0088394557130412
100
AcDbVertex
100
AcDb2dVertex
 10
2.115480295455055
 20
-0.0722990017600237
 30
0.0
 40
0.0035
 41
0.0035
  0
SEQEND
  5
3C8
330
3C5
100
AcDbEntity
  8
1
  6
Continuous
 62
     7
 48
0.0088394557130412
370
     0
  0
POLYLINE
  5
3C9
330
1F
100
AcDbEntity
  8
1
  6
Continuous
 62
     7
 48
0.0088394557130412
370
     0
100
AcDb2dPolyline
 66
     1
 10
0.0
 20
0.0
 30
0.0
  0
VERTEX
  5
3CA
330
3C9
100
AcDbEntity
  8
1
  6
Continuous
 62
     7
 48
0.0088394557130412
100
AcDbVertex
100
AcDb2dVertex
 10
2.137626250977476
 20
-0.0509910816130305
 30
0.0
 40
0.0035
 41
0.0035
  0
VERTEX
  5
3CB
330
3C9
100
AcDbEntity
  8
1
  6
Continuous
 62
     7
 48
0.0088394557130412
100
AcDbVertex
100
AcDb2dVertex
 10
2.142546839932634
 20
-0.0595137916865267
 30
0.0
 40
0.0035
 41
0.0035
  0
SEQEND
  5
3CC
330
3C9
100
AcDbEntity
  8
1
  6
Continuous
 62
     7
 48
0.0088394557130412
370
     0
  0
POLYLINE
  5
3CD
330
1F
100
AcDbEntity
  8
1
  6
Continuous
 62
     7
 48
0.0088394557130412
370
     0
100
AcDb2dPolyline
 66
     1
 10
0.0
 20
0.0
 30
0.0
  0
VERTEX
  5
3CE
330
3CD
100
AcDbEntity
  8
1
  6
Continuous
 62
     7
 48
0.0088394557130412
100
AcDbVertex
100
AcDb2dVertex
 10
2.127782428887793
 20
-0.0509910816130305
 30
0.0
 40
0.0035
 41
0.0035
  0
VERTEX
  5
3CF
330
3CD
100
AcDbEntity
  8
1
  6
Continuous
 62
     7
 48
0.0088394557130412
100
AcDbVertex
100
AcDb2dVertex
 10
2.137626250977476
 20
-0.0509910816130305
 30
0.0
 40
0.0035
 41
0.0035
  0
SEQEND
  5
3D0
330
3CD
100
AcDbEntity
  8
1
  6
Continuous
 62
     7
 48
0.0088394557130412
370
     0
  0
POLYLINE
  5
3D1
330
1F
100
AcDbEntity
  8
1
  6
Continuous
 62
     7
 48
0.0088394557130412
370
     0
100
AcDb2dPolyline
 66
     1
 10
0.0
 20
0.0
 30
0.0
  0
VERTEX
  5
3D2
330
3D1
100
AcDbEntity
  8
1
  6
Continuous
 62
     7
 48
0.0088394557130412
100
AcDbVertex
100
AcDb2dVertex
 10
2.127782428887793
 20
-0.0509910816130305
 30
0.0
 40
0.0035
 41
0.0035
  0
VERTEX
  5
3D3
330
3D1
100
AcDbEntity
  8
1
  6
Continuous
 62
     7
 48
0.0088394557130412
100
AcDbVertex
100
AcDb2dVertex
 10
2.115480295455055
 20
-0.0722990017600237
 30
0.0
 40
0.0035
 41
0.0035
  0
SEQEND
  5
3D4
330
3D1
100
AcDbEntity
  8
1
  6
Continuous
 62
     7
 48
0.0088394557130412
370
     0
  0
POLYLINE
  5
3D5
330
1F
100
AcDbEntity
  8
1
  6
Continuous
 62
     7
 48
0.0088394557130412
370
     0
100
AcDb2dPolyline
 66
     1
 10
0.0
 20
0.0
 30
0.0
  0
VERTEX
  5
3D6
330
3D5
100
AcDbEntity
  8
1
  6
Continuous
 62
     7
 48
0.0088394557130412
100
AcDbVertex
100
AcDb2dVertex
 10
2.142546839932634
 20
-0.0595137916865267
 30
0.0
 40
0.0035
 41
0.0035
  0
VERTEX
  5
3D7
330
3D5
100
AcDbEntity
  8
1
  6
Continuous
 62
     7
 48
0.0088394557130412
100
AcDbVertex
100
AcDb2dVertex
 10
2.149928384410213
 20
-0.0722990017600237
 30
0.0
 40
0.0035
 41
0.0035
  0
SEQEND
  5
3D8
330
3D5
100
AcDbEntity
  8
1
  6
Continuous
 62
     7
 48
0.0088394557130412
370
     0
  0
POLYLINE
  5
3D9
330
1F
100
AcDbEntity
  8
1
  6
Continuous
 62
     7
 48
0.0088394557130412
370
     0
100
AcDb2dPolyline
 66
     1
 10
0.0
 20
0.0
 30
0.0
  0
VERTEX
  5
3DA
330
3D9
100
AcDbEntity
  8
1
  6
Continuous
 62
     7
 48
0.0088394557130412
100
AcDbVertex
100
AcDb2dVertex
 10
2.149928384410213
 20
-0.0722990017600237
 30
0.0
 40
0.0035
 41
0.0035
  0
VERTEX
  5
3DB
330
3D9
100
AcDbEntity
  8
1
  6
Continuous
 62
     7
 48
0.0088394557130412
100
AcDbVertex
100
AcDb2dVertex
 10
2.154850295455054
 20
-0.0722990017600237
 30
0.0
 40
0.0035
 41
0.0035
  0
SEQEND
  5
3DC
330
3D9
100
AcDbEntity
  8
1
  6
Continuous
 62
     7
 48
0.0088394557130412
370
     0
  0
POLYLINE
  5
3DD
330
1F
100
AcDbEntity
  8
1
  6
Continuous
 62
     7
 48
0.0088394557130412
370
     0
100
AcDb2dPolyline
 66
     1
 10
0.0
 20
0.0
 30
0.0
  0
VERTEX
  5
3DE
330
3DD
100
AcDbEntity
  8
1
  6
Continuous
 62
     7
 48
0.0088394557130412
100
AcDbVertex
100
AcDb2dVertex
 10
2.176996250977475
 20
-0.0509910816130305
 30
0.0
 40
0.0035
 41
0.0035
  0
VERTEX
  5
3DF
330
3DD
100
AcDbEntity
  8
1
  6
Continuous
 62
     7
 48
0.0088394557130412
100
AcDbVertex
100
AcDb2dVertex
 10
2.181916839932633
 20
-0.0595137916865267
 30
0.0
 40
0.0035
 41
0.0035
  0
SEQEND
  5
3E0
330
3DD
100
AcDbEntity
  8
1
  6
Continuous
 62
     7
 48
0.0088394557130412
370
     0
  0
POLYLINE
  5
3E1
330
1F
100
AcDbEntity
  8
1
  6
Continuous
 62
     7
 48
0.0088394557130412
370
     0
100
AcDb2dPolyline
 66
     1
 10
0.0
 20
0.0
 30
0.0
  0
VERTEX
  5
3E2
330
3E1
100
AcDbEntity
  8
1
  6
Continuous
 62
     7
 48
0.0088394557130412
100
AcDbVertex
100
AcDb2dVertex
 10
2.167152428887792
 20
-0.0509910816130305
 30
0.0
 40
0.0035
 41
0.0035
  0
VERTEX
  5
3E3
330
3E1
100
AcDbEntity
  8
1
  6
Continuous
 62
     7
 48
0.0088394557130412
100
AcDbVertex
100
AcDb2dVertex
 10
2.176996250977475
 20
-0.0509910816130305
 30
0.0
 40
0.0035
 41
0.0035
  0
SEQEND
  5
3E4
330
3E1
100
AcDbEntity
  8
1
  6
Continuous
 62
     7
 48
0.0088394557130412
370
     0
  0
POLYLINE
  5
3E5
330
1F
100
AcDbEntity
  8
1
  6
Continuous
 62
     7
 48
0.0088394557130412
370
     0
100
AcDb2dPolyline
 66
     1
 10
0.0
 20
0.0
 30
0.0
  0
VERTEX
  5
3E6
330
3E5
100
AcDbEntity
  8
1
  6
Continuous
 62
     7
 48
0.0088394557130412
100
AcDbVertex
100
AcDb2dVertex
 10
2.167152428887792
 20
-0.0509910816130305
 30
0.0
 40
0.0035
 41
0.0035
  0
VERTEX
  5
3E7
330
3E5
100
AcDbEntity
  8
1
  6
Continuous
 62
     7
 48
0.0088394557130412
100
AcDbVertex
100
AcDb2dVertex
 10
2.154850295455054
 20
-0.0722990017600237
 30
0.0
 40
0.0035
 41
0.0035
  0
SEQEND
  5
3E8
330
3E5
100
AcDbEntity
  8
1
  6
Continuous
 62
     7
 48
0.0088394557130412
370
     0
  0
POLYLINE
  5
3E9
330
1F
100
AcDbEntity
  8
1
  6
Continuous
 62
     7
 48
0.0088394557130412
370
     0
100
AcDb2dPolyline
 66
     1
 10
0.0
 20
0.0
 30
0.0
  0
VERTEX
  5
3EA
330
3E9
100
AcDbEntity
  8
1
  6
Continuous
 62
     7
 48
0.0088394557130412
100
AcDbVertex
100
AcDb2dVertex
 10
2.181916839932633
 20
-0.0595137916865267
 30
0.0
 40
0.0035
 41
0.0035
  0
VERTEX
  5
3EB
330
3E9
100
AcDbEntity
  8
1
  6
Continuous
 62
     7
 48
0.0088394557130412
100
AcDbVertex
100
AcDb2dVertex
 10
2.189298384410213
 20
-0.0722990017600237
 30
0.0
 40
0.0035
 41
0.0035
  0
SEQEND
  5
3EC
330
3E9
100
AcDbEntity
  8
1
  6
Continuous
 62
     7
 48
0.0088394557130412
370
     0
  0
POLYLINE
  5
3ED
330
1F
100
AcDbEntity
  8
1
  6
Continuous
 62
     7
 48
0.0088394557130412
370
     0
100
AcDb2dPolyline
 66
     1
 10
0.0
 20
0.0
 30
0.0
  0
VERTEX
  5
3EE
330
3ED
100
AcDbEntity
  8
1
  6
Continuous
 62
     7
 48
0.0088394557130412
100
AcDbVertex
100
AcDb2dVertex
 10
2.189298384410213
 20
-0.0722990017600237
 30
0.0
 40
0.0035
 41
0.0035
  0
VERTEX
  5
3EF
330
3ED
100
AcDbEntity
  8
1
  6
Continuous
 62
     7
 48
0.0088394557130412
100
AcDbVertex
100
AcDb2dVertex
 10
2.194220295455054
 20
-0.0722990017600237
 30
0.0
 40
0.0035
 41
0.0035
  0
SEQEND
  5
3F0
330
3ED
100
AcDbEntity
  8
1
  6
Continuous
 62
     7
 48
0.0088394557130412
370
     0
  0
POLYLINE
  5
3F1
330
1F
100
AcDbEntity
  8
1
  6
Continuous
 62
     7
 48
0.0088394557130412
370
     0
100
AcDb2dPolyline
 66
     1
 10
0.0
 20
0.0
 30
0.0
  0
VERTEX
  5
3F2
330
3F1
100
AcDbEntity
  8
1
  6
Continuous
 62
     7
 48
0.0088394557130412
100
AcDbVertex
100
AcDb2dVertex
 10
2.216366250977474
 20
-0.0509910816130305
 30
0.0
 40
0.0035
 41
0.0035
  0
VERTEX
  5
3F3
330
3F1
100
AcDbEntity
  8
1
  6
Continuous
 62
     7
 48
0.0088394557130412
100
AcDbVertex
100
AcDb2dVertex
 10
2.221286839932632
 20
-0.0595137916865267
 30
0.0
 40
0.0035
 41
0.0035
  0
SEQEND
  5
3F4
330
3F1
100
AcDbEntity
  8
1
  6
Continuous
 62
     7
 48
0.0088394557130412
370
     0
  0
POLYLINE
  5
3F5
330
1F
100
AcDbEntity
  8
1
  6
Continuous
 62
     7
 48
0.0088394557130412
370
     0
100
AcDb2dPolyline
 66
     1
 10
0.0
 20
0.0
 30
0.0
  0
VERTEX
  5
3F6
330
3F5
100
AcDbEntity
  8
1
  6
Continuous
 62
     7
 48
0.0088394557130412
100
AcDbVertex
100
AcDb2dVertex
 10
2.206522428887791
 20
-0.0509910816130305
 30
0.0
 40
0.0035
 41
0.0035
  0
VERTEX
  5
3F7
330
3F5
100
AcDbEntity
  8
1
  6
Continuous
 62
     7
 48
0.0088394557130412
100
AcDbVertex
100
AcDb2dVertex
 10
2.216366250977474
 20
-0.0509910816130305
 30
0.0
 40
0.0035
 41
0.0035
  0
SEQEND
  5
3F8
330
3F5
100
AcDbEntity
  8
1
  6
Continuous
 62
     7
 48
0.0088394557130412
370
     0
  0
POLYLINE
  5
3F9
330
1F
100
AcDbEntity
  8
1
  6
Continuous
 62
     7
 48
0.0088394557130412
370
     0
100
AcDb2dPolyline
 66
     1
 10
0.0
 20
0.0
 30
0.0
  0
VERTEX
  5
3FA
330
3F9
100
AcDbEntity
  8
1
  6
Continuous
 62
     7
 48
0.0088394557130412
100
AcDbVertex
100
AcDb2dVertex
 10
2.206522428887791
 20
-0.0509910816130305
 30
0.0
 40
0.0035
 41
0.0035
  0
VERTEX
  5
3FB
330
3F9
100
AcDbEntity
  8
1
  6
Continuous
 62
     7
 48
0.0088394557130412
100
AcDbVertex
100
AcDb2dVertex
 10
2.194220295455054
 20
-0.0722990017600237
 30
0.0
 40
0.0035
 41
0.0035
  0
SEQEND
  5
3FC
330
3F9
100
AcDbEntity
  8
1
  6
Continuous
 62
     7
 48
0.0088394557130412
370
     0
  0
POLYLINE
  5
3FD
330
1F
100
AcDbEntity
  8
1
  6
Continuous
 62
     7
 48
0.0088394557130412
370
     0
100
AcDb2dPolyline
 66
     1
 10
0.0
 20
0.0
 30
0.0
  0
VERTEX
  5
3FE
330
3FD
100
AcDbEntity
  8
1
  6
Continuous
 62
     7
 48
0.0088394557130412
100
AcDbVertex
100
AcDb2dVertex
 10
2.221286839932632
 20
-0.0595137916865267
 30
0.0
 40
0.0035
 41
0.0035
  0
VERTEX
  5
3FF
330
3FD
100
AcDbEntity
  8
1
  6
Continuous
 62
     7
 48
0.0088394557130412
100
AcDbVertex
100
AcDb2dVertex
 10
2.228668384410212
 20
-0.0722990017600237
 30
0.0
 40
0.0035
 41
0.0035
  0
SEQEND
  5
400
330
3FD
100
AcDbEntity
  8
1
  6
Continuous
 62
     7
 48
0.0088394557130412
370
     0
  0
POLYLINE
  5
401
330
1F
100
AcDbEntity
  8
1
  6
Continuous
 62
     7
 48
0.0088394557130412
370
     0
100
AcDb2dPolyline
 66
     1
 10
0.0
 20
0.0
 30
0.0
  0
VERTEX
  5
402
330
401
100
AcDbEntity
  8
1
  6
Continuous
 62
     7
 48
0.0088394557130412
100
AcDbVertex
100
AcDb2dVertex
 10
2.228668384410212
 20
-0.0722990017600237
 30
0.0
 40
0.0035
 41
0.0035
  0
VERTEX
  5
403
330
401
100
AcDbEntity
  8
1
  6
Continuous
 62
     7
 48
0.0088394557130412
100
AcDbVertex
100
AcDb2dVertex
 10
2.233590295455053
 20
-0.0722990017600237
 30
0.0
 40
0.0035
 41
0.0035
  0
SEQEND
  5
404
330
401
100
AcDbEntity
  8
1
  6
Continuous
 62
     7
 48
0.0088394557130412
370
     0
  0
POLYLINE
  5
405
330
1F
100
AcDbEntity
  8
1
  6
Continuous
 62
     7
 48
0.0088394557130412
370
     0
100
AcDb2dPolyline
 66
     1
 10
0.0
 20
0.0
 30
0.0
  0
VERTEX
  5
406
330
405
100
AcDbEntity
  8
1
  6
Continuous
 62
     7
 48
0.0088394557130412
100
AcDbVertex
100
AcDb2dVertex
 10
2.255736250977473
 20
-0.0509910816130305
 30
0.0
 40
0.0035
 41
0.0035
  0
VERTEX
  5
407
330
405
100
AcDbEntity
  8
1
  6
Continuous
 62
     7
 48
0.0088394557130412
100
AcDbVertex
100
AcDb2dVertex
 10
2.260656839932631
 20
-0.0595137916865267
 30
0.0
 40
0.0035
 41
0.0035
  0
SEQEND
  5
408
330
405
100
AcDbEntity
  8
1
  6
Continuous
 62
     7
 48
0.0088394557130412
370
     0
  0
POLYLINE
  5
409
330
1F
100
AcDbEntity
  8
1
  6
Continuous
 62
     7
 48
0.0088394557130412
370
     0
100
AcDb2dPolyline
 66
     1
 10
0.0
 20
0.0
 30
0.0
  0
VERTEX
  5
40A
330
409
100
AcDbEntity
  8
1
  6
Continuous
 62
     7
 48
0.0088394557130412
100
AcDbVertex
100
AcDb2dVertex
 10
2.24589242888779
 20
-0.0509910816130305
 30
0.0
 40
0.0035
 41
0.0035
  0
VERTEX
  5
40B
330
409
100
AcDbEntity
  8
1
  6
Continuous
 62
     7
 48
0.0088394557130412
100
AcDbVertex
100
AcDb2dVertex
 10
2.255736250977473
 20
-0.0509910816130305
 30
0.0
 40
0.0035
 41
0.0035
  0
SEQEND
  5
40C
330
409
100
AcDbEntity
  8
1
  6
Continuous
 62
     7
 48
0.0088394557130412
370
     0
  0
POLYLINE
  5
40D
330
1F
100
AcDbEntity
  8
1
  6
Continuous
 62
     7
 48
0.0088394557130412
370
     0
100
AcDb2dPolyline
 66
     1
 10
0.0
 20
0.0
 30
0.0
  0
VERTEX
  5
40E
330
40D
100
AcDbEntity
  8
1
  6
Continuous
 62
     7
 48
0.0088394557130412
100
AcDbVertex
100
AcDb2dVertex
 10
2.24589242888779
 20
-0.0509910816130305
 30
0.0
 40
0.0035
 41
0.0035
  0
VERTEX
  5
40F
330
40D
100
AcDbEntity
  8
1
  6
Continuous
 62
     7
 48
0.0088394557130412
100
AcDbVertex
100
AcDb2dVertex
 10
2.233590295455053
 20
-0.0722990017600237
 30
0.0
 40
0.0035
 41
0.0035
  0
SEQEND
  5
410
330
40D
100
AcDbEntity
  8
1
  6
Continuous
 62
     7
 48
0.0088394557130412
370
     0
  0
POLYLINE
  5
411
330
1F
100
AcDbEntity
  8
1
  6
Continuous
 62
     7
 48
0.0088394557130412
370
     0
100
AcDb2dPolyline
 66
     1
 10
0.0
 20
0.0
 30
0.0
  0
VERTEX
  5
412
330
411
100
AcDbEntity
  8
1
  6
Continuous
 62
     7
 48
0.0088394557130412
100
AcDbVertex
100
AcDb2dVertex
 10
2.260656839932631
 20
-0.0595137916865267
 30
0.0
 40
0.0035
 41
0.0035
  0
VERTEX
  5
413
330
411
100
AcDbEntity
  8
1
  6
Continuous
 62
     7
 48
0.0088394557130412
100
AcDbVertex
100
AcDb2dVertex
 10
2.268038384410211
 20
-0.0722990017600237
 30
0.0
 40
0.0035
 41
0.0035
  0
SEQEND
  5
414
330
411
100
AcDbEntity
  8
1
  6
Continuous
 62
     7
 48
0.0088394557130412
370
     0
  0
POLYLINE
  5
415
330
1F
100
AcDbEntity
  8
1
  6
Continuous
 62
     7
 48
0.0088394557130412
370
     0
100
AcDb2dPolyline
 66
     1
 10
0.0
 20
0.0
 30
0.0
  0
VERTEX
  5
416
330
415
100
AcDbEntity
  8
1
  6
Continuous
 62
     7
 48
0.0088394557130412
100
AcDbVertex
100
AcDb2dVertex
 10
2.268038384410211
 20
-0.0722990017600237
 30
0.0
 40
0.0035
 41
0.0035
  0
VERTEX
  5
417
330
415
100
AcDbEntity
  8
1
  6
Continuous
 62
     7
 48
0.0088394557130412
100
AcDbVertex
100
AcDb2dVertex
 10
2.272960295455052
 20
-0.0722990017600237
 30
0.0
 40
0.0035
 41
0.0035
  0
SEQEND
  5
418
330
415
100
AcDbEntity
  8
1
  6
Continuous
 62
     7
 48
0.0088394557130412
370
     0
  0
POLYLINE
  5
419
330
1F
100
AcDbEntity
  8
1
  6
Continuous
 62
     7
 48
0.0088394557130412
370
     0
100
AcDb2dPolyline
 66
     1
 10
0.0
 20
0.0
 30
0.0
  0
VERTEX
  5
41A
330
419
100
AcDbEntity
  8
1
  6
Continuous
 62
     7
 48
0.0088394557130412
100
AcDbVertex
100
AcDb2dVertex
 10
2.295106250977473
 20
-0.0509910816130305
 30
0.0
 40
0.0035
 41
0.0035
  0
VERTEX
  5
41B
330
419
100
AcDbEntity
  8
1
  6
Continuous
 62
     7
 48
0.0088394557130412
100
AcDbVertex
100
AcDb2dVertex
 10
2.30002683993263
 20
-0.0595137916865267
 30
0.0
 40
0.0035
 41
0.0035
  0
SEQEND
  5
41C
330
419
100
AcDbEntity
  8
1
  6
Continuous
 62
     7
 48
0.0088394557130412
370
     0
  0
POLYLINE
  5
41D
330
1F
100
AcDbEntity
  8
1
  6
Continuous
 62
     7
 48
0.0088394557130412
370
     0
100
AcDb2dPolyline
 66
     1
 10
0.0
 20
0.0
 30
0.0
  0
VERTEX
  5
41E
330
41D
100
AcDbEntity
  8
1
  6
Continuous
 62
     7
 48
0.0088394557130412
100
AcDbVertex
100
AcDb2dVertex
 10
2.28526242888779
 20
-0.0509910816130305
 30
0.0
 40
0.0035
 41
0.0035
  0
VERTEX
  5
41F
330
41D
100
AcDbEntity
  8
1
  6
Continuous
 62
     7
 48
0.0088394557130412
100
AcDbVertex
100
AcDb2dVertex
 10
2.295106250977473
 20
-0.0509910816130305
 30
0.0
 40
0.0035
 41
0.0035
  0
SEQEND
  5
420
330
41D
100
AcDbEntity
  8
1
  6
Continuous
 62
     7
 48
0.0088394557130412
370
     0
  0
POLYLINE
  5
421
330
1F
100
AcDbEntity
  8
1
  6
Continuous
 62
     7
 48
0.0088394557130412
370
     0
100
AcDb2dPolyline
 66
     1
 10
0.0
 20
0.0
 30
0.0
  0
VERTEX
  5
422
330
421
100
AcDbEntity
  8
1
  6
Continuous
 62
     7
 48
0.0088394557130412
100
AcDbVertex
100
AcDb2dVertex
 10
2.28526242888779
 20
-0.0509910816130305
 30
0.0
 40
0.0035
 41
0.0035
  0
VERTEX
  5
423
330
421
100
AcDbEntity
  8
1
  6
Continuous
 62
     7
 48
0.0088394557130412
100
AcDbVertex
100
AcDb2dVertex
 10
2.272960295455052
 20
-0.0722990017600237
 30
0.0
 40
0.0035
 41
0.0035
  0
SEQEND
  5
424
330
421
100
AcDbEntity
  8
1
  6
Continuous
 62
     7
 48
0.0088394557130412
370
     0
  0
POLYLINE
  5
425
330
1F
100
AcDbEntity
  8
1
  6
Continuous
 62
     7
 48
0.0088394557130412
370
     0
100
AcDb2dPolyline
 66
     1
 10
0.0
 20
0.0
 30
0.0
  0
VERTEX
  5
426
330
425
100
AcDbEntity
  8
1
  6
Continuous
 62
     7
 48
0.0088394557130412
100
AcDbVertex
100
AcDb2dVertex
 10
2.30002683993263
 20
-0.0595137916865267
 30
0.0
 40
0.0035
 41
0.0035
  0
VERTEX
  5
427
330
425
100
AcDbEntity
  8
1
  6
Continuous
 62
     7
 48
0.0088394557130412
100
AcDbVertex
100
AcDb2dVertex
 10
2.30740838441021
 20
-0.0722990017600237
 30
0.0
 40
0.0035
 41
0.0035
  0
SEQEND
  5
428
330
425
100
AcDbEntity
  8
1
  6
Continuous
 62
     7
 48
0.0088394557130412
370
     0
  0
POLYLINE
  5
429
330
1F
100
AcDbEntity
  8
1
  6
Continuous
 62
     7
 48
0.0088394557130412
370
     0
100
AcDb2dPolyline
 66
     1
 10
0.0
 20
0.0
 30
0.0
  0
VERTEX
  5
42A
330
429
100
AcDbEntity
  8
1
  6
Continuous
 62
     7
 48
0.0088394557130412
100
AcDbVertex
100
AcDb2dVertex
 10
2.009672428887795
 20
-0.0509910816130305
 30
0.0
 40
0.0035
 41
0.0035
  0
VERTEX
  5
42B
330
429
100
AcDbEntity
  8
1
  6
Continuous
 62
     7
 48
0.0088394557130412
100
AcDbVertex
100
AcDb2dVertex
 10
1.997370295455057
 20
-0.0722990017600237
 30
0.0
 40
0.0035
 41
0.0035
  0
SEQEND
  5
42C
330
429
100
AcDbEntity
  8
1
  6
Continuous
 62
     7
 48
0.0088394557130412
370
     0
  0
POLYLINE
  5
42D
330
1F
100
AcDbEntity
  8
1
  6
Continuous
 62
     7
 48
0.0088394557130412
370
     0
100
AcDb2dPolyline
 66
     1
 10
0.0
 20
0.0
 30
0.0
 70
   128
  0
VERTEX
  5
42E
330
42D
100
AcDbEntity
  8
1
  6
Continuous
 62
     7
 48
0.0088394557130412
100
AcDbVertex
100
AcDb2dVertex
 10
1.966889339932633
 20
-0.0439137916865269
 30
0.0
 40
0.0035
 41
0.0035
  0
VERTEX
  5
42F
330
42D
100
AcDbEntity
  8
1
  6
Continuous
 62
     7
 48
0.0088394557130412
100
AcDbVertex
100
AcDb2dVertex
 10
1.973966629859137
 20
-0.0509910816130305
 30
0.0
 40
0.0035
 41
0.0035
  0
VERTEX
  5
430
330
42D
100
AcDbEntity
  8
1
  6
Continuous
 62
     7
 48
0.0088394557130412
100
AcDbVertex
100
AcDb2dVertex
 10
1.980146250977479
 20
-0.0509910816130305
 30
0.0
 40
0.0035
 41
0.0035
  0
VERTEX
  5
431
330
42D
100
AcDbEntity
  8
1
  6
Continuous
 62
     7
 48
0.0088394557130412
100
AcDbVertex
100
AcDb2dVertex
 10
1.988587770410896
 20
-0.0656122221647892
 30
0.0
 40
0.0035
 41
0.0035
  0
VERTEX
  5
432
330
42D
100
AcDbEntity
  8
1
  6
Continuous
 62
     7
 48
0.0088394557130412
100
AcDbVertex
100
AcDb2dVertex
 10
1.99527455000613
 20
-0.0722990017600237
 30
0.0
 40
0.0035
 41
0.0035
  0
SEQEND
  5
433
330
42D
100
AcDbEntity
  8
1
  6
Continuous
 62
     7
 48
0.0088394557130412
370
     0
  0
POLYLINE
  5
434
330
1F
100
AcDbEntity
  8
1
  6
Continuous
 62
     7
 48
0.0088394557130412
370
     0
100
AcDb2dPolyline
 66
     1
 10
0.0
 20
0.0
 30
0.0
  0
VERTEX
  5
435
330
434
100
AcDbEntity
  8
1
  6
Continuous
 62
     7
 48
0.0088394557130412
100
AcDbVertex
100
AcDb2dVertex
 10
1.99527455000613
 20
-0.0722990017600237
 30
0.0
 40
0.0035
 41
0.0035
  0
VERTEX
  5
436
330
434
100
AcDbEntity
  8
1
  6
Continuous
 62
     7
 48
0.0088394557130412
100
AcDbVertex
100
AcDb2dVertex
 10
1.997370295455057
 20
-0.0722990017600237
 30
0.0
 40
0.0035
 41
0.0035
  0
SEQEND
  5
437
330
434
100
AcDbEntity
  8
1
  6
Continuous
 62
     7
 48
0.0088394557130412
370
     0
  0
POLYLINE
  5
438
330
1F
100
AcDbEntity
  8
1
  6
Continuous
 62
     7
 48
0.0088394557130412
370
     0
100
AcDb2dPolyline
 66
     1
 10
0.0
 20
0.0
 30
0.0
 70
   128
  0
VERTEX
  5
439
330
438
100
AcDbEntity
  8
1
  6
Continuous
 62
     7
 48
0.0088394557130412
100
AcDbVertex
100
AcDb2dVertex
 10
2.340889339932634
 20
-0.0409137916865267
 30
0.0
 40
0.0035
 41
0.0035
  0
VERTEX
  5
43A
330
438
100
AcDbEntity
  8
1
  6
Continuous
 62
     7
 48
0.0088394557130412
100
AcDbVertex
100
AcDb2dVertex
 10
2.33081205000613
 20
-0.0509910816130305
 30
0.0
 40
0.0035
 41
0.0035
  0
VERTEX
  5
43B
330
438
100
AcDbEntity
  8
1
  6
Continuous
 62
     7
 48
0.0088394557130412
100
AcDbVertex
100
AcDb2dVertex
 10
2.324632428887789
 20
-0.0509910816130305
 30
0.0
 40
0.0035
 41
0.0035
  0
VERTEX
  5
43C
330
438
100
AcDbEntity
  8
1
  6
Continuous
 62
     7
 48
0.0088394557130412
100
AcDbVertex
100
AcDb2dVertex
 10
2.316190909454372
 20
-0.0656122221647883
 30
0.0
 40
0.0035
 41
0.0035
  0
VERTEX
  5
43D
330
438
100
AcDbEntity
  8
1
  6
Continuous
 62
     7
 48
0.0088394557130412
100
AcDbVertex
100
AcDb2dVertex
 10
2.309504129859137
 20
-0.0722990017600237
 30
0.0
 40
0.0035
 41
0.0035
  0
VERTEX
  5
43E
330
438
100
AcDbEntity
  8
1
  6
Continuous
 62
     7
 48
0.0088394557130412
100
AcDbVertex
100
AcDb2dVertex
 10
2.30740838441021
 20
-0.0722990017600237
 30
0.0
 40
0.0035
 41
0.0035
  0
SEQEND
  5
43F
330
438
100
AcDbEntity
  8
1
  6
Continuous
 62
     7
 48
0.0088394557130412
370
     0
  0
TEXT
  5
440
330
1F
100
AcDbEntity
  8
1
  6
DASHED
 62
     7
370
     0
100
AcDbText
 10
2.918723954053281
 20
-0.9206742896186763
 30
0.0
 40
0.04
  1
-6 AN TO M10 x 1P
 41
1.000000000000002
  7
DC_TEXTSTYLE5
 72
     1
 11
3.162303954053282
 21
-0.9206742896186763
 31
0.0
100
AcDbText
  0
TEXT
  5
441
330
1F
100
AcDbEntity
  8
1
  6
DASHED
 62
     7
370
     0
100
AcDbText
 10
2.847878017596805
 20
-0.9988533835634924
 30
0.0
 40
0.04
  1
WASHER SEAL ADAPTER
 41
1.000000000000002
  7
DC_TEXTSTYLE5
 72
     1
 11
3.189178017596807
 21
-0.9988533835634924
 31
0.0
100
AcDbText
  0
DIMENSION
  5
442
330
1F
100
AcDbEntity
  8
1
  6
Continuous
 62
     7
 48
0.0000424496405664
370
     0
100
AcDbDimension
  2
*D2
 10
2.340889339932634
 20
0.6000862083134736
 30
0.0
 11
2.115889339932633
 21
0.6314680719498372
 31
0.0
 70
    32
 71
     5
 42
0.4500000000000008
  3
Standard
100
AcDbAlignedDimension
 13
1.890889339932633
 23
0.4345862083134734
 33
0.0
 14
2.340889339932634
 24
0.2850862083134734
 34
0.0
100
AcDbRotatedDimension
1001
ACAD
1000
DSTYLE
1002
{
1070
   172
1070
     1
1070
    77
1070
     1
1070
   280
1070
     0
1070
   279
1070
     0
1070
    74
1070
     0
1070
    73
1070
     0
1070
   174
1070
     0
1070
   147
1040
0.0155563636363636
1070
    42
1040
0.0225454545454545
1070
   290
1070
     0
1070
   340
1005
443
1070
    78
1070
     0
1070
   272
1070
     3
1070
    71
1070
     0
1070
   146
1040
1.0
1070
   140
1040
0.031
1070
   271
1070
     3
1070
    41
1040
0.031
1070
   342
1005
0
1070
   173
1070
     0
1070
   277
1070
     2
1070
    44
1040
0.011272727
1002
}
  0
DIMENSION
  5
451
330
1F
100
AcDbEntity
  8
1
  6
Continuous
 62
     7
 48
0.0000424496405664
370
     0
100
AcDbDimension
  2
*D3
 10
2.340889339932634
 20
0.7260862083134736
 30
0.0
 11
1.751889339932633
 21
0.7574680719498372
 31
0.0
 70
    32
 71
     5
 42
1.178000000000001
  3
Standard
100
AcDbAlignedDimension
 13
1.162889339932633
 23
0.2820862083134734
 33
0.0
 14
2.340889339932634
 24
0.2850862083134734
 34
0.0
100
AcDbRotatedDimension
1001
ACAD
1000
DSTYLE
1002
{
1070
   172
1070
     1
1070
    77
1070
     1
1070
   280
1070
     0
1070
   279
1070
     0
1070
    74
1070
     0
1070
    73
1070
     0
1070
   174
1070
     0
1070
   147
1040
0.0155563636363636
1070
    42
1040
0.0225454545454545
1070
   290
1070
     0
1070
   340
1005
443
1070
    78
1070
     0
1070
   272
1070
     3
1070
    71
1070
     0
1070
   146
1040
1.0
1070
   140
1040
0.031
1070
   271
1070
     3
1070
    41
1040
0.031
1070
   342
1005
0
1070
   173
1070
     0
1070
   277
1070
     2
1070
    44
1040
0.011272727
1002
}
  0
DIMENSION
  5
45E
330
1F
100
AcDbEntity
  8
1
  6
Continuous
 62
     7
 48
0.0000424496405664
370
     0
100
AcDbDimension
  2
*D4
 10
2.466889339932634
 20
0.4740862083134736
 30
0.0
 11
2.434611339932634
 21
0.1220862083134735
 31
0.0
 70
    32
 71
     5
 42
0.7040000000000002
  3
Standard
100
AcDbAlignedDimension
 13
1.876512515679118
 23
-0.2299137916865265
 33
0.0
 14
1.876512515679118
 24
0.4740862083134736
 34
0.0
 50
90.0
100
AcDbRotatedDimension
1001
ACAD
1000
DSTYLE
1002
{
1070
   172
1070
     1
1070
    77
1070
     1
1070
   280
1070
     0
1070
   279
1070
     0
1070
    74
1070
     0
1070
    73
1070
     0
1070
   174
1070
     0
1070
   147
1040
0.0156
1070
    42
1040
0.0225454545454545
1070
   290
1070
     0
1070
   340
1005
443
1070
    78
1070
     0
1070
   272
1070
     3
1070
    71
1070
     0
1070
     3
1000
HEX TIP Ø<>
1070
   146
1040
1.0
1070
   140
1040
0.031
1070
   271
1070
     3
1070
    41
1040
0.031
1070
   342
1005
0
1070
   173
1070
     0
1070
   277
1070
     2
1070
    44
1040
0.0112727272727273
1002
}
  0
LINE
  5
46B
330
1F
100
AcDbEntity
  8
1
  6
Continuous
 62
     7
 48
0.0006791942490616
370
     0
100
AcDbLine
 10
1.800889339932633
 20
0.474086208313473
 30
0.0
 11
1.737889339932633
 21
0.537086208313473
 31
0.0
  0
CIRCLE
  5
46C
330
1F
100
AcDbEntity
  8
1
  6
Continuous
 62
     7
 48
0.0006791942490616
370
     0
100
AcDbCircle
 10
1.71596902971585
 20
0.559006518530256
 30
0.0
 40
0.0309999999999998
  0
TEXT
  5
46D
330
1F
100
AcDbEntity
  8
1
  6
DASHED
 62
     7
370
     0
100
AcDbText
 10
1.70394102971585
 20
0.5435065185302568
 30
0.0
 40
0.0309999999999998
  1
1
  7
DC_TEXTSTYLE5
 72
     1
 11
1.71596902971585
 21
0.5435065185302568
 31
0.0
100
AcDbText
  0
LINE
  5
46E
330
1F
100
AcDbEntity
  8
1
  6
Continuous
 62
     7
 48
0.0020280743027767
370
     0
100
AcDbLine
 10
2.784196873181087
 20
-0.8408396173333592
 30
0.0
 11
2.784196873181087
 21
-0.7893676249750494
 31
0.0
  0
LINE
  5
46F
330
1F
100
AcDbEntity
  8
1
  6
Continuous
 62
     7
 48
0.0006791942490616
370
     0
100
AcDbLine
 10
2.784196873181087
 20
-0.9357713742663333
 30
0.0
 11
2.784196873181087
 21
-0.8408396173333592
 31
0.0
  0
LINE
  5
470
330
1F
100
AcDbEntity
  8
1
  6
Continuous
 62
     7
 48
0.0020280743027767
370
     0
100
AcDbLine
 10
3.00305964191082
 20
-0.7908508124617074
 30
0.0
 11
3.00305964191082
 21
-0.7374550020607435
 31
0.0
  0
LINE
  5
471
330
1F
100
AcDbEntity
  8
1
  6
Continuous
 62
     7
 48
0.0020280743027767
370
     0
100
AcDbLine
 10
3.00305964191082
 20
-0.840839617333359
 30
0.0
 11
3.00305964191082
 21
-0.7908508124617074
 31
0.0
  0
LINE
  5
472
330
1F
100
AcDbEntity
  8
1
  6
Continuous
 62
     7
 48
0.0006791942490616
370
     0
100
AcDbLine
 10
2.144579677521842
 20
-0.8408396173333598
 30
0.0
 11
0.0893223533455404
 21
-0.8408396173333604
 31
0.0
  0
LINE
  5
473
330
1F
100
AcDbEntity
  8
1
  6
Continuous
 62
     7
 48
0.0006791942490616
370
     0
100
AcDbLine
 10
1.807817333206096
 20
-0.7374550020607439
 30
0.0
 11
1.807817333206095
 21
-0.8408396173333598
 31
0.0
  0
LINE
  5
474
330
1F
100
AcDbEntity
  8
1
  6
Continuous
 62
     7
 48
0.0006791942490616
370
     0
100
AcDbLine
 10
1.917916174211987
 20
-0.7374550020607439
 30
0.0
 11
1.917916174211986
 21
-0.8408396173333598
 31
0.0
  0
LINE
  5
475
330
1F
100
AcDbEntity
  8
1
  6
Continuous
 62
     7
 48
0.0006791942490616
370
     0
100
AcDbLine
 10
2.017979776555414
 20
-0.7374550020607439
 30
0.0
 11
2.017979776555413
 21
-0.8408396173333598
 31
0.0
  0
LINE
  5
476
330
1F
100
AcDbEntity
  8
1
  6
Continuous
 62
     7
 48
0.0020280743027767
370
     0
100
AcDbLine
 10
2.245005812412164
 20
-0.8408396173333592
 30
0.0
 11
2.245005812412164
 21
-0.7374550020607435
 31
0.0
  0
TEXT
  5
477
330
1F
100
AcDbEntity
  8
1
  6
DASHED
 62
     5
420
      255
370
     0
100
AcDbText
 10
2.514139339932635
 20
0.0295202083141437
 30
0.0
 40
0.0309999999999998
  1
(17.9mm)
 50
90.0
  7
DC_TEXTSTYLE5
 72
     1
 11
2.514139339932635
 21
0.1220862083141432
 31
0.0
100
AcDbText
  0
TEXT
  5
478
330
1F
100
AcDbEntity
  8
1
  6
DASHED
 62
     5
420
      255
370
     0
100
AcDbText
 10
1.816823339933791
 20
0.7386862083131516
 30
0.0
 40
0.0310000000000001
  1
(29.9mm)
  7
DC_TEXTSTYLE5
 72
     1
 11
1.909389339933791
 21
0.7386862083131516
 31
0.0
100
AcDbText
  0
TEXT
  5
479
330
1F
100
AcDbEntity
  8
1
  6
DASHED
 62
     5
420
      255
370
     0
100
AcDbText
 10
2.023323339932196
 20
0.555986208312859
 30
0.0
 40
0.0309999999999998
  1
(11.4mm)
  7
DC_TEXTSTYLE5
 72
     1
 11
2.115889339932195
 21
0.555986208312859
 31
0.0
100
AcDbText
  0
TEXT
  5
47A
330
1F
100
AcDbEntity
  8
1
  6
DASHED
 62
     5
420
      255
370
     0
100
AcDbText
 10
1.425244014923202
 20
-0.3819137916866551
 30
0.0
 40
0.031
  1
PART NET WEIGHT IS 7 GRAMS
  7
DC_TEXTSTYLE5
 72
     1
 11
1.754665514923202
 21
-0.3819137916866551
 31
0.0
100
AcDbText
  0
TEXT
  5
47B
330
1F
100
AcDbEntity
  8
1
  6
HIDDEN
 62
     7
370
     0
100
AcDbText
 10
2.96949787720888
 20
-0.7059550020611359
 30
0.0
 40
0.031
  1
HEX AF = HEX TIP %%c / 1.125
  7
DC_TEXTSTYLE5
 72
     2
 11
3.53348087720888
 21
-0.7059550020611359
 31
0.0
100
AcDbText
  0
ENDSEC
  0
SECTION
  2
OBJECTS
  0
DICTIONARY
  5
C
330
0
100
AcDbDictionary
281
     1
  3
ACAD_DETAILVIEWSTYLE
350
4C0
  3
ACAD_GROUP
350
D
  3
ACAD_IMAGE_VARS
350
99
  3
ACAD_LAYOUT
350
1A
  3
ACAD_MATERIAL
350
91
  3
ACAD_MLEADERSTYLE
350
97
  3
ACAD_MLINESTYLE
350
17
  3
ACAD_PLOTSETTINGS
350
19
  3
ACAD_PLOTSTYLENAME
350
E
  3
ACAD_SCALELIST
350
6F
  3
ACAD_SECTIONVIEWSTYLE
350
4C1
  3
ACAD_TABLESTYLE
350
95
  3
ACAD_VISUALSTYLE
350
56
  3
ACDB_RECOMPOSE_DATA
350
4BC
  3
AcDbVariableDictionary
350
4E
  0
DICTIONARY
  5
47C
330
8
100
AcDbDictionary
280
     1
281
     1
  3
ACAD_XREC_ROUNDTRIP
360
47D
  0
DICTIONARY
  5
4C0
102
{ACAD_REACTORS
330
C
102
}
330
C
100
AcDbDictionary
281
     1
  0
DICTIONARY
  5
D
102
{ACAD_REACTORS
330
C
102
}
330
C
100
AcDbDictionary
281
     1
  0
RASTERVARIABLES
  5
99
102
{ACAD_REACTORS
330
C
102
}
330
C
100
AcDbRasterVariables
 90
        0
 70
     0
 71
     1
 72
     5
  0
DICTIONARY
  5
1A
102
{ACAD_REACTORS
330
C
102
}
330
C
100
AcDbDictionary
281
     1
  3
Layout1
350
1E
  3
Model
350
22
  0
DICTIONARY
  5
91
102
{ACAD_REACTORS
330
C
102
}
330
C
100
AcDbDictionary
281
     1
  3
ByBlock
350
93
  3
ByLayer
350
92
  3
Global
350
94
  0
DICTIONARY
  5
97
102
{ACAD_REACTORS
330
C
102
}
330
C
100
AcDbDictionary
281
     1
  3
Standard
350
98
  0
DICTIONARY
  5
17
102
{ACAD_REACTORS
330
C
102
}
330
C
100
AcDbDictionary
281
     1
  3
Standard
350
18
  0
DICTIONARY
  5
19
102
{ACAD_REACTORS
330
C
102
}
330
C
100
AcDbDictionary
281
     1
  0
ACDBDICTIONARYWDFLT
  5
E
102
{ACAD_REACTORS
330
C
102
}
330
C
100
AcDbDictionary
281
     1
  3
Normal
350
F
100
AcDbDictionaryWithDefault
340
F
  0
DICTIONARY
  5
6F
102
{ACAD_REACTORS
330
C
102
}
330
C
100
AcDbDictionary
281
     1
  3
A0
350
70
  3
A1
350
71
  3
A2
350
72
  3
A3
350
73
  3
A4
350
74
  3
A5
350
75
  3
A6
350
76
  3
A7
350
77
  3
A8
350
78
  3
A9
350
79
  3
B0
350
7A
  3
B1
350
7B
  3
B2
350
7C
  3
B3
350
7D
  3
B4
350
7E
  3
B5
350
7F
  3
B6
350
80
  3
B7
350
81
  3
B8
350
82
  3
B9
350
83
  3
C0
350
84
  3
C1
350
85
  3
C2
350
86
  3
C3
350
87
  3
C4
350
88
  3
C5
350
89
  3
C6
350
8A
  3
C7
350
8B
  3
C8
350
8C
  3
C9
350
8D
  3
D0
350
8E
  3
D1
350
8F
  3
D2
350
90
  0
DICTIONARY
  5
4C1
102
{ACAD_REACTORS
330
C
102
}
330
C
100
AcDbDictionary
281
     1
  0
DICTIONARY
  5
95
102
{ACAD_REACTORS
330
C
102
}
330
C
100
AcDbDictionary
281
     1
  3
Standard
350
96
  0
DICTIONARY
  5
56
102
{ACAD_REACTORS
330
C
102
}
330
C
100
AcDbDictionary
281
     1
  3
2dWireframe
350
5B
  3
Basic
350
5E
  3
Brighten
350
62
  3
ColorChange
350
66
  3
Conceptual
350
60
  3
Dim
350
61
  3
EdgeColorOff
350
69
  3
Facepattern
350
65
  3
Flat
350
57
  3
FlatWithEdges
350
58
  3
Gouraud
350
59
  3
GouraudWithEdges
350
5A
  3
Hidden
350
5D
  3
JitterOff
350
67
  3
Linepattern
350
64
  3
OverhangOff
350
68
  3
Realistic
350
5F
  3
Shaded
350
6E
  3
Shaded with edges
350
6D
  3
Shades of Gray
350
6A
  3
Sketchy
350
6B
  3
Thicken
350
63
  3
Wireframe
350
5C
  3
X-Ray
350
6C
  0
XRECORD
  5
4BC
102
{ACAD_REACTORS
330
C
102
}
330
C
100
AcDbXrecord
280
     1
 90
        1
330
96
  0
DICTIONARY
  5
4E
102
{ACAD_REACTORS
330
C
102
}
330
C
100
AcDbDictionary
281
     1
  3
CANNOSCALE
350
47E
  3
CMLEADERSTYLE
350
4BE
  3
CTABLESTYLE
350
4BD
  3
DIMASSOC
350
4F
  3
MSLTSCALE
350
4BF
  3
XCLIPFRAME
350
47F
  0
XRECORD
  5
47D
102
{ACAD_REACTORS
330
47C
102
}
330
47C
100
AcDbXrecord
280
     1
102
VTR_0.000_0.000_1.000_1.000_VISUALSTYLE
340
5B
102
VTR_0.000_0.000_1.000_1.000_GRIDDISPLAY
 70
     3
102
VTR_0.000_0.000_1.000_1.000_GRIDMAJOR
 70
     5
102
VTR_0.000_0.000_1.000_1.000_DEFAULTLIGHTING
280
     1
102
VTR_0.000_0.000_1.000_1.000_DEFAULTLIGHTINGTYPE
 70
     1
102
VTR_0.000_0.000_1.000_1.000_BRIGHTNESS
141
0.0
102
VTR_0.000_0.000_1.000_1.000_CONTRAST
142
0.0
  0
LAYOUT
  5
1E
102
{ACAD_REACTORS
330
1A
102
}
330
1A
100
AcDbPlotSettings
  1

  2
HP DeskJet 720C v10.3
  4

  6

 40
0.0
 41
0.0
 42
0.0
 43
0.0
 44
0.0
 45
0.0
 46
0.0
 47
0.0
 48
0.0
 49
0.0
140
0.0
141
0.0
142
1.0
143
1.0
 70
   688
 72
     0
 73
     0
 74
     5
  7

 75
    16
 76
     0
 77
     2
 78
   300
147
1.0
148
0.0
149
0.0
100
AcDbLayout
  1
Layout1
 70
     1
 71
     1
 10
0.0
 20
0.0
 11
12.0
 21
9.0
 12
0.0
 22
0.0
 32
0.0
 14
1.000000000000000E+20
 24
1.000000000000000E+20
 34
1.000000000000000E+20
 15
-1.000000000000000E+20
 25
-1.000000000000000E+20
 35
-1.000000000000000E+20
146
0.0
 13
0.0
 23
0.0
 33
0.0
 16
1.0
 26
0.0
 36
0.0
 17
0.0
 27
1.0
 37
0.0
 76
     0
330
1B
  0
LAYOUT
  5
22
102
{ACAD_REACTORS
330
1A
102
}
330
1A
100
AcDbPlotSettings
  1

  2
None
  4
Custom Paper
  6

 40
0.5
 41
0.5
 42
0.5
 43
0.5
 44
296.9683333333333
 45
209.9733333333333
 46
0.2101666666666802
 47
0.0
 48
0.0
 49
0.0
140
0.0
141
0.0
142
1.0
143
0.0131172453332465
 70
  5796
 72
     2
 73
     0
 74
     0
  7

 75
     0
 76
     0
 77
     2
 78
   300
147
76.23551855551862
148
1.938387811875161
149
1.370577240719811
100
AcDbLayout
  1
Model
 70
     1
 71
     0
 10
0.0
 20
0.0
 11
12.0
 21
9.0
 12
0.0
 22
0.0
 32
0.0
 14
0.0649808772088798
 24
-1.055044607335967
 34
0.0035
 15
3.589322353345539
 25
1.4369140121546
 35
-0.0035
146
0.0
 13
0.0
 23
0.0
 33
0.0
 16
1.0
 26
0.0
 36
0.0
 17
0.0
 27
1.0
 37
0.0
 76
     0
330
1F
331
55
  0
MATERIAL
  5
93
102
{ACAD_REACTORS
330
91
102
}
102
{ACAD_XDICTIONARY
360
4B2
102
}
330
91
100
AcDbMaterial
  1
ByBlock
  0
MATERIAL
  5
92
102
{ACAD_REACTORS
330
91
102
}
102
{ACAD_XDICTIONARY
360
4B0
102
}
330
91
100
AcDbMaterial
  1
ByLayer
  0
MATERIAL
  5
94
102
{ACAD_REACTORS
330
91
102
}
102
{ACAD_XDICTIONARY
360
4B4
102
}
330
91
100
AcDbMaterial
  1
Global
  0
MLEADERSTYLE
  5
98
102
{ACAD_REACTORS
330
97
102
}
102
{ACAD_XDICTIONARY
360
4BA
102
}
330
97
100
AcDbMLeaderStyle
170
     2
171
     1
172
     0
 90
        2
 40
0.0
 41
0.0
173
     1
 91
-1056964608
340
14
 92
       -2
290
     1
 42
0.09
291
     1
 43
0.36
  3
Standard
341
0
 44
0.18
300

342
11
174
     1
178
     6
175
     1
176
     0
 93
-1056964608
 45
0.18
292
     0
297
     0
 46
0.18
343
0
 94
-1056964608
 47
1.0
 49
1.0
140
1.0
293
     1
141
0.0
294
     1
177
     0
142
1.0
295
     0
296
     0
143
0.125
1001
ACAD_MLEADERVER
1070
     2
  0
MLINESTYLE
  5
18
102
{ACAD_REACTORS
330
17
102
}
330
17
100
AcDbMlineStyle
  2
STANDARD
 70
     0
  3

 62
   256
 51
90.0
 52
90.0
 71
     2
 49
0.5
 62
   256
  6
BYLAYER
 49
-0.5
 62
   256
  6
BYLAYER
  0
ACDBPLACEHOLDER
  5
F
102
{ACAD_REACTORS
330
E
102
}
330
E
  0
SCALE
  5
70
102
{ACAD_REACTORS
330
6F
102
}
330
6F
100
AcDbScale
 70
     0
300
1:1
140
1.0
141
1.0
290
     1
  0
SCALE
  5
71
102
{ACAD_REACTORS
330
6F
102
}
330
6F
100
AcDbScale
 70
     0
300
1:2
140
1.0
141
2.0
290
     0
  0
SCALE
  5
72
102
{ACAD_REACTORS
330
6F
102
}
330
6F
100
AcDbScale
 70
     0
300
1:4
140
1.0
141
4.0
290
     0
  0
SCALE
  5
73
102
{ACAD_REACTORS
330
6F
102
}
330
6F
100
AcDbScale
 70
     0
300
1:5
140
1.0
141
5.0
290
     0
  0
SCALE
  5
74
102
{ACAD_REACTORS
330
6F
102
}
330
6F
100
AcDbScale
 70
     0
300
1:8
140
1.0
141
8.0
290
     0
  0
SCALE
  5
75
102
{ACAD_REACTORS
330
6F
102
}
330
6F
100
AcDbScale
 70
     0
300
1:10
140
1.0
141
10.0
290
     0
  0
SCALE
  5
76
102
{ACAD_REACTORS
330
6F
102
}
330
6F
100
AcDbScale
 70
     0
300
1:16
140
1.0
141
16.0
290
     0
  0
SCALE
  5
77
102
{ACAD_REACTORS
330
6F
102
}
330
6F
100
AcDbScale
 70
     0
300
1:20
140
1.0
141
20.0
290
     0
  0
SCALE
  5
78
102
{ACAD_REACTORS
330
6F
102
}
330
6F
100
AcDbScale
 70
     0
300
1:30
140
1.0
141
30.0
290
     0
  0
SCALE
  5
79
102
{ACAD_REACTORS
330
6F
102
}
330
6F
100
AcDbScale
 70
     0
300
1:40
140
1.0
141
40.0
290
     0
  0
SCALE
  5
7A
102
{ACAD_REACTORS
330
6F
102
}
330
6F
100
AcDbScale
 70
     0
300
1:50
140
1.0
141
50.0
290
     0
  0
SCALE
  5
7B
102
{ACAD_REACTORS
330
6F
102
}
330
6F
100
AcDbScale
 70
     0
300
1:100
140
1.0
141
100.0
290
     0
  0
SCALE
  5
7C
102
{ACAD_REACTORS
330
6F
102
}
330
6F
100
AcDbScale
 70
     0
300
2:1
140
2.0
141
1.0
290
     0
  0
SCALE
  5
7D
102
{ACAD_REACTORS
330
6F
102
}
330
6F
100
AcDbScale
 70
     0
300
4:1
140
4.0
141
1.0
290
     0
  0
SCALE
  5
7E
102
{ACAD_REACTORS
330
6F
102
}
330
6F
100
AcDbScale
 70
     0
300
8:1
140
8.0
141
1.0
290
     0
  0
SCALE
  5
7F
102
{ACAD_REACTORS
330
6F
102
}
330
6F
100
AcDbScale
 70
     0
300
10:1
140
10.0
141
1.0
290
     0
  0
SCALE
  5
80
102
{ACAD_REACTORS
330
6F
102
}
330
6F
100
AcDbScale
 70
     0
300
100:1
140
100.0
141
1.0
290
     0
  0
SCALE
  5
81
102
{ACAD_REACTORS
330
6F
102
}
330
6F
100
AcDbScale
 70
     0
300
1/128" = 1'-0"
140
0.0078125
141
12.0
290
     0
  0
SCALE
  5
82
102
{ACAD_REACTORS
330
6F
102
}
330
6F
100
AcDbScale
 70
     0
300
1/64" = 1'-0"
140
0.015625
141
12.0
290
     0
  0
SCALE
  5
83
102
{ACAD_REACTORS
330
6F
102
}
330
6F
100
AcDbScale
 70
     0
300
1/32" = 1'-0"
140
0.03125
141
12.0
290
     0
  0
SCALE
  5
84
102
{ACAD_REACTORS
330
6F
102
}
330
6F
100
AcDbScale
 70
     0
300
1/16" = 1'-0"
140
0.0625
141
12.0
290
     0
  0
SCALE
  5
85
102
{ACAD_REACTORS
330
6F
102
}
330
6F
100
AcDbScale
 70
     0
300
3/32" = 1'-0"
140
0.09375
141
12.0
290
     0
  0
SCALE
  5
86
102
{ACAD_REACTORS
330
6F
102
}
330
6F
100
AcDbScale
 70
     0
300
1/8" = 1'-0"
140
0.125
141
12.0
290
     0
  0
SCALE
  5
87
102
{ACAD_REACTORS
330
6F
102
}
330
6F
100
AcDbScale
 70
     0
300
3/16" = 1'-0"
140
0.1875
141
12.0
290
     0
  0
SCALE
  5
88
102
{ACAD_REACTORS
330
6F
102
}
330
6F
100
AcDbScale
 70
     0
300
1/4" = 1'-0"
140
0.25
141
12.0
290
     0
  0
SCALE
  5
89
102
{ACAD_REACTORS
330
6F
102
}
330
6F
100
AcDbScale
 70
     0
300
3/8" = 1'-0"
140
0.375
141
12.0
290
     0
  0
SCALE
  5
8A
102
{ACAD_REACTORS
330
6F
102
}
330
6F
100
AcDbScale
 70
     0
300
1/2" = 1'-0"
140
0.5
141
12.0
290
     0
  0
SCALE
  5
8B
102
{ACAD_REACTORS
330
6F
102
}
330
6F
100
AcDbScale
 70
     0
300
3/4" = 1'-0"
140
0.75
141
12.0
290
     0
  0
SCALE
  5
8C
102
{ACAD_REACTORS
330
6F
102
}
330
6F
100
AcDbScale
 70
     0
300
1" = 1'-0"
140
1.0
141
12.0
290
     0
  0
SCALE
  5
8D
102
{ACAD_REACTORS
330
6F
102
}
330
6F
100
AcDbScale
 70
     0
300
1-1/2" = 1'-0"
140
1.5
141
12.0
290
     0
  0
SCALE
  5
8E
102
{ACAD_REACTORS
330
6F
102
}
330
6F
100
AcDbScale
 70
     0
300
3" = 1'-0"
140
3.0
141
12.0
290
     0
  0
SCALE
  5
8F
102
{ACAD_REACTORS
330
6F
102
}
330
6F
100
AcDbScale
 70
     0
300
6" = 1'-0"
140
6.0
141
12.0
290
     0
  0
SCALE
  5
90
102
{ACAD_REACTORS
330
6F
102
}
330
6F
100
AcDbScale
 70
     0
300
1'-0" = 1'-0"
140
12.0
141
12.0
290
     0
  0
TABLESTYLE
  5
96
102
{ACAD_REACTORS
330
95
102
}
102
{ACAD_XDICTIONARY
360
4B6
102
}
330
95
100
AcDbTableStyle
  3
Standard
 70
     0
 71
     0
 40
0.06
 41
0.06
280
     0
281
     0
  7
Standard
140
0.18
170
     2
 62
     0
 63
   257
283
     0
274
    -2
284
     1
 64
     0
275
    -2
285
     1
 65
     0
276
    -2
286
     1
 66
     0
277
    -2
287
     1
 67
     0
278
    -2
288
     1
 68
     0
279
    -2
289
     1
 69
     0
  7
Standard
140
0.25
170
     5
 62
     0
 63
   257
283
     0
274
    -2
284
     1
 64
     0
275
    -2
285
     1
 65
     0
276
    -2
286
     1
 66
     0
277
    -2
287
     1
 67
     0
278
    -2
288
     1
 68
     0
279
    -2
289
     1
 69
     0
  7
Standard
140
0.18
170
     5
 62
     0
 63
   257
283
     0
274
    -2
284
     1
 64
     0
275
    -2
285
     1
 65
     0
276
    -2
286
     1
 66
     0
277
    -2
287
     1
 67
     0
278
    -2
288
     1
 68
     0
279
    -2
289
     1
 69
     0
  0
VISUALSTYLE
  5
5B
102
{ACAD_REACTORS
330
56
102
}
102
{ACAD_XDICTIONARY
360
488
102
}
330
56
100
AcDbVisualStyle
  2
2dWireframe
 70
     4
 71
     0
 72
     2
 73
     0
 90
        0
 40
0.6
 41
30.0
 62
     5
 63
     7
421
 16777215
 74
     1
 91
        4
 64
     7
 65
   257
 75
     1
175
     1
 42
1.0
 92
        0
 66
   257
 43
1.0
 76
     1
 77
     6
 78
     2
 67
     7
 79
     5
170
     0
171
     0
290
     0
174
     0
 93
        1
 44
0.0
173
     0
291
     0
 45
0.0
1001
ACAD
1000
AcDbSavedByObjectVersion
1070
     0
  0
VISUALSTYLE
  5
5E
102
{ACAD_REACTORS
330
56
102
}
102
{ACAD_XDICTIONARY
360
48E
102
}
330
56
100
AcDbVisualStyle
  2
Basic
 70
     7
 71
     1
 72
     0
 73
     1
 90
        0
 40
0.6
 41
30.0
 62
     5
 63
     7
421
 16777215
 74
     0
 91
        4
 64
     7
 65
   257
 75
     1
175
     1
 42
1.0
 92
        8
 66
     7
 43
1.0
 76
     1
 77
     6
 78
     2
 67
     7
 79
     5
170
     0
171
     0
290
     0
174
     0
 93
        1
 44
0.0
173
     0
291
     1
 45
0.0
1001
ACAD
1000
AcDbSavedByObjectVersion
1070
     0
  0
VISUALSTYLE
  5
62
102
{ACAD_REACTORS
330
56
102
}
102
{ACAD_XDICTIONARY
360
496
102
}
330
56
100
AcDbVisualStyle
  2
Brighten
 70
    12
 71
     2
 72
     2
 73
     0
 90
        0
 40
0.6
 41
30.0
 62
     5
 63
     7
421
 16777215
 74
     1
 91
        4
 64
     7
 65
   257
 75
     1
175
     1
 42
1.0
 92
        8
 66
     7
 43
1.0
 76
     1
 77
     6
 78
     2
 67
     7
 79
     5
170
     0
171
     0
290
     0
174
     0
 93
        1
 44
50.0
173
     0
291
     1
 45
0.0
1001
ACAD
1000
AcDbSavedByObjectVersion
1070
     0
  0
VISUALSTYLE
  5
66
102
{ACAD_REACTORS
330
56
102
}
102
{ACAD_XDICTIONARY
360
49E
102
}
330
56
100
AcDbVisualStyle
  2
ColorChange
 70
    16
 71
     2
 72
     2
 73
     3
 90
        0
 40
0.6
 41
30.0
 62
     5
 63
     8
421
  8421504
 74
     1
 91
        4
 64
     7
 65
   257
 75
     1
175
     1
 42
1.0
 92
        8
 66
     8
424
  8421504
 43
1.0
 76
     1
 77
     6
 78
     2
 67
     7
 79
     5
170
     0
171
     0
290
     0
174
     0
 93
        1
 44
0.0
173
     0
291
     1
 45
0.0
1001
ACAD
1000
AcDbSavedByObjectVersion
1070
     0
  0
VISUALSTYLE
  5
60
102
{ACAD_REACTORS
330
56
102
}
102
{ACAD_XDICTIONARY
360
492
102
}
330
56
100
AcDbVisualStyle
  2
Conceptual
 70
     9
 71
     3
 72
     2
 73
     0
 90
        0
 40
0.6
 41
30.0
 62
     5
 63
     7
421
 16777215
 74
     2
 91
        2
 64
     7
 65
   257
 75
     1
175
     1
 42
179.0
 92
        8
 66
     7
 43
1.0
 76
     1
 77
     6
 78
     2
 67
     7
 79
     3
170
     0
171
     0
290
     0
174
     0
 93
        1
 44
0.0
173
     0
291
     0
 45
0.0
1001
ACAD
1000
AcDbSavedByObjectVersion
1070
     0
  0
VISUALSTYLE
  5
61
102
{ACAD_REACTORS
330
56
102
}
102
{ACAD_XDICTIONARY
360
494
102
}
330
56
100
AcDbVisualStyle
  2
Dim
 70
    11
 71
     2
 72
     2
 73
     0
 90
        0
 40
0.6
 41
30.0
 62
     5
 63
     7
421
 16777215
 74
     1
 91
        4
 64
     7
 65
   257
 75
     1
175
     1
 42
1.0
 92
        8
 66
     7
 43
1.0
 76
     1
 77
     6
 78
     2
 67
     7
 79
     5
170
     0
171
     0
290
     0
174
     0
 93
        1
 44
-50.0
173
     0
291
     1
 45
0.0
1001
ACAD
1000
AcDbSavedByObjectVersion
1070
     0
  0
VISUALSTYLE
  5
69
102
{ACAD_REACTORS
330
56
102
}
102
{ACAD_XDICTIONARY
360
4A4
102
}
330
56
100
AcDbVisualStyle
  2
EdgeColorOff
 70
    22
 71
     2
 72
     2
 73
     0
 90
        0
 40
0.6
 41
30.0
 62
     5
 63
     7
421
 16777215
 74
     1
 91
        4
 64
     7
 65
   257
 75
     1
175
     1
 42
1.0
 92
        8
 66
     7
 43
1.0
 76
     1
 77
     6
 78
     2
 67
     7
 79
     5
170
     0
171
     0
290
     0
174
     0
 93
        1
 44
0.0
173
     0
291
     1
 45
0.0
1001
ACAD
1000
AcDbSavedByObjectVersion
1070
     0
  0
VISUALSTYLE
  5
65
102
{ACAD_REACTORS
330
56
102
}
102
{ACAD_XDICTIONARY
360
49C
102
}
330
56
100
AcDbVisualStyle
  2
Facepattern
 70
    15
 71
     2
 72
     2
 73
     0
 90
        0
 40
0.6
 41
30.0
 62
     5
 63
     7
421
 16777215
 74
     1
 91
        4
 64
     7
 65
   257
 75
     1
175
     1
 42
1.0
 92
        8
 66
     7
 43
1.0
 76
     1
 77
     6
 78
     2
 67
     7
 79
     5
170
     0
171
     0
290
     0
174
     0
 93
        1
 44
0.0
173
     0
291
     1
 45
0.0
1001
ACAD
1000
AcDbSavedByObjectVersion
1070
     0
  0
VISUALSTYLE
  5
57
102
{ACAD_REACTORS
330
56
102
}
102
{ACAD_XDICTIONARY
360
480
102
}
330
56
100
AcDbVisualStyle
  2
Flat
 70
     0
 71
     2
 72
     1
 73
     1
 90
        2
 40
0.6
 41
30.0
 62
     5
 63
     7
421
 16777215
 74
     0
 91
        0
 64
     7
 65
   257
 75
     1
175
     1
 42
1.0
 92
        8
 66
     7
 43
1.0
 76
     1
 77
     6
 78
     2
 67
     7
 79
     5
170
     0
171
     0
290
     0
174
     0
 93
       13
 44
0.0
173
     0
291
     1
 45
0.0
1001
ACAD
1000
AcDbSavedByObjectVersion
1070
     0
  0
VISUALSTYLE
  5
58
102
{ACAD_REACTORS
330
56
102
}
102
{ACAD_XDICTIONARY
360
482
102
}
330
56
100
AcDbVisualStyle
  2
FlatWithEdges
 70
     1
 71
     2
 72
     1
 73
     1
 90
        2
 40
0.6
 41
30.0
 62
     5
 63
     7
421
 16777215
 74
     1
 91
        0
 64
     7
 65
   257
 75
     1
175
     1
 42
1.0
 92
        0
 66
   257
 43
1.0
 76
     1
 77
     6
 78
     2
 67
     7
 79
     5
170
     0
171
     0
290
     0
174
     0
 93
       13
 44
0.0
173
     0
291
     1
 45
0.0
1001
ACAD
1000
AcDbSavedByObjectVersion
1070
     0
  0
VISUALSTYLE
  5
59
102
{ACAD_REACTORS
330
56
102
}
102
{ACAD_XDICTIONARY
360
484
102
}
330
56
100
AcDbVisualStyle
  2
Gouraud
 70
     2
 71
     2
 72
     2
 73
     1
 90
        2
 40
0.6
 41
30.0
 62
     5
 63
     7
421
 16777215
 74
     0
 91
        0
 64
     7
 65
   257
 75
     1
175
     1
 42
1.0
 92
        0
 66
     7
 43
1.0
 76
     1
 77
     6
 78
     2
 67
     7
 79
     5
170
     0
171
     0
290
     0
174
     0
 93
       13
 44
0.0
173
     0
291
     1
 45
0.0
1001
ACAD
1000
AcDbSavedByObjectVersion
1070
     0
  0
VISUALSTYLE
  5
5A
102
{ACAD_REACTORS
330
56
102
}
102
{ACAD_XDICTIONARY
360
486
102
}
330
56
100
AcDbVisualStyle
  2
GouraudWithEdges
 70
     3
 71
     2
 72
     2
 73
     1
 90
        2
 40
0.6
 41
30.0
 62
     5
 63
     7
421
 16777215
 74
     1
 91
        0
 64
     7
 65
   257
 75
     1
175
     1
 42
1.0
 92
        0
 66
   257
 43
1.0
 76
     1
 77
     6
 78
     2
 67
     7
 79
     5
170
     0
171
     0
290
     0
174
     0
 93
       13
 44
0.0
173
     0
291
     1
 45
0.0
1001
ACAD
1000
AcDbSavedByObjectVersion
1070
     0
  0
VISUALSTYLE
  5
5D
102
{ACAD_REACTORS
330
56
102
}
102
{ACAD_XDICTIONARY
360
48C
102
}
330
56
100
AcDbVisualStyle
  2
Hidden
 70
     6
 71
     1
 72
     2
 73
     2
 90
        0
 40
0.6
 41
30.0
 62
     5
 63
     7
421
 16777215
 74
     2
 91
        2
 64
     7
 65
   257
 75
     2
175
     1
 42
40.0
 92
        0
 66
   257
 43
1.0
 76
     1
 77
     6
 78
     2
 67
     7
 79
     3
170
     0
171
     0
290
     0
174
     0
 93
        1
 44
0.0
173
     0
291
     0
 45
0.0
1001
ACAD
1000
AcDbSavedByObjectVersion
1070
     0
  0
VISUALSTYLE
  5
67
102
{ACAD_REACTORS
330
56
102
}
102
{ACAD_XDICTIONARY
360
4A0
102
}
330
56
100
AcDbVisualStyle
  2
JitterOff
 70
    20
 71
     2
 72
     2
 73
     0
 90
        0
 40
0.6
 41
30.0
 62
     5
 63
     7
421
 16777215
 74
     1
 91
        4
 64
     7
 65
   257
 75
     1
175
     1
 42
1.0
 92
       10
 66
     7
 43
1.0
 76
     1
 77
     6
 78
     2
 67
     7
 79
     5
170
     0
171
     0
290
     0
174
     0
 93
        1
 44
0.0
173
     0
291
     1
 45
0.0
1001
ACAD
1000
AcDbSavedByObjectVersion
1070
     0
  0
VISUALSTYLE
  5
64
102
{ACAD_REACTORS
330
56
102
}
102
{ACAD_XDICTIONARY
360
49A
102
}
330
56
100
AcDbVisualStyle
  2
Linepattern
 70
    14
 71
     2
 72
     2
 73
     0
 90
        0
 40
0.6
 41
30.0
 62
     5
 63
     7
421
 16777215
 74
     1
 91
        4
 64
     7
 65
   257
 75
     7
175
     7
 42
1.0
 92
        8
 66
     7
 43
1.0
 76
     1
 77
     6
 78
     2
 67
     7
 79
     5
170
     0
171
     0
290
     0
174
     0
 93
        1
 44
0.0
173
     0
291
     1
 45
0.0
1001
ACAD
1000
AcDbSavedByObjectVersion
1070
     0
  0
VISUALSTYLE
  5
68
102
{ACAD_REACTORS
330
56
102
}
102
{ACAD_XDICTIONARY
360
4A2
102
}
330
56
100
AcDbVisualStyle
  2
OverhangOff
 70
    21
 71
     2
 72
     2
 73
     0
 90
        0
 40
0.6
 41
30.0
 62
     5
 63
     7
421
 16777215
 74
     1
 91
        4
 64
     7
 65
   257
 75
     1
175
     1
 42
1.0
 92
        9
 66
     7
 43
1.0
 76
     1
 77
     6
 78
     2
 67
     7
 79
     5
170
     0
171
     0
290
     0
174
     0
 93
        1
 44
0.0
173
     0
291
     1
 45
0.0
1001
ACAD
1000
AcDbSavedByObjectVersion
1070
     0
  0
VISUALSTYLE
  5
5F
102
{ACAD_REACTORS
330
56
102
}
102
{ACAD_XDICTIONARY
360
490
102
}
330
56
100
AcDbVisualStyle
  2
Realistic
 70
     8
 71
     2
 72
     3
 73
     0
 90
        2
 40
0.6
 41
30.0
 62
     5
 63
     7
421
 16777215
 74
     0
 91
        0
 64
     7
 65
   257
 75
     1
175
     1
 42
1.0
 92
        8
 66
   257
 43
1.0
 76
     1
 77
     6
 78
     2
 67
     7
 79
     3
170
     0
171
     0
290
     0
174
     0
 93
       13
 44
0.0
173
     0
291
     0
 45
0.0
1001
ACAD
1000
AcDbSavedByObjectVersion
1070
     0
  0
VISUALSTYLE
  5
6E
102
{ACAD_REACTORS
330
56
102
}
102
{ACAD_XDICTIONARY
360
4AE
102
}
330
56
100
AcDbVisualStyle
  2
Shaded
 70
    27
 71
     2
 72
     2
 73
     1
 90
        2
 40
0.6
 41
30.0
 62
     5
 63
     7
421
 16777215
 74
     0
 91
        4
 64
     7
 65
   257
 75
     1
175
     1
 42
1.0
 92
        8
 66
   257
 43
1.0
 76
     1
 77
     6
 78
     2
 67
     8
425
  7895160
 79
     3
170
     0
171
     0
290
     0
174
     0
 93
        5
 44
0.0
173
     0
291
     0
 45
0.0
1001
ACAD
1000
AcDbSavedByObjectVersion
1070
     0
  0
VISUALSTYLE
  5
6D
102
{ACAD_REACTORS
330
56
102
}
102
{ACAD_XDICTIONARY
360
4AC
102
}
330
56
100
AcDbVisualStyle
  2
Shaded with edges
 70
    26
 71
     2
 72
     2
 73
     1
 90
        2
 40
0.6
 41
30.0
 62
     5
 63
     7
421
 16777215
 74
     1
 91
       10
 64
     7
 65
   257
 75
     2
175
     1
 42
1.0
 92
        8
 66
   257
 43
1.0
 76
     1
 77
     6
 78
     2
 67
     7
 79
     3
170
     0
171
     0
290
     0
174
     0
 93
        5
 44
0.0
173
     0
291
     0
 45
0.0
1001
ACAD
1000
AcDbSavedByObjectVersion
1070
     0
  0
VISUALSTYLE
  5
6A
102
{ACAD_REACTORS
330
56
102
}
102
{ACAD_XDICTIONARY
360
4A6
102
}
330
56
100
AcDbVisualStyle
  2
Shades of Gray
 70
    23
 71
     2
 72
     2
 73
     3
 90
        0
 40
0.6
 41
30.0
 62
     5
 63
     7
421
 16777215
 74
     2
 91
        2
 64
     7
 65
     7
 75
     1
175
     1
 42
40.0
 92
        8
 66
     7
 43
1.0
 76
     1
 77
     6
 78
     2
 67
     7
 79
     3
170
     0
171
     0
290
     0
174
     0
 93
        1
 44
0.0
173
     0
291
     0
 45
0.0
1001
ACAD
1000
AcDbSavedByObjectVersion
1070
     0
  0
VISUALSTYLE
  5
6B
102
{ACAD_REACTORS
330
56
102
}
102
{ACAD_XDICTIONARY
360
4A8
102
}
330
56
100
AcDbVisualStyle
  2
Sketchy
 70
    24
 71
     1
 72
     2
 73
     2
 90
        0
 40
0.6
 41
30.0
 62
     5
 63
     7
421
 16777215
 74
     2
 91
        2
 64
     7
 65
     7
 75
     1
175
     1
 42
40.0
 92
       11
 66
     7
 43
1.0
 76
     1
 77
     6
 78
     2
 67
     7
 79
     6
170
     0
171
     0
290
     0
174
     0
 93
        1
 44
0.0
173
     0
291
     0
 45
0.0
1001
ACAD
1000
AcDbSavedByObjectVersion
1070
     0
  0
VISUALSTYLE
  5
63
102
{ACAD_REACTORS
330
56
102
}
102
{ACAD_XDICTIONARY
360
498
102
}
330
56
100
AcDbVisualStyle
  2
Thicken
 70
    13
 71
     2
 72
     2
 73
     0
 90
        0
 40
0.6
 41
30.0
 62
     5
 63
     7
421
 16777215
 74
     1
 91
        4
 64
     7
 65
   257
 75
     1
175
     1
 42
1.0
 92
       12
 66
     7
 43
1.0
 76
     1
 77
     6
 78
     2
 67
     7
 79
     5
170
     0
171
     0
290
     0
174
     0
 93
        1
 44
0.0
173
     0
291
     1
 45
0.0
1001
ACAD
1000
AcDbSavedByObjectVersion
1070
     0
  0
VISUALSTYLE
  5
5C
102
{ACAD_REACTORS
330
56
102
}
102
{ACAD_XDICTIONARY
360
48A
102
}
330
56
100
AcDbVisualStyle
  2
Wireframe
 70
     5
 71
     0
 72
     2
 73
     0
 90
        0
 40
0.6
 41
30.0
 62
     5
 63
     7
421
 16777215
 74
     1
 91
        4
 64
     7
 65
   257
 75
     1
175
     1
 42
1.0
 92
        0
 66
   257
 43
1.0
 76
     1
 77
     6
 78
     2
 67
     7
 79
     3
170
     0
171
     0
290
     0
174
     0
 93
        1
 44
0.0
173
     0
291
     0
 45
0.0
1001
ACAD
1000
AcDbSavedByObjectVersion
1070
     0
  0
VISUALSTYLE
  5
6C
102
{ACAD_REACTORS
330
56
102
}
102
{ACAD_XDICTIONARY
360
4AA
102
}
330
56
100
AcDbVisualStyle
  2
X-Ray
 70
    25
 71
     2
 72
     2
 73
     1
 90
        1
 40
0.5
 41
30.0
 62
     5
 63
     7
421
 16777215
 74
     1
 91
        0
 64
     7
 65
   257
 75
     1
175
     1
 42
1.0
 92
        8
 66
     7
 43
1.0
 76
     1
 77
     6
 78
     2
 67
     7
 79
     3
170
     0
171
     0
290
     0
174
     0
 93
       13
 44
0.0
173
     0
291
     0
 45
0.0
1001
ACAD
1000
AcDbSavedByObjectVersion
1070
     0
  0
DICTIONARYVAR
  5
47E
102
{ACAD_REACTORS
330
4E
102
}
330
4E
100
DictionaryVariables
280
     0
  1
1:1
  0
DICTIONARYVAR
  5
4BE
102
{ACAD_REACTORS
330
4E
102
}
330
4E
100
DictionaryVariables
280
     0
  1
Standard
  0
DICTIONARYVAR
  5
4BD
102
{ACAD_REACTORS
330
4E
102
}
330
4E
100
DictionaryVariables
280
     0
  1
Standard
  0
DICTIONARYVAR
  5
4F
102
{ACAD_REACTORS
330
4E
102
}
330
4E
100
DictionaryVariables
280
     0
  1
1
  0
DICTIONARYVAR
  5
4BF
102
{ACAD_REACTORS
330
4E
102
}
330
4E
100
DictionaryVariables
280
     0
  1
0
  0
DICTIONARYVAR
  5
47F
102
{ACAD_REACTORS
330
4E
102
}
330
4E
100
DictionaryVariables
280
     0
  1
2
  0
DICTIONARY
  5
4B2
330
93
100
AcDbDictionary
280
     1
281
     1
  3
ACAD_XREC_ROUNDTRIP
360
4B3
  0
DICTIONARY
  5
4B0
330
92
100
AcDbDictionary
280
     1
281
     1
  3
ACAD_XREC_ROUNDTRIP
360
4B1
  0
DICTIONARY
  5
4B4
330
94
100
AcDbDictionary
280
     1
281
     1
  3
ACAD_XREC_ROUNDTRIP
360
4B5
  0
DICTIONARY
  5
4BA
330
98
100
AcDbDictionary
280
     1
281
     1
  3
ACAD_XREC_ROUNDTRIP
360
4BB
  0
DICTIONARY
  5
4B6
330
96
100
AcDbDictionary
280
     1
281
     1
  3
ACAD_ROUNDTRIP_2008_TABLESTYLE_CELLSTYLEMAP
360
4B8
  3
ACAD_XREC_ROUNDTRIP
360
4B7
  0
DICTIONARY
  5
488
330
5B
100
AcDbDictionary
280
     1
281
     1
  3
ACAD_XREC_ROUNDTRIP
360
489
  0
DICTIONARY
  5
48E
330
5E
100
AcDbDictionary
280
     1
281
     1
  3
ACAD_XREC_ROUNDTRIP
360
48F
  0
DICTIONARY
  5
496
330
62
100
AcDbDictionary
280
     1
281
     1
  3
ACAD_XREC_ROUNDTRIP
360
497
  0
DICTIONARY
  5
49E
330
66
100
AcDbDictionary
280
     1
281
     1
  3
ACAD_XREC_ROUNDTRIP
360
49F
  0
DICTIONARY
  5
492
330
60
100
AcDbDictionary
280
     1
281
     1
  3
ACAD_XREC_ROUNDTRIP
360
493
  0
DICTIONARY
  5
494
330
61
100
AcDbDictionary
280
     1
281
     1
  3
ACAD_XREC_ROUNDTRIP
360
495
  0
DICTIONARY
  5
4A4
330
69
100
AcDbDictionary
280
     1
281
     1
  3
ACAD_XREC_ROUNDTRIP
360
4A5
  0
DICTIONARY
  5
49C
330
65
100
AcDbDictionary
280
     1
281
     1
  3
ACAD_XREC_ROUNDTRIP
360
49D
  0
DICTIONARY
  5
480
330
57
100
AcDbDictionary
280
     1
281
     1
  3
ACAD_XREC_ROUNDTRIP
360
481
  0
DICTIONARY
  5
482
330
58
100
AcDbDictionary
280
     1
281
     1
  3
ACAD_XREC_ROUNDTRIP
360
483
  0
DICTIONARY
  5
484
330
59
100
AcDbDictionary
280
     1
281
     1
  3
ACAD_XREC_ROUNDTRIP
360
485
  0
DICTIONARY
  5
486
330
5A
100
AcDbDictionary
280
     1
281
     1
  3
ACAD_XREC_ROUNDTRIP
360
487
  0
DICTIONARY
  5
48C
330
5D
100
AcDbDictionary
280
     1
281
     1
  3
ACAD_XREC_ROUNDTRIP
360
48D
  0
DICTIONARY
  5
4A0
330
67
100
AcDbDictionary
280
     1
281
     1
  3
ACAD_XREC_ROUNDTRIP
360
4A1
  0
DICTIONARY
  5
49A
330
64
100
AcDbDictionary
280
     1
281
     1
  3
ACAD_XREC_ROUNDTRIP
360
49B
  0
DICTIONARY
  5
4A2
330
68
100
AcDbDictionary
280
     1
281
     1
  3
ACAD_XREC_ROUNDTRIP
360
4A3
  0
DICTIONARY
  5
490
330
5F
100
AcDbDictionary
280
     1
281
     1
  3
ACAD_XREC_ROUNDTRIP
360
491
  0
DICTIONARY
  5
4AE
330
6E
100
AcDbDictionary
280
     1
281
     1
  3
ACAD_XREC_ROUNDTRIP
360
4AF
  0
DICTIONARY
  5
4AC
330
6D
100
AcDbDictionary
280
     1
281
     1
  3
ACAD_XREC_ROUNDTRIP
360
4AD
  0
DICTIONARY
  5
4A6
330
6A
100
AcDbDictionary
280
     1
281
     1
  3
ACAD_XREC_ROUNDTRIP
360
4A7
  0
DICTIONARY
  5
4A8
330
6B
100
AcDbDictionary
280
     1
281
     1
  3
ACAD_XREC_ROUNDTRIP
360
4A9
  0
DICTIONARY
  5
498
330
63
100
AcDbDictionary
280
     1
281
     1
  3
ACAD_XREC_ROUNDTRIP
360
499
  0
DICTIONARY
  5
48A
330
5C
100
AcDbDictionary
280
     1
281
     1
  3
ACAD_XREC_ROUNDTRIP
360
48B
  0
DICTIONARY
  5
4AA
330
6C
100
AcDbDictionary
280
     1
281
     1
  3
ACAD_XREC_ROUNDTRIP
360
4AB
  0
XRECORD
  5
4B3
102
{ACAD_REACTORS
330
4B2
102
}
330
4B2
100
AcDbXrecord
280
     1
102
MATERIAL
148
0.0
149
0.0
149
0.0
 93
        0
 94
      127
282
     0
 72
     1
 77
     1
171
     1
175
     1
179
     1
273
     0
  0
XRECORD
  5
4B1
102
{ACAD_REACTORS
330
4B0
102
}
330
4B0
100
AcDbXrecord
280
     1
102
MATERIAL
148
0.0
149
0.0
149
0.0
 93
        0
 94
      127
282
     0
 72
     1
 77
     1
171
     1
175
     1
179
     1
273
     0
  0
XRECORD
  5
4B5
102
{ACAD_REACTORS
330
4B4
102
}
330
4B4
100
AcDbXrecord
280
     1
102
MATERIAL
148
0.0
149
0.0
149
0.0
 93
        0
 94
      127
282
     0
 72
     1
 77
     1
171
     1
175
     1
179
     1
273
     0
  0
XRECORD
  5
4BB
102
{ACAD_REACTORS
330
4BA
102
}
330
4BA
100
AcDbXrecord
280
     1
102
ACAD_ROUNDTRIP_2010_MLEADER_STYLE
  0
CELLSTYLEMAP
  5
4B8
102
{ACAD_REACTORS
330
4B6
102
}
330
4B6
100
AcDbCellStyleMap
 90
        3
300
CELLSTYLE
  1
TABLEFORMAT_BEGIN
 90
        5
170
     1
 91
        0
 92
    32768
 62
   257
 93
        1
300
CONTENTFORMAT
  1
CONTENTFORMAT_BEGIN
 90
        0
 91
        0
 92
        4
 93
        0
300

 40
0.0
140
1.0
 94
        5
 62
     0
340
11
144
0.25
309
CONTENTFORMAT_END
171
     1
301
MARGIN
  1
CELLMARGIN_BEGIN
 40
0.06
 40
0.06
 40
0.06
 40
0.06
 40
0.06
 40
0.06
309
CELLMARGIN_END
 94
        6
 95
        1
302
GRIDFORMAT
  1
GRIDFORMAT_BEGIN
 90
        0
 91
        1
 62
     0
 92
       -2
340
14
 93
        0
 40
0.045
309
GRIDFORMAT_END
 95
        2
302
GRIDFORMAT
  1
GRIDFORMAT_BEGIN
 90
        0
 91
        1
 62
     0
 92
       -2
340
14
 93
        0
 40
0.045
309
GRIDFORMAT_END
 95
        4
302
GRIDFORMAT
  1
GRIDFORMAT_BEGIN
 90
        0
 91
        1
 62
     0
 92
       -2
340
14
 93
        0
 40
0.045
309
GRIDFORMAT_END
 95
        8
302
GRIDFORMAT
  1
GRIDFORMAT_BEGIN
 90
        0
 91
        1
 62
     0
 92
       -2
340
14
 93
        0
 40
0.045
309
GRIDFORMAT_END
 95
       16
302
GRIDFORMAT
  1
GRIDFORMAT_BEGIN
 90
        0
 91
        1
 62
     0
 92
       -2
340
14
 93
        0
 40
0.045
309
GRIDFORMAT_END
 95
       32
302
GRIDFORMAT
  1
GRIDFORMAT_BEGIN
 90
        0
 91
        1
 62
     0
 92
       -2
340
14
 93
        0
 40
0.045
309
GRIDFORMAT_END
309
TABLEFORMAT_END
  1
CELLSTYLE_BEGIN
 90
        1
 91
        1
300
_TITLE
309
CELLSTYLE_END
300
CELLSTYLE
  1
TABLEFORMAT_BEGIN
 90
        5
170
     1
 91
        0
 92
        0
 62
   257
 93
        1
300
CONTENTFORMAT
  1
CONTENTFORMAT_BEGIN
 90
        0
 91
        0
 92
        4
 93
        0
300

 40
0.0
140
1.0
 94
        5
 62
     0
340
11
144
0.18
309
CONTENTFORMAT_END
171
     1
301
MARGIN
  1
CELLMARGIN_BEGIN
 40
0.06
 40
0.06
 40
0.06
 40
0.06
 40
0.06
 40
0.06
309
CELLMARGIN_END
 94
        6
 95
        1
302
GRIDFORMAT
  1
GRIDFORMAT_BEGIN
 90
        0
 91
        1
 62
     0
 92
       -2
340
14
 93
        0
 40
0.045
309
GRIDFORMAT_END
 95
        2
302
GRIDFORMAT
  1
GRIDFORMAT_BEGIN
 90
        0
 91
        1
 62
     0
 92
       -2
340
14
 93
        0
 40
0.045
309
GRIDFORMAT_END
 95
        4
302
GRIDFORMAT
  1
GRIDFORMAT_BEGIN
 90
        0
 91
        1
 62
     0
 92
       -2
340
14
 93
        0
 40
0.045
309
GRIDFORMAT_END
 95
        8
302
GRIDFORMAT
  1
GRIDFORMAT_BEGIN
 90
        0
 91
        1
 62
     0
 92
       -2
340
14
 93
        0
 40
0.045
309
GRIDFORMAT_END
 95
       16
302
GRIDFORMAT
  1
GRIDFORMAT_BEGIN
 90
        0
 91
        1
 62
     0
 92
       -2
340
14
 93
        0
 40
0.045
309
GRIDFORMAT_END
 95
       32
302
GRIDFORMAT
  1
GRIDFORMAT_BEGIN
 90
        0
 91
        1
 62
     0
 92
       -2
340
14
 93
        0
 40
0.045
309
GRIDFORMAT_END
309
TABLEFORMAT_END
  1
CELLSTYLE_BEGIN
 90
        2
 91
        1
300
_HEADER
309
CELLSTYLE_END
300
CELLSTYLE
  1
TABLEFORMAT_BEGIN
 90
        5
170
     1
 91
        0
 92
        0
 62
   257
 93
        1
300
CONTENTFORMAT
  1
CONTENTFORMAT_BEGIN
 90
        0
 91
        0
 92
        4
 93
        0
300

 40
0.0
140
1.0
 94
        2
 62
     0
340
11
144
0.18
309
CONTENTFORMAT_END
171
     1
301
MARGIN
  1
CELLMARGIN_BEGIN
 40
0.06
 40
0.06
 40
0.06
 40
0.06
 40
0.06
 40
0.06
309
CELLMARGIN_END
 94
        6
 95
        1
302
GRIDFORMAT
  1
GRIDFORMAT_BEGIN
 90
        0
 91
        1
 62
     0
 92
       -2
340
14
 93
        0
 40
0.045
309
GRIDFORMAT_END
 95
        2
302
GRIDFORMAT
  1
GRIDFORMAT_BEGIN
 90
        0
 91
        1
 62
     0
 92
       -2
340
14
 93
        0
 40
0.045
309
GRIDFORMAT_END
 95
        4
302
GRIDFORMAT
  1
GRIDFORMAT_BEGIN
 90
        0
 91
        1
 62
     0
 92
       -2
340
14
 93
        0
 40
0.045
309
GRIDFORMAT_END
 95
        8
302
GRIDFORMAT
  1
GRIDFORMAT_BEGIN
 90
        0
 91
        1
 62
     0
 92
       -2
340
14
 93
        0
 40
0.045
309
GRIDFORMAT_END
 95
       16
302
GRIDFORMAT
  1
GRIDFORMAT_BEGIN
 90
        0
 91
        1
 62
     0
 92
       -2
340
14
 93
        0
 40
0.045
309
GRIDFORMAT_END
 95
       32
302
GRIDFORMAT
  1
GRIDFORMAT_BEGIN
 90
        0
 91
        1
 62
     0
 92
       -2
340
14
 93
        0
 40
0.045
309
GRIDFORMAT_END
309
TABLEFORMAT_END
  1
CELLSTYLE_BEGIN
 90
        3
 91
        2
300
_DATA
309
CELLSTYLE_END
  0
XRECORD
  5
4B7
102
{ACAD_REACTORS
330
4B6
102
}
330
4B6
100
AcDbXrecord
280
     1
102
ACAD_ROUNDTRIP_PRE2007_TABLESTYLE
 90
        4
 91
        0
  1

 92
        4
 93
        0
  2

 94
        4
 95
        0
  3

  0
XRECORD
  5
489
102
{ACAD_REACTORS
330
488
102
}
330
488
100
AcDbXrecord
280
     1
102
RTVSPropertyOp0
 70
     1
102
RTVSPropertyOp1
 70
     1
102
RTVSPropertyOp2
 70
     1
102
RTVSPropertyOp3
 70
     1
102
RTVSPropertyOp4
 70
     1
102
RTVSPropertyOp5
 70
     1
102
RTVSPropertyOp6
 70
     1
102
RTVSPropertyOp7
 70
     1
102
RTVSPropertyOp8
 70
     1
102
RTVSPropertyOp9
 70
     1
102
RTVSPropertyOp10
 70
     1
102
RTVSPropertyOp11
 70
     1
102
RTVSPropertyOp12
 70
     1
102
RTVSPropertyOp13
 70
     1
102
RTVSPropertyOp14
 70
     1
102
RTVSPropertyOp15
 70
     1
102
RTVSPropertyOp16
 70
     1
102
RTVSPropertyOp17
 70
     1
102
RTVSPropertyOp18
 70
     1
102
RTVSPropertyOp19
 70
     1
102
RTVSPropertyOp20
 70
     1
102
RTVSPropertyOp21
 70
     1
102
RTVSPropertyOp22
 70
     1
102
RTVSPropertyOp23
 70
     1
102
RTVSPropertyOp24
 70
     1
102
RTVSPropertyOp25
 70
     1
102
RTVSPropertyOp26
 70
     1
102
RTVSPropertyOp27
 70
     1
102
RTVSPropertyOp28
 70
     1
102
RTVSPropertyOp29
 70
     1
102
RTVSPropertyOp30
 70
     1
102
RTVSPropertyOp31
 70
     1
102
RTVSPropertyOp32
 70
     1
102
RTVSPropertyOp33
 70
     1
102
RTVSPropertyOp34
 70
     1
102
RTVSPropertyOp35
 70
     1
102
RTVSPropertyOp36
 70
     1
102
RTVSPropertyOp37
 70
     1
102
RTVSPropertyOp38
 70
     1
102
RTVSPropertyOp39
 70
     1
102
RTVSPropertyOp40
 70
     1
102
RTVSPropertyOp41
 70
     1
102
RTVSPropertyOp42
 70
     1
102
RTVSPropertyOp43
 70
     1
102
RTVSPropertyOp44
 70
     1
102
RTVSPropertyOp45
 70
     1
102
RTVSPropertyOp46
 70
     1
102
RTVSPropertyOp47
 70
     1
102
RTVSPropertyOp48
 70
     1
102
RTVSPropertyOp49
 70
     1
102
RTVSPropertyOp50
 70
     1
102
RTVSPropertyOp51
 70
     0
102
RTVSPropertyOp52
 70
     0
102
RTVSPropertyOp53
 70
     1
102
RTVSPropertyOp54
 70
     1
102
RTVSPropertyOp55
 70
     1
102
RTVSPropertyOp56
 70
     1
102
RTVSPropertyOp57
 70
     1
102
RTVSPost2010Prop28
280
     1
102
RTVSPost2010PropOp28
 70
     1
102
RTVSPost2010Prop29
280
     1
102
RTVSPost2010PropOp29
 70
     1
102
RTVSPost2010Prop30
280
     0
102
RTVSPost2010PropOp30
 70
     1
102
RTVSPost2010Prop31
280
     0
102
RTVSPost2010PropOp31
 70
     1
102
RTVSPost2010Prop32
280
     0
102
RTVSPost2010PropOp32
 70
     1
102
RTVSPost2010Prop33
280
     0
102
RTVSPost2010PropOp33
 70
     1
102
RTVSPost2010Prop34
280
     0
102
RTVSPost2010PropOp34
 70
     1
102
RTVSPost2010Prop35
280
     0
102
RTVSPost2010PropOp35
 70
     1
102
RTVSPost2010Prop36
280
     0
102
RTVSPost2010PropOp36
 70
     1
102
RTVSPost2010Prop37
 90
       50
102
RTVSPost2010PropOp37
 70
     1
102
RTVSPost2010Prop38
140
0.0
102
RTVSPost2010PropOp38
 70
     1
102
RTVSPost2010Prop39
140
1.0
102
RTVSPost2010PropOp39
 70
     1
102
RTVSPost2010Prop40
 90
        0
102
RTVSPost2010PropOp40
 70
     1
102
RTVSPost2010Prop41ColorIndex
 90
       18
102
RTVSPost2010Prop41ColorRGB
 90
        0
102
RTVSPost2010PropOp41
 70
     1
102
RTVSPost2010Prop42
 90
       50
102
RTVSPost2010PropOp42
 70
     1
102
RTVSPost2010Prop43
 90
        3
102
RTVSPost2010PropOp43
 70
     1
102
RTVSPost2010Prop44ColorIndex
 90
        5
102
RTVSPost2010Prop44ColorRGB
 90
      255
102
RTVSPost2010PropOp44
 70
     1
102
RTVSPost2010Prop45
280
     0
102
RTVSPost2010PropOp45
 70
     1
102
RTVSPost2010Prop46
 90
       50
102
RTVSPost2010PropOp46
 70
     1
102
RTVSPost2010Prop47
 90
       50
102
RTVSPost2010PropOp47
 70
     1
102
RTVSPost2010Prop48
 90
       50
102
RTVSPost2010PropOp48
 70
     1
102
RTVSPost2010Prop49
280
     0
102
RTVSPost2010PropOp49
 70
     1
102
RTVSPost2010Prop50
 90
       50
102
RTVSPost2010PropOp50
 70
     1
102
RTVSPost2010Prop51ColorIndex
 90
      256
102
RTVSPost2010Prop51ColorRGB
 90
-16777216
102
RTVSPost2010PropOp51
 70
     0
102
RTVSPost2010Prop52
140
1.0
102
RTVSPost2010PropOp52
 70
     0
102
RTVSPost2010Prop53
 90
        2
102
RTVSPost2010PropOp53
 70
     1
102
RTVSPost2010Prop54
  1
strokes_ogs.tif
102
RTVSPost2010PropOp54
 70
     1
102
RTVSPost2010Prop55
280
     0
102
RTVSPost2010PropOp55
 70
     1
102
RTVSPost2010Prop56
140
1.0
102
RTVSPost2010PropOp56
 70
     1
102
RTVSPost2010Prop57
140
1.0
102
RTVSPost2010PropOp57
 70
     1
  0
XRECORD
  5
48F
102
{ACAD_REACTORS
330
48E
102
}
330
48E
100
AcDbXrecord
280
     1
102
RTVSPropertyOp0
 70
     1
102
RTVSPropertyOp1
 70
     1
102
RTVSPropertyOp2
 70
     1
102
RTVSPropertyOp3
 70
     1
102
RTVSPropertyOp4
 70
     1
102
RTVSPropertyOp5
 70
     1
102
RTVSPropertyOp6
 70
     1
102
RTVSPropertyOp7
 70
     1
102
RTVSPropertyOp8
 70
     1
102
RTVSPropertyOp9
 70
     1
102
RTVSPropertyOp10
 70
     1
102
RTVSPropertyOp11
 70
     1
102
RTVSPropertyOp12
 70
     1
102
RTVSPropertyOp13
 70
     1
102
RTVSPropertyOp14
 70
     1
102
RTVSPropertyOp15
 70
     1
102
RTVSPropertyOp16
 70
     1
102
RTVSPropertyOp17
 70
     1
102
RTVSPropertyOp18
 70
     1
102
RTVSPropertyOp19
 70
     1
102
RTVSPropertyOp20
 70
     1
102
RTVSPropertyOp21
 70
     1
102
RTVSPropertyOp22
 70
     1
102
RTVSPropertyOp23
 70
     1
102
RTVSPropertyOp24
 70
     1
102
RTVSPropertyOp25
 70
     1
102
RTVSPropertyOp26
 70
     1
102
RTVSPropertyOp27
 70
     1
102
RTVSPropertyOp28
 70
     1
102
RTVSPropertyOp29
 70
     1
102
RTVSPropertyOp30
 70
     1
102
RTVSPropertyOp31
 70
     1
102
RTVSPropertyOp32
 70
     1
102
RTVSPropertyOp33
 70
     1
102
RTVSPropertyOp34
 70
     1
102
RTVSPropertyOp35
 70
     1
102
RTVSPropertyOp36
 70
     1
102
RTVSPropertyOp37
 70
     1
102
RTVSPropertyOp38
 70
     1
102
RTVSPropertyOp39
 70
     1
102
RTVSPropertyOp40
 70
     1
102
RTVSPropertyOp41
 70
     1
102
RTVSPropertyOp42
 70
     1
102
RTVSPropertyOp43
 70
     1
102
RTVSPropertyOp44
 70
     1
102
RTVSPropertyOp45
 70
     1
102
RTVSPropertyOp46
 70
     1
102
RTVSPropertyOp47
 70
     1
102
RTVSPropertyOp48
 70
     1
102
RTVSPropertyOp49
 70
     1
102
RTVSPropertyOp50
 70
     1
102
RTVSPropertyOp51
 70
     0
102
RTVSPropertyOp52
 70
     0
102
RTVSPropertyOp53
 70
     1
102
RTVSPropertyOp54
 70
     1
102
RTVSPropertyOp55
 70
     1
102
RTVSPropertyOp56
 70
     1
102
RTVSPropertyOp57
 70
     1
102
RTVSPost2010Prop28
280
     0
102
RTVSPost2010PropOp28
 70
     1
102
RTVSPost2010Prop29
280
     1
102
RTVSPost2010PropOp29
 70
     1
102
RTVSPost2010Prop30
280
     1
102
RTVSPost2010PropOp30
 70
     1
102
RTVSPost2010Prop31
280
     0
102
RTVSPost2010PropOp31
 70
     1
102
RTVSPost2010Prop32
280
     0
102
RTVSPost2010PropOp32
 70
     1
102
RTVSPost2010Prop33
280
     0
102
RTVSPost2010PropOp33
 70
     1
102
RTVSPost2010Prop34
280
     0
102
RTVSPost2010PropOp34
 70
     1
102
RTVSPost2010Prop35
280
     0
102
RTVSPost2010PropOp35
 70
     1
102
RTVSPost2010Prop36
280
     0
102
RTVSPost2010PropOp36
 70
     1
102
RTVSPost2010Prop37
 90
       50
102
RTVSPost2010PropOp37
 70
     1
102
RTVSPost2010Prop38
140
0.0
102
RTVSPost2010PropOp38
 70
     1
102
RTVSPost2010Prop39
140
1.0
102
RTVSPost2010PropOp39
 70
     1
102
RTVSPost2010Prop40
 90
        0
102
RTVSPost2010PropOp40
 70
     1
102
RTVSPost2010Prop41ColorIndex
 90
       18
102
RTVSPost2010Prop41ColorRGB
 90
        0
102
RTVSPost2010PropOp41
 70
     1
102
RTVSPost2010Prop42
 90
       50
102
RTVSPost2010PropOp42
 70
     1
102
RTVSPost2010Prop43
 90
        3
102
RTVSPost2010PropOp43
 70
     1
102
RTVSPost2010Prop44ColorIndex
 90
        5
102
RTVSPost2010Prop44ColorRGB
 90
      255
102
RTVSPost2010PropOp44
 70
     1
102
RTVSPost2010Prop45
280
     0
102
RTVSPost2010PropOp45
 70
     1
102
RTVSPost2010Prop46
 90
       50
102
RTVSPost2010PropOp46
 70
     1
102
RTVSPost2010Prop47
 90
       50
102
RTVSPost2010PropOp47
 70
     1
102
RTVSPost2010Prop48
 90
       50
102
RTVSPost2010PropOp48
 70
     1
102
RTVSPost2010Prop49
280
     0
102
RTVSPost2010PropOp49
 70
     1
102
RTVSPost2010Prop50
 90
       50
102
RTVSPost2010PropOp50
 70
     1
102
RTVSPost2010Prop51ColorIndex
 90
      256
102
RTVSPost2010Prop51ColorRGB
 90
-16777216
102
RTVSPost2010PropOp51
 70
     0
102
RTVSPost2010Prop52
140
1.0
102
RTVSPost2010PropOp52
 70
     0
102
RTVSPost2010Prop53
 90
        2
102
RTVSPost2010PropOp53
 70
     1
102
RTVSPost2010Prop54
  1
strokes_ogs.tif
102
RTVSPost2010PropOp54
 70
     1
102
RTVSPost2010Prop55
280
     0
102
RTVSPost2010PropOp55
 70
     1
102
RTVSPost2010Prop56
140
1.0
102
RTVSPost2010PropOp56
 70
     1
102
RTVSPost2010Prop57
140
1.0
102
RTVSPost2010PropOp57
 70
     1
  0
XRECORD
  5
497
102
{ACAD_REACTORS
330
496
102
}
330
496
100
AcDbXrecord
280
     1
102
RTVSPropertyOp0
 70
     1
102
RTVSPropertyOp1
 70
     1
102
RTVSPropertyOp2
 70
     1
102
RTVSPropertyOp3
 70
     1
102
RTVSPropertyOp4
 70
     1
102
RTVSPropertyOp5
 70
     1
102
RTVSPropertyOp6
 70
     1
102
RTVSPropertyOp7
 70
     1
102
RTVSPropertyOp8
 70
     1
102
RTVSPropertyOp9
 70
     1
102
RTVSPropertyOp10
 70
     1
102
RTVSPropertyOp11
 70
     1
102
RTVSPropertyOp12
 70
     1
102
RTVSPropertyOp13
 70
     1
102
RTVSPropertyOp14
 70
     1
102
RTVSPropertyOp15
 70
     1
102
RTVSPropertyOp16
 70
     1
102
RTVSPropertyOp17
 70
     1
102
RTVSPropertyOp18
 70
     1
102
RTVSPropertyOp19
 70
     1
102
RTVSPropertyOp20
 70
     1
102
RTVSPropertyOp21
 70
     1
102
RTVSPropertyOp22
 70
     1
102
RTVSPropertyOp23
 70
     1
102
RTVSPropertyOp24
 70
     1
102
RTVSPropertyOp25
 70
     1
102
RTVSPropertyOp26
 70
     1
102
RTVSPropertyOp27
 70
     1
102
RTVSPropertyOp28
 70
     1
102
RTVSPropertyOp29
 70
     1
102
RTVSPropertyOp30
 70
     1
102
RTVSPropertyOp31
 70
     1
102
RTVSPropertyOp32
 70
     1
102
RTVSPropertyOp33
 70
     1
102
RTVSPropertyOp34
 70
     1
102
RTVSPropertyOp35
 70
     1
102
RTVSPropertyOp36
 70
     1
102
RTVSPropertyOp37
 70
     1
102
RTVSPropertyOp38
 70
     1
102
RTVSPropertyOp39
 70
     1
102
RTVSPropertyOp40
 70
     1
102
RTVSPropertyOp41
 70
     1
102
RTVSPropertyOp42
 70
     1
102
RTVSPropertyOp43
 70
     1
102
RTVSPropertyOp44
 70
     1
102
RTVSPropertyOp45
 70
     1
102
RTVSPropertyOp46
 70
     1
102
RTVSPropertyOp47
 70
     1
102
RTVSPropertyOp48
 70
     1
102
RTVSPropertyOp49
 70
     1
102
RTVSPropertyOp50
 70
     1
102
RTVSPropertyOp51
 70
     0
102
RTVSPropertyOp52
 70
     0
102
RTVSPropertyOp53
 70
     1
102
RTVSPropertyOp54
 70
     1
102
RTVSPropertyOp55
 70
     1
102
RTVSPropertyOp56
 70
     1
102
RTVSPropertyOp57
 70
     1
102
RTVSPost2010Prop28
280
     0
102
RTVSPost2010PropOp28
 70
     1
102
RTVSPost2010Prop29
280
     1
102
RTVSPost2010PropOp29
 70
     1
102
RTVSPost2010Prop30
280
     1
102
RTVSPost2010PropOp30
 70
     1
102
RTVSPost2010Prop31
280
     0
102
RTVSPost2010PropOp31
 70
     1
102
RTVSPost2010Prop32
280
     0
102
RTVSPost2010PropOp32
 70
     1
102
RTVSPost2010Prop33
280
     0
102
RTVSPost2010PropOp33
 70
     1
102
RTVSPost2010Prop34
280
     0
102
RTVSPost2010PropOp34
 70
     1
102
RTVSPost2010Prop35
280
     0
102
RTVSPost2010PropOp35
 70
     1
102
RTVSPost2010Prop36
280
     0
102
RTVSPost2010PropOp36
 70
     1
102
RTVSPost2010Prop37
 90
       50
102
RTVSPost2010PropOp37
 70
     1
102
RTVSPost2010Prop38
140
0.0
102
RTVSPost2010PropOp38
 70
     1
102
RTVSPost2010Prop39
140
1.0
102
RTVSPost2010PropOp39
 70
     1
102
RTVSPost2010Prop40
 90
        0
102
RTVSPost2010PropOp40
 70
     1
102
RTVSPost2010Prop41ColorIndex
 90
       18
102
RTVSPost2010Prop41ColorRGB
 90
        0
102
RTVSPost2010PropOp41
 70
     1
102
RTVSPost2010Prop42
 90
       50
102
RTVSPost2010PropOp42
 70
     1
102
RTVSPost2010Prop43
 90
        3
102
RTVSPost2010PropOp43
 70
     1
102
RTVSPost2010Prop44ColorIndex
 90
        5
102
RTVSPost2010Prop44ColorRGB
 90
      255
102
RTVSPost2010PropOp44
 70
     1
102
RTVSPost2010Prop45
280
     0
102
RTVSPost2010PropOp45
 70
     1
102
RTVSPost2010Prop46
 90
       50
102
RTVSPost2010PropOp46
 70
     1
102
RTVSPost2010Prop47
 90
       50
102
RTVSPost2010PropOp47
 70
     1
102
RTVSPost2010Prop48
 90
       50
102
RTVSPost2010PropOp48
 70
     1
102
RTVSPost2010Prop49
280
     0
102
RTVSPost2010PropOp49
 70
     1
102
RTVSPost2010Prop50
 90
       50
102
RTVSPost2010PropOp50
 70
     1
102
RTVSPost2010Prop51ColorIndex
 90
      256
102
RTVSPost2010Prop51ColorRGB
 90
-16777216
102
RTVSPost2010PropOp51
 70
     0
102
RTVSPost2010Prop52
140
1.0
102
RTVSPost2010PropOp52
 70
     0
102
RTVSPost2010Prop53
 90
        2
102
RTVSPost2010PropOp53
 70
     1
102
RTVSPost2010Prop54
  1
strokes_ogs.tif
102
RTVSPost2010PropOp54
 70
     1
102
RTVSPost2010Prop55
280
     0
102
RTVSPost2010PropOp55
 70
     1
102
RTVSPost2010Prop56
140
1.0
102
RTVSPost2010PropOp56
 70
     1
102
RTVSPost2010Prop57
140
1.0
102
RTVSPost2010PropOp57
 70
     1
  0
XRECORD
  5
49F
102
{ACAD_REACTORS
330
49E
102
}
330
49E
100
AcDbXrecord
280
     1
102
RTVSPropertyOp0
 70
     1
102
RTVSPropertyOp1
 70
     1
102
RTVSPropertyOp2
 70
     1
102
RTVSPropertyOp3
 70
     1
102
RTVSPropertyOp4
 70
     1
102
RTVSPropertyOp5
 70
     1
102
RTVSPropertyOp6
 70
     1
102
RTVSPropertyOp7
 70
     1
102
RTVSPropertyOp8
 70
     1
102
RTVSPropertyOp9
 70
     1
102
RTVSPropertyOp10
 70
     1
102
RTVSPropertyOp11
 70
     1
102
RTVSPropertyOp12
 70
     1
102
RTVSPropertyOp13
 70
     1
102
RTVSPropertyOp14
 70
     1
102
RTVSPropertyOp15
 70
     1
102
RTVSPropertyOp16
 70
     1
102
RTVSPropertyOp17
 70
     1
102
RTVSPropertyOp18
 70
     1
102
RTVSPropertyOp19
 70
     1
102
RTVSPropertyOp20
 70
     1
102
RTVSPropertyOp21
 70
     1
102
RTVSPropertyOp22
 70
     1
102
RTVSPropertyOp23
 70
     1
102
RTVSPropertyOp24
 70
     1
102
RTVSPropertyOp25
 70
     1
102
RTVSPropertyOp26
 70
     1
102
RTVSPropertyOp27
 70
     1
102
RTVSPropertyOp28
 70
     1
102
RTVSPropertyOp29
 70
     1
102
RTVSPropertyOp30
 70
     1
102
RTVSPropertyOp31
 70
     1
102
RTVSPropertyOp32
 70
     1
102
RTVSPropertyOp33
 70
     1
102
RTVSPropertyOp34
 70
     1
102
RTVSPropertyOp35
 70
     1
102
RTVSPropertyOp36
 70
     1
102
RTVSPropertyOp37
 70
     1
102
RTVSPropertyOp38
 70
     1
102
RTVSPropertyOp39
 70
     1
102
RTVSPropertyOp40
 70
     1
102
RTVSPropertyOp41
 70
     1
102
RTVSPropertyOp42
 70
     1
102
RTVSPropertyOp43
 70
     1
102
RTVSPropertyOp44
 70
     1
102
RTVSPropertyOp45
 70
     1
102
RTVSPropertyOp46
 70
     1
102
RTVSPropertyOp47
 70
     1
102
RTVSPropertyOp48
 70
     1
102
RTVSPropertyOp49
 70
     1
102
RTVSPropertyOp50
 70
     1
102
RTVSPropertyOp51
 70
     0
102
RTVSPropertyOp52
 70
     0
102
RTVSPropertyOp53
 70
     1
102
RTVSPropertyOp54
 70
     1
102
RTVSPropertyOp55
 70
     1
102
RTVSPropertyOp56
 70
     1
102
RTVSPropertyOp57
 70
     1
102
RTVSPost2010Prop28
280
     0
102
RTVSPost2010PropOp28
 70
     1
102
RTVSPost2010Prop29
280
     1
102
RTVSPost2010PropOp29
 70
     1
102
RTVSPost2010Prop30
280
     1
102
RTVSPost2010PropOp30
 70
     1
102
RTVSPost2010Prop31
280
     0
102
RTVSPost2010PropOp31
 70
     1
102
RTVSPost2010Prop32
280
     0
102
RTVSPost2010PropOp32
 70
     1
102
RTVSPost2010Prop33
280
     0
102
RTVSPost2010PropOp33
 70
     1
102
RTVSPost2010Prop34
280
     0
102
RTVSPost2010PropOp34
 70
     1
102
RTVSPost2010Prop35
280
     0
102
RTVSPost2010PropOp35
 70
     1
102
RTVSPost2010Prop36
280
     0
102
RTVSPost2010PropOp36
 70
     1
102
RTVSPost2010Prop37
 90
       50
102
RTVSPost2010PropOp37
 70
     1
102
RTVSPost2010Prop38
140
0.0
102
RTVSPost2010PropOp38
 70
     1
102
RTVSPost2010Prop39
140
1.0
102
RTVSPost2010PropOp39
 70
     1
102
RTVSPost2010Prop40
 90
        0
102
RTVSPost2010PropOp40
 70
     1
102
RTVSPost2010Prop41ColorIndex
 90
       18
102
RTVSPost2010Prop41ColorRGB
 90
        0
102
RTVSPost2010PropOp41
 70
     1
102
RTVSPost2010Prop42
 90
       50
102
RTVSPost2010PropOp42
 70
     1
102
RTVSPost2010Prop43
 90
        3
102
RTVSPost2010PropOp43
 70
     1
102
RTVSPost2010Prop44ColorIndex
 90
        5
102
RTVSPost2010Prop44ColorRGB
 90
      255
102
RTVSPost2010PropOp44
 70
     1
102
RTVSPost2010Prop45
280
     0
102
RTVSPost2010PropOp45
 70
     1
102
RTVSPost2010Prop46
 90
       50
102
RTVSPost2010PropOp46
 70
     1
102
RTVSPost2010Prop47
 90
       50
102
RTVSPost2010PropOp47
 70
     1
102
RTVSPost2010Prop48
 90
       50
102
RTVSPost2010PropOp48
 70
     1
102
RTVSPost2010Prop49
280
     0
102
RTVSPost2010PropOp49
 70
     1
102
RTVSPost2010Prop50
 90
       50
102
RTVSPost2010PropOp50
 70
     1
102
RTVSPost2010Prop51ColorIndex
 90
      256
102
RTVSPost2010Prop51ColorRGB
 90
-16777216
102
RTVSPost2010PropOp51
 70
     0
102
RTVSPost2010Prop52
140
1.0
102
RTVSPost2010PropOp52
 70
     0
102
RTVSPost2010Prop53
 90
        2
102
RTVSPost2010PropOp53
 70
     1
102
RTVSPost2010Prop54
  1
strokes_ogs.tif
102
RTVSPost2010PropOp54
 70
     1
102
RTVSPost2010Prop55
280
     0
102
RTVSPost2010PropOp55
 70
     1
102
RTVSPost2010Prop56
140
1.0
102
RTVSPost2010PropOp56
 70
     1
102
RTVSPost2010Prop57
140
1.0
102
RTVSPost2010PropOp57
 70
     1
  0
XRECORD
  5
493
102
{ACAD_REACTORS
330
492
102
}
330
492
100
AcDbXrecord
280
     1
102
RTVSPropertyOp0
 70
     1
102
RTVSPropertyOp1
 70
     1
102
RTVSPropertyOp2
 70
     1
102
RTVSPropertyOp3
 70
     1
102
RTVSPropertyOp4
 70
     1
102
RTVSPropertyOp5
 70
     1
102
RTVSPropertyOp6
 70
     1
102
RTVSPropertyOp7
 70
     1
102
RTVSPropertyOp8
 70
     1
102
RTVSPropertyOp9
 70
     1
102
RTVSPropertyOp10
 70
     1
102
RTVSPropertyOp11
 70
     1
102
RTVSPropertyOp12
 70
     1
102
RTVSPropertyOp13
 70
     1
102
RTVSPropertyOp14
 70
     1
102
RTVSPropertyOp15
 70
     1
102
RTVSPropertyOp16
 70
     1
102
RTVSPropertyOp17
 70
     1
102
RTVSPropertyOp18
 70
     1
102
RTVSPropertyOp19
 70
     1
102
RTVSPropertyOp20
 70
     1
102
RTVSPropertyOp21
 70
     1
102
RTVSPropertyOp22
 70
     1
102
RTVSPropertyOp23
 70
     1
102
RTVSPropertyOp24
 70
     1
102
RTVSPropertyOp25
 70
     1
102
RTVSPropertyOp26
 70
     1
102
RTVSPropertyOp27
 70
     1
102
RTVSPropertyOp28
 70
     1
102
RTVSPropertyOp29
 70
     1
102
RTVSPropertyOp30
 70
     1
102
RTVSPropertyOp31
 70
     1
102
RTVSPropertyOp32
 70
     1
102
RTVSPropertyOp33
 70
     1
102
RTVSPropertyOp34
 70
     1
102
RTVSPropertyOp35
 70
     1
102
RTVSPropertyOp36
 70
     1
102
RTVSPropertyOp37
 70
     1
102
RTVSPropertyOp38
 70
     1
102
RTVSPropertyOp39
 70
     1
102
RTVSPropertyOp40
 70
     1
102
RTVSPropertyOp41
 70
     1
102
RTVSPropertyOp42
 70
     1
102
RTVSPropertyOp43
 70
     1
102
RTVSPropertyOp44
 70
     1
102
RTVSPropertyOp45
 70
     1
102
RTVSPropertyOp46
 70
     1
102
RTVSPropertyOp47
 70
     1
102
RTVSPropertyOp48
 70
     1
102
RTVSPropertyOp49
 70
     1
102
RTVSPropertyOp50
 70
     1
102
RTVSPropertyOp51
 70
     0
102
RTVSPropertyOp52
 70
     0
102
RTVSPropertyOp53
 70
     1
102
RTVSPropertyOp54
 70
     1
102
RTVSPropertyOp55
 70
     1
102
RTVSPropertyOp56
 70
     1
102
RTVSPropertyOp57
 70
     1
102
RTVSPost2010Prop28
280
     0
102
RTVSPost2010PropOp28
 70
     1
102
RTVSPost2010Prop29
280
     1
102
RTVSPost2010PropOp29
 70
     1
102
RTVSPost2010Prop30
280
     1
102
RTVSPost2010PropOp30
 70
     1
102
RTVSPost2010Prop31
280
     0
102
RTVSPost2010PropOp31
 70
     1
102
RTVSPost2010Prop32
280
     0
102
RTVSPost2010PropOp32
 70
     1
102
RTVSPost2010Prop33
280
     0
102
RTVSPost2010PropOp33
 70
     1
102
RTVSPost2010Prop34
280
     0
102
RTVSPost2010PropOp34
 70
     1
102
RTVSPost2010Prop35
280
     0
102
RTVSPost2010PropOp35
 70
     1
102
RTVSPost2010Prop36
280
     0
102
RTVSPost2010PropOp36
 70
     1
102
RTVSPost2010Prop37
 90
       50
102
RTVSPost2010PropOp37
 70
     1
102
RTVSPost2010Prop38
140
0.0
102
RTVSPost2010PropOp38
 70
     1
102
RTVSPost2010Prop39
140
1.0
102
RTVSPost2010PropOp39
 70
     1
102
RTVSPost2010Prop40
 90
        0
102
RTVSPost2010PropOp40
 70
     1
102
RTVSPost2010Prop41ColorIndex
 90
       18
102
RTVSPost2010Prop41ColorRGB
 90
        0
102
RTVSPost2010PropOp41
 70
     1
102
RTVSPost2010Prop42
 90
       50
102
RTVSPost2010PropOp42
 70
     1
102
RTVSPost2010Prop43
 90
        3
102
RTVSPost2010PropOp43
 70
     1
102
RTVSPost2010Prop44ColorIndex
 90
        5
102
RTVSPost2010Prop44ColorRGB
 90
      255
102
RTVSPost2010PropOp44
 70
     1
102
RTVSPost2010Prop45
280
     0
102
RTVSPost2010PropOp45
 70
     1
102
RTVSPost2010Prop46
 90
       50
102
RTVSPost2010PropOp46
 70
     1
102
RTVSPost2010Prop47
 90
       50
102
RTVSPost2010PropOp47
 70
     1
102
RTVSPost2010Prop48
 90
       50
102
RTVSPost2010PropOp48
 70
     1
102
RTVSPost2010Prop49
280
     0
102
RTVSPost2010PropOp49
 70
     1
102
RTVSPost2010Prop50
 90
       50
102
RTVSPost2010PropOp50
 70
     1
102
RTVSPost2010Prop51ColorIndex
 90
      256
102
RTVSPost2010Prop51ColorRGB
 90
-16777216
102
RTVSPost2010PropOp51
 70
     0
102
RTVSPost2010Prop52
140
1.0
102
RTVSPost2010PropOp52
 70
     0
102
RTVSPost2010Prop53
 90
        2
102
RTVSPost2010PropOp53
 70
     1
102
RTVSPost2010Prop54
  1
strokes_ogs.tif
102
RTVSPost2010PropOp54
 70
     1
102
RTVSPost2010Prop55
280
     0
102
RTVSPost2010PropOp55
 70
     1
102
RTVSPost2010Prop56
140
1.0
102
RTVSPost2010PropOp56
 70
     1
102
RTVSPost2010Prop57
140
1.0
102
RTVSPost2010PropOp57
 70
     1
  0
XRECORD
  5
495
102
{ACAD_REACTORS
330
494
102
}
330
494
100
AcDbXrecord
280
     1
102
RTVSPropertyOp0
 70
     1
102
RTVSPropertyOp1
 70
     1
102
RTVSPropertyOp2
 70
     1
102
RTVSPropertyOp3
 70
     1
102
RTVSPropertyOp4
 70
     1
102
RTVSPropertyOp5
 70
     1
102
RTVSPropertyOp6
 70
     1
102
RTVSPropertyOp7
 70
     1
102
RTVSPropertyOp8
 70
     1
102
RTVSPropertyOp9
 70
     1
102
RTVSPropertyOp10
 70
     1
102
RTVSPropertyOp11
 70
     1
102
RTVSPropertyOp12
 70
     1
102
RTVSPropertyOp13
 70
     1
102
RTVSPropertyOp14
 70
     1
102
RTVSPropertyOp15
 70
     1
102
RTVSPropertyOp16
 70
     1
102
RTVSPropertyOp17
 70
     1
102
RTVSPropertyOp18
 70
     1
102
RTVSPropertyOp19
 70
     1
102
RTVSPropertyOp20
 70
     1
102
RTVSPropertyOp21
 70
     1
102
RTVSPropertyOp22
 70
     1
102
RTVSPropertyOp23
 70
     1
102
RTVSPropertyOp24
 70
     1
102
RTVSPropertyOp25
 70
     1
102
RTVSPropertyOp26
 70
     1
102
RTVSPropertyOp27
 70
     1
102
RTVSPropertyOp28
 70
     1
102
RTVSPropertyOp29
 70
     1
102
RTVSPropertyOp30
 70
     1
102
RTVSPropertyOp31
 70
     1
102
RTVSPropertyOp32
 70
     1
102
RTVSPropertyOp33
 70
     1
102
RTVSPropertyOp34
 70
     1
102
RTVSPropertyOp35
 70
     1
102
RTVSPropertyOp36
 70
     1
102
RTVSPropertyOp37
 70
     1
102
RTVSPropertyOp38
 70
     1
102
RTVSPropertyOp39
 70
     1
102
RTVSPropertyOp40
 70
     1
102
RTVSPropertyOp41
 70
     1
102
RTVSPropertyOp42
 70
     1
102
RTVSPropertyOp43
 70
     1
102
RTVSPropertyOp44
 70
     1
102
RTVSPropertyOp45
 70
     1
102
RTVSPropertyOp46
 70
     1
102
RTVSPropertyOp47
 70
     1
102
RTVSPropertyOp48
 70
     1
102
RTVSPropertyOp49
 70
     1
102
RTVSPropertyOp50
 70
     1
102
RTVSPropertyOp51
 70
     0
102
RTVSPropertyOp52
 70
     0
102
RTVSPropertyOp53
 70
     1
102
RTVSPropertyOp54
 70
     1
102
RTVSPropertyOp55
 70
     1
102
RTVSPropertyOp56
 70
     1
102
RTVSPropertyOp57
 70
     1
102
RTVSPost2010Prop28
280
     0
102
RTVSPost2010PropOp28
 70
     1
102
RTVSPost2010Prop29
280
     1
102
RTVSPost2010PropOp29
 70
     1
102
RTVSPost2010Prop30
280
     1
102
RTVSPost2010PropOp30
 70
     1
102
RTVSPost2010Prop31
280
     0
102
RTVSPost2010PropOp31
 70
     1
102
RTVSPost2010Prop32
280
     0
102
RTVSPost2010PropOp32
 70
     1
102
RTVSPost2010Prop33
280
     0
102
RTVSPost2010PropOp33
 70
     1
102
RTVSPost2010Prop34
280
     0
102
RTVSPost2010PropOp34
 70
     1
102
RTVSPost2010Prop35
280
     0
102
RTVSPost2010PropOp35
 70
     1
102
RTVSPost2010Prop36
280
     0
102
RTVSPost2010PropOp36
 70
     1
102
RTVSPost2010Prop37
 90
       50
102
RTVSPost2010PropOp37
 70
     1
102
RTVSPost2010Prop38
140
0.0
102
RTVSPost2010PropOp38
 70
     1
102
RTVSPost2010Prop39
140
1.0
102
RTVSPost2010PropOp39
 70
     1
102
RTVSPost2010Prop40
 90
        0
102
RTVSPost2010PropOp40
 70
     1
102
RTVSPost2010Prop41ColorIndex
 90
       18
102
RTVSPost2010Prop41ColorRGB
 90
        0
102
RTVSPost2010PropOp41
 70
     1
102
RTVSPost2010Prop42
 90
       50
102
RTVSPost2010PropOp42
 70
     1
102
RTVSPost2010Prop43
 90
        3
102
RTVSPost2010PropOp43
 70
     1
102
RTVSPost2010Prop44ColorIndex
 90
        5
102
RTVSPost2010Prop44ColorRGB
 90
      255
102
RTVSPost2010PropOp44
 70
     1
102
RTVSPost2010Prop45
280
     0
102
RTVSPost2010PropOp45
 70
     1
102
RTVSPost2010Prop46
 90
       50
102
RTVSPost2010PropOp46
 70
     1
102
RTVSPost2010Prop47
 90
       50
102
RTVSPost2010PropOp47
 70
     1
102
RTVSPost2010Prop48
 90
       50
102
RTVSPost2010PropOp48
 70
     1
102
RTVSPost2010Prop49
280
     0
102
RTVSPost2010PropOp49
 70
     1
102
RTVSPost2010Prop50
 90
       50
102
RTVSPost2010PropOp50
 70
     1
102
RTVSPost2010Prop51ColorIndex
 90
      256
102
RTVSPost2010Prop51ColorRGB
 90
-16777216
102
RTVSPost2010PropOp51
 70
     0
102
RTVSPost2010Prop52
140
1.0
102
RTVSPost2010PropOp52
 70
     0
102
RTVSPost2010Prop53
 90
        2
102
RTVSPost2010PropOp53
 70
     1
102
RTVSPost2010Prop54
  1
strokes_ogs.tif
102
RTVSPost2010PropOp54
 70
     1
102
RTVSPost2010Prop55
280
     0
102
RTVSPost2010PropOp55
 70
     1
102
RTVSPost2010Prop56
140
1.0
102
RTVSPost2010PropOp56
 70
     1
102
RTVSPost2010Prop57
140
1.0
102
RTVSPost2010PropOp57
 70
     1
  0
XRECORD
  5
4A5
102
{ACAD_REACTORS
330
4A4
102
}
330
4A4
100
AcDbXrecord
280
     1
102
RTVSPropertyOp0
 70
     0
102
RTVSPropertyOp1
 70
     0
102
RTVSPropertyOp2
 70
     0
102
RTVSPropertyOp3
 70
     0
102
RTVSPropertyOp4
 70
     0
102
RTVSPropertyOp5
 70
     0
102
RTVSPropertyOp6
 70
     0
102
RTVSPropertyOp7
 70
     0
102
RTVSPropertyOp8
 70
     0
102
RTVSPropertyOp9
 70
     0
102
RTVSPropertyOp10
 70
     0
102
RTVSPropertyOp11
 70
     0
102
RTVSPropertyOp12
 70
     0
102
RTVSPropertyOp13
 70
     0
102
RTVSPropertyOp14
 70
     2
102
RTVSPropertyOp15
 70
     0
102
RTVSPropertyOp16
 70
     0
102
RTVSPropertyOp17
 70
     0
102
RTVSPropertyOp18
 70
     0
102
RTVSPropertyOp19
 70
     0
102
RTVSPropertyOp20
 70
     0
102
RTVSPropertyOp21
 70
     0
102
RTVSPropertyOp22
 70
     0
102
RTVSPropertyOp23
 70
     0
102
RTVSPropertyOp24
 70
     0
102
RTVSPropertyOp25
 70
     0
102
RTVSPropertyOp26
 70
     0
102
RTVSPropertyOp27
 70
     0
102
RTVSPropertyOp28
 70
     0
102
RTVSPropertyOp29
 70
     0
102
RTVSPropertyOp30
 70
     0
102
RTVSPropertyOp31
 70
     0
102
RTVSPropertyOp32
 70
     0
102
RTVSPropertyOp33
 70
     0
102
RTVSPropertyOp34
 70
     0
102
RTVSPropertyOp35
 70
     0
102
RTVSPropertyOp36
 70
     0
102
RTVSPropertyOp37
 70
     0
102
RTVSPropertyOp38
 70
     0
102
RTVSPropertyOp39
 70
     0
102
RTVSPropertyOp40
 70
     0
102
RTVSPropertyOp41
 70
     0
102
RTVSPropertyOp42
 70
     0
102
RTVSPropertyOp43
 70
     0
102
RTVSPropertyOp44
 70
     0
102
RTVSPropertyOp45
 70
     0
102
RTVSPropertyOp46
 70
     0
102
RTVSPropertyOp47
 70
     0
102
RTVSPropertyOp48
 70
     0
102
RTVSPropertyOp49
 70
     0
102
RTVSPropertyOp50
 70
     0
102
RTVSPropertyOp51
 70
     0
102
RTVSPropertyOp52
 70
     0
102
RTVSPropertyOp53
 70
     0
102
RTVSPropertyOp54
 70
     0
102
RTVSPropertyOp55
 70
     0
102
RTVSPropertyOp56
 70
     0
102
RTVSPropertyOp57
 70
     0
102
RTVSPost2010Prop28
280
     0
102
RTVSPost2010PropOp28
 70
     0
102
RTVSPost2010Prop29
280
     1
102
RTVSPost2010PropOp29
 70
     0
102
RTVSPost2010Prop30
280
     1
102
RTVSPost2010PropOp30
 70
     0
102
RTVSPost2010Prop31
280
     0
102
RTVSPost2010PropOp31
 70
     0
102
RTVSPost2010Prop32
280
     0
102
RTVSPost2010PropOp32
 70
     0
102
RTVSPost2010Prop33
280
     0
102
RTVSPost2010PropOp33
 70
     0
102
RTVSPost2010Prop34
280
     0
102
RTVSPost2010PropOp34
 70
     0
102
RTVSPost2010Prop35
280
     0
102
RTVSPost2010PropOp35
 70
     0
102
RTVSPost2010Prop36
280
     0
102
RTVSPost2010PropOp36
 70
     0
102
RTVSPost2010Prop37
 90
       50
102
RTVSPost2010PropOp37
 70
     0
102
RTVSPost2010Prop38
140
0.0
102
RTVSPost2010PropOp38
 70
     0
102
RTVSPost2010Prop39
140
1.0
102
RTVSPost2010PropOp39
 70
     0
102
RTVSPost2010Prop40
 90
        0
102
RTVSPost2010PropOp40
 70
     0
102
RTVSPost2010Prop41ColorIndex
 90
       18
102
RTVSPost2010Prop41ColorRGB
 90
        0
102
RTVSPost2010PropOp41
 70
     0
102
RTVSPost2010Prop42
 90
       50
102
RTVSPost2010PropOp42
 70
     0
102
RTVSPost2010Prop43
 90
        3
102
RTVSPost2010PropOp43
 70
     0
102
RTVSPost2010Prop44ColorIndex
 90
        5
102
RTVSPost2010Prop44ColorRGB
 90
      255
102
RTVSPost2010PropOp44
 70
     0
102
RTVSPost2010Prop45
280
     0
102
RTVSPost2010PropOp45
 70
     0
102
RTVSPost2010Prop46
 90
       50
102
RTVSPost2010PropOp46
 70
     0
102
RTVSPost2010Prop47
 90
       50
102
RTVSPost2010PropOp47
 70
     0
102
RTVSPost2010Prop48
 90
       50
102
RTVSPost2010PropOp48
 70
     0
102
RTVSPost2010Prop49
280
     0
102
RTVSPost2010PropOp49
 70
     0
102
RTVSPost2010Prop50
 90
       50
102
RTVSPost2010PropOp50
 70
     0
102
RTVSPost2010Prop51ColorIndex
 90
      256
102
RTVSPost2010Prop51ColorRGB
 90
-16777216
102
RTVSPost2010PropOp51
 70
     0
102
RTVSPost2010Prop52
140
1.0
102
RTVSPost2010PropOp52
 70
     0
102
RTVSPost2010Prop53
 90
        2
102
RTVSPost2010PropOp53
 70
     0
102
RTVSPost2010Prop54
  1
strokes_ogs.tif
102
RTVSPost2010PropOp54
 70
     0
102
RTVSPost2010Prop55
280
     0
102
RTVSPost2010PropOp55
 70
     0
102
RTVSPost2010Prop56
140
1.0
102
RTVSPost2010PropOp56
 70
     0
102
RTVSPost2010Prop57
140
1.0
102
RTVSPost2010PropOp57
 70
     0
  0
XRECORD
  5
49D
102
{ACAD_REACTORS
330
49C
102
}
330
49C
100
AcDbXrecord
280
     1
102
RTVSPropertyOp0
 70
     1
102
RTVSPropertyOp1
 70
     1
102
RTVSPropertyOp2
 70
     1
102
RTVSPropertyOp3
 70
     1
102
RTVSPropertyOp4
 70
     1
102
RTVSPropertyOp5
 70
     1
102
RTVSPropertyOp6
 70
     1
102
RTVSPropertyOp7
 70
     1
102
RTVSPropertyOp8
 70
     1
102
RTVSPropertyOp9
 70
     1
102
RTVSPropertyOp10
 70
     1
102
RTVSPropertyOp11
 70
     1
102
RTVSPropertyOp12
 70
     1
102
RTVSPropertyOp13
 70
     1
102
RTVSPropertyOp14
 70
     1
102
RTVSPropertyOp15
 70
     1
102
RTVSPropertyOp16
 70
     1
102
RTVSPropertyOp17
 70
     1
102
RTVSPropertyOp18
 70
     1
102
RTVSPropertyOp19
 70
     1
102
RTVSPropertyOp20
 70
     1
102
RTVSPropertyOp21
 70
     1
102
RTVSPropertyOp22
 70
     1
102
RTVSPropertyOp23
 70
     1
102
RTVSPropertyOp24
 70
     1
102
RTVSPropertyOp25
 70
     1
102
RTVSPropertyOp26
 70
     1
102
RTVSPropertyOp27
 70
     1
102
RTVSPropertyOp28
 70
     1
102
RTVSPropertyOp29
 70
     1
102
RTVSPropertyOp30
 70
     1
102
RTVSPropertyOp31
 70
     1
102
RTVSPropertyOp32
 70
     1
102
RTVSPropertyOp33
 70
     1
102
RTVSPropertyOp34
 70
     1
102
RTVSPropertyOp35
 70
     1
102
RTVSPropertyOp36
 70
     1
102
RTVSPropertyOp37
 70
     1
102
RTVSPropertyOp38
 70
     1
102
RTVSPropertyOp39
 70
     1
102
RTVSPropertyOp40
 70
     1
102
RTVSPropertyOp41
 70
     1
102
RTVSPropertyOp42
 70
     1
102
RTVSPropertyOp43
 70
     1
102
RTVSPropertyOp44
 70
     1
102
RTVSPropertyOp45
 70
     1
102
RTVSPropertyOp46
 70
     1
102
RTVSPropertyOp47
 70
     1
102
RTVSPropertyOp48
 70
     1
102
RTVSPropertyOp49
 70
     1
102
RTVSPropertyOp50
 70
     1
102
RTVSPropertyOp51
 70
     0
102
RTVSPropertyOp52
 70
     0
102
RTVSPropertyOp53
 70
     1
102
RTVSPropertyOp54
 70
     1
102
RTVSPropertyOp55
 70
     1
102
RTVSPropertyOp56
 70
     1
102
RTVSPropertyOp57
 70
     1
102
RTVSPost2010Prop28
280
     0
102
RTVSPost2010PropOp28
 70
     1
102
RTVSPost2010Prop29
280
     1
102
RTVSPost2010PropOp29
 70
     1
102
RTVSPost2010Prop30
280
     1
102
RTVSPost2010PropOp30
 70
     1
102
RTVSPost2010Prop31
280
     0
102
RTVSPost2010PropOp31
 70
     1
102
RTVSPost2010Prop32
280
     0
102
RTVSPost2010PropOp32
 70
     1
102
RTVSPost2010Prop33
280
     0
102
RTVSPost2010PropOp33
 70
     1
102
RTVSPost2010Prop34
280
     0
102
RTVSPost2010PropOp34
 70
     1
102
RTVSPost2010Prop35
280
     0
102
RTVSPost2010PropOp35
 70
     1
102
RTVSPost2010Prop36
280
     0
102
RTVSPost2010PropOp36
 70
     1
102
RTVSPost2010Prop37
 90
       50
102
RTVSPost2010PropOp37
 70
     1
102
RTVSPost2010Prop38
140
0.0
102
RTVSPost2010PropOp38
 70
     1
102
RTVSPost2010Prop39
140
1.0
102
RTVSPost2010PropOp39
 70
     1
102
RTVSPost2010Prop40
 90
        0
102
RTVSPost2010PropOp40
 70
     1
102
RTVSPost2010Prop41ColorIndex
 90
       18
102
RTVSPost2010Prop41ColorRGB
 90
        0
102
RTVSPost2010PropOp41
 70
     1
102
RTVSPost2010Prop42
 90
       50
102
RTVSPost2010PropOp42
 70
     1
102
RTVSPost2010Prop43
 90
        3
102
RTVSPost2010PropOp43
 70
     1
102
RTVSPost2010Prop44ColorIndex
 90
        5
102
RTVSPost2010Prop44ColorRGB
 90
      255
102
RTVSPost2010PropOp44
 70
     1
102
RTVSPost2010Prop45
280
     0
102
RTVSPost2010PropOp45
 70
     1
102
RTVSPost2010Prop46
 90
       50
102
RTVSPost2010PropOp46
 70
     1
102
RTVSPost2010Prop47
 90
       50
102
RTVSPost2010PropOp47
 70
     1
102
RTVSPost2010Prop48
 90
       50
102
RTVSPost2010PropOp48
 70
     1
102
RTVSPost2010Prop49
280
     0
102
RTVSPost2010PropOp49
 70
     1
102
RTVSPost2010Prop50
 90
       50
102
RTVSPost2010PropOp50
 70
     1
102
RTVSPost2010Prop51ColorIndex
 90
      256
102
RTVSPost2010Prop51ColorRGB
 90
-16777216
102
RTVSPost2010PropOp51
 70
     0
102
RTVSPost2010Prop52
140
1.0
102
RTVSPost2010PropOp52
 70
     0
102
RTVSPost2010Prop53
 90
        2
102
RTVSPost2010PropOp53
 70
     1
102
RTVSPost2010Prop54
  1
strokes_ogs.tif
102
RTVSPost2010PropOp54
 70
     1
102
RTVSPost2010Prop55
280
     0
102
RTVSPost2010PropOp55
 70
     1
102
RTVSPost2010Prop56
140
1.0
102
RTVSPost2010PropOp56
 70
     1
102
RTVSPost2010Prop57
140
1.0
102
RTVSPost2010PropOp57
 70
     1
  0
XRECORD
  5
481
102
{ACAD_REACTORS
330
480
102
}
330
480
100
AcDbXrecord
280
     1
102
RTVSPropertyOp0
 70
     1
102
RTVSPropertyOp1
 70
     1
102
RTVSPropertyOp2
 70
     1
102
RTVSPropertyOp3
 70
     1
102
RTVSPropertyOp4
 70
     1
102
RTVSPropertyOp5
 70
     1
102
RTVSPropertyOp6
 70
     1
102
RTVSPropertyOp7
 70
     1
102
RTVSPropertyOp8
 70
     1
102
RTVSPropertyOp9
 70
     1
102
RTVSPropertyOp10
 70
     1
102
RTVSPropertyOp11
 70
     1
102
RTVSPropertyOp12
 70
     1
102
RTVSPropertyOp13
 70
     1
102
RTVSPropertyOp14
 70
     1
102
RTVSPropertyOp15
 70
     1
102
RTVSPropertyOp16
 70
     1
102
RTVSPropertyOp17
 70
     1
102
RTVSPropertyOp18
 70
     1
102
RTVSPropertyOp19
 70
     1
102
RTVSPropertyOp20
 70
     1
102
RTVSPropertyOp21
 70
     1
102
RTVSPropertyOp22
 70
     1
102
RTVSPropertyOp23
 70
     1
102
RTVSPropertyOp24
 70
     1
102
RTVSPropertyOp25
 70
     1
102
RTVSPropertyOp26
 70
     1
102
RTVSPropertyOp27
 70
     1
102
RTVSPropertyOp28
 70
     1
102
RTVSPropertyOp29
 70
     1
102
RTVSPropertyOp30
 70
     1
102
RTVSPropertyOp31
 70
     1
102
RTVSPropertyOp32
 70
     1
102
RTVSPropertyOp33
 70
     1
102
RTVSPropertyOp34
 70
     1
102
RTVSPropertyOp35
 70
     1
102
RTVSPropertyOp36
 70
     1
102
RTVSPropertyOp37
 70
     1
102
RTVSPropertyOp38
 70
     1
102
RTVSPropertyOp39
 70
     1
102
RTVSPropertyOp40
 70
     1
102
RTVSPropertyOp41
 70
     1
102
RTVSPropertyOp42
 70
     1
102
RTVSPropertyOp43
 70
     1
102
RTVSPropertyOp44
 70
     1
102
RTVSPropertyOp45
 70
     1
102
RTVSPropertyOp46
 70
     1
102
RTVSPropertyOp47
 70
     1
102
RTVSPropertyOp48
 70
     1
102
RTVSPropertyOp49
 70
     1
102
RTVSPropertyOp50
 70
     1
102
RTVSPropertyOp51
 70
     0
102
RTVSPropertyOp52
 70
     0
102
RTVSPropertyOp53
 70
     1
102
RTVSPropertyOp54
 70
     1
102
RTVSPropertyOp55
 70
     1
102
RTVSPropertyOp56
 70
     1
102
RTVSPropertyOp57
 70
     1
102
RTVSPost2010Prop28
280
     0
102
RTVSPost2010PropOp28
 70
     1
102
RTVSPost2010Prop29
280
     1
102
RTVSPost2010PropOp29
 70
     1
102
RTVSPost2010Prop30
280
     1
102
RTVSPost2010PropOp30
 70
     1
102
RTVSPost2010Prop31
280
     0
102
RTVSPost2010PropOp31
 70
     1
102
RTVSPost2010Prop32
280
     0
102
RTVSPost2010PropOp32
 70
     1
102
RTVSPost2010Prop33
280
     0
102
RTVSPost2010PropOp33
 70
     1
102
RTVSPost2010Prop34
280
     0
102
RTVSPost2010PropOp34
 70
     1
102
RTVSPost2010Prop35
280
     0
102
RTVSPost2010PropOp35
 70
     1
102
RTVSPost2010Prop36
280
     0
102
RTVSPost2010PropOp36
 70
     1
102
RTVSPost2010Prop37
 90
       50
102
RTVSPost2010PropOp37
 70
     1
102
RTVSPost2010Prop38
140
0.0
102
RTVSPost2010PropOp38
 70
     1
102
RTVSPost2010Prop39
140
1.0
102
RTVSPost2010PropOp39
 70
     1
102
RTVSPost2010Prop40
 90
        0
102
RTVSPost2010PropOp40
 70
     1
102
RTVSPost2010Prop41ColorIndex
 90
       18
102
RTVSPost2010Prop41ColorRGB
 90
        0
102
RTVSPost2010PropOp41
 70
     1
102
RTVSPost2010Prop42
 90
       50
102
RTVSPost2010PropOp42
 70
     1
102
RTVSPost2010Prop43
 90
        3
102
RTVSPost2010PropOp43
 70
     1
102
RTVSPost2010Prop44ColorIndex
 90
        5
102
RTVSPost2010Prop44ColorRGB
 90
      255
102
RTVSPost2010PropOp44
 70
     1
102
RTVSPost2010Prop45
280
     0
102
RTVSPost2010PropOp45
 70
     1
102
RTVSPost2010Prop46
 90
       50
102
RTVSPost2010PropOp46
 70
     1
102
RTVSPost2010Prop47
 90
       50
102
RTVSPost2010PropOp47
 70
     1
102
RTVSPost2010Prop48
 90
       50
102
RTVSPost2010PropOp48
 70
     1
102
RTVSPost2010Prop49
280
     0
102
RTVSPost2010PropOp49
 70
     1
102
RTVSPost2010Prop50
 90
       50
102
RTVSPost2010PropOp50
 70
     1
102
RTVSPost2010Prop51ColorIndex
 90
      256
102
RTVSPost2010Prop51ColorRGB
 90
-16777216
102
RTVSPost2010PropOp51
 70
     0
102
RTVSPost2010Prop52
140
1.0
102
RTVSPost2010PropOp52
 70
     0
102
RTVSPost2010Prop53
 90
        2
102
RTVSPost2010PropOp53
 70
     1
102
RTVSPost2010Prop54
  1
strokes_ogs.tif
102
RTVSPost2010PropOp54
 70
     1
102
RTVSPost2010Prop55
280
     0
102
RTVSPost2010PropOp55
 70
     1
102
RTVSPost2010Prop56
140
1.0
102
RTVSPost2010PropOp56
 70
     1
102
RTVSPost2010Prop57
140
1.0
102
RTVSPost2010PropOp57
 70
     1
  0
XRECORD
  5
483
102
{ACAD_REACTORS
330
482
102
}
330
482
100
AcDbXrecord
280
     1
102
RTVSPropertyOp0
 70
     1
102
RTVSPropertyOp1
 70
     1
102
RTVSPropertyOp2
 70
     1
102
RTVSPropertyOp3
 70
     1
102
RTVSPropertyOp4
 70
     1
102
RTVSPropertyOp5
 70
     1
102
RTVSPropertyOp6
 70
     1
102
RTVSPropertyOp7
 70
     1
102
RTVSPropertyOp8
 70
     1
102
RTVSPropertyOp9
 70
     1
102
RTVSPropertyOp10
 70
     1
102
RTVSPropertyOp11
 70
     1
102
RTVSPropertyOp12
 70
     1
102
RTVSPropertyOp13
 70
     1
102
RTVSPropertyOp14
 70
     1
102
RTVSPropertyOp15
 70
     1
102
RTVSPropertyOp16
 70
     1
102
RTVSPropertyOp17
 70
     1
102
RTVSPropertyOp18
 70
     1
102
RTVSPropertyOp19
 70
     1
102
RTVSPropertyOp20
 70
     1
102
RTVSPropertyOp21
 70
     1
102
RTVSPropertyOp22
 70
     1
102
RTVSPropertyOp23
 70
     1
102
RTVSPropertyOp24
 70
     1
102
RTVSPropertyOp25
 70
     1
102
RTVSPropertyOp26
 70
     1
102
RTVSPropertyOp27
 70
     1
102
RTVSPropertyOp28
 70
     1
102
RTVSPropertyOp29
 70
     1
102
RTVSPropertyOp30
 70
     1
102
RTVSPropertyOp31
 70
     1
102
RTVSPropertyOp32
 70
     1
102
RTVSPropertyOp33
 70
     1
102
RTVSPropertyOp34
 70
     1
102
RTVSPropertyOp35
 70
     1
102
RTVSPropertyOp36
 70
     1
102
RTVSPropertyOp37
 70
     1
102
RTVSPropertyOp38
 70
     1
102
RTVSPropertyOp39
 70
     1
102
RTVSPropertyOp40
 70
     1
102
RTVSPropertyOp41
 70
     1
102
RTVSPropertyOp42
 70
     1
102
RTVSPropertyOp43
 70
     1
102
RTVSPropertyOp44
 70
     1
102
RTVSPropertyOp45
 70
     1
102
RTVSPropertyOp46
 70
     1
102
RTVSPropertyOp47
 70
     1
102
RTVSPropertyOp48
 70
     1
102
RTVSPropertyOp49
 70
     1
102
RTVSPropertyOp50
 70
     1
102
RTVSPropertyOp51
 70
     0
102
RTVSPropertyOp52
 70
     0
102
RTVSPropertyOp53
 70
     1
102
RTVSPropertyOp54
 70
     1
102
RTVSPropertyOp55
 70
     1
102
RTVSPropertyOp56
 70
     1
102
RTVSPropertyOp57
 70
     1
102
RTVSPost2010Prop28
280
     0
102
RTVSPost2010PropOp28
 70
     1
102
RTVSPost2010Prop29
280
     1
102
RTVSPost2010PropOp29
 70
     1
102
RTVSPost2010Prop30
280
     1
102
RTVSPost2010PropOp30
 70
     1
102
RTVSPost2010Prop31
280
     0
102
RTVSPost2010PropOp31
 70
     1
102
RTVSPost2010Prop32
280
     0
102
RTVSPost2010PropOp32
 70
     1
102
RTVSPost2010Prop33
280
     0
102
RTVSPost2010PropOp33
 70
     1
102
RTVSPost2010Prop34
280
     0
102
RTVSPost2010PropOp34
 70
     1
102
RTVSPost2010Prop35
280
     0
102
RTVSPost2010PropOp35
 70
     1
102
RTVSPost2010Prop36
280
     0
102
RTVSPost2010PropOp36
 70
     1
102
RTVSPost2010Prop37
 90
       50
102
RTVSPost2010PropOp37
 70
     1
102
RTVSPost2010Prop38
140
0.0
102
RTVSPost2010PropOp38
 70
     1
102
RTVSPost2010Prop39
140
1.0
102
RTVSPost2010PropOp39
 70
     1
102
RTVSPost2010Prop40
 90
        0
102
RTVSPost2010PropOp40
 70
     1
102
RTVSPost2010Prop41ColorIndex
 90
       18
102
RTVSPost2010Prop41ColorRGB
 90
        0
102
RTVSPost2010PropOp41
 70
     1
102
RTVSPost2010Prop42
 90
       50
102
RTVSPost2010PropOp42
 70
     1
102
RTVSPost2010Prop43
 90
        3
102
RTVSPost2010PropOp43
 70
     1
102
RTVSPost2010Prop44ColorIndex
 90
        5
102
RTVSPost2010Prop44ColorRGB
 90
      255
102
RTVSPost2010PropOp44
 70
     1
102
RTVSPost2010Prop45
280
     0
102
RTVSPost2010PropOp45
 70
     1
102
RTVSPost2010Prop46
 90
       50
102
RTVSPost2010PropOp46
 70
     1
102
RTVSPost2010Prop47
 90
       50
102
RTVSPost2010PropOp47
 70
     1
102
RTVSPost2010Prop48
 90
       50
102
RTVSPost2010PropOp48
 70
     1
102
RTVSPost2010Prop49
280
     0
102
RTVSPost2010PropOp49
 70
     1
102
RTVSPost2010Prop50
 90
       50
102
RTVSPost2010PropOp50
 70
     1
102
RTVSPost2010Prop51ColorIndex
 90
      256
102
RTVSPost2010Prop51ColorRGB
 90
-16777216
102
RTVSPost2010PropOp51
 70
     0
102
RTVSPost2010Prop52
140
1.0
102
RTVSPost2010PropOp52
 70
     0
102
RTVSPost2010Prop53
 90
        2
102
RTVSPost2010PropOp53
 70
     1
102
RTVSPost2010Prop54
  1
strokes_ogs.tif
102
RTVSPost2010PropOp54
 70
     1
102
RTVSPost2010Prop55
280
     0
102
RTVSPost2010PropOp55
 70
     1
102
RTVSPost2010Prop56
140
1.0
102
RTVSPost2010PropOp56
 70
     1
102
RTVSPost2010Prop57
140
1.0
102
RTVSPost2010PropOp57
 70
     1
  0
XRECORD
  5
485
102
{ACAD_REACTORS
330
484
102
}
330
484
100
AcDbXrecord
280
     1
102
RTVSPropertyOp0
 70
     1
102
RTVSPropertyOp1
 70
     1
102
RTVSPropertyOp2
 70
     1
102
RTVSPropertyOp3
 70
     1
102
RTVSPropertyOp4
 70
     1
102
RTVSPropertyOp5
 70
     1
102
RTVSPropertyOp6
 70
     1
102
RTVSPropertyOp7
 70
     1
102
RTVSPropertyOp8
 70
     1
102
RTVSPropertyOp9
 70
     1
102
RTVSPropertyOp10
 70
     1
102
RTVSPropertyOp11
 70
     1
102
RTVSPropertyOp12
 70
     1
102
RTVSPropertyOp13
 70
     1
102
RTVSPropertyOp14
 70
     1
102
RTVSPropertyOp15
 70
     1
102
RTVSPropertyOp16
 70
     1
102
RTVSPropertyOp17
 70
     1
102
RTVSPropertyOp18
 70
     1
102
RTVSPropertyOp19
 70
     1
102
RTVSPropertyOp20
 70
     1
102
RTVSPropertyOp21
 70
     1
102
RTVSPropertyOp22
 70
     1
102
RTVSPropertyOp23
 70
     1
102
RTVSPropertyOp24
 70
     1
102
RTVSPropertyOp25
 70
     1
102
RTVSPropertyOp26
 70
     1
102
RTVSPropertyOp27
 70
     1
102
RTVSPropertyOp28
 70
     1
102
RTVSPropertyOp29
 70
     1
102
RTVSPropertyOp30
 70
     1
102
RTVSPropertyOp31
 70
     1
102
RTVSPropertyOp32
 70
     1
102
RTVSPropertyOp33
 70
     1
102
RTVSPropertyOp34
 70
     1
102
RTVSPropertyOp35
 70
     1
102
RTVSPropertyOp36
 70
     1
102
RTVSPropertyOp37
 70
     1
102
RTVSPropertyOp38
 70
     1
102
RTVSPropertyOp39
 70
     1
102
RTVSPropertyOp40
 70
     1
102
RTVSPropertyOp41
 70
     1
102
RTVSPropertyOp42
 70
     1
102
RTVSPropertyOp43
 70
     1
102
RTVSPropertyOp44
 70
     1
102
RTVSPropertyOp45
 70
     1
102
RTVSPropertyOp46
 70
     1
102
RTVSPropertyOp47
 70
     1
102
RTVSPropertyOp48
 70
     1
102
RTVSPropertyOp49
 70
     1
102
RTVSPropertyOp50
 70
     1
102
RTVSPropertyOp51
 70
     0
102
RTVSPropertyOp52
 70
     0
102
RTVSPropertyOp53
 70
     1
102
RTVSPropertyOp54
 70
     1
102
RTVSPropertyOp55
 70
     1
102
RTVSPropertyOp56
 70
     1
102
RTVSPropertyOp57
 70
     1
102
RTVSPost2010Prop28
280
     0
102
RTVSPost2010PropOp28
 70
     1
102
RTVSPost2010Prop29
280
     1
102
RTVSPost2010PropOp29
 70
     1
102
RTVSPost2010Prop30
280
     1
102
RTVSPost2010PropOp30
 70
     1
102
RTVSPost2010Prop31
280
     0
102
RTVSPost2010PropOp31
 70
     1
102
RTVSPost2010Prop32
280
     0
102
RTVSPost2010PropOp32
 70
     1
102
RTVSPost2010Prop33
280
     0
102
RTVSPost2010PropOp33
 70
     1
102
RTVSPost2010Prop34
280
     0
102
RTVSPost2010PropOp34
 70
     1
102
RTVSPost2010Prop35
280
     0
102
RTVSPost2010PropOp35
 70
     1
102
RTVSPost2010Prop36
280
     0
102
RTVSPost2010PropOp36
 70
     1
102
RTVSPost2010Prop37
 90
       50
102
RTVSPost2010PropOp37
 70
     1
102
RTVSPost2010Prop38
140
0.0
102
RTVSPost2010PropOp38
 70
     1
102
RTVSPost2010Prop39
140
1.0
102
RTVSPost2010PropOp39
 70
     1
102
RTVSPost2010Prop40
 90
        0
102
RTVSPost2010PropOp40
 70
     1
102
RTVSPost2010Prop41ColorIndex
 90
       18
102
RTVSPost2010Prop41ColorRGB
 90
        0
102
RTVSPost2010PropOp41
 70
     1
102
RTVSPost2010Prop42
 90
       50
102
RTVSPost2010PropOp42
 70
     1
102
RTVSPost2010Prop43
 90
        3
102
RTVSPost2010PropOp43
 70
     1
102
RTVSPost2010Prop44ColorIndex
 90
        5
102
RTVSPost2010Prop44ColorRGB
 90
      255
102
RTVSPost2010PropOp44
 70
     1
102
RTVSPost2010Prop45
280
     0
102
RTVSPost2010PropOp45
 70
     1
102
RTVSPost2010Prop46
 90
       50
102
RTVSPost2010PropOp46
 70
     1
102
RTVSPost2010Prop47
 90
       50
102
RTVSPost2010PropOp47
 70
     1
102
RTVSPost2010Prop48
 90
       50
102
RTVSPost2010PropOp48
 70
     1
102
RTVSPost2010Prop49
280
     0
102
RTVSPost2010PropOp49
 70
     1
102
RTVSPost2010Prop50
 90
       50
102
RTVSPost2010PropOp50
 70
     1
102
RTVSPost2010Prop51ColorIndex
 90
      256
102
RTVSPost2010Prop51ColorRGB
 90
-16777216
102
RTVSPost2010PropOp51
 70
     0
102
RTVSPost2010Prop52
140
1.0
102
RTVSPost2010PropOp52
 70
     0
102
RTVSPost2010Prop53
 90
        2
102
RTVSPost2010PropOp53
 70
     1
102
RTVSPost2010Prop54
  1
strokes_ogs.tif
102
RTVSPost2010PropOp54
 70
     1
102
RTVSPost2010Prop55
280
     0
102
RTVSPost2010PropOp55
 70
     1
102
RTVSPost2010Prop56
140
1.0
102
RTVSPost2010PropOp56
 70
     1
102
RTVSPost2010Prop57
140
1.0
102
RTVSPost2010PropOp57
 70
     1
  0
XRECORD
  5
487
102
{ACAD_REACTORS
330
486
102
}
330
486
100
AcDbXrecord
280
     1
102
RTVSPropertyOp0
 70
     1
102
RTVSPropertyOp1
 70
     1
102
RTVSPropertyOp2
 70
     1
102
RTVSPropertyOp3
 70
     1
102
RTVSPropertyOp4
 70
     1
102
RTVSPropertyOp5
 70
     1
102
RTVSPropertyOp6
 70
     1
102
RTVSPropertyOp7
 70
     1
102
RTVSPropertyOp8
 70
     1
102
RTVSPropertyOp9
 70
     1
102
RTVSPropertyOp10
 70
     1
102
RTVSPropertyOp11
 70
     1
102
RTVSPropertyOp12
 70
     1
102
RTVSPropertyOp13
 70
     1
102
RTVSPropertyOp14
 70
     1
102
RTVSPropertyOp15
 70
     1
102
RTVSPropertyOp16
 70
     1
102
RTVSPropertyOp17
 70
     1
102
RTVSPropertyOp18
 70
     1
102
RTVSPropertyOp19
 70
     1
102
RTVSPropertyOp20
 70
     1
102
RTVSPropertyOp21
 70
     1
102
RTVSPropertyOp22
 70
     1
102
RTVSPropertyOp23
 70
     1
102
RTVSPropertyOp24
 70
     1
102
RTVSPropertyOp25
 70
     1
102
RTVSPropertyOp26
 70
     1
102
RTVSPropertyOp27
 70
     1
102
RTVSPropertyOp28
 70
     1
102
RTVSPropertyOp29
 70
     1
102
RTVSPropertyOp30
 70
     1
102
RTVSPropertyOp31
 70
     1
102
RTVSPropertyOp32
 70
     1
102
RTVSPropertyOp33
 70
     1
102
RTVSPropertyOp34
 70
     1
102
RTVSPropertyOp35
 70
     1
102
RTVSPropertyOp36
 70
     1
102
RTVSPropertyOp37
 70
     1
102
RTVSPropertyOp38
 70
     1
102
RTVSPropertyOp39
 70
     1
102
RTVSPropertyOp40
 70
     1
102
RTVSPropertyOp41
 70
     1
102
RTVSPropertyOp42
 70
     1
102
RTVSPropertyOp43
 70
     1
102
RTVSPropertyOp44
 70
     1
102
RTVSPropertyOp45
 70
     1
102
RTVSPropertyOp46
 70
     1
102
RTVSPropertyOp47
 70
     1
102
RTVSPropertyOp48
 70
     1
102
RTVSPropertyOp49
 70
     1
102
RTVSPropertyOp50
 70
     1
102
RTVSPropertyOp51
 70
     0
102
RTVSPropertyOp52
 70
     0
102
RTVSPropertyOp53
 70
     1
102
RTVSPropertyOp54
 70
     1
102
RTVSPropertyOp55
 70
     1
102
RTVSPropertyOp56
 70
     1
102
RTVSPropertyOp57
 70
     1
102
RTVSPost2010Prop28
280
     0
102
RTVSPost2010PropOp28
 70
     1
102
RTVSPost2010Prop29
280
     1
102
RTVSPost2010PropOp29
 70
     1
102
RTVSPost2010Prop30
280
     1
102
RTVSPost2010PropOp30
 70
     1
102
RTVSPost2010Prop31
280
     0
102
RTVSPost2010PropOp31
 70
     1
102
RTVSPost2010Prop32
280
     0
102
RTVSPost2010PropOp32
 70
     1
102
RTVSPost2010Prop33
280
     0
102
RTVSPost2010PropOp33
 70
     1
102
RTVSPost2010Prop34
280
     0
102
RTVSPost2010PropOp34
 70
     1
102
RTVSPost2010Prop35
280
     0
102
RTVSPost2010PropOp35
 70
     1
102
RTVSPost2010Prop36
280
     0
102
RTVSPost2010PropOp36
 70
     1
102
RTVSPost2010Prop37
 90
       50
102
RTVSPost2010PropOp37
 70
     1
102
RTVSPost2010Prop38
140
0.0
102
RTVSPost2010PropOp38
 70
     1
102
RTVSPost2010Prop39
140
1.0
102
RTVSPost2010PropOp39
 70
     1
102
RTVSPost2010Prop40
 90
        0
102
RTVSPost2010PropOp40
 70
     1
102
RTVSPost2010Prop41ColorIndex
 90
       18
102
RTVSPost2010Prop41ColorRGB
 90
        0
102
RTVSPost2010PropOp41
 70
     1
102
RTVSPost2010Prop42
 90
       50
102
RTVSPost2010PropOp42
 70
     1
102
RTVSPost2010Prop43
 90
        3
102
RTVSPost2010PropOp43
 70
     1
102
RTVSPost2010Prop44ColorIndex
 90
        5
102
RTVSPost2010Prop44ColorRGB
 90
      255
102
RTVSPost2010PropOp44
 70
     1
102
RTVSPost2010Prop45
280
     0
102
RTVSPost2010PropOp45
 70
     1
102
RTVSPost2010Prop46
 90
       50
102
RTVSPost2010PropOp46
 70
     1
102
RTVSPost2010Prop47
 90
       50
102
RTVSPost2010PropOp47
 70
     1
102
RTVSPost2010Prop48
 90
       50
102
RTVSPost2010PropOp48
 70
     1
102
RTVSPost2010Prop49
280
     0
102
RTVSPost2010PropOp49
 70
     1
102
RTVSPost2010Prop50
 90
       50
102
RTVSPost2010PropOp50
 70
     1
102
RTVSPost2010Prop51ColorIndex
 90
      256
102
RTVSPost2010Prop51ColorRGB
 90
-16777216
102
RTVSPost2010PropOp51
 70
     0
102
RTVSPost2010Prop52
140
1.0
102
RTVSPost2010PropOp52
 70
     0
102
RTVSPost2010Prop53
 90
        2
102
RTVSPost2010PropOp53
 70
     1
102
RTVSPost2010Prop54
  1
strokes_ogs.tif
102
RTVSPost2010PropOp54
 70
     1
102
RTVSPost2010Prop55
280
     0
102
RTVSPost2010PropOp55
 70
     1
102
RTVSPost2010Prop56
140
1.0
102
RTVSPost2010PropOp56
 70
     1
102
RTVSPost2010Prop57
140
1.0
102
RTVSPost2010PropOp57
 70
     1
  0
XRECORD
  5
48D
102
{ACAD_REACTORS
330
48C
102
}
330
48C
100
AcDbXrecord
280
     1
102
RTVSPropertyOp0
 70
     1
102
RTVSPropertyOp1
 70
     1
102
RTVSPropertyOp2
 70
     1
102
RTVSPropertyOp3
 70
     1
102
RTVSPropertyOp4
 70
     1
102
RTVSPropertyOp5
 70
     1
102
RTVSPropertyOp6
 70
     1
102
RTVSPropertyOp7
 70
     1
102
RTVSPropertyOp8
 70
     1
102
RTVSPropertyOp9
 70
     1
102
RTVSPropertyOp10
 70
     1
102
RTVSPropertyOp11
 70
     1
102
RTVSPropertyOp12
 70
     1
102
RTVSPropertyOp13
 70
     1
102
RTVSPropertyOp14
 70
     1
102
RTVSPropertyOp15
 70
     1
102
RTVSPropertyOp16
 70
     1
102
RTVSPropertyOp17
 70
     1
102
RTVSPropertyOp18
 70
     1
102
RTVSPropertyOp19
 70
     1
102
RTVSPropertyOp20
 70
     1
102
RTVSPropertyOp21
 70
     1
102
RTVSPropertyOp22
 70
     1
102
RTVSPropertyOp23
 70
     1
102
RTVSPropertyOp24
 70
     1
102
RTVSPropertyOp25
 70
     1
102
RTVSPropertyOp26
 70
     1
102
RTVSPropertyOp27
 70
     1
102
RTVSPropertyOp28
 70
     1
102
RTVSPropertyOp29
 70
     1
102
RTVSPropertyOp30
 70
     1
102
RTVSPropertyOp31
 70
     1
102
RTVSPropertyOp32
 70
     1
102
RTVSPropertyOp33
 70
     1
102
RTVSPropertyOp34
 70
     1
102
RTVSPropertyOp35
 70
     1
102
RTVSPropertyOp36
 70
     1
102
RTVSPropertyOp37
 70
     1
102
RTVSPropertyOp38
 70
     1
102
RTVSPropertyOp39
 70
     1
102
RTVSPropertyOp40
 70
     1
102
RTVSPropertyOp41
 70
     1
102
RTVSPropertyOp42
 70
     1
102
RTVSPropertyOp43
 70
     1
102
RTVSPropertyOp44
 70
     1
102
RTVSPropertyOp45
 70
     1
102
RTVSPropertyOp46
 70
     1
102
RTVSPropertyOp47
 70
     1
102
RTVSPropertyOp48
 70
     1
102
RTVSPropertyOp49
 70
     1
102
RTVSPropertyOp50
 70
     1
102
RTVSPropertyOp51
 70
     0
102
RTVSPropertyOp52
 70
     0
102
RTVSPropertyOp53
 70
     1
102
RTVSPropertyOp54
 70
     1
102
RTVSPropertyOp55
 70
     1
102
RTVSPropertyOp56
 70
     1
102
RTVSPropertyOp57
 70
     1
102
RTVSPost2010Prop28
280
     0
102
RTVSPost2010PropOp28
 70
     1
102
RTVSPost2010Prop29
280
     1
102
RTVSPost2010PropOp29
 70
     1
102
RTVSPost2010Prop30
280
     1
102
RTVSPost2010PropOp30
 70
     1
102
RTVSPost2010Prop31
280
     0
102
RTVSPost2010PropOp31
 70
     1
102
RTVSPost2010Prop32
280
     0
102
RTVSPost2010PropOp32
 70
     1
102
RTVSPost2010Prop33
280
     0
102
RTVSPost2010PropOp33
 70
     1
102
RTVSPost2010Prop34
280
     0
102
RTVSPost2010PropOp34
 70
     1
102
RTVSPost2010Prop35
280
     0
102
RTVSPost2010PropOp35
 70
     1
102
RTVSPost2010Prop36
280
     0
102
RTVSPost2010PropOp36
 70
     1
102
RTVSPost2010Prop37
 90
       50
102
RTVSPost2010PropOp37
 70
     1
102
RTVSPost2010Prop38
140
0.0
102
RTVSPost2010PropOp38
 70
     1
102
RTVSPost2010Prop39
140
1.0
102
RTVSPost2010PropOp39
 70
     1
102
RTVSPost2010Prop40
 90
        0
102
RTVSPost2010PropOp40
 70
     1
102
RTVSPost2010Prop41ColorIndex
 90
       18
102
RTVSPost2010Prop41ColorRGB
 90
        0
102
RTVSPost2010PropOp41
 70
     1
102
RTVSPost2010Prop42
 90
       50
102
RTVSPost2010PropOp42
 70
     1
102
RTVSPost2010Prop43
 90
        3
102
RTVSPost2010PropOp43
 70
     1
102
RTVSPost2010Prop44ColorIndex
 90
        5
102
RTVSPost2010Prop44ColorRGB
 90
      255
102
RTVSPost2010PropOp44
 70
     1
102
RTVSPost2010Prop45
280
     0
102
RTVSPost2010PropOp45
 70
     1
102
RTVSPost2010Prop46
 90
       50
102
RTVSPost2010PropOp46
 70
     1
102
RTVSPost2010Prop47
 90
       50
102
RTVSPost2010PropOp47
 70
     1
102
RTVSPost2010Prop48
 90
       50
102
RTVSPost2010PropOp48
 70
     1
102
RTVSPost2010Prop49
280
     0
102
RTVSPost2010PropOp49
 70
     1
102
RTVSPost2010Prop50
 90
       50
102
RTVSPost2010PropOp50
 70
     1
102
RTVSPost2010Prop51ColorIndex
 90
      256
102
RTVSPost2010Prop51ColorRGB
 90
-16777216
102
RTVSPost2010PropOp51
 70
     0
102
RTVSPost2010Prop52
140
1.0
102
RTVSPost2010PropOp52
 70
     0
102
RTVSPost2010Prop53
 90
        2
102
RTVSPost2010PropOp53
 70
     1
102
RTVSPost2010Prop54
  1
strokes_ogs.tif
102
RTVSPost2010PropOp54
 70
     1
102
RTVSPost2010Prop55
280
     0
102
RTVSPost2010PropOp55
 70
     1
102
RTVSPost2010Prop56
140
1.0
102
RTVSPost2010PropOp56
 70
     1
102
RTVSPost2010Prop57
140
1.0
102
RTVSPost2010PropOp57
 70
     1
  0
XRECORD
  5
4A1
102
{ACAD_REACTORS
330
4A0
102
}
330
4A0
100
AcDbXrecord
280
     1
102
RTVSPropertyOp0
 70
     0
102
RTVSPropertyOp1
 70
     0
102
RTVSPropertyOp2
 70
     0
102
RTVSPropertyOp3
 70
     0
102
RTVSPropertyOp4
 70
     0
102
RTVSPropertyOp5
 70
     0
102
RTVSPropertyOp6
 70
     0
102
RTVSPropertyOp7
 70
     0
102
RTVSPropertyOp8
 70
     0
102
RTVSPropertyOp9
 70
     0
102
RTVSPropertyOp10
 70
     0
102
RTVSPropertyOp11
 70
     0
102
RTVSPropertyOp12
 70
     0
102
RTVSPropertyOp13
 70
     0
102
RTVSPropertyOp14
 70
     2
102
RTVSPropertyOp15
 70
     0
102
RTVSPropertyOp16
 70
     0
102
RTVSPropertyOp17
 70
     0
102
RTVSPropertyOp18
 70
     0
102
RTVSPropertyOp19
 70
     0
102
RTVSPropertyOp20
 70
     0
102
RTVSPropertyOp21
 70
     0
102
RTVSPropertyOp22
 70
     0
102
RTVSPropertyOp23
 70
     0
102
RTVSPropertyOp24
 70
     0
102
RTVSPropertyOp25
 70
     0
102
RTVSPropertyOp26
 70
     0
102
RTVSPropertyOp27
 70
     0
102
RTVSPropertyOp28
 70
     0
102
RTVSPropertyOp29
 70
     0
102
RTVSPropertyOp30
 70
     0
102
RTVSPropertyOp31
 70
     0
102
RTVSPropertyOp32
 70
     0
102
RTVSPropertyOp33
 70
     0
102
RTVSPropertyOp34
 70
     0
102
RTVSPropertyOp35
 70
     0
102
RTVSPropertyOp36
 70
     0
102
RTVSPropertyOp37
 70
     0
102
RTVSPropertyOp38
 70
     0
102
RTVSPropertyOp39
 70
     0
102
RTVSPropertyOp40
 70
     0
102
RTVSPropertyOp41
 70
     0
102
RTVSPropertyOp42
 70
     0
102
RTVSPropertyOp43
 70
     0
102
RTVSPropertyOp44
 70
     0
102
RTVSPropertyOp45
 70
     0
102
RTVSPropertyOp46
 70
     0
102
RTVSPropertyOp47
 70
     0
102
RTVSPropertyOp48
 70
     0
102
RTVSPropertyOp49
 70
     0
102
RTVSPropertyOp50
 70
     0
102
RTVSPropertyOp51
 70
     0
102
RTVSPropertyOp52
 70
     0
102
RTVSPropertyOp53
 70
     0
102
RTVSPropertyOp54
 70
     0
102
RTVSPropertyOp55
 70
     0
102
RTVSPropertyOp56
 70
     0
102
RTVSPropertyOp57
 70
     0
102
RTVSPost2010Prop28
280
     0
102
RTVSPost2010PropOp28
 70
     0
102
RTVSPost2010Prop29
280
     1
102
RTVSPost2010PropOp29
 70
     0
102
RTVSPost2010Prop30
280
     1
102
RTVSPost2010PropOp30
 70
     0
102
RTVSPost2010Prop31
280
     0
102
RTVSPost2010PropOp31
 70
     0
102
RTVSPost2010Prop32
280
     0
102
RTVSPost2010PropOp32
 70
     0
102
RTVSPost2010Prop33
280
     0
102
RTVSPost2010PropOp33
 70
     0
102
RTVSPost2010Prop34
280
     0
102
RTVSPost2010PropOp34
 70
     0
102
RTVSPost2010Prop35
280
     0
102
RTVSPost2010PropOp35
 70
     0
102
RTVSPost2010Prop36
280
     0
102
RTVSPost2010PropOp36
 70
     0
102
RTVSPost2010Prop37
 90
       50
102
RTVSPost2010PropOp37
 70
     0
102
RTVSPost2010Prop38
140
0.0
102
RTVSPost2010PropOp38
 70
     0
102
RTVSPost2010Prop39
140
1.0
102
RTVSPost2010PropOp39
 70
     0
102
RTVSPost2010Prop40
 90
        0
102
RTVSPost2010PropOp40
 70
     0
102
RTVSPost2010Prop41ColorIndex
 90
       18
102
RTVSPost2010Prop41ColorRGB
 90
        0
102
RTVSPost2010PropOp41
 70
     0
102
RTVSPost2010Prop42
 90
       50
102
RTVSPost2010PropOp42
 70
     0
102
RTVSPost2010Prop43
 90
        3
102
RTVSPost2010PropOp43
 70
     0
102
RTVSPost2010Prop44ColorIndex
 90
        5
102
RTVSPost2010Prop44ColorRGB
 90
      255
102
RTVSPost2010PropOp44
 70
     0
102
RTVSPost2010Prop45
280
     0
102
RTVSPost2010PropOp45
 70
     0
102
RTVSPost2010Prop46
 90
       50
102
RTVSPost2010PropOp46
 70
     0
102
RTVSPost2010Prop47
 90
       50
102
RTVSPost2010PropOp47
 70
     0
102
RTVSPost2010Prop48
 90
       50
102
RTVSPost2010PropOp48
 70
     0
102
RTVSPost2010Prop49
280
     0
102
RTVSPost2010PropOp49
 70
     0
102
RTVSPost2010Prop50
 90
       50
102
RTVSPost2010PropOp50
 70
     0
102
RTVSPost2010Prop51ColorIndex
 90
      256
102
RTVSPost2010Prop51ColorRGB
 90
-16777216
102
RTVSPost2010PropOp51
 70
     0
102
RTVSPost2010Prop52
140
1.0
102
RTVSPost2010PropOp52
 70
     0
102
RTVSPost2010Prop53
 90
        2
102
RTVSPost2010PropOp53
 70
     0
102
RTVSPost2010Prop54
  1
strokes_ogs.tif
102
RTVSPost2010PropOp54
 70
     0
102
RTVSPost2010Prop55
280
     0
102
RTVSPost2010PropOp55
 70
     0
102
RTVSPost2010Prop56
140
1.0
102
RTVSPost2010PropOp56
 70
     0
102
RTVSPost2010Prop57
140
1.0
102
RTVSPost2010PropOp57
 70
     0
  0
XRECORD
  5
49B
102
{ACAD_REACTORS
330
49A
102
}
330
49A
100
AcDbXrecord
280
     1
102
RTVSPropertyOp0
 70
     1
102
RTVSPropertyOp1
 70
     1
102
RTVSPropertyOp2
 70
     1
102
RTVSPropertyOp3
 70
     1
102
RTVSPropertyOp4
 70
     1
102
RTVSPropertyOp5
 70
     1
102
RTVSPropertyOp6
 70
     1
102
RTVSPropertyOp7
 70
     1
102
RTVSPropertyOp8
 70
     1
102
RTVSPropertyOp9
 70
     1
102
RTVSPropertyOp10
 70
     1
102
RTVSPropertyOp11
 70
     1
102
RTVSPropertyOp12
 70
     1
102
RTVSPropertyOp13
 70
     1
102
RTVSPropertyOp14
 70
     1
102
RTVSPropertyOp15
 70
     1
102
RTVSPropertyOp16
 70
     1
102
RTVSPropertyOp17
 70
     1
102
RTVSPropertyOp18
 70
     1
102
RTVSPropertyOp19
 70
     1
102
RTVSPropertyOp20
 70
     1
102
RTVSPropertyOp21
 70
     1
102
RTVSPropertyOp22
 70
     1
102
RTVSPropertyOp23
 70
     1
102
RTVSPropertyOp24
 70
     1
102
RTVSPropertyOp25
 70
     1
102
RTVSPropertyOp26
 70
     1
102
RTVSPropertyOp27
 70
     1
102
RTVSPropertyOp28
 70
     1
102
RTVSPropertyOp29
 70
     1
102
RTVSPropertyOp30
 70
     1
102
RTVSPropertyOp31
 70
     1
102
RTVSPropertyOp32
 70
     1
102
RTVSPropertyOp33
 70
     1
102
RTVSPropertyOp34
 70
     1
102
RTVSPropertyOp35
 70
     1
102
RTVSPropertyOp36
 70
     1
102
RTVSPropertyOp37
 70
     1
102
RTVSPropertyOp38
 70
     1
102
RTVSPropertyOp39
 70
     1
102
RTVSPropertyOp40
 70
     1
102
RTVSPropertyOp41
 70
     1
102
RTVSPropertyOp42
 70
     1
102
RTVSPropertyOp43
 70
     1
102
RTVSPropertyOp44
 70
     1
102
RTVSPropertyOp45
 70
     1
102
RTVSPropertyOp46
 70
     1
102
RTVSPropertyOp47
 70
     1
102
RTVSPropertyOp48
 70
     1
102
RTVSPropertyOp49
 70
     1
102
RTVSPropertyOp50
 70
     1
102
RTVSPropertyOp51
 70
     0
102
RTVSPropertyOp52
 70
     0
102
RTVSPropertyOp53
 70
     1
102
RTVSPropertyOp54
 70
     1
102
RTVSPropertyOp55
 70
     1
102
RTVSPropertyOp56
 70
     1
102
RTVSPropertyOp57
 70
     1
102
RTVSPost2010Prop28
280
     0
102
RTVSPost2010PropOp28
 70
     1
102
RTVSPost2010Prop29
280
     1
102
RTVSPost2010PropOp29
 70
     1
102
RTVSPost2010Prop30
280
     1
102
RTVSPost2010PropOp30
 70
     1
102
RTVSPost2010Prop31
280
     0
102
RTVSPost2010PropOp31
 70
     1
102
RTVSPost2010Prop32
280
     0
102
RTVSPost2010PropOp32
 70
     1
102
RTVSPost2010Prop33
280
     0
102
RTVSPost2010PropOp33
 70
     1
102
RTVSPost2010Prop34
280
     0
102
RTVSPost2010PropOp34
 70
     1
102
RTVSPost2010Prop35
280
     0
102
RTVSPost2010PropOp35
 70
     1
102
RTVSPost2010Prop36
280
     0
102
RTVSPost2010PropOp36
 70
     1
102
RTVSPost2010Prop37
 90
       50
102
RTVSPost2010PropOp37
 70
     1
102
RTVSPost2010Prop38
140
0.0
102
RTVSPost2010PropOp38
 70
     1
102
RTVSPost2010Prop39
140
1.0
102
RTVSPost2010PropOp39
 70
     1
102
RTVSPost2010Prop40
 90
        0
102
RTVSPost2010PropOp40
 70
     1
102
RTVSPost2010Prop41ColorIndex
 90
       18
102
RTVSPost2010Prop41ColorRGB
 90
        0
102
RTVSPost2010PropOp41
 70
     1
102
RTVSPost2010Prop42
 90
       50
102
RTVSPost2010PropOp42
 70
     1
102
RTVSPost2010Prop43
 90
        3
102
RTVSPost2010PropOp43
 70
     1
102
RTVSPost2010Prop44ColorIndex
 90
        5
102
RTVSPost2010Prop44ColorRGB
 90
      255
102
RTVSPost2010PropOp44
 70
     1
102
RTVSPost2010Prop45
280
     0
102
RTVSPost2010PropOp45
 70
     1
102
RTVSPost2010Prop46
 90
       50
102
RTVSPost2010PropOp46
 70
     1
102
RTVSPost2010Prop47
 90
       50
102
RTVSPost2010PropOp47
 70
     1
102
RTVSPost2010Prop48
 90
       50
102
RTVSPost2010PropOp48
 70
     1
102
RTVSPost2010Prop49
280
     0
102
RTVSPost2010PropOp49
 70
     1
102
RTVSPost2010Prop50
 90
       50
102
RTVSPost2010PropOp50
 70
     1
102
RTVSPost2010Prop51ColorIndex
 90
      256
102
RTVSPost2010Prop51ColorRGB
 90
-16777216
102
RTVSPost2010PropOp51
 70
     0
102
RTVSPost2010Prop52
140
1.0
102
RTVSPost2010PropOp52
 70
     0
102
RTVSPost2010Prop53
 90
        2
102
RTVSPost2010PropOp53
 70
     1
102
RTVSPost2010Prop54
  1
strokes_ogs.tif
102
RTVSPost2010PropOp54
 70
     1
102
RTVSPost2010Prop55
280
     0
102
RTVSPost2010PropOp55
 70
     1
102
RTVSPost2010Prop56
140
1.0
102
RTVSPost2010PropOp56
 70
     1
102
RTVSPost2010Prop57
140
1.0
102
RTVSPost2010PropOp57
 70
     1
  0
XRECORD
  5
4A3
102
{ACAD_REACTORS
330
4A2
102
}
330
4A2
100
AcDbXrecord
280
     1
102
RTVSPropertyOp0
 70
     0
102
RTVSPropertyOp1
 70
     0
102
RTVSPropertyOp2
 70
     0
102
RTVSPropertyOp3
 70
     0
102
RTVSPropertyOp4
 70
     0
102
RTVSPropertyOp5
 70
     0
102
RTVSPropertyOp6
 70
     0
102
RTVSPropertyOp7
 70
     0
102
RTVSPropertyOp8
 70
     0
102
RTVSPropertyOp9
 70
     0
102
RTVSPropertyOp10
 70
     0
102
RTVSPropertyOp11
 70
     0
102
RTVSPropertyOp12
 70
     0
102
RTVSPropertyOp13
 70
     0
102
RTVSPropertyOp14
 70
     2
102
RTVSPropertyOp15
 70
     0
102
RTVSPropertyOp16
 70
     0
102
RTVSPropertyOp17
 70
     0
102
RTVSPropertyOp18
 70
     0
102
RTVSPropertyOp19
 70
     0
102
RTVSPropertyOp20
 70
     0
102
RTVSPropertyOp21
 70
     0
102
RTVSPropertyOp22
 70
     0
102
RTVSPropertyOp23
 70
     0
102
RTVSPropertyOp24
 70
     0
102
RTVSPropertyOp25
 70
     0
102
RTVSPropertyOp26
 70
     0
102
RTVSPropertyOp27
 70
     0
102
RTVSPropertyOp28
 70
     0
102
RTVSPropertyOp29
 70
     0
102
RTVSPropertyOp30
 70
     0
102
RTVSPropertyOp31
 70
     0
102
RTVSPropertyOp32
 70
     0
102
RTVSPropertyOp33
 70
     0
102
RTVSPropertyOp34
 70
     0
102
RTVSPropertyOp35
 70
     0
102
RTVSPropertyOp36
 70
     0
102
RTVSPropertyOp37
 70
     0
102
RTVSPropertyOp38
 70
     0
102
RTVSPropertyOp39
 70
     0
102
RTVSPropertyOp40
 70
     0
102
RTVSPropertyOp41
 70
     0
102
RTVSPropertyOp42
 70
     0
102
RTVSPropertyOp43
 70
     0
102
RTVSPropertyOp44
 70
     0
102
RTVSPropertyOp45
 70
     0
102
RTVSPropertyOp46
 70
     0
102
RTVSPropertyOp47
 70
     0
102
RTVSPropertyOp48
 70
     0
102
RTVSPropertyOp49
 70
     0
102
RTVSPropertyOp50
 70
     0
102
RTVSPropertyOp51
 70
     0
102
RTVSPropertyOp52
 70
     0
102
RTVSPropertyOp53
 70
     0
102
RTVSPropertyOp54
 70
     0
102
RTVSPropertyOp55
 70
     0
102
RTVSPropertyOp56
 70
     0
102
RTVSPropertyOp57
 70
     0
102
RTVSPost2010Prop28
280
     0
102
RTVSPost2010PropOp28
 70
     0
102
RTVSPost2010Prop29
280
     1
102
RTVSPost2010PropOp29
 70
     0
102
RTVSPost2010Prop30
280
     1
102
RTVSPost2010PropOp30
 70
     0
102
RTVSPost2010Prop31
280
     0
102
RTVSPost2010PropOp31
 70
     0
102
RTVSPost2010Prop32
280
     0
102
RTVSPost2010PropOp32
 70
     0
102
RTVSPost2010Prop33
280
     0
102
RTVSPost2010PropOp33
 70
     0
102
RTVSPost2010Prop34
280
     0
102
RTVSPost2010PropOp34
 70
     0
102
RTVSPost2010Prop35
280
     0
102
RTVSPost2010PropOp35
 70
     0
102
RTVSPost2010Prop36
280
     0
102
RTVSPost2010PropOp36
 70
     0
102
RTVSPost2010Prop37
 90
       50
102
RTVSPost2010PropOp37
 70
     0
102
RTVSPost2010Prop38
140
0.0
102
RTVSPost2010PropOp38
 70
     0
102
RTVSPost2010Prop39
140
1.0
102
RTVSPost2010PropOp39
 70
     0
102
RTVSPost2010Prop40
 90
        0
102
RTVSPost2010PropOp40
 70
     0
102
RTVSPost2010Prop41ColorIndex
 90
       18
102
RTVSPost2010Prop41ColorRGB
 90
        0
102
RTVSPost2010PropOp41
 70
     0
102
RTVSPost2010Prop42
 90
       50
102
RTVSPost2010PropOp42
 70
     0
102
RTVSPost2010Prop43
 90
        3
102
RTVSPost2010PropOp43
 70
     0
102
RTVSPost2010Prop44ColorIndex
 90
        5
102
RTVSPost2010Prop44ColorRGB
 90
      255
102
RTVSPost2010PropOp44
 70
     0
102
RTVSPost2010Prop45
280
     0
102
RTVSPost2010PropOp45
 70
     0
102
RTVSPost2010Prop46
 90
       50
102
RTVSPost2010PropOp46
 70
     0
102
RTVSPost2010Prop47
 90
       50
102
RTVSPost2010PropOp47
 70
     0
102
RTVSPost2010Prop48
 90
       50
102
RTVSPost2010PropOp48
 70
     0
102
RTVSPost2010Prop49
280
     0
102
RTVSPost2010PropOp49
 70
     0
102
RTVSPost2010Prop50
 90
       50
102
RTVSPost2010PropOp50
 70
     0
102
RTVSPost2010Prop51ColorIndex
 90
      256
102
RTVSPost2010Prop51ColorRGB
 90
-16777216
102
RTVSPost2010PropOp51
 70
     0
102
RTVSPost2010Prop52
140
1.0
102
RTVSPost2010PropOp52
 70
     0
102
RTVSPost2010Prop53
 90
        2
102
RTVSPost2010PropOp53
 70
     0
102
RTVSPost2010Prop54
  1
strokes_ogs.tif
102
RTVSPost2010PropOp54
 70
     0
102
RTVSPost2010Prop55
280
     0
102
RTVSPost2010PropOp55
 70
     0
102
RTVSPost2010Prop56
140
1.0
102
RTVSPost2010PropOp56
 70
     0
102
RTVSPost2010Prop57
140
1.0
102
RTVSPost2010PropOp57
 70
     0
  0
XRECORD
  5
491
102
{ACAD_REACTORS
330
490
102
}
330
490
100
AcDbXrecord
280
     1
102
RTVSPropertyOp0
 70
     1
102
RTVSPropertyOp1
 70
     1
102
RTVSPropertyOp2
 70
     1
102
RTVSPropertyOp3
 70
     1
102
RTVSPropertyOp4
 70
     1
102
RTVSPropertyOp5
 70
     1
102
RTVSPropertyOp6
 70
     1
102
RTVSPropertyOp7
 70
     1
102
RTVSPropertyOp8
 70
     1
102
RTVSPropertyOp9
 70
     1
102
RTVSPropertyOp10
 70
     1
102
RTVSPropertyOp11
 70
     1
102
RTVSPropertyOp12
 70
     1
102
RTVSPropertyOp13
 70
     1
102
RTVSPropertyOp14
 70
     1
102
RTVSPropertyOp15
 70
     1
102
RTVSPropertyOp16
 70
     1
102
RTVSPropertyOp17
 70
     1
102
RTVSPropertyOp18
 70
     1
102
RTVSPropertyOp19
 70
     1
102
RTVSPropertyOp20
 70
     1
102
RTVSPropertyOp21
 70
     1
102
RTVSPropertyOp22
 70
     1
102
RTVSPropertyOp23
 70
     1
102
RTVSPropertyOp24
 70
     1
102
RTVSPropertyOp25
 70
     1
102
RTVSPropertyOp26
 70
     1
102
RTVSPropertyOp27
 70
     1
102
RTVSPropertyOp28
 70
     1
102
RTVSPropertyOp29
 70
     1
102
RTVSPropertyOp30
 70
     1
102
RTVSPropertyOp31
 70
     1
102
RTVSPropertyOp32
 70
     1
102
RTVSPropertyOp33
 70
     1
102
RTVSPropertyOp34
 70
     1
102
RTVSPropertyOp35
 70
     1
102
RTVSPropertyOp36
 70
     1
102
RTVSPropertyOp37
 70
     1
102
RTVSPropertyOp38
 70
     1
102
RTVSPropertyOp39
 70
     1
102
RTVSPropertyOp40
 70
     1
102
RTVSPropertyOp41
 70
     1
102
RTVSPropertyOp42
 70
     1
102
RTVSPropertyOp43
 70
     1
102
RTVSPropertyOp44
 70
     1
102
RTVSPropertyOp45
 70
     1
102
RTVSPropertyOp46
 70
     1
102
RTVSPropertyOp47
 70
     1
102
RTVSPropertyOp48
 70
     1
102
RTVSPropertyOp49
 70
     1
102
RTVSPropertyOp50
 70
     1
102
RTVSPropertyOp51
 70
     0
102
RTVSPropertyOp52
 70
     0
102
RTVSPropertyOp53
 70
     1
102
RTVSPropertyOp54
 70
     1
102
RTVSPropertyOp55
 70
     1
102
RTVSPropertyOp56
 70
     1
102
RTVSPropertyOp57
 70
     1
102
RTVSPost2010Prop28
280
     0
102
RTVSPost2010PropOp28
 70
     1
102
RTVSPost2010Prop29
280
     1
102
RTVSPost2010PropOp29
 70
     1
102
RTVSPost2010Prop30
280
     1
102
RTVSPost2010PropOp30
 70
     1
102
RTVSPost2010Prop31
280
     0
102
RTVSPost2010PropOp31
 70
     1
102
RTVSPost2010Prop32
280
     0
102
RTVSPost2010PropOp32
 70
     1
102
RTVSPost2010Prop33
280
     0
102
RTVSPost2010PropOp33
 70
     1
102
RTVSPost2010Prop34
280
     0
102
RTVSPost2010PropOp34
 70
     1
102
RTVSPost2010Prop35
280
     0
102
RTVSPost2010PropOp35
 70
     1
102
RTVSPost2010Prop36
280
     0
102
RTVSPost2010PropOp36
 70
     1
102
RTVSPost2010Prop37
 90
       50
102
RTVSPost2010PropOp37
 70
     1
102
RTVSPost2010Prop38
140
0.0
102
RTVSPost2010PropOp38
 70
     1
102
RTVSPost2010Prop39
140
1.0
102
RTVSPost2010PropOp39
 70
     1
102
RTVSPost2010Prop40
 90
        0
102
RTVSPost2010PropOp40
 70
     1
102
RTVSPost2010Prop41ColorIndex
 90
       18
102
RTVSPost2010Prop41ColorRGB
 90
        0
102
RTVSPost2010PropOp41
 70
     1
102
RTVSPost2010Prop42
 90
       50
102
RTVSPost2010PropOp42
 70
     1
102
RTVSPost2010Prop43
 90
        3
102
RTVSPost2010PropOp43
 70
     1
102
RTVSPost2010Prop44ColorIndex
 90
        5
102
RTVSPost2010Prop44ColorRGB
 90
      255
102
RTVSPost2010PropOp44
 70
     1
102
RTVSPost2010Prop45
280
     0
102
RTVSPost2010PropOp45
 70
     1
102
RTVSPost2010Prop46
 90
       50
102
RTVSPost2010PropOp46
 70
     1
102
RTVSPost2010Prop47
 90
       50
102
RTVSPost2010PropOp47
 70
     1
102
RTVSPost2010Prop48
 90
       50
102
RTVSPost2010PropOp48
 70
     1
102
RTVSPost2010Prop49
280
     0
102
RTVSPost2010PropOp49
 70
     1
102
RTVSPost2010Prop50
 90
       50
102
RTVSPost2010PropOp50
 70
     1
102
RTVSPost2010Prop51ColorIndex
 90
      256
102
RTVSPost2010Prop51ColorRGB
 90
-16777216
102
RTVSPost2010PropOp51
 70
     0
102
RTVSPost2010Prop52
140
1.0
102
RTVSPost2010PropOp52
 70
     0
102
RTVSPost2010Prop53
 90
        2
102
RTVSPost2010PropOp53
 70
     1
102
RTVSPost2010Prop54
  1
strokes_ogs.tif
102
RTVSPost2010PropOp54
 70
     1
102
RTVSPost2010Prop55
280
     0
102
RTVSPost2010PropOp55
 70
     1
102
RTVSPost2010Prop56
140
1.0
102
RTVSPost2010PropOp56
 70
     1
102
RTVSPost2010Prop57
140
1.0
102
RTVSPost2010PropOp57
 70
     1
  0
XRECORD
  5
4AF
102
{ACAD_REACTORS
330
4AE
102
}
330
4AE
100
AcDbXrecord
280
     1
102
RTVSPropertyOp0
 70
     1
102
RTVSPropertyOp1
 70
     1
102
RTVSPropertyOp2
 70
     1
102
RTVSPropertyOp3
 70
     1
102
RTVSPropertyOp4
 70
     1
102
RTVSPropertyOp5
 70
     1
102
RTVSPropertyOp6
 70
     1
102
RTVSPropertyOp7
 70
     1
102
RTVSPropertyOp8
 70
     1
102
RTVSPropertyOp9
 70
     1
102
RTVSPropertyOp10
 70
     1
102
RTVSPropertyOp11
 70
     1
102
RTVSPropertyOp12
 70
     1
102
RTVSPropertyOp13
 70
     1
102
RTVSPropertyOp14
 70
     1
102
RTVSPropertyOp15
 70
     1
102
RTVSPropertyOp16
 70
     1
102
RTVSPropertyOp17
 70
     1
102
RTVSPropertyOp18
 70
     1
102
RTVSPropertyOp19
 70
     1
102
RTVSPropertyOp20
 70
     1
102
RTVSPropertyOp21
 70
     1
102
RTVSPropertyOp22
 70
     1
102
RTVSPropertyOp23
 70
     1
102
RTVSPropertyOp24
 70
     1
102
RTVSPropertyOp25
 70
     1
102
RTVSPropertyOp26
 70
     1
102
RTVSPropertyOp27
 70
     1
102
RTVSPropertyOp28
 70
     1
102
RTVSPropertyOp29
 70
     1
102
RTVSPropertyOp30
 70
     1
102
RTVSPropertyOp31
 70
     1
102
RTVSPropertyOp32
 70
     1
102
RTVSPropertyOp33
 70
     1
102
RTVSPropertyOp34
 70
     1
102
RTVSPropertyOp35
 70
     1
102
RTVSPropertyOp36
 70
     1
102
RTVSPropertyOp37
 70
     1
102
RTVSPropertyOp38
 70
     1
102
RTVSPropertyOp39
 70
     1
102
RTVSPropertyOp40
 70
     1
102
RTVSPropertyOp41
 70
     1
102
RTVSPropertyOp42
 70
     1
102
RTVSPropertyOp43
 70
     1
102
RTVSPropertyOp44
 70
     1
102
RTVSPropertyOp45
 70
     1
102
RTVSPropertyOp46
 70
     1
102
RTVSPropertyOp47
 70
     1
102
RTVSPropertyOp48
 70
     1
102
RTVSPropertyOp49
 70
     1
102
RTVSPropertyOp50
 70
     1
102
RTVSPropertyOp51
 70
     0
102
RTVSPropertyOp52
 70
     0
102
RTVSPropertyOp53
 70
     1
102
RTVSPropertyOp54
 70
     1
102
RTVSPropertyOp55
 70
     1
102
RTVSPropertyOp56
 70
     1
102
RTVSPropertyOp57
 70
     1
102
RTVSPost2010Prop28
280
     0
102
RTVSPost2010PropOp28
 70
     1
102
RTVSPost2010Prop29
280
     1
102
RTVSPost2010PropOp29
 70
     1
102
RTVSPost2010Prop30
280
     1
102
RTVSPost2010PropOp30
 70
     1
102
RTVSPost2010Prop31
280
     0
102
RTVSPost2010PropOp31
 70
     1
102
RTVSPost2010Prop32
280
     0
102
RTVSPost2010PropOp32
 70
     1
102
RTVSPost2010Prop33
280
     0
102
RTVSPost2010PropOp33
 70
     1
102
RTVSPost2010Prop34
280
     0
102
RTVSPost2010PropOp34
 70
     1
102
RTVSPost2010Prop35
280
     0
102
RTVSPost2010PropOp35
 70
     1
102
RTVSPost2010Prop36
280
     0
102
RTVSPost2010PropOp36
 70
     1
102
RTVSPost2010Prop37
 90
       50
102
RTVSPost2010PropOp37
 70
     1
102
RTVSPost2010Prop38
140
0.0
102
RTVSPost2010PropOp38
 70
     1
102
RTVSPost2010Prop39
140
1.0
102
RTVSPost2010PropOp39
 70
     1
102
RTVSPost2010Prop40
 90
        0
102
RTVSPost2010PropOp40
 70
     1
102
RTVSPost2010Prop41ColorIndex
 90
       18
102
RTVSPost2010Prop41ColorRGB
 90
        0
102
RTVSPost2010PropOp41
 70
     1
102
RTVSPost2010Prop42
 90
       50
102
RTVSPost2010PropOp42
 70
     1
102
RTVSPost2010Prop43
 90
        3
102
RTVSPost2010PropOp43
 70
     1
102
RTVSPost2010Prop44ColorIndex
 90
        5
102
RTVSPost2010Prop44ColorRGB
 90
      255
102
RTVSPost2010PropOp44
 70
     1
102
RTVSPost2010Prop45
280
     0
102
RTVSPost2010PropOp45
 70
     1
102
RTVSPost2010Prop46
 90
       50
102
RTVSPost2010PropOp46
 70
     1
102
RTVSPost2010Prop47
 90
       50
102
RTVSPost2010PropOp47
 70
     1
102
RTVSPost2010Prop48
 90
       50
102
RTVSPost2010PropOp48
 70
     1
102
RTVSPost2010Prop49
280
     0
102
RTVSPost2010PropOp49
 70
     1
102
RTVSPost2010Prop50
 90
       50
102
RTVSPost2010PropOp50
 70
     1
102
RTVSPost2010Prop51ColorIndex
 90
      256
102
RTVSPost2010Prop51ColorRGB
 90
-16777216
102
RTVSPost2010PropOp51
 70
     0
102
RTVSPost2010Prop52
140
1.0
102
RTVSPost2010PropOp52
 70
     0
102
RTVSPost2010Prop53
 90
        2
102
RTVSPost2010PropOp53
 70
     1
102
RTVSPost2010Prop54
  1
strokes_ogs.tif
102
RTVSPost2010PropOp54
 70
     1
102
RTVSPost2010Prop55
280
     0
102
RTVSPost2010PropOp55
 70
     1
102
RTVSPost2010Prop56
140
1.0
102
RTVSPost2010PropOp56
 70
     1
102
RTVSPost2010Prop57
140
1.0
102
RTVSPost2010PropOp57
 70
     1
  0
XRECORD
  5
4AD
102
{ACAD_REACTORS
330
4AC
102
}
330
4AC
100
AcDbXrecord
280
     1
102
RTVSPropertyOp0
 70
     1
102
RTVSPropertyOp1
 70
     1
102
RTVSPropertyOp2
 70
     1
102
RTVSPropertyOp3
 70
     1
102
RTVSPropertyOp4
 70
     1
102
RTVSPropertyOp5
 70
     1
102
RTVSPropertyOp6
 70
     1
102
RTVSPropertyOp7
 70
     1
102
RTVSPropertyOp8
 70
     1
102
RTVSPropertyOp9
 70
     1
102
RTVSPropertyOp10
 70
     1
102
RTVSPropertyOp11
 70
     1
102
RTVSPropertyOp12
 70
     1
102
RTVSPropertyOp13
 70
     1
102
RTVSPropertyOp14
 70
     1
102
RTVSPropertyOp15
 70
     1
102
RTVSPropertyOp16
 70
     1
102
RTVSPropertyOp17
 70
     1
102
RTVSPropertyOp18
 70
     1
102
RTVSPropertyOp19
 70
     1
102
RTVSPropertyOp20
 70
     1
102
RTVSPropertyOp21
 70
     1
102
RTVSPropertyOp22
 70
     1
102
RTVSPropertyOp23
 70
     1
102
RTVSPropertyOp24
 70
     1
102
RTVSPropertyOp25
 70
     1
102
RTVSPropertyOp26
 70
     1
102
RTVSPropertyOp27
 70
     1
102
RTVSPropertyOp28
 70
     1
102
RTVSPropertyOp29
 70
     1
102
RTVSPropertyOp30
 70
     1
102
RTVSPropertyOp31
 70
     1
102
RTVSPropertyOp32
 70
     1
102
RTVSPropertyOp33
 70
     1
102
RTVSPropertyOp34
 70
     1
102
RTVSPropertyOp35
 70
     1
102
RTVSPropertyOp36
 70
     1
102
RTVSPropertyOp37
 70
     1
102
RTVSPropertyOp38
 70
     1
102
RTVSPropertyOp39
 70
     1
102
RTVSPropertyOp40
 70
     1
102
RTVSPropertyOp41
 70
     1
102
RTVSPropertyOp42
 70
     1
102
RTVSPropertyOp43
 70
     1
102
RTVSPropertyOp44
 70
     1
102
RTVSPropertyOp45
 70
     1
102
RTVSPropertyOp46
 70
     1
102
RTVSPropertyOp47
 70
     1
102
RTVSPropertyOp48
 70
     1
102
RTVSPropertyOp49
 70
     1
102
RTVSPropertyOp50
 70
     1
102
RTVSPropertyOp51
 70
     0
102
RTVSPropertyOp52
 70
     0
102
RTVSPropertyOp53
 70
     1
102
RTVSPropertyOp54
 70
     1
102
RTVSPropertyOp55
 70
     1
102
RTVSPropertyOp56
 70
     1
102
RTVSPropertyOp57
 70
     1
102
RTVSPost2010Prop28
280
     0
102
RTVSPost2010PropOp28
 70
     1
102
RTVSPost2010Prop29
280
     1
102
RTVSPost2010PropOp29
 70
     1
102
RTVSPost2010Prop30
280
     1
102
RTVSPost2010PropOp30
 70
     1
102
RTVSPost2010Prop31
280
     0
102
RTVSPost2010PropOp31
 70
     1
102
RTVSPost2010Prop32
280
     0
102
RTVSPost2010PropOp32
 70
     1
102
RTVSPost2010Prop33
280
     0
102
RTVSPost2010PropOp33
 70
     1
102
RTVSPost2010Prop34
280
     0
102
RTVSPost2010PropOp34
 70
     1
102
RTVSPost2010Prop35
280
     0
102
RTVSPost2010PropOp35
 70
     1
102
RTVSPost2010Prop36
280
     0
102
RTVSPost2010PropOp36
 70
     1
102
RTVSPost2010Prop37
 90
       50
102
RTVSPost2010PropOp37
 70
     1
102
RTVSPost2010Prop38
140
0.0
102
RTVSPost2010PropOp38
 70
     1
102
RTVSPost2010Prop39
140
1.0
102
RTVSPost2010PropOp39
 70
     1
102
RTVSPost2010Prop40
 90
        0
102
RTVSPost2010PropOp40
 70
     1
102
RTVSPost2010Prop41ColorIndex
 90
       18
102
RTVSPost2010Prop41ColorRGB
 90
        0
102
RTVSPost2010PropOp41
 70
     1
102
RTVSPost2010Prop42
 90
       50
102
RTVSPost2010PropOp42
 70
     1
102
RTVSPost2010Prop43
 90
        3
102
RTVSPost2010PropOp43
 70
     1
102
RTVSPost2010Prop44ColorIndex
 90
        5
102
RTVSPost2010Prop44ColorRGB
 90
      255
102
RTVSPost2010PropOp44
 70
     1
102
RTVSPost2010Prop45
280
     0
102
RTVSPost2010PropOp45
 70
     1
102
RTVSPost2010Prop46
 90
       50
102
RTVSPost2010PropOp46
 70
     1
102
RTVSPost2010Prop47
 90
       50
102
RTVSPost2010PropOp47
 70
     1
102
RTVSPost2010Prop48
 90
       50
102
RTVSPost2010PropOp48
 70
     1
102
RTVSPost2010Prop49
280
     0
102
RTVSPost2010PropOp49
 70
     1
102
RTVSPost2010Prop50
 90
       50
102
RTVSPost2010PropOp50
 70
     1
102
RTVSPost2010Prop51ColorIndex
 90
      256
102
RTVSPost2010Prop51ColorRGB
 90
-16777216
102
RTVSPost2010PropOp51
 70
     0
102
RTVSPost2010Prop52
140
1.0
102
RTVSPost2010PropOp52
 70
     0
102
RTVSPost2010Prop53
 90
        2
102
RTVSPost2010PropOp53
 70
     1
102
RTVSPost2010Prop54
  1
strokes_ogs.tif
102
RTVSPost2010PropOp54
 70
     1
102
RTVSPost2010Prop55
280
     0
102
RTVSPost2010PropOp55
 70
     1
102
RTVSPost2010Prop56
140
1.0
102
RTVSPost2010PropOp56
 70
     1
102
RTVSPost2010Prop57
140
1.0
102
RTVSPost2010PropOp57
 70
     1
  0
XRECORD
  5
4A7
102
{ACAD_REACTORS
330
4A6
102
}
330
4A6
100
AcDbXrecord
280
     1
102
RTVSPropertyOp0
 70
     1
102
RTVSPropertyOp1
 70
     1
102
RTVSPropertyOp2
 70
     1
102
RTVSPropertyOp3
 70
     1
102
RTVSPropertyOp4
 70
     1
102
RTVSPropertyOp5
 70
     1
102
RTVSPropertyOp6
 70
     1
102
RTVSPropertyOp7
 70
     1
102
RTVSPropertyOp8
 70
     1
102
RTVSPropertyOp9
 70
     1
102
RTVSPropertyOp10
 70
     1
102
RTVSPropertyOp11
 70
     1
102
RTVSPropertyOp12
 70
     1
102
RTVSPropertyOp13
 70
     1
102
RTVSPropertyOp14
 70
     1
102
RTVSPropertyOp15
 70
     1
102
RTVSPropertyOp16
 70
     1
102
RTVSPropertyOp17
 70
     1
102
RTVSPropertyOp18
 70
     1
102
RTVSPropertyOp19
 70
     1
102
RTVSPropertyOp20
 70
     1
102
RTVSPropertyOp21
 70
     1
102
RTVSPropertyOp22
 70
     1
102
RTVSPropertyOp23
 70
     1
102
RTVSPropertyOp24
 70
     1
102
RTVSPropertyOp25
 70
     1
102
RTVSPropertyOp26
 70
     1
102
RTVSPropertyOp27
 70
     1
102
RTVSPropertyOp28
 70
     1
102
RTVSPropertyOp29
 70
     1
102
RTVSPropertyOp30
 70
     1
102
RTVSPropertyOp31
 70
     1
102
RTVSPropertyOp32
 70
     1
102
RTVSPropertyOp33
 70
     1
102
RTVSPropertyOp34
 70
     1
102
RTVSPropertyOp35
 70
     1
102
RTVSPropertyOp36
 70
     1
102
RTVSPropertyOp37
 70
     1
102
RTVSPropertyOp38
 70
     1
102
RTVSPropertyOp39
 70
     1
102
RTVSPropertyOp40
 70
     1
102
RTVSPropertyOp41
 70
     1
102
RTVSPropertyOp42
 70
     1
102
RTVSPropertyOp43
 70
     1
102
RTVSPropertyOp44
 70
     1
102
RTVSPropertyOp45
 70
     1
102
RTVSPropertyOp46
 70
     1
102
RTVSPropertyOp47
 70
     1
102
RTVSPropertyOp48
 70
     1
102
RTVSPropertyOp49
 70
     1
102
RTVSPropertyOp50
 70
     1
102
RTVSPropertyOp51
 70
     0
102
RTVSPropertyOp52
 70
     0
102
RTVSPropertyOp53
 70
     1
102
RTVSPropertyOp54
 70
     1
102
RTVSPropertyOp55
 70
     1
102
RTVSPropertyOp56
 70
     1
102
RTVSPropertyOp57
 70
     1
102
RTVSPost2010Prop28
280
     0
102
RTVSPost2010PropOp28
 70
     1
102
RTVSPost2010Prop29
280
     1
102
RTVSPost2010PropOp29
 70
     1
102
RTVSPost2010Prop30
280
     1
102
RTVSPost2010PropOp30
 70
     1
102
RTVSPost2010Prop31
280
     0
102
RTVSPost2010PropOp31
 70
     1
102
RTVSPost2010Prop32
280
     0
102
RTVSPost2010PropOp32
 70
     1
102
RTVSPost2010Prop33
280
     0
102
RTVSPost2010PropOp33
 70
     1
102
RTVSPost2010Prop34
280
     0
102
RTVSPost2010PropOp34
 70
     1
102
RTVSPost2010Prop35
280
     0
102
RTVSPost2010PropOp35
 70
     1
102
RTVSPost2010Prop36
280
     0
102
RTVSPost2010PropOp36
 70
     1
102
RTVSPost2010Prop37
 90
       50
102
RTVSPost2010PropOp37
 70
     1
102
RTVSPost2010Prop38
140
0.0
102
RTVSPost2010PropOp38
 70
     1
102
RTVSPost2010Prop39
140
1.0
102
RTVSPost2010PropOp39
 70
     1
102
RTVSPost2010Prop40
 90
        0
102
RTVSPost2010PropOp40
 70
     1
102
RTVSPost2010Prop41ColorIndex
 90
       18
102
RTVSPost2010Prop41ColorRGB
 90
        0
102
RTVSPost2010PropOp41
 70
     1
102
RTVSPost2010Prop42
 90
       50
102
RTVSPost2010PropOp42
 70
     1
102
RTVSPost2010Prop43
 90
        3
102
RTVSPost2010PropOp43
 70
     1
102
RTVSPost2010Prop44ColorIndex
 90
        5
102
RTVSPost2010Prop44ColorRGB
 90
      255
102
RTVSPost2010PropOp44
 70
     1
102
RTVSPost2010Prop45
280
     0
102
RTVSPost2010PropOp45
 70
     1
102
RTVSPost2010Prop46
 90
       50
102
RTVSPost2010PropOp46
 70
     1
102
RTVSPost2010Prop47
 90
       50
102
RTVSPost2010PropOp47
 70
     1
102
RTVSPost2010Prop48
 90
       50
102
RTVSPost2010PropOp48
 70
     1
102
RTVSPost2010Prop49
280
     0
102
RTVSPost2010PropOp49
 70
     1
102
RTVSPost2010Prop50
 90
       50
102
RTVSPost2010PropOp50
 70
     1
102
RTVSPost2010Prop51ColorIndex
 90
      256
102
RTVSPost2010Prop51ColorRGB
 90
-16777216
102
RTVSPost2010PropOp51
 70
     0
102
RTVSPost2010Prop52
140
1.0
102
RTVSPost2010PropOp52
 70
     0
102
RTVSPost2010Prop53
 90
        2
102
RTVSPost2010PropOp53
 70
     1
102
RTVSPost2010Prop54
  1
strokes_ogs.tif
102
RTVSPost2010PropOp54
 70
     1
102
RTVSPost2010Prop55
280
     0
102
RTVSPost2010PropOp55
 70
     1
102
RTVSPost2010Prop56
140
1.0
102
RTVSPost2010PropOp56
 70
     1
102
RTVSPost2010Prop57
140
1.0
102
RTVSPost2010PropOp57
 70
     1
  0
XRECORD
  5
4A9
102
{ACAD_REACTORS
330
4A8
102
}
330
4A8
100
AcDbXrecord
280
     1
102
RTVSPropertyOp0
 70
     1
102
RTVSPropertyOp1
 70
     1
102
RTVSPropertyOp2
 70
     1
102
RTVSPropertyOp3
 70
     1
102
RTVSPropertyOp4
 70
     1
102
RTVSPropertyOp5
 70
     1
102
RTVSPropertyOp6
 70
     1
102
RTVSPropertyOp7
 70
     1
102
RTVSPropertyOp8
 70
     1
102
RTVSPropertyOp9
 70
     1
102
RTVSPropertyOp10
 70
     1
102
RTVSPropertyOp11
 70
     1
102
RTVSPropertyOp12
 70
     1
102
RTVSPropertyOp13
 70
     1
102
RTVSPropertyOp14
 70
     1
102
RTVSPropertyOp15
 70
     1
102
RTVSPropertyOp16
 70
     1
102
RTVSPropertyOp17
 70
     1
102
RTVSPropertyOp18
 70
     1
102
RTVSPropertyOp19
 70
     1
102
RTVSPropertyOp20
 70
     1
102
RTVSPropertyOp21
 70
     1
102
RTVSPropertyOp22
 70
     1
102
RTVSPropertyOp23
 70
     1
102
RTVSPropertyOp24
 70
     1
102
RTVSPropertyOp25
 70
     1
102
RTVSPropertyOp26
 70
     1
102
RTVSPropertyOp27
 70
     1
102
RTVSPropertyOp28
 70
     1
102
RTVSPropertyOp29
 70
     1
102
RTVSPropertyOp30
 70
     1
102
RTVSPropertyOp31
 70
     1
102
RTVSPropertyOp32
 70
     1
102
RTVSPropertyOp33
 70
     1
102
RTVSPropertyOp34
 70
     1
102
RTVSPropertyOp35
 70
     1
102
RTVSPropertyOp36
 70
     1
102
RTVSPropertyOp37
 70
     1
102
RTVSPropertyOp38
 70
     1
102
RTVSPropertyOp39
 70
     1
102
RTVSPropertyOp40
 70
     1
102
RTVSPropertyOp41
 70
     1
102
RTVSPropertyOp42
 70
     1
102
RTVSPropertyOp43
 70
     1
102
RTVSPropertyOp44
 70
     1
102
RTVSPropertyOp45
 70
     1
102
RTVSPropertyOp46
 70
     1
102
RTVSPropertyOp47
 70
     1
102
RTVSPropertyOp48
 70
     1
102
RTVSPropertyOp49
 70
     1
102
RTVSPropertyOp50
 70
     1
102
RTVSPropertyOp51
 70
     0
102
RTVSPropertyOp52
 70
     0
102
RTVSPropertyOp53
 70
     1
102
RTVSPropertyOp54
 70
     1
102
RTVSPropertyOp55
 70
     1
102
RTVSPropertyOp56
 70
     1
102
RTVSPropertyOp57
 70
     1
102
RTVSPost2010Prop28
280
     0
102
RTVSPost2010PropOp28
 70
     1
102
RTVSPost2010Prop29
280
     1
102
RTVSPost2010PropOp29
 70
     1
102
RTVSPost2010Prop30
280
     1
102
RTVSPost2010PropOp30
 70
     1
102
RTVSPost2010Prop31
280
     0
102
RTVSPost2010PropOp31
 70
     1
102
RTVSPost2010Prop32
280
     0
102
RTVSPost2010PropOp32
 70
     1
102
RTVSPost2010Prop33
280
     0
102
RTVSPost2010PropOp33
 70
     1
102
RTVSPost2010Prop34
280
     0
102
RTVSPost2010PropOp34
 70
     1
102
RTVSPost2010Prop35
280
     0
102
RTVSPost2010PropOp35
 70
     1
102
RTVSPost2010Prop36
280
     0
102
RTVSPost2010PropOp36
 70
     1
102
RTVSPost2010Prop37
 90
       50
102
RTVSPost2010PropOp37
 70
     1
102
RTVSPost2010Prop38
140
0.0
102
RTVSPost2010PropOp38
 70
     1
102
RTVSPost2010Prop39
140
1.0
102
RTVSPost2010PropOp39
 70
     1
102
RTVSPost2010Prop40
 90
        0
102
RTVSPost2010PropOp40
 70
     1
102
RTVSPost2010Prop41ColorIndex
 90
       18
102
RTVSPost2010Prop41ColorRGB
 90
        0
102
RTVSPost2010PropOp41
 70
     1
102
RTVSPost2010Prop42
 90
       50
102
RTVSPost2010PropOp42
 70
     1
102
RTVSPost2010Prop43
 90
        3
102
RTVSPost2010PropOp43
 70
     1
102
RTVSPost2010Prop44ColorIndex
 90
        5
102
RTVSPost2010Prop44ColorRGB
 90
      255
102
RTVSPost2010PropOp44
 70
     1
102
RTVSPost2010Prop45
280
     0
102
RTVSPost2010PropOp45
 70
     1
102
RTVSPost2010Prop46
 90
       50
102
RTVSPost2010PropOp46
 70
     1
102
RTVSPost2010Prop47
 90
       50
102
RTVSPost2010PropOp47
 70
     1
102
RTVSPost2010Prop48
 90
       50
102
RTVSPost2010PropOp48
 70
     1
102
RTVSPost2010Prop49
280
     0
102
RTVSPost2010PropOp49
 70
     1
102
RTVSPost2010Prop50
 90
       50
102
RTVSPost2010PropOp50
 70
     1
102
RTVSPost2010Prop51ColorIndex
 90
      256
102
RTVSPost2010Prop51ColorRGB
 90
-16777216
102
RTVSPost2010PropOp51
 70
     0
102
RTVSPost2010Prop52
140
1.0
102
RTVSPost2010PropOp52
 70
     0
102
RTVSPost2010Prop53
 90
        2
102
RTVSPost2010PropOp53
 70
     1
102
RTVSPost2010Prop54
  1
strokes_ogs.tif
102
RTVSPost2010PropOp54
 70
     1
102
RTVSPost2010Prop55
280
     0
102
RTVSPost2010PropOp55
 70
     1
102
RTVSPost2010Prop56
140
1.0
102
RTVSPost2010PropOp56
 70
     1
102
RTVSPost2010Prop57
140
1.0
102
RTVSPost2010PropOp57
 70
     1
  0
XRECORD
  5
499
102
{ACAD_REACTORS
330
498
102
}
330
498
100
AcDbXrecord
280
     1
102
RTVSPropertyOp0
 70
     1
102
RTVSPropertyOp1
 70
     1
102
RTVSPropertyOp2
 70
     1
102
RTVSPropertyOp3
 70
     1
102
RTVSPropertyOp4
 70
     1
102
RTVSPropertyOp5
 70
     1
102
RTVSPropertyOp6
 70
     1
102
RTVSPropertyOp7
 70
     1
102
RTVSPropertyOp8
 70
     1
102
RTVSPropertyOp9
 70
     1
102
RTVSPropertyOp10
 70
     1
102
RTVSPropertyOp11
 70
     1
102
RTVSPropertyOp12
 70
     1
102
RTVSPropertyOp13
 70
     1
102
RTVSPropertyOp14
 70
     1
102
RTVSPropertyOp15
 70
     1
102
RTVSPropertyOp16
 70
     1
102
RTVSPropertyOp17
 70
     1
102
RTVSPropertyOp18
 70
     1
102
RTVSPropertyOp19
 70
     1
102
RTVSPropertyOp20
 70
     1
102
RTVSPropertyOp21
 70
     1
102
RTVSPropertyOp22
 70
     1
102
RTVSPropertyOp23
 70
     1
102
RTVSPropertyOp24
 70
     1
102
RTVSPropertyOp25
 70
     1
102
RTVSPropertyOp26
 70
     1
102
RTVSPropertyOp27
 70
     1
102
RTVSPropertyOp28
 70
     1
102
RTVSPropertyOp29
 70
     1
102
RTVSPropertyOp30
 70
     1
102
RTVSPropertyOp31
 70
     1
102
RTVSPropertyOp32
 70
     1
102
RTVSPropertyOp33
 70
     1
102
RTVSPropertyOp34
 70
     1
102
RTVSPropertyOp35
 70
     1
102
RTVSPropertyOp36
 70
     1
102
RTVSPropertyOp37
 70
     1
102
RTVSPropertyOp38
 70
     1
102
RTVSPropertyOp39
 70
     1
102
RTVSPropertyOp40
 70
     1
102
RTVSPropertyOp41
 70
     1
102
RTVSPropertyOp42
 70
     1
102
RTVSPropertyOp43
 70
     1
102
RTVSPropertyOp44
 70
     1
102
RTVSPropertyOp45
 70
     1
102
RTVSPropertyOp46
 70
     1
102
RTVSPropertyOp47
 70
     1
102
RTVSPropertyOp48
 70
     1
102
RTVSPropertyOp49
 70
     1
102
RTVSPropertyOp50
 70
     1
102
RTVSPropertyOp51
 70
     0
102
RTVSPropertyOp52
 70
     0
102
RTVSPropertyOp53
 70
     1
102
RTVSPropertyOp54
 70
     1
102
RTVSPropertyOp55
 70
     1
102
RTVSPropertyOp56
 70
     1
102
RTVSPropertyOp57
 70
     1
102
RTVSPost2010Prop28
280
     0
102
RTVSPost2010PropOp28
 70
     1
102
RTVSPost2010Prop29
280
     1
102
RTVSPost2010PropOp29
 70
     1
102
RTVSPost2010Prop30
280
     1
102
RTVSPost2010PropOp30
 70
     1
102
RTVSPost2010Prop31
280
     0
102
RTVSPost2010PropOp31
 70
     1
102
RTVSPost2010Prop32
280
     0
102
RTVSPost2010PropOp32
 70
     1
102
RTVSPost2010Prop33
280
     0
102
RTVSPost2010PropOp33
 70
     1
102
RTVSPost2010Prop34
280
     0
102
RTVSPost2010PropOp34
 70
     1
102
RTVSPost2010Prop35
280
     0
102
RTVSPost2010PropOp35
 70
     1
102
RTVSPost2010Prop36
280
     0
102
RTVSPost2010PropOp36
 70
     1
102
RTVSPost2010Prop37
 90
       50
102
RTVSPost2010PropOp37
 70
     1
102
RTVSPost2010Prop38
140
0.0
102
RTVSPost2010PropOp38
 70
     1
102
RTVSPost2010Prop39
140
1.0
102
RTVSPost2010PropOp39
 70
     1
102
RTVSPost2010Prop40
 90
        0
102
RTVSPost2010PropOp40
 70
     1
102
RTVSPost2010Prop41ColorIndex
 90
       18
102
RTVSPost2010Prop41ColorRGB
 90
        0
102
RTVSPost2010PropOp41
 70
     1
102
RTVSPost2010Prop42
 90
       50
102
RTVSPost2010PropOp42
 70
     1
102
RTVSPost2010Prop43
 90
        3
102
RTVSPost2010PropOp43
 70
     1
102
RTVSPost2010Prop44ColorIndex
 90
        5
102
RTVSPost2010Prop44ColorRGB
 90
      255
102
RTVSPost2010PropOp44
 70
     1
102
RTVSPost2010Prop45
280
     0
102
RTVSPost2010PropOp45
 70
     1
102
RTVSPost2010Prop46
 90
       50
102
RTVSPost2010PropOp46
 70
     1
102
RTVSPost2010Prop47
 90
       50
102
RTVSPost2010PropOp47
 70
     1
102
RTVSPost2010Prop48
 90
       50
102
RTVSPost2010PropOp48
 70
     1
102
RTVSPost2010Prop49
280
     0
102
RTVSPost2010PropOp49
 70
     1
102
RTVSPost2010Prop50
 90
       50
102
RTVSPost2010PropOp50
 70
     1
102
RTVSPost2010Prop51ColorIndex
 90
      256
102
RTVSPost2010Prop51ColorRGB
 90
-16777216
102
RTVSPost2010PropOp51
 70
     0
102
RTVSPost2010Prop52
140
1.0
102
RTVSPost2010PropOp52
 70
     0
102
RTVSPost2010Prop53
 90
        2
102
RTVSPost2010PropOp53
 70
     1
102
RTVSPost2010Prop54
  1
strokes_ogs.tif
102
RTVSPost2010PropOp54
 70
     1
102
RTVSPost2010Prop55
280
     0
102
RTVSPost2010PropOp55
 70
     1
102
RTVSPost2010Prop56
140
1.0
102
RTVSPost2010PropOp56
 70
     1
102
RTVSPost2010Prop57
140
1.0
102
RTVSPost2010PropOp57
 70
     1
  0
XRECORD
  5
48B
102
{ACAD_REACTORS
330
48A
102
}
330
48A
100
AcDbXrecord
280
     1
102
RTVSPropertyOp0
 70
     1
102
RTVSPropertyOp1
 70
     1
102
RTVSPropertyOp2
 70
     1
102
RTVSPropertyOp3
 70
     1
102
RTVSPropertyOp4
 70
     1
102
RTVSPropertyOp5
 70
     1
102
RTVSPropertyOp6
 70
     1
102
RTVSPropertyOp7
 70
     1
102
RTVSPropertyOp8
 70
     1
102
RTVSPropertyOp9
 70
     1
102
RTVSPropertyOp10
 70
     1
102
RTVSPropertyOp11
 70
     1
102
RTVSPropertyOp12
 70
     1
102
RTVSPropertyOp13
 70
     1
102
RTVSPropertyOp14
 70
     1
102
RTVSPropertyOp15
 70
     1
102
RTVSPropertyOp16
 70
     1
102
RTVSPropertyOp17
 70
     1
102
RTVSPropertyOp18
 70
     1
102
RTVSPropertyOp19
 70
     1
102
RTVSPropertyOp20
 70
     1
102
RTVSPropertyOp21
 70
     1
102
RTVSPropertyOp22
 70
     1
102
RTVSPropertyOp23
 70
     1
102
RTVSPropertyOp24
 70
     1
102
RTVSPropertyOp25
 70
     1
102
RTVSPropertyOp26
 70
     1
102
RTVSPropertyOp27
 70
     1
102
RTVSPropertyOp28
 70
     1
102
RTVSPropertyOp29
 70
     1
102
RTVSPropertyOp30
 70
     1
102
RTVSPropertyOp31
 70
     1
102
RTVSPropertyOp32
 70
     1
102
RTVSPropertyOp33
 70
     1
102
RTVSPropertyOp34
 70
     1
102
RTVSPropertyOp35
 70
     1
102
RTVSPropertyOp36
 70
     1
102
RTVSPropertyOp37
 70
     1
102
RTVSPropertyOp38
 70
     1
102
RTVSPropertyOp39
 70
     1
102
RTVSPropertyOp40
 70
     1
102
RTVSPropertyOp41
 70
     1
102
RTVSPropertyOp42
 70
     1
102
RTVSPropertyOp43
 70
     1
102
RTVSPropertyOp44
 70
     1
102
RTVSPropertyOp45
 70
     1
102
RTVSPropertyOp46
 70
     1
102
RTVSPropertyOp47
 70
     1
102
RTVSPropertyOp48
 70
     1
102
RTVSPropertyOp49
 70
     1
102
RTVSPropertyOp50
 70
     1
102
RTVSPropertyOp51
 70
     0
102
RTVSPropertyOp52
 70
     0
102
RTVSPropertyOp53
 70
     1
102
RTVSPropertyOp54
 70
     1
102
RTVSPropertyOp55
 70
     1
102
RTVSPropertyOp56
 70
     1
102
RTVSPropertyOp57
 70
     1
102
RTVSPost2010Prop28
280
     0
102
RTVSPost2010PropOp28
 70
     1
102
RTVSPost2010Prop29
280
     1
102
RTVSPost2010PropOp29
 70
     1
102
RTVSPost2010Prop30
280
     1
102
RTVSPost2010PropOp30
 70
     1
102
RTVSPost2010Prop31
280
     0
102
RTVSPost2010PropOp31
 70
     1
102
RTVSPost2010Prop32
280
     0
102
RTVSPost2010PropOp32
 70
     1
102
RTVSPost2010Prop33
280
     0
102
RTVSPost2010PropOp33
 70
     1
102
RTVSPost2010Prop34
280
     0
102
RTVSPost2010PropOp34
 70
     1
102
RTVSPost2010Prop35
280
     0
102
RTVSPost2010PropOp35
 70
     1
102
RTVSPost2010Prop36
280
     0
102
RTVSPost2010PropOp36
 70
     1
102
RTVSPost2010Prop37
 90
       50
102
RTVSPost2010PropOp37
 70
     1
102
RTVSPost2010Prop38
140
0.0
102
RTVSPost2010PropOp38
 70
     1
102
RTVSPost2010Prop39
140
1.0
102
RTVSPost2010PropOp39
 70
     1
102
RTVSPost2010Prop40
 90
        0
102
RTVSPost2010PropOp40
 70
     1
102
RTVSPost2010Prop41ColorIndex
 90
       18
102
RTVSPost2010Prop41ColorRGB
 90
        0
102
RTVSPost2010PropOp41
 70
     1
102
RTVSPost2010Prop42
 90
       50
102
RTVSPost2010PropOp42
 70
     1
102
RTVSPost2010Prop43
 90
        3
102
RTVSPost2010PropOp43
 70
     1
102
RTVSPost2010Prop44ColorIndex
 90
        5
102
RTVSPost2010Prop44ColorRGB
 90
      255
102
RTVSPost2010PropOp44
 70
     1
102
RTVSPost2010Prop45
280
     0
102
RTVSPost2010PropOp45
 70
     1
102
RTVSPost2010Prop46
 90
       50
102
RTVSPost2010PropOp46
 70
     1
102
RTVSPost2010Prop47
 90
       50
102
RTVSPost2010PropOp47
 70
     1
102
RTVSPost2010Prop48
 90
       50
102
RTVSPost2010PropOp48
 70
     1
102
RTVSPost2010Prop49
280
     0
102
RTVSPost2010PropOp49
 70
     1
102
RTVSPost2010Prop50
 90
       50
102
RTVSPost2010PropOp50
 70
     1
102
RTVSPost2010Prop51ColorIndex
 90
      256
102
RTVSPost2010Prop51ColorRGB
 90
-16777216
102
RTVSPost2010PropOp51
 70
     0
102
RTVSPost2010Prop52
140
1.0
102
RTVSPost2010PropOp52
 70
     0
102
RTVSPost2010Prop53
 90
        2
102
RTVSPost2010PropOp53
 70
     1
102
RTVSPost2010Prop54
  1
strokes_ogs.tif
102
RTVSPost2010PropOp54
 70
     1
102
RTVSPost2010Prop55
280
     0
102
RTVSPost2010PropOp55
 70
     1
102
RTVSPost2010Prop56
140
1.0
102
RTVSPost2010PropOp56
 70
     1
102
RTVSPost2010Prop57
140
1.0
102
RTVSPost2010PropOp57
 70
     1
  0
XRECORD
  5
4AB
102
{ACAD_REACTORS
330
4AA
102
}
330
4AA
100
AcDbXrecord
280
     1
102
RTVSPropertyOp0
 70
     1
102
RTVSPropertyOp1
 70
     1
102
RTVSPropertyOp2
 70
     1
102
RTVSPropertyOp3
 70
     1
102
RTVSPropertyOp4
 70
     1
102
RTVSPropertyOp5
 70
     1
102
RTVSPropertyOp6
 70
     1
102
RTVSPropertyOp7
 70
     1
102
RTVSPropertyOp8
 70
     1
102
RTVSPropertyOp9
 70
     1
102
RTVSPropertyOp10
 70
     1
102
RTVSPropertyOp11
 70
     1
102
RTVSPropertyOp12
 70
     1
102
RTVSPropertyOp13
 70
     1
102
RTVSPropertyOp14
 70
     1
102
RTVSPropertyOp15
 70
     1
102
RTVSPropertyOp16
 70
     1
102
RTVSPropertyOp17
 70
     1
102
RTVSPropertyOp18
 70
     1
102
RTVSPropertyOp19
 70
     1
102
RTVSPropertyOp20
 70
     1
102
RTVSPropertyOp21
 70
     1
102
RTVSPropertyOp22
 70
     1
102
RTVSPropertyOp23
 70
     1
102
RTVSPropertyOp24
 70
     1
102
RTVSPropertyOp25
 70
     1
102
RTVSPropertyOp26
 70
     1
102
RTVSPropertyOp27
 70
     1
102
RTVSPropertyOp28
 70
     1
102
RTVSPropertyOp29
 70
     1
102
RTVSPropertyOp30
 70
     1
102
RTVSPropertyOp31
 70
     1
102
RTVSPropertyOp32
 70
     1
102
RTVSPropertyOp33
 70
     1
102
RTVSPropertyOp34
 70
     1
102
RTVSPropertyOp35
 70
     1
102
RTVSPropertyOp36
 70
     1
102
RTVSPropertyOp37
 70
     1
102
RTVSPropertyOp38
 70
     1
102
RTVSPropertyOp39
 70
     1
102
RTVSPropertyOp40
 70
     1
102
RTVSPropertyOp41
 70
     1
102
RTVSPropertyOp42
 70
     1
102
RTVSPropertyOp43
 70
     1
102
RTVSPropertyOp44
 70
     1
102
RTVSPropertyOp45
 70
     1
102
RTVSPropertyOp46
 70
     1
102
RTVSPropertyOp47
 70
     1
102
RTVSPropertyOp48
 70
     1
102
RTVSPropertyOp49
 70
     1
102
RTVSPropertyOp50
 70
     1
102
RTVSPropertyOp51
 70
     0
102
RTVSPropertyOp52
 70
     0
102
RTVSPropertyOp53
 70
     1
102
RTVSPropertyOp54
 70
     1
102
RTVSPropertyOp55
 70
     1
102
RTVSPropertyOp56
 70
     1
102
RTVSPropertyOp57
 70
     1
102
RTVSPost2010Prop28
280
     0
102
RTVSPost2010PropOp28
 70
     1
102
RTVSPost2010Prop29
280
     1
102
RTVSPost2010PropOp29
 70
     1
102
RTVSPost2010Prop30
280
     1
102
RTVSPost2010PropOp30
 70
     1
102
RTVSPost2010Prop31
280
     0
102
RTVSPost2010PropOp31
 70
     1
102
RTVSPost2010Prop32
280
     0
102
RTVSPost2010PropOp32
 70
     1
102
RTVSPost2010Prop33
280
     0
102
RTVSPost2010PropOp33
 70
     1
102
RTVSPost2010Prop34
280
     0
102
RTVSPost2010PropOp34
 70
     1
102
RTVSPost2010Prop35
280
     0
102
RTVSPost2010PropOp35
 70
     1
102
RTVSPost2010Prop36
280
     0
102
RTVSPost2010PropOp36
 70
     1
102
RTVSPost2010Prop37
 90
       50
102
RTVSPost2010PropOp37
 70
     1
102
RTVSPost2010Prop38
140
0.0
102
RTVSPost2010PropOp38
 70
     1
102
RTVSPost2010Prop39
140
1.0
102
RTVSPost2010PropOp39
 70
     1
102
RTVSPost2010Prop40
 90
        0
102
RTVSPost2010PropOp40
 70
     1
102
RTVSPost2010Prop41ColorIndex
 90
       18
102
RTVSPost2010Prop41ColorRGB
 90
        0
102
RTVSPost2010PropOp41
 70
     1
102
RTVSPost2010Prop42
 90
       50
102
RTVSPost2010PropOp42
 70
     1
102
RTVSPost2010Prop43
 90
        3
102
RTVSPost2010PropOp43
 70
     1
102
RTVSPost2010Prop44ColorIndex
 90
        5
102
RTVSPost2010Prop44ColorRGB
 90
      255
102
RTVSPost2010PropOp44
 70
     1
102
RTVSPost2010Prop45
280
     0
102
RTVSPost2010PropOp45
 70
     1
102
RTVSPost2010Prop46
 90
       50
102
RTVSPost2010PropOp46
 70
     1
102
RTVSPost2010Prop47
 90
       50
102
RTVSPost2010PropOp47
 70
     1
102
RTVSPost2010Prop48
 90
       50
102
RTVSPost2010PropOp48
 70
     1
102
RTVSPost2010Prop49
280
     0
102
RTVSPost2010PropOp49
 70
     1
102
RTVSPost2010Prop50
 90
       50
102
RTVSPost2010PropOp50
 70
     1
102
RTVSPost2010Prop51ColorIndex
 90
      256
102
RTVSPost2010Prop51ColorRGB
 90
-16777216
102
RTVSPost2010PropOp51
 70
     0
102
RTVSPost2010Prop52
140
1.0
102
RTVSPost2010PropOp52
 70
     0
102
RTVSPost2010Prop53
 90
        2
102
RTVSPost2010PropOp53
 70
     1
102
RTVSPost2010Prop54
  1
strokes_ogs.tif
102
RTVSPost2010PropOp54
 70
     1
102
RTVSPost2010Prop55
280
     0
102
RTVSPost2010PropOp55
 70
     1
102
RTVSPost2010Prop56
140
1.0
102
RTVSPost2010PropOp56
 70
     1
102
RTVSPost2010Prop57
140
1.0
102
RTVSPost2010PropOp57
 70
     1
  0
ENDSEC
  0
EOF
