  0
SECTION
  2
HEADER
  9
$ACADVER
  1
AC1018
  9
$ACADMAINTVER
 70
     0
  9
$DWGCODEPAGE
  3
ANSI_1252
  9
$INSBASE
 10
0.0
 20
0.0
 30
0.0
  9
$EXTMIN
 10
0.0649808772088798
 20
-1.055044607335967
 30
0.0035
  9
$EXTMAX
 10
3.589322353345539
 20
1.4369140121546
 30
-0.0035
  9
$LIMMIN
 10
0.0
 20
0.0
  9
$LIMMAX
 10
12.0
 20
9.0
  9
$ORTHOMODE
 70
     0
  9
$REGENMODE
 70
     1
  9
$FILLMODE
 70
     1
  9
$QTEXTMODE
 70
     0
  9
$MIRRTEXT
 70
     1
  9
$LTSCALE
 40
1.0
  9
$ATTMODE
 70
     1
  9
$TEXTSIZE
 40
0.2
  9
$TRACEWID
 40
0.05
  9
$TEXTSTYLE
  7
Simplex
  9
$CLAYER
  8
0
  9
$CELTYPE
  6
ByLayer
  9
$CECOLOR
 62
   256
  9
$CELTSCALE
 40
1.0
  9
$DISPSILH
 70
     0
  9
$DIMSCALE
 40
1.0
  9
$DIMASZ
 40
0.18
  9
$DIMEXO
 40
0.0625
  9
$DIMDLI
 40
0.38
  9
$DIMRND
 40
0.0
  9
$DIMDLE
 40
0.0
  9
$DIMEXE
 40
0.18
  9
$DIMTP
 40
0.0
  9
$DIMTM
 40
0.0
  9
$DIMTXT
 40
0.18
  9
$DIMCEN
 40
0.09
  9
$DIMTSZ
 40
0.0
  9
$DIMTOL
 70
     0
  9
$DIMLIM
 70
     0
  9
$DIMTIH
 70
     1
  9
$DIMTOH
 70
     1
  9
$DIMSE1
 70
     0
  9
$DIMSE2
 70
     0
  9
$DIMTAD
 70
     0
  9
$DIMZIN
 70
     0
  9
$DIMBLK
  1

  9
$DIMASO
 70
     1
  9
$DIMSHO
 70
     1
  9
$DIMPOST
  1

  9
$DIMAPOST
  1

  9
$DIMALT
 70
     0
  9
$DIMALTD
 70
     2
  9
$DIMALTF
 40
25.4
  9
$DIMLFAC
 40
1.0
  9
$DIMTOFL
 70
     0
  9
$DIMTVP
 40
0.0
  9
$DIMTIX
 70
     0
  9
$DIMSOXD
 70
     0
  9
$DIMSAH
 70
     0
  9
$DIMBLK1
  1

  9
$DIMBLK2
  1

  9
$DIMSTYLE
  2
Standard
  9
$DIMCLRD
 70
     0
  9
$DIMCLRE
 70
     0
  9
$DIMCLRT
 70
     0
  9
$DIMTFAC
 40
1.0
  9
$DIMGAP
 40
0.09
  9
$DIMJUST
 70
     0
  9
$DIMSD1
 70
     0
  9
$DIMSD2
 70
     0
  9
$DIMTOLJ
 70
     1
  9
$DIMTZIN
 70
     0
  9
$DIMALTZ
 70
     0
  9
$DIMALTTZ
 70
     0
  9
$DIMUPT
 70
     0
  9
$DIMDEC
 70
     4
  9
$DIMTDEC
 70
     4
  9
$DIMALTU
 70
     2
  9
$DIMALTTD
 70
     2
  9
$DIMTXSTY
  7
Standard
  9
$DIMAUNIT
 70
     0
  9
$DIMADEC
 70
     0
  9
$DIMALTRND
 40
0.0
  9
$DIMAZIN
 70
     0
  9
$DIMDSEP
 70
    46
  9
$DIMATFIT
 70
     3
  9
$DIMFRAC
 70
     0
  9
$DIMLDRBLK
  1

  9
$DIMLUNIT
 70
     2
  9
$DIMLWD
 70
    -2
  9
$DIMLWE
 70
    -2
  9
$DIMTMOVE
 70
     0
  9
$LUNITS
 70
     2
  9
$LUPREC
 70
     4
  9
$SKETCHINC
 40
0.1
  9
$FILLETRAD
 40
0.5
  9
$AUNITS
 70
     0
  9
$AUPREC
 70
     0
  9
$MENU
  1
.
  9
$ELEVATION
 40
0.0
  9
$PELEVATION
 40
0.0
  9
$THICKNESS
 40
0.0
  9
$LIMCHECK
 70
     0
  9
$CHAMFERA
 40
0.5
  9
$CHAMFERB
 40
0.5
  9
$CHAMFERC
 40
1.0
  9
$CHAMFERD
 40
0.0
  9
$SKPOLY
 70
     0
  9
$TDCREATE
 40
2452381.314152083
  9
$TDUCREATE
 40
2452380.897485417
  9
$TDUPDATE
 40
2457966.307480706
  9
$TDUUPDATE
 40
2457965.890814039
  9
$TDINDWG
 40
0.0040921296
  9
$TDUSRTIMER
 40
0.0040921296
  9
$USRTIMER
 70
     1
  9
$ANGBASE
 50
0.0
  9
$ANGDIR
 70
     0
  9
$PDMODE
 70
     0
  9
$PDSIZE
 40
0.0
  9
$PLINEWID
 40
0.0
  9
$SPLFRAME
 70
     0
  9
$SPLINETYPE
 70
     6
  9
$SPLINESEGS
 70
     8
  9
$HANDSEED
  5
53F
  9
$SURFTAB1
 70
     6
  9
$SURFTAB2
 70
     6
  9
$SURFTYPE
 70
     6
  9
$SURFU
 70
     6
  9
$SURFV
 70
     6
  9
$UCSBASE
  2

  9
$UCSNAME
  2

  9
$UCSORG
 10
0.0
 20
0.0
 30
0.0
  9
$UCSXDIR
 10
1.0
 20
0.0
 30
0.0
  9
$UCSYDIR
 10
0.0
 20
1.0
 30
0.0
  9
$UCSORTHOREF
  2

  9
$UCSORTHOVIEW
 70
     0
  9
$UCSORGTOP
 10
0.0
 20
0.0
 30
0.0
  9
$UCSORGBOTTOM
 10
0.0
 20
0.0
 30
0.0
  9
$UCSORGLEFT
 10
0.0
 20
0.0
 30
0.0
  9
$UCSORGRIGHT
 10
0.0
 20
0.0
 30
0.0
  9
$UCSORGFRONT
 10
0.0
 20
0.0
 30
0.0
  9
$UCSORGBACK
 10
0.0
 20
0.0
 30
0.0
  9
$PUCSBASE
  2

  9
$PUCSNAME
  2

  9
$PUCSORG
 10
0.0
 20
0.0
 30
0.0
  9
$PUCSXDIR
 10
1.0
 20
0.0
 30
0.0
  9
$PUCSYDIR
 10
0.0
 20
1.0
 30
0.0
  9
$PUCSORTHOREF
  2

  9
$PUCSORTHOVIEW
 70
     0
  9
$PUCSORGTOP
 10
0.0
 20
0.0
 30
0.0
  9
$PUCSORGBOTTOM
 10
0.0
 20
0.0
 30
0.0
  9
$PUCSORGLEFT
 10
0.0
 20
0.0
 30
0.0
  9
$PUCSORGRIGHT
 10
0.0
 20
0.0
 30
0.0
  9
$PUCSORGFRONT
 10
0.0
 20
0.0
 30
0.0
  9
$PUCSORGBACK
 10
0.0
 20
0.0
 30
0.0
  9
$USERI1
 70
     0
  9
$USERI2
 70
     0
  9
$USERI3
 70
     0
  9
$USERI4
 70
     0
  9
$USERI5
 70
     0
  9
$USERR1
 40
0.0
  9
$USERR2
 40
0.0
  9
$USERR3
 40
0.0
  9
$USERR4
 40
0.0
  9
$USERR5
 40
0.0
  9
$WORLDVIEW
 70
     1
  9
$SHADEDGE
 70
     3
  9
$SHADEDIF
 70
    70
  9
$TILEMODE
 70
     1
  9
$MAXACTVP
 70
    64
  9
$PINSBASE
 10
0.0
 20
0.0
 30
0.0
  9
$PLIMCHECK
 70
     0
  9
$PEXTMIN
 10
1.000000000000000E+20
 20
1.000000000000000E+20
 30
1.000000000000000E+20
  9
$PEXTMAX
 10
-1.000000000000000E+20
 20
-1.000000000000000E+20
 30
-1.000000000000000E+20
  9
$PLIMMIN
 10
0.0
 20
0.0
  9
$PLIMMAX
 10
12.0
 20
9.0
  9
$UNITMODE
 70
     0
  9
$VISRETAIN
 70
     1
  9
$PLINEGEN
 70
     0
  9
$PSLTSCALE
 70
     1
  9
$TREEDEPTH
 70
  3020
  9
$CMLSTYLE
  2
Standard
  9
$CMLJUST
 70
     0
  9
$CMLSCALE
 40
1.0
  9
$PROXYGRAPHICS
 70
     1
  9
$MEASUREMENT
 70
     0
  9
$CELWEIGHT
370
    -1
  9
$ENDCAPS
280
     0
  9
$JOINSTYLE
280
     0
  9
$LWDISPLAY
290
     1
  9
$INSUNITS
 70
     0
  9
$HYPERLINKBASE
  1

  9
$STYLESHEET
  1

  9
$XEDIT
290
     1
  9
$CEPSNTYPE
380
     0
  9
$PSTYLEMODE
290
     1
  9
$FINGERPRINTGUID
  2
{2DA8D5D2-0A6F-4433-BE9F-7C818D36D6ED}
  9
$VERSIONGUID
  2
{A098EE71-2063-4C44-BF23-3920F6FD3DB3}
  9
$EXTNAMES
290
     1
  9
$PSVPSCALE
 40
0.0
  9
$OLESTARTUP
290
     0
  9
$SORTENTS
280
   127
  9
$INDEXCTL
280
     0
  9
$HIDETEXT
280
     1
  9
$XCLIPFRAME
290
     0
  9
$HALOGAP
280
     0
  9
$OBSCOLOR
 70
   257
  9
$OBSLTYPE
280
     0
  9
$INTERSECTIONDISPLAY
280
     0
  9
$INTERSECTIONCOLOR
 70
   257
  9
$DIMASSOC
280
     1
  9
$PROJECTNAME
  1

  0
ENDSEC
  0
SECTION
  2
CLASSES
  0
CLASS
  1
ACDBDICTIONARYWDFLT
  2
AcDbDictionaryWithDefault
  3
ObjectDBX Classes
 90
        0
 91
        4
280
     0
281
     0
  0
CLASS
  1
ACDBPLACEHOLDER
  2
AcDbPlaceHolder
  3
ObjectDBX Classes
 90
        0
 91
        1
280
     0
281
     0
  0
CLASS
  1
LAYOUT
  2
AcDbLayout
  3
ObjectDBX Classes
 90
        0
 91
        1
280
     0
281
     0
  0
CLASS
  1
DICTIONARYVAR
  2
AcDbDictionaryVar
  3
ObjectDBX Classes
 90
        0
 91
        4
280
     0
281
     0
  0
CLASS
  1
VISUALSTYLE
  2
AcDbVisualStyle
  3
ObjectDBX Classes
 90
     4095
 91
        4
280
     0
281
     0
  0
CLASS
  1
SCALE
  2
AcDbScale
  3
ObjectDBX Classes
 90
     1153
 91
        4
280
     0
281
     0
  0
CLASS
  1
MATERIAL
  2
AcDbMaterial
  3
ObjectDBX Classes
 90
     1153
 91
        4
280
     0
281
     0
  0
CLASS
  1
TABLESTYLE
  2
AcDbTableStyle
  3
ObjectDBX Classes
 90
     4095
 91
        4
280
     0
281
     0
  0
CLASS
  1
MLEADERSTYLE
  2
AcDbMLeaderStyle
  3
ACDB_MLEADERSTYLE_CLASS
 90
     4095
 91
        4
280
     0
281
     0
  0
CLASS
  1
RASTERVARIABLES
  2
AcDbRasterVariables
  3
ISM
 90
        0
 91
        4
280
     0
281
     0
  0
CLASS
  1
SUN
  2
AcDbSun
  3
SCENEOE
 90
     1153
 91
        4
280
     0
281
     0
  0
CLASS
  1
CELLSTYLEMAP
  2
AcDbCellStyleMap
  3
ObjectDBX Classes
 90
     1152
 91
        4
280
     0
281
     0
  0
ENDSEC
  0
SECTION
  2
TABLES
  0
TABLE
  2
VPORT
  5
8
102
{ACAD_XDICTIONARY
360
4F9
102
}
330
0
100
AcDbSymbolTable
 70
     2
  0
VPORT
  5
55
330
8
100
AcDbSymbolTableRecord
100
AcDbViewportTableRecord
  2
*Active
 70
     0
 10
0.0
 20
0.0
 11
1.0
 21
1.0
 12
0.0
 22
0.0
 13
0.0
 23
0.0
 14
0.5
 24
0.5
 15
0.5
 25
0.5
 16
0.0
 26
0.0
 36
1.0
 17
1.82715161527721
 27
0.1909347024093166
 37
0.0
 40
2.74115448143962
 41
1.414285714285715
 42
50.0
 43
0.0
 44
0.0
 50
0.0
 51
0.0
 71
     8
 72
   100
 73
     1
 74
     3
 75
     0
 76
     0
 77
     0
 78
     0
281
     0
 65
     1
110
0.0
120
0.0
130
0.0
111
1.0
121
0.0
131
0.0
112
0.0
122
1.0
132
0.0
 79
     0
146
0.0
  0
ENDTAB
  0
TABLE
  2
LTYPE
  5
5
330
0
100
AcDbSymbolTable
 70
    25
  0
LTYPE
  5
14
330
5
100
AcDbSymbolTableRecord
100
AcDbLinetypeTableRecord
  2
ByBlock
 70
     0
  3

 72
    65
 73
     0
 40
0.0
  0
LTYPE
  5
15
330
5
100
AcDbSymbolTableRecord
100
AcDbLinetypeTableRecord
  2
ByLayer
 70
     0
  3

 72
    65
 73
     0
 40
0.0
  0
LTYPE
  5
16
330
5
100
AcDbSymbolTableRecord
100
AcDbLinetypeTableRecord
  2
Continuous
 70
     0
  3
Solid line
 72
    65
 73
     0
 40
0.0
  0
LTYPE
  5
2D
330
5
100
AcDbSymbolTableRecord
100
AcDbLinetypeTableRecord
  2
BORDER
 70
     0
  3
Border __ __ . __ __ . __ __ . __ __ . __ __ .
 72
    65
 73
     6
 40
1.75
 49
0.5
 74
     0
 49
-0.25
 74
     0
 49
0.5
 74
     0
 49
-0.25
 74
     0
 49
0.0
 74
     0
 49
-0.25
 74
     0
  0
LTYPE
  5
2E
330
5
100
AcDbSymbolTableRecord
100
AcDbLinetypeTableRecord
  2
BORDER2
 70
     0
  3
Border (.5x) __.__.__.__.__.__.__.__.__.__.__.
 72
    65
 73
     6
 40
0.875
 49
0.25
 74
     0
 49
-0.125
 74
     0
 49
0.25
 74
     0
 49
-0.125
 74
     0
 49
0.0
 74
     0
 49
-0.125
 74
     0
  0
LTYPE
  5
2F
330
5
100
AcDbSymbolTableRecord
100
AcDbLinetypeTableRecord
  2
BORDERX2
 70
     0
  3
Border (2x) ____  ____  .  ____  ____  .  ___
 72
    65
 73
     6
 40
3.5
 49
1.0
 74
     0
 49
-0.5
 74
     0
 49
1.0
 74
     0
 49
-0.5
 74
     0
 49
0.0
 74
     0
 49
-0.5
 74
     0
  0
LTYPE
  5
30
330
5
100
AcDbSymbolTableRecord
100
AcDbLinetypeTableRecord
  2
CENTER
 70
     0
  3
Center ____ _ ____ _ ____ _ ____ _ ____ _ ____
 72
    65
 73
     4
 40
2.0
 49
1.25
 74
     0
 49
-0.25
 74
     0
 49
0.25
 74
     0
 49
-0.25
 74
     0
  0
LTYPE
  5
31
330
5
100
AcDbSymbolTableRecord
100
AcDbLinetypeTableRecord
  2
CENTER2
 70
     0
  3
Center (.5x) ___ _ ___ _ ___ _ ___ _ ___ _ ___
 72
    65
 73
     4
 40
1.125
 49
0.75
 74
     0
 49
-0.125
 74
     0
 49
0.125
 74
     0
 49
-0.125
 74
     0
  0
LTYPE
  5
32
330
5
100
AcDbSymbolTableRecord
100
AcDbLinetypeTableRecord
  2
CENTERX2
 70
     0
  3
Center (2x) ________  __  ________  __  _____
 72
    65
 73
     4
 40
4.0
 49
2.5
 74
     0
 49
-0.5
 74
     0
 49
0.5
 74
     0
 49
-0.5
 74
     0
  0
LTYPE
  5
33
330
5
100
AcDbSymbolTableRecord
100
AcDbLinetypeTableRecord
  2
DASHDOT
 70
     0
  3
Dash dot __ . __ . __ . __ . __ . __ . __ . __
 72
    65
 73
     4
 40
1.0
 49
0.5
 74
     0
 49
-0.25
 74
     0
 49
0.0
 74
     0
 49
-0.25
 74
     0
  0
LTYPE
  5
34
330
5
100
AcDbSymbolTableRecord
100
AcDbLinetypeTableRecord
  2
DASHDOT2
 70
     0
  3
Dash dot (.5x) _._._._._._._._._._._._._._._.
 72
    65
 73
     4
 40
0.5
 49
0.25
 74
     0
 49
-0.125
 74
     0
 49
0.0
 74
     0
 49
-0.125
 74
     0
  0
LTYPE
  5
35
330
5
100
AcDbSymbolTableRecord
100
AcDbLinetypeTableRecord
  2
DASHDOTX2
 70
     0
  3
Dash dot (2x) ____  .  ____  .  ____  .  ___
 72
    65
 73
     4
 40
2.0
 49
1.0
 74
     0
 49
-0.5
 74
     0
 49
0.0
 74
     0
 49
-0.5
 74
     0
  0
LTYPE
  5
36
330
5
100
AcDbSymbolTableRecord
100
AcDbLinetypeTableRecord
  2
DASHED
 70
     0
  3
Dashed __ __ __ __ __ __ __ __ __ __ __ __ __ _
 72
    65
 73
     2
 40
0.75
 49
0.5
 74
     0
 49
-0.25
 74
     0
  0
LTYPE
  5
37
330
5
100
AcDbSymbolTableRecord
100
AcDbLinetypeTableRecord
  2
DASHED2
 70
     0
  3
Dashed (.5x) _ _ _ _ _ _ _ _ _ _ _ _ _ _ _ _ _
 72
    65
 73
     2
 40
0.375
 49
0.25
 74
     0
 49
-0.125
 74
     0
  0
LTYPE
  5
38
330
5
100
AcDbSymbolTableRecord
100
AcDbLinetypeTableRecord
  2
DASHEDX2
 70
     0
  3
Dashed (2x) ____  ____  ____  ____  ____  ___
 72
    65
 73
     2
 40
1.5
 49
1.0
 74
     0
 49
-0.5
 74
     0
  0
LTYPE
  5
39
330
5
100
AcDbSymbolTableRecord
100
AcDbLinetypeTableRecord
  2
DIVIDE
 70
     0
  3
Divide ____ . . ____ . . ____ . . ____ . . ____
 72
    65
 73
     6
 40
1.25
 49
0.5
 74
     0
 49
-0.25
 74
     0
 49
0.0
 74
     0
 49
-0.25
 74
     0
 49
0.0
 74
     0
 49
-0.25
 74
     0
  0
LTYPE
  5
3A
330
5
100
AcDbSymbolTableRecord
100
AcDbLinetypeTableRecord
  2
DIVIDE2
 70
     0
  3
Divide (.5x) __..__..__..__..__..__..__..__.._
 72
    65
 73
     6
 40
0.625
 49
0.25
 74
     0
 49
-0.125
 74
     0
 49
0.0
 74
     0
 49
-0.125
 74
     0
 49
0.0
 74
     0
 49
-0.125
 74
     0
  0
LTYPE
  5
3B
330
5
100
AcDbSymbolTableRecord
100
AcDbLinetypeTableRecord
  2
DIVIDEX2
 70
     0
  3
Divide (2x) ________  .  .  ________  .  .  _
 72
    65
 73
     6
 40
2.5
 49
1.0
 74
     0
 49
-0.5
 74
     0
 49
0.0
 74
     0
 49
-0.5
 74
     0
 49
0.0
 74
     0
 49
-0.5
 74
     0
  0
LTYPE
  5
3C
330
5
100
AcDbSymbolTableRecord
100
AcDbLinetypeTableRecord
  2
DOT
 70
     0
  3
Dot . . . . . . . . . . . . . . . . . . . . . .
 72
    65
 73
     2
 40
0.25
 49
0.0
 74
     0
 49
-0.25
 74
     0
  0
LTYPE
  5
3D
330
5
100
AcDbSymbolTableRecord
100
AcDbLinetypeTableRecord
  2
DOT2
 70
     0
  3
Dot (.5x) .....................................
 72
    65
 73
     2
 40
0.125
 49
0.0
 74
     0
 49
-0.125
 74
     0
  0
LTYPE
  5
3E
330
5
100
AcDbSymbolTableRecord
100
AcDbLinetypeTableRecord
  2
DOTX2
 70
     0
  3
Dot (2x) .  .  .  .  .  .  .  .  .  .  .  .  . 
 72
    65
 73
     2
 40
0.5
 49
0.0
 74
     0
 49
-0.5
 74
     0
  0
LTYPE
  5
3F
330
5
100
AcDbSymbolTableRecord
100
AcDbLinetypeTableRecord
  2
HIDDEN
 70
     0
  3
Hidden __ __ __ __ __ __ __ __ __ __ __ __ __ _
 72
    65
 73
     2
 40
0.375
 49
0.25
 74
     0
 49
-0.125
 74
     0
  0
LTYPE
  5
40
330
5
100
AcDbSymbolTableRecord
100
AcDbLinetypeTableRecord
  2
HIDDEN2
 70
     0
  3
Hidden (.5x) _ _ _ _ _ _ _ _ _ _ _ _ _ _ _ _ _
 72
    65
 73
     2
 40
0.1875
 49
0.125
 74
     0
 49
-0.0625
 74
     0
  0
LTYPE
  5
41
330
5
100
AcDbSymbolTableRecord
100
AcDbLinetypeTableRecord
  2
HIDDENX2
 70
     0
  3
Hidden (2x) ____ ____ ____ ____ ____ ____ ____
 72
    65
 73
     2
 40
0.75
 49
0.5
 74
     0
 49
-0.25
 74
     0
  0
LTYPE
  5
42
330
5
100
AcDbSymbolTableRecord
100
AcDbLinetypeTableRecord
  2
PHANTOM
 70
     0
  3
Phantom ______  __  __  ______  __  __  ______
 72
    65
 73
     6
 40
2.5
 49
1.25
 74
     0
 49
-0.25
 74
     0
 49
0.25
 74
     0
 49
-0.25
 74
     0
 49
0.25
 74
     0
 49
-0.25
 74
     0
  0
LTYPE
  5
43
330
5
100
AcDbSymbolTableRecord
100
AcDbLinetypeTableRecord
  2
PHANTOM2
 70
     0
  3
Phantom (.5x) ___ _ _ ___ _ _ ___ _ _ ___ _ _
 72
    65
 73
     6
 40
1.25
 49
0.625
 74
     0
 49
-0.125
 74
     0
 49
0.125
 74
     0
 49
-0.125
 74
     0
 49
0.125
 74
     0
 49
-0.125
 74
     0
  0
LTYPE
  5
44
330
5
100
AcDbSymbolTableRecord
100
AcDbLinetypeTableRecord
  2
PHANTOMX2
 70
     0
  3
Phantom (2x) ____________    ____    ____   _
 72
    65
 73
     6
 40
5.0
 49
2.5
 74
     0
 49
-0.5
 74
     0
 49
0.5
 74
     0
 49
-0.5
 74
     0
 49
0.5
 74
     0
 49
-0.5
 74
     0
  0
ENDTAB
  0
TABLE
  2
LAYER
  5
2
330
0
100
AcDbSymbolTable
 70
     5
  0
LAYER
  5
10
330
2
100
AcDbSymbolTableRecord
100
AcDbLayerTableRecord
  2
0
 70
     0
 62
     7
  6
Continuous
370
    -3
390
F
  0
LAYER
  5
9B
330
2
100
AcDbSymbolTableRecord
100
AcDbLayerTableRecord
  2
1
 70
     0
 62
     7
  6
Continuous
370
     0
390
F
  0
LAYER
  5
9C
330
2
100
AcDbSymbolTableRecord
100
AcDbLayerTableRecord
  2
2
 70
     0
 62
     7
  6
Continuous
370
     0
390
F
  0
LAYER
  5
9D
330
2
100
AcDbSymbolTableRecord
100
AcDbLayerTableRecord
  2
3
 70
     0
 62
     7
  6
Continuous
370
     0
390
F
  0
LAYER
  5
4BF
330
2
100
AcDbSymbolTableRecord
100
AcDbLayerTableRecord
  2
Defpoints
 70
     0
 62
     7
  6
Continuous
290
     0
370
    -3
390
F
  0
ENDTAB
  0
TABLE
  2
STYLE
  5
3
330
0
100
AcDbSymbolTable
 70
     8
  0
STYLE
  5
11
330
3
100
AcDbSymbolTableRecord
100
AcDbTextStyleTableRecord
  2
Standard
 70
     0
 40
0.0
 41
1.0
 50
0.0
 71
     0
 42
0.2
  3
txt
  4

  0
STYLE
  5
2C
330
3
100
AcDbSymbolTableRecord
100
AcDbTextStyleTableRecord
  2

 70
     1
 40
0.0
 41
1.0
 50
0.0
 71
     0
 42
0.2
  3
ltypeshp.shx
  4

  0
STYLE
  5
4A
330
3
100
AcDbSymbolTableRecord
100
AcDbTextStyleTableRecord
  2
Simplex
 70
     0
 40
0.0
 41
1.0
 50
0.0
 71
     0
 42
0.2
  3
simplex.shx
  4

  0
STYLE
  5
4B
330
3
100
AcDbSymbolTableRecord
100
AcDbTextStyleTableRecord
  2
BigFont
 70
     0
 40
0.0
 41
1.0
 50
0.0
 71
     0
 42
0.2
  3
simplex.shx
  4
bigfont.shx
  0
STYLE
  5
E1
330
3
100
AcDbSymbolTableRecord
100
AcDbTextStyleTableRecord
  2
DC_TEXTSTYLE4
 70
     0
 40
0.2
 41
1.0
 50
0.0
 71
     0
 42
0.2
  3
arialbi.ttf
  4

1001
ACAD
1000
Arial
1071
 50331682
  0
STYLE
  5
E6
330
3
100
AcDbSymbolTableRecord
100
AcDbTextStyleTableRecord
  2
DC_TEXTSTYLE5
 70
     0
 40
0.2
 41
1.0
 50
0.0
 71
     0
 42
0.2
  3
arial.ttf
  4

1001
ACAD
1000
Arial
1071
       34
  0
STYLE
  5
108
330
3
100
AcDbSymbolTableRecord
100
AcDbTextStyleTableRecord
  2
DC_TEXTSTYLE6
 70
     0
 40
0.2
 41
1.0
 50
0.0
 71
     0
 42
0.2
  3
timesbd.ttf
  4

1001
ACAD
1000
Times New Roman
1071
 33554450
  0
STYLE
  5
4BE
330
3
100
AcDbSymbolTableRecord
100
AcDbTextStyleTableRecord
  2
DC_TEXTSTYLE7
 70
     0
 40
0.03
 41
1.0
 50
0.0
 71
     0
 42
0.2
  3
arial.ttf
  4

1001
ACAD
1000
Arial
1071
        4
  0
ENDTAB
  0
TABLE
  2
VIEW
  5
6
330
0
100
AcDbSymbolTable
 70
     0
  0
ENDTAB
  0
TABLE
  2
UCS
  5
7
330
0
100
AcDbSymbolTable
 70
     0
  0
ENDTAB
  0
TABLE
  2
APPID
  5
9
330
0
100
AcDbSymbolTable
 70
     2
  0
APPID
  5
12
330
9
100
AcDbSymbolTableRecord
100
AcDbRegAppTableRecord
  2
ACAD
 70
     0
  0
APPID
  5
536
330
9
100
AcDbSymbolTableRecord
100
AcDbRegAppTableRecord
  2
ACAD_MLEADERVER
 70
     0
  0
ENDTAB
  0
TABLE
  2
DIMSTYLE
  5
A
330
0
100
AcDbSymbolTable
 70
     1
100
AcDbDimStyleTable
  0
DIMSTYLE
105
27
102
{ACAD_REACTORS
330
4BD
330
4CC
330
4DB
102
}
330
A
100
AcDbSymbolTableRecord
100
AcDbDimStyleTableRecord
  2
Standard
 70
     0
178
     0
340
11
  0
ENDTAB
  0
TABLE
  2
BLOCK_RECORD
  5
1
330
0
100
AcDbSymbolTable
 70
     5
  0
BLOCK_RECORD
  5
1F
330
1
100
AcDbSymbolTableRecord
100
AcDbBlockTableRecord
  2
*Model_Space
340
22
  0
BLOCK_RECORD
  5
1B
330
1
100
AcDbSymbolTableRecord
100
AcDbBlockTableRecord
  2
*Paper_Space
340
1E
  0
BLOCK_RECORD
  5
9E
330
1
100
AcDbSymbolTableRecord
100
AcDbBlockTableRecord
  2
1
340
0
  0
BLOCK_RECORD
  5
4C0
330
1
100
AcDbSymbolTableRecord
100
AcDbBlockTableRecord
  2
*D2
340
0
  0
BLOCK_RECORD
  5
4CD
330
1
100
AcDbSymbolTableRecord
100
AcDbBlockTableRecord
  2
*D3
340
0
  0
BLOCK_RECORD
  5
4DC
330
1
100
AcDbSymbolTableRecord
100
AcDbBlockTableRecord
  2
*D4
340
0
  0
ENDTAB
  0
ENDSEC
  0
SECTION
  2
BLOCKS
  0
BLOCK
  5
20
330
1F
100
AcDbEntity
  8
0
100
AcDbBlockBegin
  2
*Model_Space
 70
     0
 10
0.0
 20
0.0
 30
0.0
  3
*Model_Space
  1

  0
ENDBLK
  5
21
330
1F
100
AcDbEntity
  8
0
100
AcDbBlockEnd
  0
BLOCK
  5
1C
330
1B
100
AcDbEntity
 67
     1
  8
0
100
AcDbBlockBegin
  2
*Paper_Space
 70
     0
 10
0.0
 20
0.0
 30
0.0
  3
*Paper_Space
  1

  0
ENDBLK
  5
1D
330
1B
100
AcDbEntity
 67
     1
  8
0
100
AcDbBlockEnd
  0
BLOCK
  5
D4
330
9E
100
AcDbEntity
  8
0
100
AcDbBlockBegin
  2
1
 70
     0
 10
2.070519440650411
 20
0.0289406770784656
 30
0.0
  3
1
  1

  0
POLYLINE
  5
9F
330
9E
100
AcDbEntity
  8
1
  6
Continuous
 62
     7
 48
0.0007778464144901
370
     0
100
AcDb2dPolyline
 66
     1
 10
0.0
 20
0.0
 30
0.0
  0
VERTEX
  5
A0
330
9F
100
AcDbEntity
  8
1
  6
Continuous
 62
     7
 48
0.0007778464144901
100
AcDbVertex
100
AcDb2dVertex
 10
1.955720805690217
 20
-0.0352176592544551
 30
0.0
 40
14.95258802544959
 41
14.95258802544959
  0
VERTEX
  5
A1
330
9F
100
AcDbEntity
  8
1
  6
Continuous
 62
     7
 48
0.0007778464144901
100
AcDbVertex
100
AcDb2dVertex
 10
1.955720805690217
 20
-0.0352176592544551
 30
0.0
 40
14.95258802544959
 41
14.95258802544959
  0
SEQEND
  5
A2
330
9F
100
AcDbEntity
  8
1
  6
Continuous
 62
     7
 48
0.0007778464144901
370
     0
  0
POLYLINE
  5
A3
330
9E
100
AcDbEntity
  8
1
  6
Continuous
 62
     7
 48
0.0007778464144901
370
     0
100
AcDb2dPolyline
 66
     1
 10
0.0
 20
0.0
 30
0.0
  0
VERTEX
  5
A4
330
A3
100
AcDbEntity
  8
1
  6
Continuous
 62
     7
 48
0.0007778464144901
100
AcDbVertex
100
AcDb2dVertex
 10
2.158527691105051
 20
-0.0493014707415963
 30
0.0
 40
14.95258802544959
 41
14.95258802544959
  0
VERTEX
  5
A5
330
A3
100
AcDbEntity
  8
1
  6
Continuous
 62
     7
 48
0.0007778464144901
100
AcDbVertex
100
AcDb2dVertex
 10
2.139837842002362
 20
-0.0352176592544551
 30
0.0
 40
14.95258802544959
 41
14.95258802544959
  0
SEQEND
  5
A6
330
A3
100
AcDbEntity
  8
1
  6
Continuous
 62
     7
 48
0.0007778464144901
370
     0
  0
POLYLINE
  5
A7
330
9E
100
AcDbEntity
  8
1
  6
Continuous
 62
     7
 48
0.0007778464144901
370
     0
100
AcDb2dPolyline
 66
     1
 10
0.0
 20
0.0
 30
0.0
  0
VERTEX
  5
A8
330
A7
100
AcDbEntity
  8
1
  6
Continuous
 62
     7
 48
0.0007778464144901
100
AcDbVertex
100
AcDb2dVertex
 10
1.961354330285074
 20
-0.0352176592544551
 30
0.0
 40
14.95258802544959
 41
14.95258802544959
  0
VERTEX
  5
A9
330
A7
100
AcDbEntity
  8
1
  6
Continuous
 62
     7
 48
0.0007778464144901
100
AcDbVertex
100
AcDb2dVertex
 10
1.955720805690217
 20
-0.029584134659599
 30
0.0
 40
14.95258802544959
 41
14.95258802544959
  0
SEQEND
  5
AA
330
A7
100
AcDbEntity
  8
1
  6
Continuous
 62
     7
 48
0.0007778464144901
370
     0
  0
POLYLINE
  5
AB
330
9E
100
AcDbEntity
  8
1
  6
Continuous
 62
     7
 48
0.0007778464144901
370
     0
100
AcDb2dPolyline
 66
     1
 10
0.0
 20
0.0
 30
0.0
  0
VERTEX
  5
AC
330
AB
100
AcDbEntity
  8
1
  6
Continuous
 62
     7
 48
0.0007778464144901
100
AcDbVertex
100
AcDb2dVertex
 10
2.158527691105051
 20
0.0549187342632486
 30
0.0
 40
14.95258802544959
 41
14.95258802544959
  0
VERTEX
  5
AD
330
AB
100
AcDbEntity
  8
1
  6
Continuous
 62
     7
 48
0.0007778464144901
100
AcDbVertex
100
AcDb2dVertex
 10
1.955720805690217
 20
0.0549187342632486
 30
0.0
 40
14.95258802544959
 41
14.95258802544959
  0
SEQEND
  5
AE
330
AB
100
AcDbEntity
  8
1
  6
Continuous
 62
     7
 48
0.0007778464144901
370
     0
  0
POLYLINE
  5
AF
330
9E
100
AcDbEntity
  8
1
  6
Continuous
 62
     7
 48
0.0007778464144901
370
     0
100
AcDb2dPolyline
 66
     1
 10
0.0
 20
0.0
 30
0.0
  0
VERTEX
  5
B0
330
AF
100
AcDbEntity
  8
1
  6
Continuous
 62
     7
 48
0.0007778464144901
100
AcDbVertex
100
AcDb2dVertex
 10
2.158527691105051
 20
0.1140707425092417
 30
0.0
 40
14.95258802544959
 41
14.95258802544959
  0
VERTEX
  5
B1
330
AF
100
AcDbEntity
  8
1
  6
Continuous
 62
     7
 48
0.0007778464144901
100
AcDbVertex
100
AcDb2dVertex
 10
2.139837842002362
 20
0.0999869310221004
 30
0.0
 40
14.95258802544959
 41
14.95258802544959
  0
SEQEND
  5
B2
330
AF
100
AcDbEntity
  8
1
  6
Continuous
 62
     7
 48
0.0007778464144901
370
     0
  0
POLYLINE
  5
B3
330
9E
100
AcDbEntity
  8
1
  6
Continuous
 62
     7
 48
0.0007778464144901
370
     0
100
AcDb2dPolyline
 66
     1
 10
0.0
 20
0.0
 30
0.0
  0
VERTEX
  5
B4
330
B3
100
AcDbEntity
  8
1
  6
Continuous
 62
     7
 48
0.0007778464144901
100
AcDbVertex
100
AcDb2dVertex
 10
1.961354330285074
 20
0.0999869310221004
 30
0.0
 40
14.95258802544959
 41
14.95258802544959
  0
VERTEX
  5
B5
330
B3
100
AcDbEntity
  8
1
  6
Continuous
 62
     7
 48
0.0007778464144901
100
AcDbVertex
100
AcDb2dVertex
 10
1.955720805690217
 20
0.0943534064272444
 30
0.0
 40
14.95258802544959
 41
14.95258802544959
  0
SEQEND
  5
B6
330
B3
100
AcDbEntity
  8
1
  6
Continuous
 62
     7
 48
0.0007778464144901
370
     0
  0
POLYLINE
  5
B7
330
9E
100
AcDbEntity
  8
1
  6
Continuous
 62
     7
 48
0.0007778464144901
370
     0
100
AcDb2dPolyline
 66
     1
 10
0.0
 20
0.0
 30
0.0
  0
VERTEX
  5
B8
330
B7
100
AcDbEntity
  8
1
  6
Continuous
 62
     7
 48
0.0007778464144901
100
AcDbVertex
100
AcDb2dVertex
 10
2.158527691105051
 20
0.0098505375043967
 30
0.0
 40
14.95258802544959
 41
14.95258802544959
  0
VERTEX
  5
B9
330
B7
100
AcDbEntity
  8
1
  6
Continuous
 62
     7
 48
0.0007778464144901
100
AcDbVertex
100
AcDb2dVertex
 10
1.955720805690217
 20
0.0098505375043967
 30
0.0
 40
14.95258802544959
 41
14.95258802544959
  0
SEQEND
  5
BA
330
B7
100
AcDbEntity
  8
1
  6
Continuous
 62
     7
 48
0.0007778464144901
370
     0
  0
POLYLINE
  5
BB
330
9E
100
AcDbEntity
  8
1
  6
Continuous
 62
     7
 48
0.0007778464144901
370
     0
100
AcDb2dPolyline
 66
     1
 10
0.0
 20
0.0
 30
0.0
  0
VERTEX
  5
BC
330
BB
100
AcDbEntity
  8
1
  6
Continuous
 62
     7
 48
0.0007778464144901
100
AcDbVertex
100
AcDb2dVertex
 10
2.152894166510194
 20
0.0549187342632486
 30
0.0
 40
14.95258802544959
 41
14.95258802544959
  0
VERTEX
  5
BD
330
BB
100
AcDbEntity
  8
1
  6
Continuous
 62
     7
 48
0.0007778464144901
100
AcDbVertex
100
AcDb2dVertex
 10
1.961354330285074
 20
0.0549187342632486
 30
0.0
 40
14.95258802544959
 41
14.95258802544959
  0
SEQEND
  5
BE
330
BB
100
AcDbEntity
  8
1
  6
Continuous
 62
     7
 48
0.0007778464144901
370
     0
  0
POLYLINE
  5
BF
330
9E
100
AcDbEntity
  8
1
  6
Continuous
 62
     7
 48
0.0007778464144901
370
     0
100
AcDb2dPolyline
 66
     1
 10
0.0
 20
0.0
 30
0.0
  0
VERTEX
  5
C0
330
BF
100
AcDbEntity
  8
1
  6
Continuous
 62
     7
 48
0.0007778464144901
100
AcDbVertex
100
AcDb2dVertex
 10
2.158527691105051
 20
-0.0493014707415963
 30
0.0
 40
14.95258802544959
 41
14.95258802544959
  0
VERTEX
  5
C1
330
BF
100
AcDbEntity
  8
1
  6
Continuous
 62
     7
 48
0.0007778464144901
100
AcDbVertex
100
AcDb2dVertex
 10
2.158527691105051
 20
0.1140707425092422
 30
0.0
 40
14.95258802544959
 41
14.95258802544959
  0
SEQEND
  5
C2
330
BF
100
AcDbEntity
  8
1
  6
Continuous
 62
     7
 48
0.0007778464144901
370
     0
  0
POLYLINE
  5
C3
330
9E
100
AcDbEntity
  8
1
  6
Continuous
 62
     7
 48
0.0007778464144901
370
     0
100
AcDb2dPolyline
 66
     1
 10
0.0
 20
0.0
 30
0.0
 70
   128
  0
VERTEX
  5
C4
330
C3
100
AcDbEntity
  8
1
  6
Continuous
 62
     7
 48
0.0007778464144901
100
AcDbVertex
100
AcDb2dVertex
 10
2.139837842002362
 20
0.0999869310221004
 30
0.0
 40
14.95258802544959
 41
14.95258802544959
  0
VERTEX
  5
C5
330
C3
100
AcDbEntity
  8
1
  6
Continuous
 62
     7
 48
0.0007778464144901
100
AcDbVertex
100
AcDb2dVertex
 10
1.961354330285074
 20
0.0999869310221004
 30
0.0
 40
14.95258802544959
 41
14.95258802544959
  0
VERTEX
  5
C6
330
C3
100
AcDbEntity
  8
1
  6
Continuous
 62
     7
 48
0.0007778464144901
100
AcDbVertex
100
AcDb2dVertex
 10
1.955720805690217
 20
0.0943534064272443
 30
0.0
 40
14.95258802544959
 41
14.95258802544959
  0
SEQEND
  5
C7
330
C3
100
AcDbEntity
  8
1
  6
Continuous
 62
     7
 48
0.0007778464144901
370
     0
  0
POLYLINE
  5
C8
330
9E
100
AcDbEntity
  8
1
  6
Continuous
 62
     7
 48
0.0007778464144901
370
     0
100
AcDb2dPolyline
 66
     1
 10
0.0
 20
0.0
 30
0.0
 70
   128
  0
VERTEX
  5
C9
330
C8
100
AcDbEntity
  8
1
  6
Continuous
 62
     7
 48
0.0007778464144901
100
AcDbVertex
100
AcDb2dVertex
 10
2.139837842002362
 20
-0.0352176592544551
 30
0.0
 40
14.95258802544959
 41
14.95258802544959
  0
VERTEX
  5
CA
330
C8
100
AcDbEntity
  8
1
  6
Continuous
 62
     7
 48
0.0007778464144901
100
AcDbVertex
100
AcDb2dVertex
 10
1.961354330285074
 20
-0.0352176592544551
 30
0.0
 40
14.95258802544959
 41
14.95258802544959
  0
VERTEX
  5
CB
330
C8
100
AcDbEntity
  8
1
  6
Continuous
 62
     7
 48
0.0007778464144901
100
AcDbVertex
100
AcDb2dVertex
 10
1.955720805690217
 20
-0.029584134659599
 30
0.0
 40
14.95258802544959
 41
14.95258802544959
  0
SEQEND
  5
CC
330
C8
100
AcDbEntity
  8
1
  6
Continuous
 62
     7
 48
0.0007778464144901
370
     0
  0
POLYLINE
  5
CD
330
9E
100
AcDbEntity
  8
1
  6
Continuous
 62
     7
 48
0.0007778464144901
370
     0
100
AcDb2dPolyline
 66
     1
 10
0.0
 20
0.0
 30
0.0
  0
VERTEX
  5
CE
330
CD
100
AcDbEntity
  8
1
  6
Continuous
 62
     7
 48
0.0007778464144901
100
AcDbVertex
100
AcDb2dVertex
 10
1.955720805690217
 20
-0.029584134659599
 30
0.0
 40
14.95258802544959
 41
14.95258802544959
  0
VERTEX
  5
CF
330
CD
100
AcDbEntity
  8
1
  6
Continuous
 62
     7
 48
0.0007778464144901
100
AcDbVertex
100
AcDb2dVertex
 10
1.955720805690217
 20
0.0943534064272442
 30
0.0
 40
14.95258802544959
 41
14.95258802544959
  0
SEQEND
  5
D0
330
CD
100
AcDbEntity
  8
1
  6
Continuous
 62
     7
 48
0.0007778464144901
370
     0
  0
HATCH
  5
D1
330
9E
100
AcDbEntity
  8
1
  6
Continuous
 62
     7
 48
0.0021224820283175
370
     0
100
AcDbHatch
 10
0.0
 20
0.0
 30
0.0
210
0.0
220
0.0
230
1.0
  2
DC_ANSI31
 70
     0
 71
     0
 91
        1
 92
        3
 72
     0
 73
     1
 93
        6
 10
2.158527691105051
 20
0.0549187342632487
 10
1.955720805690217
 20
0.0549187342632487
 10
1.955720805690217
 20
0.0943534064272431
 10
1.961354330285074
 20
0.0999869310221004
 10
2.139837842002365
 20
0.0999869310221005
 10
2.158527691105051
 20
0.1140707425092424
 97
        0
 75
     0
 76
     2
 52
0.0
 41
50.0
 77
     0
 78
     1
 53
45.0
 43
0.0
 44
0.0
 45
-0.0150082143516992
 46
0.0150082143516992
 79
     1
 49
4.244964056635093
 98
        1
 10
0.0
 20
0.0
  0
HATCH
  5
D2
330
9E
100
AcDbEntity
  8
1
  6
Continuous
 62
     7
 48
0.0021224820283175
370
     0
100
AcDbHatch
 10
0.0
 20
0.0
 30
0.0
210
0.0
220
0.0
230
1.0
  2
DC_ANSI31
 70
     0
 71
     0
 91
        1
 92
        3
 72
     0
 73
     1
 93
        6
 10
2.158527691105051
 20
-0.0493014707415962
 10
2.139837842002363
 20
-0.0352176592544551
 10
1.961354330285074
 20
-0.0352176592544551
 10
1.955720805690217
 20
-0.0295841346595981
 10
1.955720805690217
 20
0.0098505375043967
 10
2.158527691105051
 20
0.0098505375043967
 97
        0
 75
     0
 76
     2
 52
0.0
 41
50.0
 77
     0
 78
     1
 53
45.0
 43
0.0
 44
0.0
 45
-0.0150082143516992
 46
0.0150082143516992
 79
     1
 49
4.244964056635093
 98
        1
 10
0.0
 20
0.0
  0
LINE
  5
D3
330
9E
100
AcDbEntity
  8
1
  6
Continuous
 62
     7
 48
0.0006791942490616
370
     0
100
AcDbLine
 10
1.955720805690217
 20
0.0323846358838226
 30
0.0
 11
2.158527691105051
 21
0.0323846358838229
 31
0.0
  0
ENDBLK
  5
D5
330
9E
100
AcDbEntity
  8
0
100
AcDbBlockEnd
  0
BLOCK
  5
4C1
330
4C0
100
AcDbEntity
  8
0
100
AcDbBlockBegin
  2
*D2
 70
     1
 10
0.0
 20
0.0
 30
0.0
  3
*D2
  1

  0
LINE
  5
4C3
330
4C0
100
AcDbEntity
  8
1
  6
Continuous
 62
     0
 48
0.0000424496405664
370
    -2
100
AcDbLine
 10
1.607406247987708
 20
0.5933865926713331
 30
0.0
 11
1.607406247987708
 21
0.8182689868099668
 31
0.0
  0
LINE
  5
4C4
330
4C0
100
AcDbEntity
  8
1
  6
Continuous
 62
     0
 48
0.0000424496405664
370
    -2
100
AcDbLine
 10
2.413406247989586
 20
0.6862689868098343
 30
0.0
 11
2.413406247989586
 21
0.8182689868099668
 31
0.0
  0
LINE
  5
4C5
330
4C0
100
AcDbEntity
  8
1
  6
Continuous
 62
     0
 48
0.0000424496405664
370
    -2
100
AcDbLine
 10
1.637406247987709
 20
0.8032689868099668
 30
0.0
 11
2.383406247989587
 21
0.8032689868099668
 31
0.0
  0
SOLID
  5
4C6
330
4C0
100
AcDbEntity
  8
1
 62
     0
100
AcDbTrace
 10
1.637406247987709
 20
0.8082689868099668
 30
0.0
 11
1.637406247987709
 21
0.7982689868099668
 31
0.0
 12
1.607406247987708
 22
0.8032689868099668
 32
0.0
 13
1.607406247987708
 23
0.8032689868099668
 33
0.0
  0
SOLID
  5
4C7
330
4C0
100
AcDbEntity
  8
1
 62
     0
100
AcDbTrace
 10
2.383406247989587
 20
0.7982689868099668
 30
0.0
 11
2.383406247989587
 21
0.8082689868099668
 31
0.0
 12
2.413406247989586
 22
0.8032689868099668
 32
0.0
 13
2.413406247989586
 23
0.8032689868099668
 33
0.0
  0
MTEXT
  5
4C8
330
4C0
100
AcDbEntity
  8
1
 62
     0
370
     0
100
AcDbMText
 10
2.010406247988648
 20
0.8335839868099668
 30
0.0
 40
0.03
 41
0.0
 71
     5
 72
     1
  1
\A1;0.806
  7
DC_TEXTSTYLE7
 73
     1
 44
1.0
  0
POINT
  5
4C9
330
4C0
100
AcDbEntity
  8
Defpoints
 62
     0
100
AcDbPoint
 10
1.607406247987708
 20
0.5633865926713331
 30
0.0
  0
POINT
  5
4CA
330
4C0
100
AcDbEntity
  8
Defpoints
 62
     0
100
AcDbPoint
 10
2.413406247989586
 20
0.6562689868098343
 30
0.0
  0
POINT
  5
4CB
330
4C0
100
AcDbEntity
  8
Defpoints
 62
     0
100
AcDbPoint
 10
2.413406247989586
 20
0.8032689868099668
 30
0.0
  0
ENDBLK
  5
4C2
330
4C0
100
AcDbEntity
  8
0
100
AcDbBlockEnd
  0
BLOCK
  5
4CE
330
4CD
100
AcDbEntity
  8
0
100
AcDbBlockBegin
  2
*D3
 70
     1
 10
0.0
 20
0.0
 30
0.0
  3
*D3
  1

  0
LINE
  5
4D0
330
4CD
100
AcDbEntity
  8
1
  6
Continuous
 62
     0
 48
0.0000424496405664
370
    -2
100
AcDbLine
 10
1.223406247985932
 20
0.6812689868090689
 30
0.0
 11
1.223406247985932
 21
0.9082689868099669
 31
0.0
  0
LINE
  5
4D1
330
4CD
100
AcDbEntity
  8
1
  6
Continuous
 62
     0
 48
0.0000424496405664
370
    -2
100
AcDbLine
 10
2.413406247989586
 20
0.6862689868098343
 30
0.0
 11
2.413406247989586
 21
0.9082689868099669
 31
0.0
  0
LINE
  5
4D2
330
4CD
100
AcDbEntity
  8
1
  6
Continuous
 62
     0
 48
0.0000424496405664
370
    -2
100
AcDbLine
 10
1.253406247985932
 20
0.8932689868099669
 30
0.0
 11
2.383406247989587
 21
0.8932689868099669
 31
0.0
  0
SOLID
  5
4D3
330
4CD
100
AcDbEntity
  8
1
 62
     0
100
AcDbTrace
 10
1.253406247985932
 20
0.8982689868099669
 30
0.0
 11
1.253406247985932
 21
0.8882689868099669
 31
0.0
 12
1.223406247985932
 22
0.8932689868099669
 32
0.0
 13
1.223406247985932
 23
0.8932689868099669
 33
0.0
  0
SOLID
  5
4D4
330
4CD
100
AcDbEntity
  8
1
 62
     0
100
AcDbTrace
 10
2.383406247989587
 20
0.8882689868099669
 30
0.0
 11
2.383406247989587
 21
0.8982689868099669
 31
0.0
 12
2.413406247989586
 22
0.8932689868099669
 32
0.0
 13
2.413406247989586
 23
0.8932689868099669
 33
0.0
  0
MTEXT
  5
4D5
330
4CD
100
AcDbEntity
  8
1
 62
     0
370
     0
100
AcDbMText
 10
1.818406247987759
 20
0.9235839868099669
 30
0.0
 40
0.03
 41
0.0
 71
     5
 72
     1
  1
\A1;1.190
  7
DC_TEXTSTYLE7
 73
     1
 44
1.0
  0
POINT
  5
4D6
330
4CD
100
AcDbEntity
  8
Defpoints
 62
     0
100
AcDbPoint
 10
1.223406247985932
 20
0.6512689868090689
 30
0.0
  0
POINT
  5
4D7
330
4CD
100
AcDbEntity
  8
Defpoints
 62
     0
100
AcDbPoint
 10
2.413406247989586
 20
0.6562689868098343
 30
0.0
  0
POINT
  5
4D8
330
4CD
100
AcDbEntity
  8
Defpoints
 62
     0
100
AcDbPoint
 10
2.413406247989586
 20
0.8932689868099669
 30
0.0
  0
ENDBLK
  5
4CF
330
4CD
100
AcDbEntity
  8
0
100
AcDbBlockEnd
  0
BLOCK
  5
4DD
330
4DC
100
AcDbEntity
  8
0
100
AcDbBlockBegin
  2
*D4
 70
     1
 10
0.0
 20
0.0
 30
0.0
  3
*D4
  1

  0
LINE
  5
4DF
330
4DC
100
AcDbEntity
  8
1
  6
Continuous
 62
     0
 48
0.0000424496405664
370
    -2
100
AcDbLine
 10
2.247739581322464
 20
-0.060731013191836
 30
0.0
 11
2.548406247989587
 21
-0.0607310131918359
 31
0.0
  0
LINE
  5
4E0
330
4DC
100
AcDbEntity
  8
1
  6
Continuous
 62
     0
 48
0.0000424496405664
370
    -2
100
AcDbLine
 10
2.247739581322464
 20
0.7132689868099668
 30
0.0
 11
2.548406247989587
 21
0.7132689868099668
 31
0.0
  0
LINE
  5
4E1
330
4DC
100
AcDbEntity
  8
1
  6
Continuous
 62
     0
 48
0.0000424496405664
370
    -2
100
AcDbLine
 10
2.533406247989587
 20
-0.0307310131918359
 30
0.0
 11
2.533406247989587
 21
0.6832689868099667
 31
0.0
  0
SOLID
  5
4E2
330
4DC
100
AcDbEntity
  8
1
 62
     0
100
AcDbTrace
 10
2.528406247989587
 20
-0.0307310131918359
 30
0.0
 11
2.538406247989587
 21
-0.0307310131918359
 31
0.0
 12
2.533406247989587
 22
-0.0607310131918359
 32
0.0
 13
2.533406247989587
 23
-0.0607310131918359
 33
0.0
  0
SOLID
  5
4E3
330
4DC
100
AcDbEntity
  8
1
 62
     0
100
AcDbTrace
 10
2.538406247989587
 20
0.6832689868099667
 30
0.0
 11
2.528406247989587
 21
0.6832689868099667
 31
0.0
 12
2.533406247989587
 22
0.7132689868099668
 32
0.0
 13
2.533406247989587
 23
0.7132689868099668
 33
0.0
  0
MTEXT
  5
4E4
330
4DC
100
AcDbEntity
  8
1
 62
     0
370
     0
100
AcDbMText
 10
2.502266247989587
 20
0.3262689868090654
 30
0.0
 40
0.03
 41
0.0
 71
     5
 72
     1
  1
\A1;HEX TIP Ø0.774
  7
DC_TEXTSTYLE7
 11
0.0
 21
1.0
 31
0.0
 73
     1
 44
1.0
  0
POINT
  5
4E5
330
4DC
100
AcDbEntity
  8
Defpoints
 62
     0
100
AcDbPoint
 10
2.217739581322464
 20
-0.060731013191836
 30
0.0
  0
POINT
  5
4E6
330
4DC
100
AcDbEntity
  8
Defpoints
 62
     0
100
AcDbPoint
 10
2.217739581322464
 20
0.7132689868099668
 30
0.0
  0
POINT
  5
4E7
330
4DC
100
AcDbEntity
  8
Defpoints
 62
     0
100
AcDbPoint
 10
2.533406247989587
 20
0.7132689868099668
 30
0.0
  0
ENDBLK
  5
4DE
330
4DC
100
AcDbEntity
  8
0
100
AcDbBlockEnd
  0
ENDSEC
  0
SECTION
  2
ENTITIES
  0
LINE
  5
D6
330
1F
100
AcDbEntity
  8
1
  6
Continuous
 62
     7
 48
0.0006791942490616
370
     0
100
AcDbLine
 10
0.0649808772088798
 20
-1.055044607335967
 30
0.0
 11
3.589322353345539
 21
-1.055044607335967
 31
0.0
  0
LINE
  5
D7
330
1F
100
AcDbEntity
  8
1
  6
Continuous
 62
     7
 48
0.0006791942490616
370
     0
100
AcDbLine
 10
0.0649808772088798
 20
-1.055044607335967
 30
0.0
 11
0.0649808772088798
 21
1.4369140121546
 31
0.0
  0
LINE
  5
D8
330
1F
100
AcDbEntity
  8
1
  6
Continuous
 62
     7
 48
0.0006791942490616
370
     0
100
AcDbLine
 10
3.589322353345539
 20
-1.055044607335967
 30
0.0
 11
3.589322353345539
 21
1.4369140121546
 31
0.0
  0
LINE
  5
D9
330
1F
100
AcDbEntity
  8
1
  6
Continuous
 62
     7
 48
0.0006791942490616
370
     0
100
AcDbLine
 10
3.589322353345539
 20
1.4369140121546
 30
0.0
 11
0.0649808772088798
 21
1.4369140121546
 31
0.0
  0
POLYLINE
  5
DA
330
1F
100
AcDbEntity
  8
1
  6
Continuous
 62
     7
 48
0.0006791942490616
370
     0
100
AcDb2dPolyline
 66
     1
 10
0.0
 20
0.0
 30
0.0
 70
   128
  0
VERTEX
  5
DB
330
DA
100
AcDbEntity
  8
1
  6
Continuous
 62
     7
 48
0.0006791942490616
100
AcDbVertex
100
AcDb2dVertex
 10
2.818001828265125
 20
-1.030703131199307
 30
0.0
  0
VERTEX
  5
DC
330
DA
100
AcDbEntity
  8
1
  6
Continuous
 62
     7
 48
0.0006791942490616
100
AcDbVertex
100
AcDb2dVertex
 10
2.818001828265125
 20
-0.9357713742663332
 30
0.0
  0
VERTEX
  5
DD
330
DA
100
AcDbEntity
  8
1
  6
Continuous
 62
     7
 48
0.0006791942490616
100
AcDbVertex
100
AcDb2dVertex
 10
0.0893223533455396
 20
-0.935771374266333
 30
0.0
  0
SEQEND
  5
DE
330
DA
100
AcDbEntity
  8
1
  6
Continuous
 62
     7
 48
0.0006791942490616
370
     0
  0
LINE
  5
DF
330
1F
100
AcDbEntity
  8
1
  6
Continuous
 62
     7
 48
0.0006791942490616
370
     0
100
AcDbLine
 10
2.144579677521842
 20
-0.840839617333359
 30
0.0
 11
2.144579677521842
 21
-1.030703131199307
 31
0.0
  0
LINE
  5
E0
330
1F
100
AcDbEntity
  8
1
  6
Continuous
 62
     7
 48
0.0006791942490616
370
     0
100
AcDbLine
 10
1.471157526778557
 20
-0.8408396173333594
 30
0.0
 11
1.471157526778557
 21
-1.030703131199307
 31
0.0
  0
TEXT
  5
E2
330
1F
100
AcDbEntity
  8
1
  6
Continuous
 62
     1
420
 16711680
370
     0
100
AcDbText
 10
0.1358252811348556
 20
-0.9192792606578558
 30
0.0
 40
0.047465878466487
  1
SPEED
  7
DC_TEXTSTYLE4
100
AcDbText
  0
TEXT
  5
E3
330
1F
100
AcDbEntity
  8
1
  6
Continuous
 62
     5
420
      255
370
     0
100
AcDbText
 10
0.3633117338133303
 20
-0.9197300131356473
 30
0.0
 40
0.047465878466487
  1
FLOW
  7
DC_TEXTSTYLE4
100
AcDbText
  0
TEXT
  5
E4
330
1F
100
AcDbEntity
  8
1
  6
Continuous
 62
     7
370
     0
100
AcDbText
 10
0.5757961183504495
 20
-0.9199608003401747
 30
0.0
 40
0.047465878466487
  1
PRODUCTS PTY LTD
  7
DC_TEXTSTYLE4
100
AcDbText
  0
LINE
  5
E5
330
1F
100
AcDbEntity
  8
1
  6
Continuous
 62
     7
 48
0.0006791942490616
370
     0
100
AcDbLine
 10
1.292533004203036
 20
-0.8408396173333594
 30
0.0
 11
1.292533004203036
 21
-0.9357713742663332
 31
0.0
  0
TEXT
  5
E7
330
1F
100
AcDbEntity
  8
1
  6
Continuous
 62
     7
370
     0
100
AcDbText
 10
1.323431945332074
 20
-0.8844421132394925
 30
0.0
 40
0.0237329392332436
  1
MAX 3D
  7
DC_TEXTSTYLE5
100
AcDbText
  0
TEXT
  5
E8
330
1F
100
AcDbEntity
  8
1
  6
Continuous
 62
     7
370
     0
100
AcDbText
 10
1.351933810231251
 20
-0.9258103173345307
 30
0.0
 40
0.0237329392332436
  1
V14
  7
DC_TEXTSTYLE5
100
AcDbText
  0
LINE
  5
E9
330
1F
100
AcDbEntity
  8
1
  6
Continuous
 62
     7
 48
0.0006791942490616
370
     0
100
AcDbLine
 10
1.471157526778557
 20
-0.9357713742663332
 30
0.0
 11
1.471157526778557
 21
-0.9357713742663332
 31
0.0
  0
LINE
  5
EA
330
1F
100
AcDbEntity
  8
1
  6
Continuous
 62
     7
 48
0.0006791942490616
370
     0
100
AcDbLine
 10
2.144579677521842
 20
-0.9357713742663332
 30
0.0
 11
2.144579677521842
 21
-0.9357713742663332
 31
0.0
  0
TEXT
  5
EB
330
1F
100
AcDbEntity
  8
1
  6
Continuous
 62
     7
370
     0
100
AcDbText
 10
1.4948904660118
 20
-0.9120384350330896
 30
0.0
 40
0.0415326436581761
  1
Drg No: 131-06
  7
DC_TEXTSTYLE5
100
AcDbText
  0
ARC
  5
EC
330
1F
100
AcDbEntity
  8
1
  6
Continuous
 62
     7
 48
0.0006791942490616
370
     0
100
AcDbCircle
 10
0.0893235110498927
 20
1.412571378313588
 30
0.0
 40
0.0000011577043526
100
AcDbArc
 50
90.0
 51
180.0
  0
LINE
  5
ED
330
1F
100
AcDbEntity
  8
1
  6
Continuous
 62
     7
 48
0.0006791942490616
370
     0
100
AcDbLine
 10
0.0893235110498927
 20
1.41257253601794
 30
0.0
 11
3.564979719504527
 21
1.41257253601794
 31
0.0
  0
LINE
  5
EE
330
1F
100
AcDbEntity
  8
1
  6
Continuous
 62
     7
 48
0.0006791942490616
370
     0
100
AcDbLine
 10
3.56498087720888
 20
1.412571378313588
 30
0.0
 11
3.56498087720888
 21
-1.030701973494955
 31
0.0
  0
ARC
  5
EF
330
1F
100
AcDbEntity
  8
1
  6
Continuous
 62
     7
 48
0.0006791942490616
370
     0
100
AcDbCircle
 10
3.564979719504526
 20
-0.650974945763058
 30
0.0
 40
0.0000011577043529
100
AcDbArc
 50
270.0000000219783
 51
359.9999999725271
  0
LINE
  5
F0
330
1F
100
AcDbEntity
  8
1
  6
Continuous
 62
     7
 48
0.0006791942490616
370
     0
100
AcDbLine
 10
3.564979719504527
 20
-1.030703131199307
 30
0.0
 11
0.0893235110498922
 21
-1.030703131199307
 31
0.0
  0
ARC
  5
F1
330
1F
100
AcDbEntity
  8
1
  6
Continuous
 62
     7
 48
0.0006791942490616
370
     0
100
AcDbCircle
 10
0.0893235110498927
 20
-1.030701973494954
 30
0.0
 40
0.0000011577043528
100
AcDbArc
 50
180.0
 51
269.9999999780217
  0
LINE
  5
F2
330
1F
100
AcDbEntity
  8
1
  6
Continuous
 62
     7
 48
0.0006791942490616
370
     0
100
AcDbLine
 10
0.0893223533455398
 20
-1.030701973494954
 30
0.0
 11
0.0893223533455398
 21
1.412571378313588
 31
0.0
  0
LINE
  5
F3
330
1F
100
AcDbEntity
  8
1
  6
Continuous
 62
     7
 48
0.0006791942490616
370
     0
100
AcDbLine
 10
1.82715161527721
 20
1.41257253601794
 30
0.0
 11
1.82715161527721
 21
1.4369140121546
 31
0.0
  0
LINE
  5
F4
330
1F
100
AcDbEntity
  8
1
  6
Continuous
 62
     7
 48
0.0006791942490616
370
     0
100
AcDbLine
 10
3.56498087720888
 20
0.28586645934229
 30
0.0
 11
3.589322353345539
 21
0.2858664593422897
 31
0.0
  0
LINE
  5
F5
330
1F
100
AcDbEntity
  8
1
  6
Continuous
 62
     7
 48
0.0006791942490616
370
     0
100
AcDbLine
 10
0.0893223533455395
 20
0.2858664593422897
 30
0.0
 11
0.0649808772088798
 21
0.2858664593422897
 31
0.0
  0
POLYLINE
  5
F6
330
1F
100
AcDbEntity
  8
1
  6
Continuous
 62
     7
 48
0.0006791942490616
370
     0
100
AcDb2dPolyline
 66
     1
 10
0.0
 20
0.0
 30
0.0
 70
   128
  0
VERTEX
  5
F7
330
F6
100
AcDbEntity
  8
1
  6
Continuous
 62
     7
 48
0.0006791942490616
100
AcDbVertex
100
AcDb2dVertex
 10
2.818001828265125
 20
-0.9357713742663332
 30
0.0
  0
VERTEX
  5
F8
330
F6
100
AcDbEntity
  8
1
  6
Continuous
 62
     7
 48
0.0006791942490616
100
AcDbVertex
100
AcDb2dVertex
 10
2.818001828265125
 20
-0.840839617333359
 30
0.0
  0
VERTEX
  5
F9
330
F6
100
AcDbEntity
  8
1
  6
Continuous
 62
     7
 48
0.0006791942490616
100
AcDbVertex
100
AcDb2dVertex
 10
0.0893223533455396
 20
-0.8408396173333593
 30
0.0
  0
SEQEND
  5
FA
330
F6
100
AcDbEntity
  8
1
  6
Continuous
 62
     7
 48
0.0006791942490616
370
     0
  0
POLYLINE
  5
FB
330
1F
100
AcDbEntity
  8
1
  6
Continuous
 62
     7
 48
0.0003395971245308
370
     0
100
AcDb2dPolyline
 66
     1
 10
0.0
 20
0.0
 30
0.0
 70
   128
  0
VERTEX
  5
FC
330
FB
100
AcDbEntity
  8
1
  6
Continuous
 62
     7
 48
0.0003395971245308
100
AcDbVertex
100
AcDb2dVertex
 10
0.0893223533455401
 20
1.344076338095149
 30
0.0
  0
VERTEX
  5
FD
330
FB
100
AcDbEntity
  8
1
  6
Continuous
 62
     7
 48
0.0003395971245308
100
AcDbVertex
100
AcDb2dVertex
 10
1.084199776626424
 20
1.344076338095148
 30
0.0
  0
VERTEX
  5
FE
330
FB
100
AcDbEntity
  8
1
  6
Continuous
 62
     7
 48
0.0003395971245308
100
AcDbVertex
100
AcDb2dVertex
 10
1.084199776626424
 20
1.41257253601794
 30
0.0
  0
SEQEND
  5
FF
330
FB
100
AcDbEntity
  8
1
  6
Continuous
 62
     7
 48
0.0003395971245308
370
     0
  0
POLYLINE
  5
100
330
1F
100
AcDbEntity
  8
1
  6
Continuous
 62
     7
 48
0.0033959712453081
370
     0
100
AcDb2dPolyline
 66
     1
 10
0.0
 20
0.0
 30
0.0
 70
   128
  0
VERTEX
  5
101
330
100
100
AcDbEntity
  8
1
  6
Continuous
 62
     7
 48
0.0033959712453081
100
AcDbVertex
100
AcDb2dVertex
 10
3.440396970300085
 20
1.412571609854458
 30
0.0
  0
VERTEX
  5
102
330
100
100
AcDbEntity
  8
1
  6
Continuous
 62
     7
 48
0.0033959712453081
100
AcDbVertex
100
AcDb2dVertex
 10
3.440396970300085
 20
1.336857000400711
 30
0.0
  0
VERTEX
  5
103
330
100
100
AcDbEntity
  8
1
  6
Continuous
 62
     7
 48
0.0033959712453081
100
AcDbVertex
100
AcDb2dVertex
 10
3.564979719504526
 20
1.336857000400711
 30
0.0
  0
SEQEND
  5
104
330
100
100
AcDbEntity
  8
1
  6
Continuous
 62
     7
 48
0.0033959712453081
370
     0
  0
LINE
  5
105
330
1F
100
AcDbEntity
  8
1
  6
Continuous
 62
     7
 48
0.0006791942490616
370
     0
100
AcDbLine
 10
2.818001828265125
 20
-0.840839617333359
 30
0.0
 11
3.56498087720888
 21
-0.840839617333359
 31
0.0
  0
TEXT
  5
106
330
1F
100
AcDbEntity
  8
1
  6
Continuous
 62
     7
370
     0
100
AcDbText
 10
2.168312616755085
 20
-0.9120384350330896
 30
0.0
 40
0.0415326436581761
  1
Drg Date: 25/07/2017
  7
DC_TEXTSTYLE5
100
AcDbText
  0
TEXT
  5
107
330
1F
100
AcDbEntity
  8
1
  6
Continuous
 62
     5
420
      255
370
     0
100
AcDbText
 10
0.1081463546223544
 20
1.361389640567917
 30
0.0
 40
0.0309039381031037
  1
-6 STRAIGHT COUPLER - FEMALE FEMALE
  7
DC_TEXTSTYLE5
100
AcDbText
  0
TEXT
  5
109
330
1F
100
AcDbEntity
  8
1
  6
DASHED
 62
     1
420
 16711680
370
     0
100
AcDbText
 10
3.472625835344152
 20
1.351999922291457
 30
0.0
 40
0.033221733460836
  1
A4
 41
1.000000000000003
  7
DC_TEXTSTYLE6
 72
     1
 11
3.502688344902306
 21
1.351999922291457
 31
0.0
100
AcDbText
  0
TEXT
  5
10A
330
1F
100
AcDbEntity
  8
1
  6
DASHED
 62
     7
370
     0
100
AcDbText
 10
2.863483338377136
 20
-0.9185048165439047
 30
0.0
 40
0.0450000000000001
  1
STRAIGHT COUPLER 
 41
0.9999999999999973
  7
DC_TEXTSTYLE5
 72
     1
 11
3.191578338377135
 21
-0.9185048165439047
 31
0.0
100
AcDbText
  0
LINE
  5
10B
330
1F
100
AcDbEntity
  8
1
  6
Continuous
 62
     7
 48
0.0020280743027767
370
     0
100
AcDbLine
 10
3.440396970300085
 20
1.336857000400711
 30
0.0
 11
3.229124243027357
 21
1.336857000400711
 31
0.0
  0
LINE
  5
10C
330
1F
100
AcDbEntity
  8
1
  6
CENTER
 62
    94
420
    37376
 48
0.0509090909090909
370
     0
100
AcDbLine
 10
3.300907919822954
 20
1.374714305127585
 30
0.0
 11
3.245001696185619
 21
1.374714305127585
 31
0.0
  0
POLYLINE
  5
10D
330
1F
100
AcDbEntity
  8
1
  6
Continuous
 62
     7
 48
0.0020280743027767
370
     0
100
AcDb2dPolyline
 66
     1
 10
0.0
 20
0.0
 30
0.0
  0
VERTEX
  5
10E
330
10D
100
AcDbEntity
  8
1
  6
Continuous
 62
     7
 48
0.0020280743027767
100
AcDbVertex
100
AcDb2dVertex
 10
3.414942424845541
 20
1.395077941491221
 30
0.0
 40
0.00322
 41
0.00322
  0
VERTEX
  5
10F
330
10D
100
AcDbEntity
  8
1
  6
Continuous
 62
     7
 48
0.0020280743027767
100
AcDbVertex
100
AcDb2dVertex
 10
3.414942424845541
 20
1.354350668763948
 30
0.0
 40
0.00322
 41
0.00322
  0
SEQEND
  5
110
330
10D
100
AcDbEntity
  8
1
  6
Continuous
 62
     7
 48
0.0020280743027767
370
     0
  0
POLYLINE
  5
111
330
1F
100
AcDbEntity
  8
1
  6
Continuous
 62
     7
 48
0.0020280743027767
370
     0
100
AcDb2dPolyline
 66
     1
 10
0.0
 20
0.0
 30
0.0
  0
VERTEX
  5
112
330
111
100
AcDbEntity
  8
1
  6
Continuous
 62
     7
 48
0.0020280743027767
100
AcDbVertex
100
AcDb2dVertex
 10
3.338578788481904
 20
1.387441577854857
 30
0.0
 40
0.00322
 41
0.00322
  0
VERTEX
  5
113
330
111
100
AcDbEntity
  8
1
  6
Continuous
 62
     7
 48
0.0020280743027767
100
AcDbVertex
100
AcDb2dVertex
 10
3.338578788481904
 20
1.361987032400312
 30
0.0
 40
0.00322
 41
0.00322
  0
SEQEND
  5
114
330
111
100
AcDbEntity
  8
1
  6
Continuous
 62
     7
 48
0.0020280743027767
370
     0
  0
POLYLINE
  5
115
330
1F
100
AcDbEntity
  8
1
  6
Continuous
 62
     7
 48
0.0020280743027767
370
     0
100
AcDb2dPolyline
 66
     1
 10
0.0
 20
0.0
 30
0.0
  0
VERTEX
  5
116
330
115
100
AcDbEntity
  8
1
  6
Continuous
 62
     7
 48
0.0020280743027767
100
AcDbVertex
100
AcDb2dVertex
 10
3.338578788481904
 20
1.387441577854857
 30
0.0
 40
0.00322
 41
0.00322
  0
VERTEX
  5
117
330
115
100
AcDbEntity
  8
1
  6
Continuous
 62
     7
 48
0.0020280743027767
100
AcDbVertex
100
AcDb2dVertex
 10
3.414942424845541
 20
1.395077941491221
 30
0.0
 40
0.00322
 41
0.00322
  0
SEQEND
  5
118
330
115
100
AcDbEntity
  8
1
  6
Continuous
 62
     7
 48
0.0020280743027767
370
     0
  0
POLYLINE
  5
119
330
1F
100
AcDbEntity
  8
1
  6
Continuous
 62
     7
 48
0.0020280743027767
370
     0
100
AcDb2dPolyline
 66
     1
 10
0.0
 20
0.0
 30
0.0
  0
VERTEX
  5
11A
330
119
100
AcDbEntity
  8
1
  6
Continuous
 62
     7
 48
0.0020280743027767
100
AcDbVertex
100
AcDb2dVertex
 10
3.338578788481904
 20
1.361987032400312
 30
0.0
 40
0.00322
 41
0.00322
  0
VERTEX
  5
11B
330
119
100
AcDbEntity
  8
1
  6
Continuous
 62
     7
 48
0.0020280743027767
100
AcDbVertex
100
AcDb2dVertex
 10
3.414942424845541
 20
1.354350668763948
 30
0.0
 40
0.00322
 41
0.00322
  0
SEQEND
  5
11C
330
119
100
AcDbEntity
  8
1
  6
Continuous
 62
     7
 48
0.0020280743027767
370
     0
  0
LINE
  5
11D
330
1F
100
AcDbEntity
  8
1
  6
CENTER
 62
    94
420
    37376
 48
0.0509090909090909
370
     0
100
AcDbLine
 10
3.274942424845541
 20
1.40016885058213
 30
0.0
 11
3.274942424845541
 21
1.349259759673039
 31
0.0
  0
LINE
  5
11E
330
1F
100
AcDbEntity
  8
1
  6
Continuous
 62
     7
 48
0.0020280743027767
370
     0
100
AcDbLine
 10
3.229124243027357
 20
1.33685700040071
 30
0.0
 11
3.229124243027356
 21
1.41257253601794
 31
0.0
  0
LINE
  5
11F
330
1F
100
AcDbEntity
  8
1
  6
Continuous
 62
     7
 48
0.0020280743027767
370
     0
100
AcDbLine
 10
3.229124243027357
 20
1.296129727673438
 30
0.0
 11
3.56498064566801
 21
1.296129727673439
 31
0.0
  0
TEXT
  5
120
330
1F
100
AcDbEntity
  8
1
  6
DASHED
 62
     7
370
     0
100
AcDbText
 10
3.238548563084125
 20
1.30223881796847
 30
0.0
 40
0.0183272727272724
  1
3RD ANGLE PROJECTION
 41
1.000000000000007
  7
DC_TEXTSTYLE5
 72
     1
 11
3.397051981265942
 21
1.30223881796847
 31
0.0
100
AcDbText
  0
LINE
  5
121
330
1F
100
AcDbEntity
  8
1
  6
Continuous
 62
     7
 48
0.0020280743027767
370
     0
100
AcDbLine
 10
3.229124243027357
 20
1.33685700040071
 30
0.0
 11
3.229124243027357
 21
1.296129727673438
 31
0.0
  0
TEXT
  5
122
330
1F
100
AcDbEntity
  8
1
  6
Continuous
 62
     7
370
     0
100
AcDbText
 10
1.947340311081601
 20
-0.8279165404242818
 30
0.0
 40
0.0258461538181538
  1
MK #
 41
1.0
  7
DC_TEXTSTYLE4
100
AcDbText
  0
TEXT
  5
123
330
1F
100
AcDbEntity
  8
1
  6
Continuous
 62
     7
370
     0
100
AcDbText
 10
2.057439152087492
 20
-0.8279165404242818
 30
0.0
 40
0.0258461538181538
  1
QTY
 41
1.000000000000001
  7
DC_TEXTSTYLE4
100
AcDbText
  0
TEXT
  5
124
330
1F
100
AcDbEntity
  8
1
  6
Continuous
 62
     7
370
     0
100
AcDbText
 10
2.157502754430919
 20
-0.8279165404242818
 30
0.0
 40
0.0258461538181538
  1
PART #
 41
0.9999999999999999
  7
DC_TEXTSTYLE4
100
AcDbText
  0
TEXT
  5
125
330
1F
100
AcDbEntity
  8
1
  6
Continuous
 62
     7
370
     0
100
AcDbText
 10
2.384528790287669
 20
-0.8279165404242814
 30
0.0
 40
0.0258461538181538
  1
DESCRIPTION
 41
0.9999999999999996
  7
DC_TEXTSTYLE4
100
AcDbText
  0
TEXT
  5
126
330
1F
100
AcDbEntity
  8
1
  6
Continuous
 62
     7
370
     0
100
AcDbText
 10
2.830924905174202
 20
-0.8279165404242818
 30
0.0
 40
0.0258461538181538
  1
MATERIAL
 41
0.9999999999999993
  7
DC_TEXTSTYLE4
100
AcDbText
  0
TEXT
  5
127
330
1F
100
AcDbEntity
  8
1
  6
Continuous
 62
     7
370
     0
100
AcDbText
 10
1.977340311081601
 20
-0.776224232787974
 30
0.0
 40
0.0258461538181539
  1
1
 41
1.000000000000003
  7
DC_TEXTSTYLE5
100
AcDbText
  0
TEXT
  5
128
330
1F
100
AcDbEntity
  8
1
  6
Continuous
 62
     7
370
     0
100
AcDbText
 10
2.087439152087491
 20
-0.776224232787974
 30
0.0
 40
0.0258461538181539
  1
1
 41
1.000000000000004
  7
DC_TEXTSTYLE5
100
AcDbText
  0
TEXT
  5
129
330
1F
100
AcDbEntity
  8
1
  6
Continuous
 62
     7
370
     0
100
AcDbText
 10
2.157502754430919
 20
-0.776224232787974
 30
0.0
 40
0.0258461538181539
  1
C1001-06
 41
1.000000000000003
  7
DC_TEXTSTYLE5
100
AcDbText
  0
TEXT
  5
12A
330
1F
100
AcDbEntity
  8
1
  6
Continuous
 62
     7
370
     0
100
AcDbText
 10
2.384528790287669
 20
-0.7762242327879739
 30
0.0
 40
0.0258461538181539
  1
-6 AN WIRE NUT
 41
0.9999999999999996
  7
DC_TEXTSTYLE5
100
AcDbText
  0
TEXT
  5
12B
330
1F
100
AcDbEntity
  8
1
  6
Continuous
 62
     7
370
     0
100
AcDbText
 10
2.830924905174202
 20
-0.7762242327879743
 30
0.0
 40
0.0258461538181539
  1
ALLOY 
 41
0.9999999999999993
  7
DC_TEXTSTYLE5
100
AcDbText
  0
LINE
  5
12C
330
1F
100
AcDbEntity
  8
1
  6
Continuous
 62
     7
 48
0.0020280743027767
370
     0
100
AcDbLine
 10
3.56498087720888
 20
-0.7374550020607435
 30
0.0
 11
1.934417234172524
 21
-0.7374550020607439
 31
0.0
  0
LINE
  5
12D
330
1F
100
AcDbEntity
  8
1
  6
CENTER
 62
    94
420
    37376
 48
0.0509090909090909
370
     0
100
AcDbLine
 10
3.421647540425504
 20
1.374714305127585
 30
0.0
 11
3.331086699174056
 21
1.374714305127585
 31
0.0
  0
LINE
  5
12E
330
1F
100
AcDbEntity
  8
1
  6
Continuous
 62
     7
 48
0.0020280743027767
370
     0
100
AcDbLine
 10
1.934417234172524
 20
-0.8408396173333587
 30
0.0
 11
1.934417234172524
 21
-0.7891473096970512
 31
0.0
  0
LINE
  5
12F
330
1F
100
AcDbEntity
  8
1
  6
Continuous
 62
     7
 48
0.0020280743027767
370
     0
100
AcDbLine
 10
3.56498087720888
 20
-0.840839617333359
 30
0.0
 11
3.56498087720888
 21
-0.7891473096970514
 31
0.0
  0
LINE
  5
130
330
1F
100
AcDbEntity
  8
1
  6
Continuous
 62
     7
 48
0.0020280743027767
370
     0
100
AcDbLine
 10
2.145499993757901
 20
-0.8408396173333592
 30
0.0
 11
3.56498087720888
 21
-0.8408396173333592
 31
0.0
  0
LINE
  5
131
330
1F
100
AcDbEntity
  8
1
  6
Continuous
 62
     7
 48
0.0020280743027767
370
     0
100
AcDbLine
 10
3.56498087720888
 20
-0.7891473096970514
 30
0.0
 11
1.934417234172524
 21
-0.7891473096970516
 31
0.0
  0
LINE
  5
132
330
1F
100
AcDbEntity
  8
1
  6
Continuous
 62
     7
 48
0.0020280743027767
370
     0
100
AcDbLine
 10
1.934417234172524
 20
-0.7891473096970512
 30
0.0
 11
1.934417234172524
 21
-0.7374550020607433
 31
0.0
  0
LINE
  5
133
330
1F
100
AcDbEntity
  8
1
  6
Continuous
 62
     7
 48
0.0020280743027767
370
     0
100
AcDbLine
 10
3.56498087720888
 20
-0.7374550020607435
 30
0.0
 11
3.56498087720888
 21
-0.7891473096970514
 31
0.0
  0
LINE
  5
134
330
1F
100
AcDbEntity
  8
1
  6
Continuous
 62
     7
 48
0.0020280743027767
370
     0
100
AcDbLine
 10
2.044516075178414
 20
-0.840839617333359
 30
0.0
 11
2.044516075178414
 21
-0.7891473096970512
 31
0.0
  0
LINE
  5
135
330
1F
100
AcDbEntity
  8
1
  6
Continuous
 62
     7
 48
0.0020280743027767
370
     0
100
AcDbLine
 10
2.144579677521842
 20
-0.840839617333359
 30
0.0
 11
2.144579677521842
 21
-0.7891473096970512
 31
0.0
  0
LINE
  5
136
330
1F
100
AcDbEntity
  8
1
  6
Continuous
 62
     7
 48
0.0020280743027767
370
     0
100
AcDbLine
 10
2.371605713378591
 20
-0.8408396173333587
 30
0.0
 11
2.371605713378591
 21
-0.789147309697051
 31
0.0
  0
LINE
  5
137
330
1F
100
AcDbEntity
  8
1
  6
Continuous
 62
     7
 48
0.0020280743027767
370
     0
100
AcDbLine
 10
2.818001828265125
 20
-0.840839617333359
 30
0.0
 11
2.818001828265125
 21
-0.7891473096970507
 31
0.0
  0
LINE
  5
138
330
1F
100
AcDbEntity
  8
1
  6
Continuous
 62
     7
 48
0.0020280743027767
370
     0
100
AcDbLine
 10
2.044516075178414
 20
-0.7891473096970514
 30
0.0
 11
2.044516075178414
 21
-0.5823780791518195
 31
0.0
  0
LINE
  5
139
330
1F
100
AcDbEntity
  8
1
  6
Continuous
 62
     7
 48
0.0020280743027767
370
     0
100
AcDbLine
 10
2.144579677521842
 20
-0.7891473096970512
 30
0.0
 11
2.144579677521842
 21
-0.7374550020607437
 31
0.0
  0
LINE
  5
13A
330
1F
100
AcDbEntity
  8
1
  6
Continuous
 62
     7
 48
0.0020280743027767
370
     0
100
AcDbLine
 10
2.371605713378591
 20
-0.789147309697051
 30
0.0
 11
2.371605713378591
 21
-0.7374550020607439
 31
0.0
  0
LINE
  5
13B
330
1F
100
AcDbEntity
  8
1
  6
Continuous
 62
     7
 48
0.0020280743027767
370
     0
100
AcDbLine
 10
2.818001828265125
 20
-0.7891473096970507
 30
0.0
 11
2.818001828265125
 21
-0.7374550020607435
 31
0.0
  0
TEXT
  5
13C
330
1F
100
AcDbEntity
  8
1
  6
Continuous
 62
     7
370
     0
100
AcDbText
 10
3.063832619786324
 20
-0.8279165404242822
 30
0.0
 40
0.0258461538181538
  1
SURFACE CONDITION
 41
1.000000000000001
  7
DC_TEXTSTYLE4
100
AcDbText
  0
TEXT
  5
13D
330
1F
100
AcDbEntity
  8
1
  6
Continuous
 62
     7
370
     0
100
AcDbText
 10
3.063832619786324
 20
-0.7762242327879746
 30
0.0
 40
0.0258461538181539
  1
ANODIZED
 41
1.000000000000004
  7
DC_TEXTSTYLE5
100
AcDbText
  0
LINE
  5
13E
330
1F
100
AcDbEntity
  8
1
  6
Continuous
 62
     7
 48
0.0020280743027767
370
     0
100
AcDbLine
 10
3.050909542877247
 20
-0.8408396173333594
 30
0.0
 11
3.050909542877247
 21
-0.7891473096970516
 31
0.0
  0
LINE
  5
13F
330
1F
100
AcDbEntity
  8
1
  6
Continuous
 62
     7
 48
0.0020280743027767
370
     0
100
AcDbLine
 10
3.050909542877247
 20
-0.7891473096970516
 30
0.0
 11
3.050909542877247
 21
-0.7374550020607441
 31
0.0
  0
TEXT
  5
140
330
1F
100
AcDbEntity
  8
1
  6
Continuous
 62
     7
370
     0
100
AcDbText
 10
1.977340311081601
 20
-0.7245319251516663
 30
0.0
 40
0.0258461538181539
  1
2
 41
1.000000000000003
  7
DC_TEXTSTYLE5
100
AcDbText
  0
TEXT
  5
141
330
1F
100
AcDbEntity
  8
1
  6
Continuous
 62
     7
370
     0
100
AcDbText
 10
2.087439152087491
 20
-0.7245319251516663
 30
0.0
 40
0.0258461538181539
  1
1
 41
1.000000000000004
  7
DC_TEXTSTYLE5
100
AcDbText
  0
TEXT
  5
142
330
1F
100
AcDbEntity
  8
1
  6
Continuous
 62
     7
370
     0
100
AcDbText
 10
2.157502754430919
 20
-0.7245319251516663
 30
0.0
 40
0.0258461538181539
  1
CW-W06
 41
1.000000000000003
  7
DC_TEXTSTYLE5
100
AcDbText
  0
TEXT
  5
143
330
1F
100
AcDbEntity
  8
1
  6
Continuous
 62
     7
370
     0
100
AcDbText
 10
2.384528790287669
 20
-0.7245319251516661
 30
0.0
 40
0.0258461538181539
  1
WIRE NUT WIRE
 41
0.9999999999999996
  7
DC_TEXTSTYLE5
100
AcDbText
  0
TEXT
  5
144
330
1F
100
AcDbEntity
  8
1
  6
Continuous
 62
     7
370
     0
100
AcDbText
 10
2.830924905174202
 20
-0.7245319251516664
 30
0.0
 40
0.0258461538181539
  1
S.St.
 41
0.9999999999999993
  7
DC_TEXTSTYLE5
100
AcDbText
  0
LINE
  5
145
330
1F
100
AcDbEntity
  8
1
  6
Continuous
 62
     7
 48
0.0020280743027767
370
     0
100
AcDbLine
 10
3.56498087720888
 20
-0.6857626944244357
 30
0.0
 11
1.934417234172524
 21
-0.685762694424436
 31
0.0
  0
LINE
  5
146
330
1F
100
AcDbEntity
  8
1
  6
Continuous
 62
     7
 48
0.0020280743027767
370
     0
100
AcDbLine
 10
3.56498087720888
 20
-0.7374550020607435
 30
0.0
 11
1.934417234172524
 21
-0.7374550020607439
 31
0.0
  0
LINE
  5
147
330
1F
100
AcDbEntity
  8
1
  6
Continuous
 62
     7
 48
0.0020280743027767
370
     0
100
AcDbLine
 10
1.934417234172524
 20
-0.7374550020607433
 30
0.0
 11
1.934417234172524
 21
-0.6857626944244355
 31
0.0
  0
LINE
  5
148
330
1F
100
AcDbEntity
  8
1
  6
Continuous
 62
     7
 48
0.0020280743027767
370
     0
100
AcDbLine
 10
3.56498087720888
 20
-0.6857626944244357
 30
0.0
 11
3.56498087720888
 21
-0.7374550020607435
 31
0.0
  0
LINE
  5
149
330
1F
100
AcDbEntity
  8
1
  6
Continuous
 62
     7
 48
0.0020280743027767
370
     0
100
AcDbLine
 10
2.144579677521842
 20
-0.7374550020607433
 30
0.0
 11
2.144579677521842
 21
-0.6857626944244358
 31
0.0
  0
LINE
  5
14A
330
1F
100
AcDbEntity
  8
1
  6
Continuous
 62
     7
 48
0.0020280743027767
370
     0
100
AcDbLine
 10
2.371605713378591
 20
-0.7374550020607432
 30
0.0
 11
2.371605713378591
 21
-0.685762694424436
 31
0.0
  0
LINE
  5
14B
330
1F
100
AcDbEntity
  8
1
  6
Continuous
 62
     7
 48
0.0020280743027767
370
     0
100
AcDbLine
 10
2.818001828265125
 20
-0.7374550020607429
 30
0.0
 11
2.818001828265125
 21
-0.6857626944244357
 31
0.0
  0
TEXT
  5
14C
330
1F
100
AcDbEntity
  8
1
  6
Continuous
 62
     7
370
     0
100
AcDbText
 10
3.063832619786324
 20
-0.7245319251516668
 30
0.0
 40
0.0258461538181539
  1
POLISHED & OILED
 41
1.000000000000004
  7
DC_TEXTSTYLE5
100
AcDbText
  0
LINE
  5
14D
330
1F
100
AcDbEntity
  8
1
  6
Continuous
 62
     7
 48
0.0020280743027767
370
     0
100
AcDbLine
 10
3.050909542877247
 20
-0.7374550020607439
 30
0.0
 11
3.050909542877247
 21
-0.6857626944244363
 31
0.0
  0
LINE
  5
14E
330
1F
100
AcDbEntity
  8
1
  6
Continuous
 62
     7
 48
0.0020280743027767
370
     0
100
AcDbLine
 10
3.56498087720888
 20
-0.6857626944244353
 30
0.0
 11
1.934417234172524
 21
-0.6857626944244355
 31
0.0
  0
TEXT
  5
14F
330
1F
100
AcDbEntity
  8
1
  6
Continuous
 62
     7
370
     0
100
AcDbText
 10
1.977340311081601
 20
-0.6728396175153579
 30
0.0
 40
0.0258461538181539
  1
3
 41
1.000000000000003
  7
DC_TEXTSTYLE5
100
AcDbText
  0
TEXT
  5
150
330
1F
100
AcDbEntity
  8
1
  6
Continuous
 62
     7
370
     0
100
AcDbText
 10
2.087439152087491
 20
-0.6728396175153579
 30
0.0
 40
0.0258461538181539
  1
1
 41
1.000000000000004
  7
DC_TEXTSTYLE5
100
AcDbText
  0
TEXT
  5
151
330
1F
100
AcDbEntity
  8
1
  6
Continuous
 62
     7
370
     0
100
AcDbText
 10
2.157502754430919
 20
-0.6728396175153579
 30
0.0
 40
0.0258461538181539
  1
COB-906
 41
1.000000000000003
  7
DC_TEXTSTYLE5
100
AcDbText
  0
TEXT
  5
152
330
1F
100
AcDbEntity
  8
1
  6
Continuous
 62
     7
370
     0
100
AcDbText
 10
2.384528790287669
 20
-0.6728396175153578
 30
0.0
 40
0.0258461538181539
  1
BOSS GASKET 
 41
0.9999999999999996
  7
DC_TEXTSTYLE5
100
AcDbText
  0
TEXT
  5
153
330
1F
100
AcDbEntity
  8
1
  6
Continuous
 62
     7
370
     0
100
AcDbText
 10
2.830924905174202
 20
-0.6728396175153581
 30
0.0
 40
0.0258461538181539
  1
NITRILE 90
 41
0.9999999999999993
  7
DC_TEXTSTYLE5
100
AcDbText
  0
LINE
  5
154
330
1F
100
AcDbEntity
  8
1
  6
Continuous
 62
     7
 48
0.0020280743027767
370
     0
100
AcDbLine
 10
3.56498087720888
 20
-0.6340703867881274
 30
0.0
 11
1.934417234172524
 21
-0.6340703867881278
 31
0.0
  0
LINE
  5
155
330
1F
100
AcDbEntity
  8
1
  6
Continuous
 62
     7
 48
0.0020280743027767
370
     0
100
AcDbLine
 10
3.56498087720888
 20
-0.6857626944244353
 30
0.0
 11
1.934417234172524
 21
-0.6857626944244355
 31
0.0
  0
LINE
  5
156
330
1F
100
AcDbEntity
  8
1
  6
Continuous
 62
     7
 48
0.0020280743027767
370
     0
100
AcDbLine
 10
1.934417234172524
 20
-0.685762694424435
 30
0.0
 11
1.934417234172524
 21
-0.6340703867881272
 31
0.0
  0
LINE
  5
157
330
1F
100
AcDbEntity
  8
1
  6
Continuous
 62
     7
 48
0.0020280743027767
370
     0
100
AcDbLine
 10
3.56498087720888
 20
-0.6340703867881274
 30
0.0
 11
3.56498087720888
 21
-0.6857626944244353
 31
0.0
  0
LINE
  5
158
330
1F
100
AcDbEntity
  8
1
  6
Continuous
 62
     7
 48
0.0020280743027767
370
     0
100
AcDbLine
 10
2.144579677521842
 20
-0.685762694424435
 30
0.0
 11
2.144579677521842
 21
-0.6340703867881275
 31
0.0
  0
LINE
  5
159
330
1F
100
AcDbEntity
  8
1
  6
Continuous
 62
     7
 48
0.0020280743027767
370
     0
100
AcDbLine
 10
2.371605713378591
 20
-0.6857626944244349
 30
0.0
 11
2.371605713378591
 21
-0.6340703867881278
 31
0.0
  0
LINE
  5
15A
330
1F
100
AcDbEntity
  8
1
  6
Continuous
 62
     7
 48
0.0020280743027767
370
     0
100
AcDbLine
 10
2.818001828265125
 20
-0.6857626944244346
 30
0.0
 11
2.818001828265125
 21
-0.6340703867881274
 31
0.0
  0
LINE
  5
15B
330
1F
100
AcDbEntity
  8
1
  6
Continuous
 62
     7
 48
0.0020280743027767
370
     0
100
AcDbLine
 10
3.050909542877247
 20
-0.6857626944244355
 30
0.0
 11
3.050909542877247
 21
-0.634070386788128
 31
0.0
  0
LINE
  5
15C
330
1F
100
AcDbEntity
  8
1
  6
Continuous
 62
     7
 48
0.0020280743027767
370
     0
100
AcDbLine
 10
3.56498087720888
 20
-0.6340703867881274
 30
0.0
 11
1.934417234172524
 21
-0.6340703867881278
 31
0.0
  0
TEXT
  5
15D
330
1F
100
AcDbEntity
  8
1
  6
Continuous
 62
     7
370
     0
100
AcDbText
 10
1.977340311081601
 20
-0.6211473098790502
 30
0.0
 40
0.0258461538181539
  1
4
 41
1.000000000000003
  7
DC_TEXTSTYLE5
100
AcDbText
  0
TEXT
  5
15E
330
1F
100
AcDbEntity
  8
1
  6
Continuous
 62
     7
370
     0
100
AcDbText
 10
2.087439152087491
 20
-0.6211473098790502
 30
0.0
 40
0.0258461538181539
  1
1
 41
1.000000000000004
  7
DC_TEXTSTYLE5
100
AcDbText
  0
TEXT
  5
15F
330
1F
100
AcDbEntity
  8
1
  6
Continuous
 62
     7
370
     0
100
AcDbText
 10
2.157502754430919
 20
-0.6211473098790502
 30
0.0
 40
0.0258461538181539
  1
C131-06
 41
1.000000000000003
  7
DC_TEXTSTYLE5
100
AcDbText
  0
TEXT
  5
160
330
1F
100
AcDbEntity
  8
1
  6
Continuous
 62
     7
370
     0
100
AcDbText
 10
2.384528790287669
 20
-0.62114730987905
 30
0.0
 40
0.0258461538181539
  1
F/F CENTRE NIPPLE
 41
0.9999999999999996
  7
DC_TEXTSTYLE5
100
AcDbText
  0
TEXT
  5
161
330
1F
100
AcDbEntity
  8
1
  6
Continuous
 62
     7
370
     0
100
AcDbText
 10
2.830924905174202
 20
-0.6211473098790503
 30
0.0
 40
0.0258461538181539
  1
ALLOY
 41
0.9999999999999993
  7
DC_TEXTSTYLE5
100
AcDbText
  0
LINE
  5
162
330
1F
100
AcDbEntity
  8
1
  6
Continuous
 62
     7
 48
0.0020280743027767
370
     0
100
AcDbLine
 10
3.56498087720888
 20
-0.5823780791518196
 30
0.0
 11
1.934417234172524
 21
-0.5823780791518199
 31
0.0
  0
LINE
  5
163
330
1F
100
AcDbEntity
  8
1
  6
Continuous
 62
     7
 48
0.0020280743027767
370
     0
100
AcDbLine
 10
3.56498087720888
 20
-0.6340703867881274
 30
0.0
 11
1.934417234172524
 21
-0.6340703867881278
 31
0.0
  0
LINE
  5
164
330
1F
100
AcDbEntity
  8
1
  6
Continuous
 62
     7
 48
0.0020280743027767
370
     0
100
AcDbLine
 10
1.934417234172524
 20
-0.6340703867881272
 30
0.0
 11
1.934417234172524
 21
-0.5823780791518195
 31
0.0
  0
LINE
  5
165
330
1F
100
AcDbEntity
  8
1
  6
Continuous
 62
     7
 48
0.0020280743027767
370
     0
100
AcDbLine
 10
3.56498087720888
 20
-0.5823780791518196
 30
0.0
 11
3.56498087720888
 21
-0.6340703867881274
 31
0.0
  0
LINE
  5
166
330
1F
100
AcDbEntity
  8
1
  6
Continuous
 62
     7
 48
0.0020280743027767
370
     0
100
AcDbLine
 10
2.144579677521842
 20
-0.6340703867881272
 30
0.0
 11
2.144579677521842
 21
-0.5823780791518197
 31
0.0
  0
LINE
  5
167
330
1F
100
AcDbEntity
  8
1
  6
Continuous
 62
     7
 48
0.0020280743027767
370
     0
100
AcDbLine
 10
2.371605713378591
 20
-0.6340703867881271
 30
0.0
 11
2.371605713378591
 21
-0.5823780791518199
 31
0.0
  0
LINE
  5
168
330
1F
100
AcDbEntity
  8
1
  6
Continuous
 62
     7
 48
0.0020280743027767
370
     0
100
AcDbLine
 10
2.818001828265125
 20
-0.6340703867881268
 30
0.0
 11
2.818001828265125
 21
-0.5823780791518196
 31
0.0
  0
TEXT
  5
169
330
1F
100
AcDbEntity
  8
1
  6
Continuous
 62
     7
370
     0
100
AcDbText
 10
3.063832619786324
 20
-0.6211473098790506
 30
0.0
 40
0.0258461538181539
  1
HARD COAT ANODIZED
 41
1.000000000000004
  7
DC_TEXTSTYLE5
100
AcDbText
  0
LINE
  5
16A
330
1F
100
AcDbEntity
  8
1
  6
Continuous
 62
     7
 48
0.0020280743027767
370
     0
100
AcDbLine
 10
3.050909542877247
 20
-0.6340703867881278
 30
0.0
 11
3.050909542877247
 21
-0.5823780791518202
 31
0.0
  0
LINE
  5
16B
330
1F
100
AcDbEntity
  8
1
  6
Continuous
 62
     7
 48
0.0020280743027767
370
     0
100
AcDbLine
 10
3.56498087720888
 20
-0.5823780791518196
 30
0.0
 11
1.934417234172524
 21
-0.5823780791518199
 31
0.0
  0
LINE
  5
16C
330
1F
100
AcDbEntity
  8
1
  6
Continuous
 62
     7
 48
0.0020280743027767
370
     0
100
AcDbLine
 10
3.56498087720888
 20
-0.5823780791518196
 30
0.0
 11
1.934417234172524
 21
-0.5823780791518199
 31
0.0
  0
LINE
  5
16D
330
1F
100
AcDbEntity
  8
1
  6
Continuous
 62
     7
 48
0.0020280743027767
370
     0
100
AcDbLine
 10
3.56498087720888
 20
-0.5306857715155118
 30
0.0
 11
3.56498087720888
 21
-0.5823780791518196
 31
0.0
  0
LINE
  5
16E
330
1F
100
AcDbEntity
  8
1
  6
Continuous
 62
     7
 48
0.0006791942490616
370
     0
100
AcDbLine
 10
0.744732571474707
 20
-1.030703131199307
 30
0.0
 11
0.744732571474707
 21
-0.935771374266333
 31
0.0
  0
TEXT
  5
16F
330
1F
100
AcDbEntity
  8
1
  6
Continuous
 62
     7
370
     0
100
AcDbText
 10
2.168312616755085
 20
-1.006970191966063
 30
0.0
 40
0.0415326436581761
  1
.
  7
DC_TEXTSTYLE5
100
AcDbText
  0
TEXT
  5
170
330
1F
100
AcDbEntity
  8
1
  6
Continuous
 62
    94
420
    37376
370
     0
100
AcDbText
 10
1.4948904660118
 20
-1.006970191966064
 30
0.0
 40
0.0415326436581761
  1
.
  7
DC_TEXTSTYLE5
100
AcDbText
  0
TEXT
  5
171
330
1F
100
AcDbEntity
  8
1
  6
Continuous
 62
    94
420
    37376
370
     0
100
AcDbText
 10
0.7684655107079505
 20
-1.006970191966064
 30
0.0
 40
0.0415326436581761
  1
.
  7
DC_TEXTSTYLE5
100
AcDbText
  0
TEXT
  5
172
330
1F
100
AcDbEntity
  8
1
  6
Continuous
 62
    94
420
    37376
370
     0
100
AcDbText
 10
0.1361796949086103
 20
-1.006970191966063
 30
0.0
 40
0.0415326436581761
  1
.
  7
DC_TEXTSTYLE5
100
AcDbText
  0
ARC
  5
173
330
1F
100
AcDbEntity
  8
1
  6
Continuous
 62
     7
 48
0.0006791942490616
370
     0
100
AcDbCircle
 10
3.564979719504526
 20
1.412571609854458
 30
0.0
 40
0.0000009261634824
100
AcDbArc
 50
0.0
 51
89.99999997252705
  0
POLYLINE
  5
174
330
1F
100
AcDbEntity
  8
1
  6
Continuous
 62
     7
 48
0.0020280743027767
370
     0
100
AcDb2dPolyline
 66
     1
 10
0.0
 20
0.0
 30
0.0
 70
   129
  0
VERTEX
  5
175
330
174
100
AcDbEntity
  8
1
  6
Continuous
 62
     7
 48
0.0020280743027767
100
AcDbVertex
100
AcDb2dVertex
 10
3.295306061209178
 20
1.374714305127585
 30
0.0
 40
0.00322
 41
0.00322
  0
VERTEX
  5
176
330
174
100
AcDbEntity
  8
1
  6
Continuous
 62
     7
 48
0.0020280743027767
100
AcDbVertex
100
AcDb2dVertex
 10
3.294996691815973
 20
1.378250413472802
 30
0.0
 40
0.00322
 41
0.00322
  0
VERTEX
  5
177
330
174
100
AcDbEntity
  8
1
  6
Continuous
 62
     7
 48
0.0020280743027767
100
AcDbVertex
100
AcDb2dVertex
 10
3.294077983668819
 20
1.381679078955308
 30
0.0
 40
0.00322
 41
0.00322
  0
VERTEX
  5
178
330
174
100
AcDbEntity
  8
1
  6
Continuous
 62
     7
 48
0.0020280743027767
100
AcDbVertex
100
AcDb2dVertex
 10
3.29257785124988
 20
1.384896123309403
 30
0.0
 40
0.00322
 41
0.00322
  0
VERTEX
  5
179
330
174
100
AcDbEntity
  8
1
  6
Continuous
 62
     7
 48
0.0020280743027767
100
AcDbVertex
100
AcDb2dVertex
 10
3.290541875323601
 20
1.387803798270293
 30
0.0
 40
0.00322
 41
0.00322
  0
VERTEX
  5
17A
330
174
100
AcDbEntity
  8
1
  6
Continuous
 62
     7
 48
0.0020280743027767
100
AcDbVertex
100
AcDb2dVertex
 10
3.28803191798825
 20
1.390313755605644
 30
0.0
 40
0.00322
 41
0.00322
  0
VERTEX
  5
17B
330
174
100
AcDbEntity
  8
1
  6
Continuous
 62
     7
 48
0.0020280743027767
100
AcDbVertex
100
AcDb2dVertex
 10
3.28512424302736
 20
1.392349731531923
 30
0.0
 40
0.00322
 41
0.00322
  0
VERTEX
  5
17C
330
174
100
AcDbEntity
  8
1
  6
Continuous
 62
     7
 48
0.0020280743027767
100
AcDbVertex
100
AcDb2dVertex
 10
3.281907198673264
 20
1.393849863950862
 30
0.0
 40
0.00322
 41
0.00322
  0
VERTEX
  5
17D
330
174
100
AcDbEntity
  8
1
  6
Continuous
 62
     7
 48
0.0020280743027767
100
AcDbVertex
100
AcDb2dVertex
 10
3.278478533190758
 20
1.394768572098015
 30
0.0
 40
0.00322
 41
0.00322
  0
VERTEX
  5
17E
330
174
100
AcDbEntity
  8
1
  6
Continuous
 62
     7
 48
0.0020280743027767
100
AcDbVertex
100
AcDb2dVertex
 10
3.274942424845541
 20
1.395077941491222
 30
0.0
 40
0.00322
 41
0.00322
  0
VERTEX
  5
17F
330
174
100
AcDbEntity
  8
1
  6
Continuous
 62
     7
 48
0.0020280743027767
100
AcDbVertex
100
AcDb2dVertex
 10
3.271406316500324
 20
1.394768572098015
 30
0.0
 40
0.00322
 41
0.00322
  0
VERTEX
  5
180
330
174
100
AcDbEntity
  8
1
  6
Continuous
 62
     7
 48
0.0020280743027767
100
AcDbVertex
100
AcDb2dVertex
 10
3.267977651017818
 20
1.393849863950862
 30
0.0
 40
0.00322
 41
0.00322
  0
VERTEX
  5
181
330
174
100
AcDbEntity
  8
1
  6
Continuous
 62
     7
 48
0.0020280743027767
100
AcDbVertex
100
AcDb2dVertex
 10
3.264760606663722
 20
1.392349731531923
 30
0.0
 40
0.00322
 41
0.00322
  0
VERTEX
  5
182
330
174
100
AcDbEntity
  8
1
  6
Continuous
 62
     7
 48
0.0020280743027767
100
AcDbVertex
100
AcDb2dVertex
 10
3.261852931702832
 20
1.390313755605644
 30
0.0
 40
0.00322
 41
0.00322
  0
VERTEX
  5
183
330
174
100
AcDbEntity
  8
1
  6
Continuous
 62
     7
 48
0.0020280743027767
100
AcDbVertex
100
AcDb2dVertex
 10
3.259342974367481
 20
1.387803798270293
 30
0.0
 40
0.00322
 41
0.00322
  0
VERTEX
  5
184
330
174
100
AcDbEntity
  8
1
  6
Continuous
 62
     7
 48
0.0020280743027767
100
AcDbVertex
100
AcDb2dVertex
 10
3.257306998441202
 20
1.384896123309403
 30
0.0
 40
0.00322
 41
0.00322
  0
VERTEX
  5
185
330
174
100
AcDbEntity
  8
1
  6
Continuous
 62
     7
 48
0.0020280743027767
100
AcDbVertex
100
AcDb2dVertex
 10
3.255806866022263
 20
1.381679078955308
 30
0.0
 40
0.00322
 41
0.00322
  0
VERTEX
  5
186
330
174
100
AcDbEntity
  8
1
  6
Continuous
 62
     7
 48
0.0020280743027767
100
AcDbVertex
100
AcDb2dVertex
 10
3.254888157875109
 20
1.378250413472802
 30
0.0
 40
0.00322
 41
0.00322
  0
VERTEX
  5
187
330
174
100
AcDbEntity
  8
1
  6
Continuous
 62
     7
 48
0.0020280743027767
100
AcDbVertex
100
AcDb2dVertex
 10
3.254578788481903
 20
1.374714305127585
 30
0.0
 40
0.00322
 41
0.00322
  0
VERTEX
  5
188
330
174
100
AcDbEntity
  8
1
  6
Continuous
 62
     7
 48
0.0020280743027767
100
AcDbVertex
100
AcDb2dVertex
 10
3.254888157875109
 20
1.371178196782367
 30
0.0
 40
0.00322
 41
0.00322
  0
VERTEX
  5
189
330
174
100
AcDbEntity
  8
1
  6
Continuous
 62
     7
 48
0.0020280743027767
100
AcDbVertex
100
AcDb2dVertex
 10
3.255806866022263
 20
1.367749531299862
 30
0.0
 40
0.00322
 41
0.00322
  0
VERTEX
  5
18A
330
174
100
AcDbEntity
  8
1
  6
Continuous
 62
     7
 48
0.0020280743027767
100
AcDbVertex
100
AcDb2dVertex
 10
3.257306998441202
 20
1.364532486945766
 30
0.0
 40
0.00322
 41
0.00322
  0
VERTEX
  5
18B
330
174
100
AcDbEntity
  8
1
  6
Continuous
 62
     7
 48
0.0020280743027767
100
AcDbVertex
100
AcDb2dVertex
 10
3.259342974367481
 20
1.361624811984877
 30
0.0
 40
0.00322
 41
0.00322
  0
VERTEX
  5
18C
330
174
100
AcDbEntity
  8
1
  6
Continuous
 62
     7
 48
0.0020280743027767
100
AcDbVertex
100
AcDb2dVertex
 10
3.261852931702832
 20
1.359114854649525
 30
0.0
 40
0.00322
 41
0.00322
  0
VERTEX
  5
18D
330
174
100
AcDbEntity
  8
1
  6
Continuous
 62
     7
 48
0.0020280743027767
100
AcDbVertex
100
AcDb2dVertex
 10
3.264760606663722
 20
1.357078878723247
 30
0.0
 40
0.00322
 41
0.00322
  0
VERTEX
  5
18E
330
174
100
AcDbEntity
  8
1
  6
Continuous
 62
     7
 48
0.0020280743027767
100
AcDbVertex
100
AcDb2dVertex
 10
3.267977651017818
 20
1.355578746304308
 30
0.0
 40
0.00322
 41
0.00322
  0
VERTEX
  5
18F
330
174
100
AcDbEntity
  8
1
  6
Continuous
 62
     7
 48
0.0020280743027767
100
AcDbVertex
100
AcDb2dVertex
 10
3.271406316500324
 20
1.354660038157154
 30
0.0
 40
0.00322
 41
0.00322
  0
VERTEX
  5
190
330
174
100
AcDbEntity
  8
1
  6
Continuous
 62
     7
 48
0.0020280743027767
100
AcDbVertex
100
AcDb2dVertex
 10
3.274942424845541
 20
1.354350668763948
 30
0.0
 40
0.00322
 41
0.00322
  0
VERTEX
  5
191
330
174
100
AcDbEntity
  8
1
  6
Continuous
 62
     7
 48
0.0020280743027767
100
AcDbVertex
100
AcDb2dVertex
 10
3.278478533190758
 20
1.354660038157154
 30
0.0
 40
0.00322
 41
0.00322
  0
VERTEX
  5
192
330
174
100
AcDbEntity
  8
1
  6
Continuous
 62
     7
 48
0.0020280743027767
100
AcDbVertex
100
AcDb2dVertex
 10
3.281907198673264
 20
1.355578746304307
 30
0.0
 40
0.00322
 41
0.00322
  0
VERTEX
  5
193
330
174
100
AcDbEntity
  8
1
  6
Continuous
 62
     7
 48
0.0020280743027767
100
AcDbVertex
100
AcDb2dVertex
 10
3.28512424302736
 20
1.357078878723246
 30
0.0
 40
0.00322
 41
0.00322
  0
VERTEX
  5
194
330
174
100
AcDbEntity
  8
1
  6
Continuous
 62
     7
 48
0.0020280743027767
100
AcDbVertex
100
AcDb2dVertex
 10
3.28803191798825
 20
1.359114854649525
 30
0.0
 40
0.00322
 41
0.00322
  0
VERTEX
  5
195
330
174
100
AcDbEntity
  8
1
  6
Continuous
 62
     7
 48
0.0020280743027767
100
AcDbVertex
100
AcDb2dVertex
 10
3.290541875323601
 20
1.361624811984877
 30
0.0
 40
0.00322
 41
0.00322
  0
VERTEX
  5
196
330
174
100
AcDbEntity
  8
1
  6
Continuous
 62
     7
 48
0.0020280743027767
100
AcDbVertex
100
AcDb2dVertex
 10
3.29257785124988
 20
1.364532486945766
 30
0.0
 40
0.00322
 41
0.00322
  0
VERTEX
  5
197
330
174
100
AcDbEntity
  8
1
  6
Continuous
 62
     7
 48
0.0020280743027767
100
AcDbVertex
100
AcDb2dVertex
 10
3.294077983668819
 20
1.367749531299862
 30
0.0
 40
0.00322
 41
0.00322
  0
VERTEX
  5
198
330
174
100
AcDbEntity
  8
1
  6
Continuous
 62
     7
 48
0.0020280743027767
100
AcDbVertex
100
AcDb2dVertex
 10
3.294996691815973
 20
1.371178196782367
 30
0.0
 40
0.00322
 41
0.00322
  0
VERTEX
  5
199
330
174
100
AcDbEntity
  8
1
  6
Continuous
 62
     7
 48
0.0020280743027767
100
AcDbVertex
100
AcDb2dVertex
 10
3.295306061209178
 20
1.374714305127585
 30
0.0
 40
0.00322
 41
0.00322
  0
SEQEND
  5
19A
330
174
100
AcDbEntity
  8
1
  6
Continuous
 62
     7
 48
0.0020280743027767
370
     0
  0
POLYLINE
  5
19B
330
1F
100
AcDbEntity
  8
1
  6
Continuous
 62
     7
 48
0.0020280743027767
370
     0
100
AcDb2dPolyline
 66
     1
 10
0.0
 20
0.0
 30
0.0
 70
   129
  0
VERTEX
  5
19C
330
19B
100
AcDbEntity
  8
1
  6
Continuous
 62
     7
 48
0.0020280743027767
100
AcDbVertex
100
AcDb2dVertex
 10
3.287669697572814
 20
1.374714305127585
 30
0.0
 40
0.00322
 41
0.00322
  0
VERTEX
  5
19D
330
19B
100
AcDbEntity
  8
1
  6
Continuous
 62
     7
 48
0.0020280743027767
100
AcDbVertex
100
AcDb2dVertex
 10
3.28747634170206
 20
1.376924372843346
 30
0.0
 40
0.00322
 41
0.00322
  0
VERTEX
  5
19E
330
19B
100
AcDbEntity
  8
1
  6
Continuous
 62
     7
 48
0.0020280743027767
100
AcDbVertex
100
AcDb2dVertex
 10
3.286902149110089
 20
1.379067288769911
 30
0.0
 40
0.00322
 41
0.00322
  0
VERTEX
  5
19F
330
19B
100
AcDbEntity
  8
1
  6
Continuous
 62
     7
 48
0.0020280743027767
100
AcDbVertex
100
AcDb2dVertex
 10
3.285964566348252
 20
1.381077941491221
 30
0.0
 40
0.00322
 41
0.00322
  0
VERTEX
  5
1A0
330
19B
100
AcDbEntity
  8
1
  6
Continuous
 62
     7
 48
0.0020280743027767
100
AcDbVertex
100
AcDb2dVertex
 10
3.284692081394328
 20
1.382895238341777
 30
0.0
 40
0.00322
 41
0.00322
  0
VERTEX
  5
1A1
330
19B
100
AcDbEntity
  8
1
  6
Continuous
 62
     7
 48
0.0020280743027767
100
AcDbVertex
100
AcDb2dVertex
 10
3.283123358059733
 20
1.384463961676372
 30
0.0
 40
0.00322
 41
0.00322
  0
VERTEX
  5
1A2
330
19B
100
AcDbEntity
  8
1
  6
Continuous
 62
     7
 48
0.0020280743027767
100
AcDbVertex
100
AcDb2dVertex
 10
3.281306061209178
 20
1.385736446630296
 30
0.0
 40
0.00322
 41
0.00322
  0
VERTEX
  5
1A3
330
19B
100
AcDbEntity
  8
1
  6
Continuous
 62
     7
 48
0.0020280743027767
100
AcDbVertex
100
AcDb2dVertex
 10
3.279295408487868
 20
1.386674029392132
 30
0.0
 40
0.00322
 41
0.00322
  0
VERTEX
  5
1A4
330
19B
100
AcDbEntity
  8
1
  6
Continuous
 62
     7
 48
0.0020280743027767
100
AcDbVertex
100
AcDb2dVertex
 10
3.277152492561302
 20
1.387248221984104
 30
0.0
 40
0.00322
 41
0.00322
  0
VERTEX
  5
1A5
330
19B
100
AcDbEntity
  8
1
  6
Continuous
 62
     7
 48
0.0020280743027767
100
AcDbVertex
100
AcDb2dVertex
 10
3.274942424845541
 20
1.387441577854857
 30
0.0
 40
0.00322
 41
0.00322
  0
VERTEX
  5
1A6
330
19B
100
AcDbEntity
  8
1
  6
Continuous
 62
     7
 48
0.0020280743027767
100
AcDbVertex
100
AcDb2dVertex
 10
3.27273235712978
 20
1.387248221984104
 30
0.0
 40
0.00322
 41
0.00322
  0
VERTEX
  5
1A7
330
19B
100
AcDbEntity
  8
1
  6
Continuous
 62
     7
 48
0.0020280743027767
100
AcDbVertex
100
AcDb2dVertex
 10
3.270589441203214
 20
1.386674029392132
 30
0.0
 40
0.00322
 41
0.00322
  0
VERTEX
  5
1A8
330
19B
100
AcDbEntity
  8
1
  6
Continuous
 62
     7
 48
0.0020280743027767
100
AcDbVertex
100
AcDb2dVertex
 10
3.268578788481905
 20
1.385736446630296
 30
0.0
 40
0.00322
 41
0.00322
  0
VERTEX
  5
1A9
330
19B
100
AcDbEntity
  8
1
  6
Continuous
 62
     7
 48
0.0020280743027767
100
AcDbVertex
100
AcDb2dVertex
 10
3.266761491631348
 20
1.384463961676372
 30
0.0
 40
0.00322
 41
0.00322
  0
VERTEX
  5
1AA
330
19B
100
AcDbEntity
  8
1
  6
Continuous
 62
     7
 48
0.0020280743027767
100
AcDbVertex
100
AcDb2dVertex
 10
3.265192768296754
 20
1.382895238341777
 30
0.0
 40
0.00322
 41
0.00322
  0
VERTEX
  5
1AB
330
19B
100
AcDbEntity
  8
1
  6
Continuous
 62
     7
 48
0.0020280743027767
100
AcDbVertex
100
AcDb2dVertex
 10
3.26392028334283
 20
1.381077941491221
 30
0.0
 40
0.00322
 41
0.00322
  0
VERTEX
  5
1AC
330
19B
100
AcDbEntity
  8
1
  6
Continuous
 62
     7
 48
0.0020280743027767
100
AcDbVertex
100
AcDb2dVertex
 10
3.262982700580992
 20
1.379067288769911
 30
0.0
 40
0.00322
 41
0.00322
  0
VERTEX
  5
1AD
330
19B
100
AcDbEntity
  8
1
  6
Continuous
 62
     7
 48
0.0020280743027767
100
AcDbVertex
100
AcDb2dVertex
 10
3.262408507989022
 20
1.376924372843346
 30
0.0
 40
0.00322
 41
0.00322
  0
VERTEX
  5
1AE
330
19B
100
AcDbEntity
  8
1
  6
Continuous
 62
     7
 48
0.0020280743027767
100
AcDbVertex
100
AcDb2dVertex
 10
3.262215152118268
 20
1.374714305127585
 30
0.0
 40
0.00322
 41
0.00322
  0
VERTEX
  5
1AF
330
19B
100
AcDbEntity
  8
1
  6
Continuous
 62
     7
 48
0.0020280743027767
100
AcDbVertex
100
AcDb2dVertex
 10
3.262408507989022
 20
1.372504237411824
 30
0.0
 40
0.00322
 41
0.00322
  0
VERTEX
  5
1B0
330
19B
100
AcDbEntity
  8
1
  6
Continuous
 62
     7
 48
0.0020280743027767
100
AcDbVertex
100
AcDb2dVertex
 10
3.262982700580992
 20
1.370361321485258
 30
0.0
 40
0.00322
 41
0.00322
  0
VERTEX
  5
1B1
330
19B
100
AcDbEntity
  8
1
  6
Continuous
 62
     7
 48
0.0020280743027767
100
AcDbVertex
100
AcDb2dVertex
 10
3.26392028334283
 20
1.368350668763948
 30
0.0
 40
0.00322
 41
0.00322
  0
VERTEX
  5
1B2
330
19B
100
AcDbEntity
  8
1
  6
Continuous
 62
     7
 48
0.0020280743027767
100
AcDbVertex
100
AcDb2dVertex
 10
3.265192768296754
 20
1.366533371913392
 30
0.0
 40
0.00322
 41
0.00322
  0
VERTEX
  5
1B3
330
19B
100
AcDbEntity
  8
1
  6
Continuous
 62
     7
 48
0.0020280743027767
100
AcDbVertex
100
AcDb2dVertex
 10
3.266761491631348
 20
1.364964648578798
 30
0.0
 40
0.00322
 41
0.00322
  0
VERTEX
  5
1B4
330
19B
100
AcDbEntity
  8
1
  6
Continuous
 62
     7
 48
0.0020280743027767
100
AcDbVertex
100
AcDb2dVertex
 10
3.268578788481904
 20
1.363692163624874
 30
0.0
 40
0.00322
 41
0.00322
  0
VERTEX
  5
1B5
330
19B
100
AcDbEntity
  8
1
  6
Continuous
 62
     7
 48
0.0020280743027767
100
AcDbVertex
100
AcDb2dVertex
 10
3.270589441203214
 20
1.362754580863037
 30
0.0
 40
0.00322
 41
0.00322
  0
VERTEX
  5
1B6
330
19B
100
AcDbEntity
  8
1
  6
Continuous
 62
     7
 48
0.0020280743027767
100
AcDbVertex
100
AcDb2dVertex
 10
3.27273235712978
 20
1.362180388271066
 30
0.0
 40
0.00322
 41
0.00322
  0
VERTEX
  5
1B7
330
19B
100
AcDbEntity
  8
1
  6
Continuous
 62
     7
 48
0.0020280743027767
100
AcDbVertex
100
AcDb2dVertex
 10
3.274942424845541
 20
1.361987032400312
 30
0.0
 40
0.00322
 41
0.00322
  0
VERTEX
  5
1B8
330
19B
100
AcDbEntity
  8
1
  6
Continuous
 62
     7
 48
0.0020280743027767
100
AcDbVertex
100
AcDb2dVertex
 10
3.277152492561302
 20
1.362180388271066
 30
0.0
 40
0.00322
 41
0.00322
  0
VERTEX
  5
1B9
330
19B
100
AcDbEntity
  8
1
  6
Continuous
 62
     7
 48
0.0020280743027767
100
AcDbVertex
100
AcDb2dVertex
 10
3.279295408487868
 20
1.362754580863037
 30
0.0
 40
0.00322
 41
0.00322
  0
VERTEX
  5
1BA
330
19B
100
AcDbEntity
  8
1
  6
Continuous
 62
     7
 48
0.0020280743027767
100
AcDbVertex
100
AcDb2dVertex
 10
3.281306061209177
 20
1.363692163624874
 30
0.0
 40
0.00322
 41
0.00322
  0
VERTEX
  5
1BB
330
19B
100
AcDbEntity
  8
1
  6
Continuous
 62
     7
 48
0.0020280743027767
100
AcDbVertex
100
AcDb2dVertex
 10
3.283123358059733
 20
1.364964648578798
 30
0.0
 40
0.00322
 41
0.00322
  0
VERTEX
  5
1BC
330
19B
100
AcDbEntity
  8
1
  6
Continuous
 62
     7
 48
0.0020280743027767
100
AcDbVertex
100
AcDb2dVertex
 10
3.284692081394328
 20
1.366533371913392
 30
0.0
 40
0.00322
 41
0.00322
  0
VERTEX
  5
1BD
330
19B
100
AcDbEntity
  8
1
  6
Continuous
 62
     7
 48
0.0020280743027767
100
AcDbVertex
100
AcDb2dVertex
 10
3.285964566348252
 20
1.368350668763948
 30
0.0
 40
0.00322
 41
0.00322
  0
VERTEX
  5
1BE
330
19B
100
AcDbEntity
  8
1
  6
Continuous
 62
     7
 48
0.0020280743027767
100
AcDbVertex
100
AcDb2dVertex
 10
3.286902149110089
 20
1.370361321485258
 30
0.0
 40
0.00322
 41
0.00322
  0
VERTEX
  5
1BF
330
19B
100
AcDbEntity
  8
1
  6
Continuous
 62
     7
 48
0.0020280743027767
100
AcDbVertex
100
AcDb2dVertex
 10
3.28747634170206
 20
1.372504237411824
 30
0.0
 40
0.00322
 41
0.00322
  0
VERTEX
  5
1C0
330
19B
100
AcDbEntity
  8
1
  6
Continuous
 62
     7
 48
0.0020280743027767
100
AcDbVertex
100
AcDb2dVertex
 10
3.287669697572814
 20
1.374714305127585
 30
0.0
 40
0.00322
 41
0.00322
  0
SEQEND
  5
1C1
330
19B
100
AcDbEntity
  8
1
  6
Continuous
 62
     7
 48
0.0020280743027767
370
     0
  0
POLYLINE
  5
1C2
330
1F
100
AcDbEntity
  8
2
  6
Continuous
 62
     7
 48
0.0088394557130412
370
     0
100
AcDb2dPolyline
 66
     1
 10
0.0
 20
0.0
 30
0.0
  0
VERTEX
  5
1C3
330
1C2
100
AcDbEntity
  8
2
  6
Continuous
 62
     7
 48
0.0088394557130412
100
AcDbVertex
100
AcDb2dVertex
 10
2.233406247989167
 20
0.6662689868098578
 30
0.0
 40
0.0035
 41
0.0035
  0
VERTEX
  5
1C4
330
1C2
100
AcDbEntity
  8
2
  6
Continuous
 62
     7
 48
0.0088394557130412
100
AcDbVertex
100
AcDb2dVertex
 10
2.217739581322464
 20
0.7132689868099668
 30
0.0
 40
0.0035
 41
0.0035
  0
SEQEND
  5
1C5
330
1C2
100
AcDbEntity
  8
2
  6
Continuous
 62
     7
 48
0.0088394557130412
370
     0
  0
POLYLINE
  5
1C6
330
1F
100
AcDbEntity
  8
2
  6
Continuous
 62
     7
 48
0.0088394557130412
370
     0
100
AcDb2dPolyline
 66
     1
 10
0.0
 20
0.0
 30
0.0
  0
VERTEX
  5
1C7
330
1C6
100
AcDbEntity
  8
2
  6
Continuous
 62
     7
100
AcDbVertex
100
AcDb2dVertex
 10
2.413406247989586
 20
0.6562689868098343
 30
0.0
 40
0.0035
 41
0.0035
 42
0.414213562373095
  0
VERTEX
  5
1C8
330
1C6
100
AcDbEntity
  8
2
  6
Continuous
 62
     7
100
AcDbVertex
100
AcDb2dVertex
 10
2.403406247989563
 20
0.6662689868098578
 30
0.0
 40
0.0035
 41
0.0035
  0
SEQEND
  5
1C9
330
1C6
100
AcDbEntity
  8
2
  6
Continuous
 62
     7
 48
0.0088394557130412
370
     0
  0
POLYLINE
  5
1CA
330
1F
100
AcDbEntity
  8
2
  6
Continuous
 62
     7
 48
0.0088394557130412
370
     0
100
AcDb2dPolyline
 66
     1
 10
0.0
 20
0.0
 30
0.0
  0
VERTEX
  5
1CB
330
1CA
100
AcDbEntity
  8
2
  6
Continuous
 62
     7
 48
0.0088394557130412
100
AcDbVertex
100
AcDb2dVertex
 10
2.403406247989563
 20
0.6662689868098578
 30
0.0
 40
0.0035
 41
0.0035
  0
VERTEX
  5
1CC
330
1CA
100
AcDbEntity
  8
2
  6
Continuous
 62
     7
 48
0.0088394557130412
100
AcDbVertex
100
AcDb2dVertex
 10
2.233406247989167
 20
0.6662689868098578
 30
0.0
 40
0.0035
 41
0.0035
  0
SEQEND
  5
1CD
330
1CA
100
AcDbEntity
  8
2
  6
Continuous
 62
     7
 48
0.0088394557130412
370
     0
  0
POLYLINE
  5
1CE
330
1F
100
AcDbEntity
  8
2
  6
Continuous
 62
     7
 48
0.0088394557130412
370
     0
100
AcDb2dPolyline
 66
     1
 10
0.0
 20
0.0
 30
0.0
  0
VERTEX
  5
1CF
330
1CE
100
AcDbEntity
  8
2
  6
Continuous
 62
     7
 48
0.0088394557130412
100
AcDbVertex
100
AcDb2dVertex
 10
2.233406247989167
 20
-0.0137310131917266
 30
0.0
 40
0.0035
 41
0.0035
  0
VERTEX
  5
1D0
330
1CE
100
AcDbEntity
  8
2
  6
Continuous
 62
     7
 48
0.0088394557130412
100
AcDbVertex
100
AcDb2dVertex
 10
2.217739581322464
 20
-0.060731013191836
 30
0.0
 40
0.0035
 41
0.0035
  0
SEQEND
  5
1D1
330
1CE
100
AcDbEntity
  8
2
  6
Continuous
 62
     7
 48
0.0088394557130412
370
     0
  0
POLYLINE
  5
1D2
330
1F
100
AcDbEntity
  8
2
  6
Continuous
 62
     7
 48
0.0088394557130412
370
     0
100
AcDb2dPolyline
 66
     1
 10
0.0
 20
0.0
 30
0.0
  0
VERTEX
  5
1D3
330
1D2
100
AcDbEntity
  8
2
  6
Continuous
 62
     7
100
AcDbVertex
100
AcDb2dVertex
 10
2.403406247989563
 20
-0.0137310131917266
 30
0.0
 40
0.0035
 41
0.0035
 42
0.4142135623730951
  0
VERTEX
  5
1D4
330
1D2
100
AcDbEntity
  8
2
  6
Continuous
 62
     7
100
AcDbVertex
100
AcDb2dVertex
 10
2.413406247989586
 20
-0.0037310131917032
 30
0.0
 40
0.0035
 41
0.0035
  0
SEQEND
  5
1D5
330
1D2
100
AcDbEntity
  8
2
  6
Continuous
 62
     7
 48
0.0088394557130412
370
     0
  0
POLYLINE
  5
1D6
330
1F
100
AcDbEntity
  8
2
  6
Continuous
 62
     7
 48
0.0088394557130412
370
     0
100
AcDb2dPolyline
 66
     1
 10
0.0
 20
0.0
 30
0.0
  0
VERTEX
  5
1D7
330
1D6
100
AcDbEntity
  8
2
  6
Continuous
 62
     7
 48
0.0088394557130412
100
AcDbVertex
100
AcDb2dVertex
 10
2.403406247989563
 20
-0.0137310131917266
 30
0.0
 40
0.0035
 41
0.0035
  0
VERTEX
  5
1D8
330
1D6
100
AcDbEntity
  8
2
  6
Continuous
 62
     7
 48
0.0088394557130412
100
AcDbVertex
100
AcDb2dVertex
 10
2.233406247989167
 20
-0.0137310131917266
 30
0.0
 40
0.0035
 41
0.0035
  0
SEQEND
  5
1D9
330
1D6
100
AcDbEntity
  8
2
  6
Continuous
 62
     7
 48
0.0088394557130412
370
     0
  0
POLYLINE
  5
1DA
330
1F
100
AcDbEntity
  8
2
  6
Continuous
 62
     7
 48
0.0088394557130412
370
     0
100
AcDb2dPolyline
 66
     1
 10
0.0
 20
0.0
 30
0.0
 70
   128
  0
VERTEX
  5
1DB
330
1DA
100
AcDbEntity
  8
2
  6
Continuous
 62
     7
 48
0.0088394557130412
100
AcDbVertex
100
AcDb2dVertex
 10
1.607406247987708
 20
0.5462689868095782
 30
0.0
 40
0.0035
 41
0.0035
  0
VERTEX
  5
1DC
330
1DA
100
AcDbEntity
  8
2
  6
Continuous
 62
     7
 48
0.0088394557130412
100
AcDbVertex
100
AcDb2dVertex
 10
1.701406247987928
 20
0.4752689868094127
 30
0.0
 40
0.0035
 41
0.0035
  0
VERTEX
  5
1DD
330
1DA
100
AcDbEntity
  8
2
  6
Continuous
 62
     7
 48
0.0088394557130412
100
AcDbVertex
100
AcDb2dVertex
 10
1.867406247988314
 20
0.4752689868094127
 30
0.0
 40
0.0035
 41
0.0035
  0
SEQEND
  5
1DE
330
1DA
100
AcDbEntity
  8
2
  6
Continuous
 62
     7
 48
0.0088394557130412
370
     0
  0
POLYLINE
  5
1DF
330
1F
100
AcDbEntity
  8
2
  6
Continuous
 62
     7
 48
0.0088394557130412
370
     0
100
AcDb2dPolyline
 66
     1
 10
0.0
 20
0.0
 30
0.0
 70
   128
  0
VERTEX
  5
1E0
330
1DF
100
AcDbEntity
  8
2
  6
Continuous
 62
     7
 48
0.0088394557130412
100
AcDbVertex
100
AcDb2dVertex
 10
1.607406247987708
 20
0.106268986808553
 30
0.0
 40
0.0035
 41
0.0035
  0
VERTEX
  5
1E1
330
1DF
100
AcDbEntity
  8
2
  6
Continuous
 62
     7
 48
0.0088394557130412
100
AcDbVertex
100
AcDb2dVertex
 10
1.701406247987928
 20
0.1772689868087186
 30
0.0
 40
0.0035
 41
0.0035
  0
VERTEX
  5
1E2
330
1DF
100
AcDbEntity
  8
2
  6
Continuous
 62
     7
 48
0.0088394557130412
100
AcDbVertex
100
AcDb2dVertex
 10
1.867406247988314
 20
0.1772689868087186
 30
0.0
 40
0.0035
 41
0.0035
  0
SEQEND
  5
1E3
330
1DF
100
AcDbEntity
  8
2
  6
Continuous
 62
     7
 48
0.0088394557130412
370
     0
  0
POLYLINE
  5
1E4
330
1F
100
AcDbEntity
  8
2
  6
Continuous
 62
     7
 48
0.0088394557130412
370
     0
100
AcDb2dPolyline
 66
     1
 10
0.0
 20
0.0
 30
0.0
  0
VERTEX
  5
1E5
330
1E4
100
AcDbEntity
  8
2
  6
Continuous
 62
     7
100
AcDbVertex
100
AcDb2dVertex
 10
2.052106247988745
 20
0.6212689868097532
 30
0.0
 40
0.0035
 41
0.0035
 42
0.414213562373095
  0
VERTEX
  5
1E6
330
1E4
100
AcDbEntity
  8
2
  6
Continuous
 62
     7
100
AcDbVertex
100
AcDb2dVertex
 10
2.042106247988721
 20
0.6112689868097296
 30
0.0
 40
0.0035
 41
0.0035
  0
SEQEND
  5
1E7
330
1E4
100
AcDbEntity
  8
2
  6
Continuous
 62
     7
 48
0.0088394557130412
370
     0
  0
POLYLINE
  5
1E8
330
1F
100
AcDbEntity
  8
2
  6
Continuous
 62
     7
 48
0.0088394557130412
370
     0
100
AcDb2dPolyline
 66
     1
 10
0.0
 20
0.0
 30
0.0
  0
VERTEX
  5
1E9
330
1E8
100
AcDbEntity
  8
2
  6
Continuous
 62
     7
 48
0.0088394557130412
100
AcDbVertex
100
AcDb2dVertex
 10
2.052106247988745
 20
0.6212689868097532
 30
0.0
 40
0.0035
 41
0.0035
  0
VERTEX
  5
1EA
330
1E8
100
AcDbEntity
  8
2
  6
Continuous
 62
     7
 48
0.0088394557130412
100
AcDbVertex
100
AcDb2dVertex
 10
2.142106247988954
 20
0.6212689868097532
 30
0.0
 40
0.0035
 41
0.0035
  0
SEQEND
  5
1EB
330
1E8
100
AcDbEntity
  8
2
  6
Continuous
 62
     7
 48
0.0088394557130412
370
     0
  0
POLYLINE
  5
1EC
330
1F
100
AcDbEntity
  8
2
  6
Continuous
 62
     7
 48
0.0088394557130412
370
     0
100
AcDb2dPolyline
 66
     1
 10
0.0
 20
0.0
 30
0.0
  0
VERTEX
  5
1ED
330
1EC
100
AcDbEntity
  8
2
  6
Continuous
 62
     7
100
AcDbVertex
100
AcDb2dVertex
 10
2.042106247988721
 20
0.0412689868084017
 30
0.0
 40
0.0035
 41
0.0035
 42
0.414213562373095
  0
VERTEX
  5
1EE
330
1EC
100
AcDbEntity
  8
2
  6
Continuous
 62
     7
100
AcDbVertex
100
AcDb2dVertex
 10
2.052106247988745
 20
0.0312689868083783
 30
0.0
 40
0.0035
 41
0.0035
  0
SEQEND
  5
1EF
330
1EC
100
AcDbEntity
  8
2
  6
Continuous
 62
     7
 48
0.0088394557130412
370
     0
  0
POLYLINE
  5
1F0
330
1F
100
AcDbEntity
  8
2
  6
Continuous
 62
     7
 48
0.0088394557130412
370
     0
100
AcDb2dPolyline
 66
     1
 10
0.0
 20
0.0
 30
0.0
  0
VERTEX
  5
1F1
330
1F0
100
AcDbEntity
  8
2
  6
Continuous
 62
     7
 48
0.0088394557130412
100
AcDbVertex
100
AcDb2dVertex
 10
2.052106247988745
 20
0.0312689868083783
 30
0.0
 40
0.0035
 41
0.0035
  0
VERTEX
  5
1F2
330
1F0
100
AcDbEntity
  8
2
  6
Continuous
 62
     7
 48
0.0088394557130412
100
AcDbVertex
100
AcDb2dVertex
 10
2.142106247988954
 20
0.0312689868083783
 30
0.0
 40
0.0035
 41
0.0035
  0
SEQEND
  5
1F3
330
1F0
100
AcDbEntity
  8
2
  6
Continuous
 62
     7
 48
0.0088394557130412
370
     0
  0
POLYLINE
  5
1F4
330
1F
100
AcDbEntity
  8
2
  6
Continuous
 62
     7
 48
0.0088394557130412
370
     0
100
AcDb2dPolyline
 66
     1
 10
0.0
 20
0.0
 30
0.0
  0
VERTEX
  5
1F5
330
1F4
100
AcDbEntity
  8
2
  6
Continuous
 62
     7
 48
0.0088394557130412
100
AcDbVertex
100
AcDb2dVertex
 10
2.042106247988721
 20
0.6112689868097296
 30
0.0
 40
0.0035
 41
0.0035
  0
VERTEX
  5
1F6
330
1F4
100
AcDbEntity
  8
2
  6
Continuous
 62
     7
 48
0.0088394557130412
100
AcDbVertex
100
AcDb2dVertex
 10
2.042106247988721
 20
0.5642689868096201
 30
0.0
 40
0.0035
 41
0.0035
  0
SEQEND
  5
1F7
330
1F4
100
AcDbEntity
  8
2
  6
Continuous
 62
     7
 48
0.0088394557130412
370
     0
  0
POLYLINE
  5
1F8
330
1F
100
AcDbEntity
  8
2
  6
Continuous
 62
     7
 48
0.0088394557130412
370
     0
100
AcDb2dPolyline
 66
     1
 10
0.0
 20
0.0
 30
0.0
  0
VERTEX
  5
1F9
330
1F8
100
AcDbEntity
  8
2
  6
Continuous
 62
     7
 48
0.0088394557130412
100
AcDbVertex
100
AcDb2dVertex
 10
2.042106247988721
 20
0.0412689868084017
 30
0.0
 40
0.0035
 41
0.0035
  0
VERTEX
  5
1FA
330
1F8
100
AcDbEntity
  8
2
  6
Continuous
 62
     7
 48
0.0088394557130412
100
AcDbVertex
100
AcDb2dVertex
 10
2.042106247988721
 20
0.0882689868085112
 30
0.0
 40
0.0035
 41
0.0035
  0
SEQEND
  5
1FB
330
1F8
100
AcDbEntity
  8
2
  6
Continuous
 62
     7
 48
0.0088394557130412
370
     0
  0
POLYLINE
  5
1FC
330
1F
100
AcDbEntity
  8
2
  6
Continuous
 62
     7
 48
0.0088394557130412
370
     0
100
AcDb2dPolyline
 66
     1
 10
0.0
 20
0.0
 30
0.0
  0
VERTEX
  5
1FD
330
1FC
100
AcDbEntity
  8
2
  6
Continuous
 62
     7
 48
0.0088394557130412
100
AcDbVertex
100
AcDb2dVertex
 10
2.080406247988811
 20
0.0312689868083783
 30
0.0
 40
0.0035
 41
0.0035
  0
VERTEX
  5
1FE
330
1FC
100
AcDbEntity
  8
2
  6
Continuous
 62
     7
 48
0.0088394557130412
100
AcDbVertex
100
AcDb2dVertex
 10
2.106406247988871
 20
0.0312689868083783
 30
0.0
 40
0.0035
 41
0.0035
  0
SEQEND
  5
1FF
330
1FC
100
AcDbEntity
  8
2
  6
Continuous
 62
     7
 48
0.0088394557130412
370
     0
  0
POLYLINE
  5
200
330
1F
100
AcDbEntity
  8
2
  6
Continuous
 62
     7
 48
0.0088394557130412
370
     0
100
AcDb2dPolyline
 66
     1
 10
0.0
 20
0.0
 30
0.0
  0
VERTEX
  5
201
330
200
100
AcDbEntity
  8
2
  6
Continuous
 62
     7
 48
0.0088394557130412
100
AcDbVertex
100
AcDb2dVertex
 10
2.080406247988811
 20
0.6212689868097532
 30
0.0
 40
0.0035
 41
0.0035
  0
VERTEX
  5
202
330
200
100
AcDbEntity
  8
2
  6
Continuous
 62
     7
 48
0.0088394557130412
100
AcDbVertex
100
AcDb2dVertex
 10
2.106406247988871
 20
0.6212689868097532
 30
0.0
 40
0.0035
 41
0.0035
  0
SEQEND
  5
203
330
200
100
AcDbEntity
  8
2
  6
Continuous
 62
     7
 48
0.0088394557130412
370
     0
  0
POLYLINE
  5
204
330
1F
100
AcDbEntity
  8
2
  6
Continuous
 62
     7
 48
0.0088394557130412
370
     0
100
AcDb2dPolyline
 66
     1
 10
0.0
 20
0.0
 30
0.0
  0
VERTEX
  5
205
330
204
100
AcDbEntity
  8
2
  6
Continuous
 62
     7
 48
0.0088394557130412
100
AcDbVertex
100
AcDb2dVertex
 10
2.413406247989586
 20
0.027193480652372
 30
0.0
 40
0.0035
 41
0.0035
  0
VERTEX
  5
206
330
204
100
AcDbEntity
  8
2
  6
Continuous
 62
     7
 48
0.0088394557130412
100
AcDbVertex
100
AcDb2dVertex
 10
2.413406247989586
 20
0.6562689868098343
 30
0.0
 40
0.0035
 41
0.0035
  0
SEQEND
  5
207
330
204
100
AcDbEntity
  8
2
  6
Continuous
 62
     7
 48
0.0088394557130412
370
     0
  0
POLYLINE
  5
208
330
1F
100
AcDbEntity
  8
1
  6
Continuous
 62
     7
 48
0.0088394557130412
370
     0
100
AcDb2dPolyline
 66
     1
 10
0.0
 20
0.0
 30
0.0
  0
VERTEX
  5
209
330
208
100
AcDbEntity
  8
1
  6
Continuous
 62
     7
100
AcDbVertex
100
AcDb2dVertex
 10
2.006619451424235
 20
0.7132689868099668
 30
0.0
 40
0.0035
 41
0.0035
 42
0.1989123673796553
  0
VERTEX
  5
20A
330
208
100
AcDbEntity
  8
1
  6
Continuous
 62
     7
100
AcDbVertex
100
AcDb2dVertex
 10
1.996012849706412
 20
0.708875588527755
 30
0.0
 40
0.0035
 41
0.0035
  0
SEQEND
  5
20B
330
208
100
AcDbEntity
  8
1
  6
Continuous
 62
     7
 48
0.0088394557130412
370
     0
  0
POLYLINE
  5
20C
330
1F
100
AcDbEntity
  8
1
  6
Continuous
 62
     7
 48
0.0088394557130412
370
     0
100
AcDb2dPolyline
 66
     1
 10
0.0
 20
0.0
 30
0.0
  0
VERTEX
  5
20D
330
20C
100
AcDbEntity
  8
1
  6
Continuous
 62
     7
 48
0.0088394557130412
100
AcDbVertex
100
AcDb2dVertex
 10
2.006619451424235
 20
0.7132689868099668
 30
0.0
 40
0.0035
 41
0.0035
  0
VERTEX
  5
20E
330
20C
100
AcDbEntity
  8
1
  6
Continuous
 62
     7
 48
0.0088394557130412
100
AcDbVertex
100
AcDb2dVertex
 10
2.217739581322464
 20
0.7132689868099668
 30
0.0
 40
0.0035
 41
0.0035
  0
SEQEND
  5
20F
330
20C
100
AcDbEntity
  8
1
  6
Continuous
 62
     7
 48
0.0088394557130412
370
     0
  0
POLYLINE
  5
210
330
1F
100
AcDbEntity
  8
2
  6
Continuous
 62
     7
 48
0.0088394557130412
370
     0
100
AcDb2dPolyline
 66
     1
 10
0.0
 20
0.0
 30
0.0
  0
VERTEX
  5
211
330
210
100
AcDbEntity
  8
2
  6
Continuous
 62
     7
100
AcDbVertex
100
AcDb2dVertex
 10
1.996012849706412
 20
-0.056337614909624
 30
0.0
 40
0.0035
 41
0.0035
 42
0.1989123673796634
  0
VERTEX
  5
212
330
210
100
AcDbEntity
  8
2
  6
Continuous
 62
     7
100
AcDbVertex
100
AcDb2dVertex
 10
2.006619451424235
 20
-0.060731013191836
 30
0.0
 40
0.0035
 41
0.0035
  0
SEQEND
  5
213
330
210
100
AcDbEntity
  8
2
  6
Continuous
 62
     7
 48
0.0088394557130412
370
     0
  0
POLYLINE
  5
214
330
1F
100
AcDbEntity
  8
2
  6
Continuous
 62
     7
 48
0.0088394557130412
370
     0
100
AcDb2dPolyline
 66
     1
 10
0.0
 20
0.0
 30
0.0
  0
VERTEX
  5
215
330
214
100
AcDbEntity
  8
2
  6
Continuous
 62
     7
 48
0.0088394557130412
100
AcDbVertex
100
AcDb2dVertex
 10
2.006619451424235
 20
-0.060731013191836
 30
0.0
 40
0.0035
 41
0.0035
  0
VERTEX
  5
216
330
214
100
AcDbEntity
  8
2
  6
Continuous
 62
     7
 48
0.0088394557130412
100
AcDbVertex
100
AcDb2dVertex
 10
2.217739581322464
 20
-0.060731013191836
 30
0.0
 40
0.0035
 41
0.0035
  0
SEQEND
  5
217
330
214
100
AcDbEntity
  8
2
  6
Continuous
 62
     7
 48
0.0088394557130412
370
     0
  0
POLYLINE
  5
218
330
1F
100
AcDbEntity
  8
2
  6
Continuous
 62
     7
 48
0.0088394557130412
370
     0
100
AcDb2dPolyline
 66
     1
 10
0.0
 20
0.0
 30
0.0
  0
VERTEX
  5
219
330
218
100
AcDbEntity
  8
2
  6
Continuous
 62
     7
 48
0.0088394557130412
100
AcDbVertex
100
AcDb2dVertex
 10
1.923999258864229
 20
0.1772689868087186
 30
0.0
 40
0.0035
 41
0.0035
  0
VERTEX
  5
21A
330
218
100
AcDbEntity
  8
2
  6
Continuous
 62
     7
 48
0.0088394557130412
100
AcDbVertex
100
AcDb2dVertex
 10
1.84840624798827
 20
0.1772689868087186
 30
0.0
 40
0.0035
 41
0.0035
  0
SEQEND
  5
21B
330
218
100
AcDbEntity
  8
2
  6
Continuous
 62
     7
 48
0.0088394557130412
370
     0
  0
POLYLINE
  5
21C
330
1F
100
AcDbEntity
  8
1
  6
Continuous
 62
     7
 48
0.0088394557130412
370
     0
100
AcDb2dPolyline
 66
     1
 10
0.0
 20
0.0
 30
0.0
  0
VERTEX
  5
21D
330
21C
100
AcDbEntity
  8
1
  6
Continuous
 62
     7
 48
0.0088394557130412
100
AcDbVertex
100
AcDb2dVertex
 10
1.92399925886423
 20
0.4752689868094127
 30
0.0
 40
0.0035
 41
0.0035
  0
VERTEX
  5
21E
330
21C
100
AcDbEntity
  8
1
  6
Continuous
 62
     7
 48
0.0088394557130412
100
AcDbVertex
100
AcDb2dVertex
 10
2.042106247988721
 20
0.5642689868096201
 30
0.0
 40
0.0035
 41
0.0035
  0
SEQEND
  5
21F
330
21C
100
AcDbEntity
  8
1
  6
Continuous
 62
     7
 48
0.0088394557130412
370
     0
  0
POLYLINE
  5
220
330
1F
100
AcDbEntity
  8
2
  6
Continuous
 62
     7
 48
0.0088394557130412
370
     0
100
AcDb2dPolyline
 66
     1
 10
0.0
 20
0.0
 30
0.0
  0
VERTEX
  5
221
330
220
100
AcDbEntity
  8
2
  6
Continuous
 62
     7
 48
0.0088394557130412
100
AcDbVertex
100
AcDb2dVertex
 10
1.92399925886423
 20
0.4752689868094127
 30
0.0
 40
0.0035
 41
0.0035
  0
VERTEX
  5
222
330
220
100
AcDbEntity
  8
2
  6
Continuous
 62
     7
 48
0.0088394557130412
100
AcDbVertex
100
AcDb2dVertex
 10
1.84840624798827
 20
0.4752689868094127
 30
0.0
 40
0.0035
 41
0.0035
  0
SEQEND
  5
223
330
220
100
AcDbEntity
  8
2
  6
Continuous
 62
     7
 48
0.0088394557130412
370
     0
  0
POLYLINE
  5
224
330
1F
100
AcDbEntity
  8
2
  6
Continuous
 62
     7
 48
0.0088394557130412
370
     0
100
AcDb2dPolyline
 66
     1
 10
0.0
 20
0.0
 30
0.0
  0
VERTEX
  5
225
330
224
100
AcDbEntity
  8
2
  6
Continuous
 62
     7
100
AcDbVertex
100
AcDb2dVertex
 10
1.757406247987714
 20
0.571068986809064
 30
0.0
 40
0.0035
 41
0.0035
 42
0.414213562373095
  0
VERTEX
  5
226
330
224
100
AcDbEntity
  8
2
  6
Continuous
 62
     7
100
AcDbVertex
100
AcDb2dVertex
 10
1.752406247987712
 20
0.5760689868090597
 30
0.0
 40
0.0035
 41
0.0035
  0
SEQEND
  5
227
330
224
100
AcDbEntity
  8
2
  6
Continuous
 62
     7
 48
0.0088394557130412
370
     0
  0
POLYLINE
  5
228
330
1F
100
AcDbEntity
  8
2
  6
Continuous
 62
     7
 48
0.0088394557130412
370
     0
100
AcDb2dPolyline
 66
     1
 10
0.0
 20
0.0
 30
0.0
  0
VERTEX
  5
229
330
228
100
AcDbEntity
  8
2
  6
Continuous
 62
     7
 48
0.0088394557130412
100
AcDbVertex
100
AcDb2dVertex
 10
1.757406247987714
 20
0.571068986809064
 30
0.0
 40
0.0035
 41
0.0035
  0
VERTEX
  5
22A
330
228
100
AcDbEntity
  8
2
  6
Continuous
 62
     7
 48
0.0088394557130412
100
AcDbVertex
100
AcDb2dVertex
 10
1.757406247987714
 20
0.571068986809064
 30
0.0
 40
0.0035
 41
0.0035
  0
SEQEND
  5
22B
330
228
100
AcDbEntity
  8
2
  6
Continuous
 62
     7
 48
0.0088394557130412
370
     0
  0
POLYLINE
  5
22C
330
1F
100
AcDbEntity
  8
1
  6
Continuous
 62
     7
 48
0.0088394557130412
370
     0
100
AcDb2dPolyline
 66
     1
 10
0.0
 20
0.0
 30
0.0
  0
VERTEX
  5
22D
330
22C
100
AcDbEntity
  8
1
  6
Continuous
 62
     7
 48
0.0088394557130412
100
AcDbVertex
100
AcDb2dVertex
 10
1.757406247987714
 20
0.571068986809064
 30
0.0
 40
0.0035
 41
0.0035
  0
VERTEX
  5
22E
330
22C
100
AcDbEntity
  8
1
  6
Continuous
 62
     7
 48
0.0088394557130412
100
AcDbVertex
100
AcDb2dVertex
 10
1.757406247987714
 20
0.5700689868090597
 30
0.0
 40
0.0035
 41
0.0035
  0
SEQEND
  5
22F
330
22C
100
AcDbEntity
  8
1
  6
Continuous
 62
     7
 48
0.0088394557130412
370
     0
  0
POLYLINE
  5
230
330
1F
100
AcDbEntity
  8
1
  6
Continuous
 62
     7
 48
0.0088394557130412
370
     0
100
AcDb2dPolyline
 66
     1
 10
0.0
 20
0.0
 30
0.0
  0
VERTEX
  5
231
330
230
100
AcDbEntity
  8
1
  6
Continuous
 62
     7
100
AcDbVertex
100
AcDb2dVertex
 10
1.757406247987714
 20
0.5700689868090597
 30
0.0
 40
0.0035
 41
0.0035
 42
0.414213562373095
  0
VERTEX
  5
232
330
230
100
AcDbEntity
  8
1
  6
Continuous
 62
     7
100
AcDbVertex
100
AcDb2dVertex
 10
1.797406247987714
 20
0.5300689868090644
 30
0.0
 40
0.0035
 41
0.0035
  0
SEQEND
  5
233
330
230
100
AcDbEntity
  8
1
  6
Continuous
 62
     7
 48
0.0088394557130412
370
     0
  0
POLYLINE
  5
234
330
1F
100
AcDbEntity
  8
1
  6
Continuous
 62
     7
 48
0.0088394557130412
370
     0
100
AcDb2dPolyline
 66
     1
 10
0.0
 20
0.0
 30
0.0
  0
VERTEX
  5
235
330
234
100
AcDbEntity
  8
1
  6
Continuous
 62
     7
100
AcDbVertex
100
AcDb2dVertex
 10
1.797406247987714
 20
0.1224689868090618
 30
0.0
 40
0.0035
 41
0.0035
 42
0.414213562373095
  0
VERTEX
  5
236
330
234
100
AcDbEntity
  8
1
  6
Continuous
 62
     7
100
AcDbVertex
100
AcDb2dVertex
 10
1.757406247987714
 20
0.0824689868090623
 30
0.0
 40
0.0035
 41
0.0035
  0
SEQEND
  5
237
330
234
100
AcDbEntity
  8
1
  6
Continuous
 62
     7
 48
0.0088394557130412
370
     0
  0
POLYLINE
  5
238
330
1F
100
AcDbEntity
  8
3
  6
Continuous
 62
     7
 48
0.0088394557130412
370
     0
100
AcDb2dPolyline
 66
     1
 10
0.0
 20
0.0
 30
0.0
 70
   128
  0
VERTEX
  5
239
330
238
100
AcDbEntity
  8
3
  6
Continuous
 62
     7
 48
0.0088394557130412
100
AcDbVertex
100
AcDb2dVertex
 10
1.881406247985933
 20
-0.013731013190937
 30
0.0
 40
0.0035
 41
0.0035
  0
VERTEX
  5
23A
330
238
100
AcDbEntity
  8
3
  6
Continuous
 62
     7
 48
0.0088394557130412
100
AcDbVertex
100
AcDb2dVertex
 10
1.864406247985931
 20
-0.0627310131909368
 30
0.0
 40
0.0035
 41
0.0035
  0
VERTEX
  5
23B
330
238
100
AcDbEntity
  8
3
  6
Continuous
 62
     7
 48
0.0088394557130412
100
AcDbVertex
100
AcDb2dVertex
 10
1.420406247985935
 20
-0.0627310131909368
 30
0.0
 40
0.0035
 41
0.0035
  0
VERTEX
  5
23C
330
238
100
AcDbEntity
  8
3
  6
Continuous
 62
     7
 48
0.0088394557130412
100
AcDbVertex
100
AcDb2dVertex
 10
1.403406247985932
 20
-0.013731013190937
 30
0.0
 40
0.0035
 41
0.0035
  0
SEQEND
  5
23D
330
238
100
AcDbEntity
  8
3
  6
Continuous
 62
     7
 48
0.0088394557130412
370
     0
  0
POLYLINE
  5
23E
330
1F
100
AcDbEntity
  8
3
  6
Continuous
 62
     7
 48
0.0088394557130412
370
     0
100
AcDb2dPolyline
 66
     1
 10
0.0
 20
0.0
 30
0.0
  0
VERTEX
  5
23F
330
23E
100
AcDbEntity
  8
3
  6
Continuous
 62
     7
 48
0.0088394557130412
100
AcDbVertex
100
AcDb2dVertex
 10
1.881406247985933
 20
-0.013731013190937
 30
0.0
 40
0.0035
 41
0.0035
  0
VERTEX
  5
240
330
23E
100
AcDbEntity
  8
3
  6
Continuous
 62
     7
 48
0.0088394557130412
100
AcDbVertex
100
AcDb2dVertex
 10
1.926406247985928
 20
-0.013731013190937
 30
0.0
 40
0.0035
 41
0.0035
  0
SEQEND
  5
241
330
23E
100
AcDbEntity
  8
3
  6
Continuous
 62
     7
 48
0.0088394557130412
370
     0
  0
POLYLINE
  5
242
330
1F
100
AcDbEntity
  8
3
  6
Continuous
 62
     7
 48
0.0088394557130412
370
     0
100
AcDb2dPolyline
 66
     1
 10
0.0
 20
0.0
 30
0.0
  0
VERTEX
  5
243
330
242
100
AcDbEntity
  8
3
  6
Continuous
 62
     7
100
AcDbVertex
100
AcDb2dVertex
 10
1.926406247985928
 20
-0.013731013190937
 30
0.0
 40
0.0035
 41
0.0035
 42
0.414222252700036
  0
VERTEX
  5
244
330
242
100
AcDbEntity
  8
3
  6
Continuous
 62
     7
100
AcDbVertex
100
AcDb2dVertex
 10
1.941406247985929
 20
0.0012694318090648
 30
0.0
 40
0.0035
 41
0.0035
  0
SEQEND
  5
245
330
242
100
AcDbEntity
  8
3
  6
Continuous
 62
     7
 48
0.0088394557130412
370
     0
  0
POLYLINE
  5
246
330
1F
100
AcDbEntity
  8
3
  6
Continuous
 62
     7
 48
0.0088394557130412
370
     0
100
AcDb2dPolyline
 66
     1
 10
0.0
 20
0.0
 30
0.0
  0
VERTEX
  5
247
330
246
100
AcDbEntity
  8
3
  6
Continuous
 62
     7
 48
0.0088394557130412
100
AcDbVertex
100
AcDb2dVertex
 10
1.223406247985932
 20
0.0402689868090616
 30
0.0
 40
0.0035
 41
0.0035
  0
VERTEX
  5
248
330
246
100
AcDbEntity
  8
3
  6
Continuous
 62
     7
 48
0.0088394557130412
100
AcDbVertex
100
AcDb2dVertex
 10
1.223406247985932
 20
0.0012689868090637
 30
0.0
 40
0.0035
 41
0.0035
  0
SEQEND
  5
249
330
246
100
AcDbEntity
  8
3
  6
Continuous
 62
     7
 48
0.0088394557130412
370
     0
  0
POLYLINE
  5
24A
330
1F
100
AcDbEntity
  8
3
  6
Continuous
 62
     7
 48
0.0088394557130412
370
     0
100
AcDb2dPolyline
 66
     1
 10
0.0
 20
0.0
 30
0.0
  0
VERTEX
  5
24B
330
24A
100
AcDbEntity
  8
3
  6
Continuous
 62
     7
100
AcDbVertex
100
AcDb2dVertex
 10
1.223406247985932
 20
0.0012689868090637
 30
0.0
 40
0.0035
 41
0.0035
 42
0.414213562400011
  0
VERTEX
  5
24C
330
24A
100
AcDbEntity
  8
3
  6
Continuous
 62
     7
100
AcDbVertex
100
AcDb2dVertex
 10
1.238406247985933
 20
-0.013731013190937
 30
0.0
 40
0.0035
 41
0.0035
  0
SEQEND
  5
24D
330
24A
100
AcDbEntity
  8
3
  6
Continuous
 62
     7
 48
0.0088394557130412
370
     0
  0
POLYLINE
  5
24E
330
1F
100
AcDbEntity
  8
3
  6
Continuous
 62
     7
 48
0.0088394557130412
370
     0
100
AcDb2dPolyline
 66
     1
 10
0.0
 20
0.0
 30
0.0
  0
VERTEX
  5
24F
330
24E
100
AcDbEntity
  8
3
  6
Continuous
 62
     7
 48
0.0088394557130412
100
AcDbVertex
100
AcDb2dVertex
 10
1.238406247985933
 20
-0.013731013190937
 30
0.0
 40
0.0035
 41
0.0035
  0
VERTEX
  5
250
330
24E
100
AcDbEntity
  8
3
  6
Continuous
 62
     7
 48
0.0088394557130412
100
AcDbVertex
100
AcDb2dVertex
 10
1.403406247985932
 20
-0.013731013190937
 30
0.0
 40
0.0035
 41
0.0035
  0
SEQEND
  5
251
330
24E
100
AcDbEntity
  8
3
  6
Continuous
 62
     7
 48
0.0088394557130412
370
     0
  0
POLYLINE
  5
252
330
1F
100
AcDbEntity
  8
3
  6
Continuous
 62
     7
 48
0.0088394557130412
370
     0
100
AcDb2dPolyline
 66
     1
 10
0.0
 20
0.0
 30
0.0
  0
VERTEX
  5
253
330
252
100
AcDbEntity
  8
3
  6
Continuous
 62
     7
 48
0.0088394557130412
100
AcDbVertex
100
AcDb2dVertex
 10
1.941406247985929
 20
0.0012689868090637
 30
0.0
 40
0.0035
 41
0.0035
  0
VERTEX
  5
254
330
252
100
AcDbEntity
  8
3
  6
Continuous
 62
     7
 48
0.0088394557130412
100
AcDbVertex
100
AcDb2dVertex
 10
1.941406247985929
 20
0.0572689868090646
 30
0.0
 40
0.0035
 41
0.0035
  0
SEQEND
  5
255
330
252
100
AcDbEntity
  8
3
  6
Continuous
 62
     7
 48
0.0088394557130412
370
     0
  0
POLYLINE
  5
256
330
1F
100
AcDbEntity
  8
3
  6
Continuous
 62
     7
 48
0.0088394557130412
370
     0
100
AcDb2dPolyline
 66
     1
 10
0.0
 20
0.0
 30
0.0
  0
VERTEX
  5
257
330
256
100
AcDbEntity
  8
3
  6
Continuous
 62
     7
100
AcDbVertex
100
AcDb2dVertex
 10
1.941406247985929
 20
0.0572693009090641
 30
0.0
 40
0.0035
 41
0.0035
 42
0.4142074280000841
  0
VERTEX
  5
258
330
256
100
AcDbEntity
  8
3
  6
Continuous
 62
     7
100
AcDbVertex
100
AcDb2dVertex
 10
1.926406247985928
 20
0.0722689868090617
 30
0.0
 40
0.0035
 41
0.0035
  0
SEQEND
  5
259
330
256
100
AcDbEntity
  8
3
  6
Continuous
 62
     7
 48
0.0088394557130412
370
     0
  0
POLYLINE
  5
25A
330
1F
100
AcDbEntity
  8
3
  6
Continuous
 62
     7
 48
0.0088394557130412
370
     0
100
AcDb2dPolyline
 66
     1
 10
0.0
 20
0.0
 30
0.0
 70
   128
  0
VERTEX
  5
25B
330
25A
100
AcDbEntity
  8
3
  6
Continuous
 62
     7
 48
0.0088394557130412
100
AcDbVertex
100
AcDb2dVertex
 10
1.881406247985933
 20
0.6662689868090695
 30
0.0
 40
0.0035
 41
0.0035
  0
VERTEX
  5
25C
330
25A
100
AcDbEntity
  8
3
  6
Continuous
 62
     7
 48
0.0088394557130412
100
AcDbVertex
100
AcDb2dVertex
 10
1.864406247985931
 20
0.7152689868090587
 30
0.0
 40
0.0035
 41
0.0035
  0
VERTEX
  5
25D
330
25A
100
AcDbEntity
  8
3
  6
Continuous
 62
     7
 48
0.0088394557130412
100
AcDbVertex
100
AcDb2dVertex
 10
1.420406247985935
 20
0.7152689868090587
 30
0.0
 40
0.0035
 41
0.0035
  0
VERTEX
  5
25E
330
25A
100
AcDbEntity
  8
3
  6
Continuous
 62
     7
 48
0.0088394557130412
100
AcDbVertex
100
AcDb2dVertex
 10
1.403406247985932
 20
0.6662689868090695
 30
0.0
 40
0.0035
 41
0.0035
  0
SEQEND
  5
25F
330
25A
100
AcDbEntity
  8
3
  6
Continuous
 62
     7
 48
0.0088394557130412
370
     0
  0
POLYLINE
  5
260
330
1F
100
AcDbEntity
  8
3
  6
Continuous
 62
     7
 48
0.0088394557130412
370
     0
100
AcDb2dPolyline
 66
     1
 10
0.0
 20
0.0
 30
0.0
  0
VERTEX
  5
261
330
260
100
AcDbEntity
  8
3
  6
Continuous
 62
     7
 48
0.0088394557130412
100
AcDbVertex
100
AcDb2dVertex
 10
1.881406247985933
 20
0.6662689868090695
 30
0.0
 40
0.0035
 41
0.0035
  0
VERTEX
  5
262
330
260
100
AcDbEntity
  8
3
  6
Continuous
 62
     7
 48
0.0088394557130412
100
AcDbVertex
100
AcDb2dVertex
 10
1.926406247985928
 20
0.6662689868090695
 30
0.0
 40
0.0035
 41
0.0035
  0
SEQEND
  5
263
330
260
100
AcDbEntity
  8
3
  6
Continuous
 62
     7
 48
0.0088394557130412
370
     0
  0
POLYLINE
  5
264
330
1F
100
AcDbEntity
  8
3
  6
Continuous
 62
     7
 48
0.0088394557130412
370
     0
100
AcDb2dPolyline
 66
     1
 10
0.0
 20
0.0
 30
0.0
  0
VERTEX
  5
265
330
264
100
AcDbEntity
  8
3
  6
Continuous
 62
     7
100
AcDbVertex
100
AcDb2dVertex
 10
1.941406247985929
 20
0.6512689868090689
 30
0.0
 40
0.0035
 41
0.0035
 42
0.4142135623998723
  0
VERTEX
  5
266
330
264
100
AcDbEntity
  8
3
  6
Continuous
 62
     7
100
AcDbVertex
100
AcDb2dVertex
 10
1.926406247985928
 20
0.6662689868090695
 30
0.0
 40
0.0035
 41
0.0035
  0
SEQEND
  5
267
330
264
100
AcDbEntity
  8
3
  6
Continuous
 62
     7
 48
0.0088394557130412
370
     0
  0
POLYLINE
  5
268
330
1F
100
AcDbEntity
  8
3
  6
Continuous
 62
     7
 48
0.0088394557130412
370
     0
100
AcDb2dPolyline
 66
     1
 10
0.0
 20
0.0
 30
0.0
  0
VERTEX
  5
269
330
268
100
AcDbEntity
  8
3
  6
Continuous
 62
     7
 48
0.0088394557130412
100
AcDbVertex
100
AcDb2dVertex
 10
1.223406247985932
 20
0.612268986809068
 30
0.0
 40
0.0035
 41
0.0035
  0
VERTEX
  5
26A
330
268
100
AcDbEntity
  8
3
  6
Continuous
 62
     7
 48
0.0088394557130412
100
AcDbVertex
100
AcDb2dVertex
 10
1.223406247985932
 20
0.6512689868090689
 30
0.0
 40
0.0035
 41
0.0035
  0
SEQEND
  5
26B
330
268
100
AcDbEntity
  8
3
  6
Continuous
 62
     7
 48
0.0088394557130412
370
     0
  0
POLYLINE
  5
26C
330
1F
100
AcDbEntity
  8
3
  6
Continuous
 62
     7
 48
0.0088394557130412
370
     0
100
AcDb2dPolyline
 66
     1
 10
0.0
 20
0.0
 30
0.0
  0
VERTEX
  5
26D
330
26C
100
AcDbEntity
  8
3
  6
Continuous
 62
     7
100
AcDbVertex
100
AcDb2dVertex
 10
1.238406247985933
 20
0.6662689868090695
 30
0.0
 40
0.0035
 41
0.0035
 42
0.4142135623998853
  0
VERTEX
  5
26E
330
26C
100
AcDbEntity
  8
3
  6
Continuous
 62
     7
100
AcDbVertex
100
AcDb2dVertex
 10
1.223406247985932
 20
0.6512689868090689
 30
0.0
 40
0.0035
 41
0.0035
  0
SEQEND
  5
26F
330
26C
100
AcDbEntity
  8
3
  6
Continuous
 62
     7
 48
0.0088394557130412
370
     0
  0
POLYLINE
  5
270
330
1F
100
AcDbEntity
  8
3
  6
Continuous
 62
     7
 48
0.0088394557130412
370
     0
100
AcDb2dPolyline
 66
     1
 10
0.0
 20
0.0
 30
0.0
  0
VERTEX
  5
271
330
270
100
AcDbEntity
  8
3
  6
Continuous
 62
     7
 48
0.0088394557130412
100
AcDbVertex
100
AcDb2dVertex
 10
1.238406247985933
 20
0.6662689868090695
 30
0.0
 40
0.0035
 41
0.0035
  0
VERTEX
  5
272
330
270
100
AcDbEntity
  8
3
  6
Continuous
 62
     7
 48
0.0088394557130412
100
AcDbVertex
100
AcDb2dVertex
 10
1.403406247985932
 20
0.6662689868090695
 30
0.0
 40
0.0035
 41
0.0035
  0
SEQEND
  5
273
330
270
100
AcDbEntity
  8
3
  6
Continuous
 62
     7
 48
0.0088394557130412
370
     0
  0
POLYLINE
  5
274
330
1F
100
AcDbEntity
  8
3
  6
Continuous
 62
     7
 48
0.0088394557130412
370
     0
100
AcDb2dPolyline
 66
     1
 10
0.0
 20
0.0
 30
0.0
  0
VERTEX
  5
275
330
274
100
AcDbEntity
  8
3
  6
Continuous
 62
     7
 48
0.0088394557130412
100
AcDbVertex
100
AcDb2dVertex
 10
1.941406247985929
 20
0.6512689868090689
 30
0.0
 40
0.0035
 41
0.0035
  0
VERTEX
  5
276
330
274
100
AcDbEntity
  8
3
  6
Continuous
 62
     7
 48
0.0088394557130412
100
AcDbVertex
100
AcDb2dVertex
 10
1.941406247985929
 20
0.5952689868090643
 30
0.0
 40
0.0035
 41
0.0035
  0
SEQEND
  5
277
330
274
100
AcDbEntity
  8
3
  6
Continuous
 62
     7
 48
0.0088394557130412
370
     0
  0
POLYLINE
  5
278
330
1F
100
AcDbEntity
  8
3
  6
Continuous
 62
     7
 48
0.0088394557130412
370
     0
100
AcDb2dPolyline
 66
     1
 10
0.0
 20
0.0
 30
0.0
  0
VERTEX
  5
279
330
278
100
AcDbEntity
  8
3
  6
Continuous
 62
     7
100
AcDbVertex
100
AcDb2dVertex
 10
1.926406247985928
 20
0.5802689868090642
 30
0.0
 40
0.0035
 41
0.0035
 42
0.4142135623999936
  0
VERTEX
  5
27A
330
278
100
AcDbEntity
  8
3
  6
Continuous
 62
     7
100
AcDbVertex
100
AcDb2dVertex
 10
1.941406247985929
 20
0.5952689868090643
 30
0.0
 40
0.0035
 41
0.0035
  0
SEQEND
  5
27B
330
278
100
AcDbEntity
  8
3
  6
Continuous
 62
     7
 48
0.0088394557130412
370
     0
  0
POLYLINE
  5
27C
330
1F
100
AcDbEntity
  8
3
  6
Continuous
 62
     7
 48
0.0088394557130412
370
     0
100
AcDb2dPolyline
 66
     1
 10
0.0
 20
0.0
 30
0.0
  0
VERTEX
  5
27D
330
27C
100
AcDbEntity
  8
3
  6
Continuous
 62
     7
 48
0.0088394557130412
100
AcDbVertex
100
AcDb2dVertex
 10
1.223406247985932
 20
0.6358689868090627
 30
0.0
 40
0.0035
 41
0.0035
  0
VERTEX
  5
27E
330
27C
100
AcDbEntity
  8
3
  6
Continuous
 62
     7
 48
0.0088394557130412
100
AcDbVertex
100
AcDb2dVertex
 10
1.223406247985932
 20
0.0101689868090643
 30
0.0
 40
0.0035
 41
0.0035
  0
SEQEND
  5
27F
330
27C
100
AcDbEntity
  8
3
  6
Continuous
 62
     7
 48
0.0088394557130412
370
     0
  0
POLYLINE
  5
280
330
1F
100
AcDbEntity
  8
3
  6
Continuous
 62
     7
 48
0.0088394557130412
370
     0
100
AcDb2dPolyline
 66
     1
 10
0.0
 20
0.0
 30
0.0
  0
VERTEX
  5
281
330
280
100
AcDbEntity
  8
3
  6
Continuous
 62
     7
 48
0.0088394557130412
100
AcDbVertex
100
AcDb2dVertex
 10
1.926406247985928
 20
0.0722689868090659
 30
0.0
 40
0.0035
 41
0.0035
  0
VERTEX
  5
282
330
280
100
AcDbEntity
  8
3
  6
Continuous
 62
     7
 48
0.0088394557130412
100
AcDbVertex
100
AcDb2dVertex
 10
1.836406247985932
 20
0.0722689868090653
 30
0.0
 40
0.0035
 41
0.0035
  0
SEQEND
  5
283
330
280
100
AcDbEntity
  8
3
  6
Continuous
 62
     7
 48
0.0088394557130412
370
     0
  0
POLYLINE
  5
284
330
1F
100
AcDbEntity
  8
3
  6
Continuous
 62
     7
 48
0.0088394557130412
370
     0
100
AcDb2dPolyline
 66
     1
 10
0.0
 20
0.0
 30
0.0
  0
VERTEX
  5
285
330
284
100
AcDbEntity
  8
3
  6
Continuous
 62
     7
100
AcDbVertex
100
AcDb2dVertex
 10
1.79740624798593
 20
0.0332689868090638
 30
0.0
 40
0.0035
 41
0.0035
 42
0.414213562400021
  0
VERTEX
  5
286
330
284
100
AcDbEntity
  8
3
  6
Continuous
 62
     7
100
AcDbVertex
100
AcDb2dVertex
 10
1.836406247985932
 20
0.0722689868090653
 30
0.0
 40
0.0035
 41
0.0035
  0
SEQEND
  5
287
330
284
100
AcDbEntity
  8
3
  6
Continuous
 62
     7
 48
0.0088394557130412
370
     0
  0
POLYLINE
  5
288
330
1F
100
AcDbEntity
  8
3
  6
Continuous
 62
     7
 48
0.0088394557130412
370
     0
100
AcDb2dPolyline
 66
     1
 10
0.0
 20
0.0
 30
0.0
  0
VERTEX
  5
289
330
288
100
AcDbEntity
  8
3
  6
Continuous
 62
     7
 48
0.0088394557130412
100
AcDbVertex
100
AcDb2dVertex
 10
1.926406247985928
 20
0.5802689868090642
 30
0.0
 40
0.0035
 41
0.0035
  0
VERTEX
  5
28A
330
288
100
AcDbEntity
  8
3
  6
Continuous
 62
     7
 48
0.0088394557130412
100
AcDbVertex
100
AcDb2dVertex
 10
1.836406247985932
 20
0.5802689868090642
 30
0.0
 40
0.0035
 41
0.0035
  0
SEQEND
  5
28B
330
288
100
AcDbEntity
  8
3
  6
Continuous
 62
     7
 48
0.0088394557130412
370
     0
  0
POLYLINE
  5
28C
330
1F
100
AcDbEntity
  8
3
  6
Continuous
 62
     7
 48
0.0088394557130412
370
     0
100
AcDb2dPolyline
 66
     1
 10
0.0
 20
0.0
 30
0.0
  0
VERTEX
  5
28D
330
28C
100
AcDbEntity
  8
3
  6
Continuous
 62
     7
100
AcDbVertex
100
AcDb2dVertex
 10
1.836406247985932
 20
0.5802689868090642
 30
0.0
 40
0.0035
 41
0.0035
 42
0.414213562399988
  0
VERTEX
  5
28E
330
28C
100
AcDbEntity
  8
3
  6
Continuous
 62
     7
100
AcDbVertex
100
AcDb2dVertex
 10
1.79740624798593
 20
0.6192689868090588
 30
0.0
 40
0.0035
 41
0.0035
  0
SEQEND
  5
28F
330
28C
100
AcDbEntity
  8
3
  6
Continuous
 62
     7
 48
0.0088394557130412
370
     0
  0
POLYLINE
  5
290
330
1F
100
AcDbEntity
  8
3
  6
Continuous
 62
     7
 48
0.0088394557130412
370
     0
100
AcDb2dPolyline
 66
     1
 10
0.0
 20
0.0
 30
0.0
  0
VERTEX
  5
291
330
290
100
AcDbEntity
  8
3
  6
Continuous
 62
     7
 48
0.0088394557130412
100
AcDbVertex
100
AcDb2dVertex
 10
1.223406247985932
 20
0.0402689868090616
 30
0.0
 40
0.0035
 41
0.0035
  0
VERTEX
  5
292
330
290
100
AcDbEntity
  8
3
  6
Continuous
 62
     7
 48
0.0088394557130412
100
AcDbVertex
100
AcDb2dVertex
 10
1.235485086285931
 20
0.0523478251090639
 30
0.0
 40
0.0035
 41
0.0035
  0
SEQEND
  5
293
330
290
100
AcDbEntity
  8
3
  6
Continuous
 62
     7
 48
0.0088394557130412
370
     0
  0
POLYLINE
  5
294
330
1F
100
AcDbEntity
  8
3
  6
Continuous
 62
     7
 48
0.0088394557130412
370
     0
100
AcDb2dPolyline
 66
     1
 10
0.0
 20
0.0
 30
0.0
  0
VERTEX
  5
295
330
294
100
AcDbEntity
  8
3
  6
Continuous
 62
     7
 48
0.0088394557130412
100
AcDbVertex
100
AcDb2dVertex
 10
1.223406247985932
 20
0.612268986809068
 30
0.0
 40
0.0035
 41
0.0035
  0
VERTEX
  5
296
330
294
100
AcDbEntity
  8
3
  6
Continuous
 62
     7
 48
0.0088394557130412
100
AcDbVertex
100
AcDb2dVertex
 10
1.253095761485935
 20
0.5825794733090651
 30
0.0
 40
0.0035
 41
0.0035
  0
SEQEND
  5
297
330
294
100
AcDbEntity
  8
3
  6
Continuous
 62
     7
 48
0.0088394557130412
370
     0
  0
POLYLINE
  5
298
330
1F
100
AcDbEntity
  8
3
  6
Continuous
 62
     7
 48
0.0088394557130412
370
     0
100
AcDb2dPolyline
 66
     1
 10
0.0
 20
0.0
 30
0.0
  0
VERTEX
  5
299
330
298
100
AcDbEntity
  8
3
  6
Continuous
 62
     7
100
AcDbVertex
100
AcDb2dVertex
 10
1.787406247985932
 20
0.6192689868090588
 30
0.0
 40
0.0035
 41
0.0035
 42
0.4142135623999871
  0
VERTEX
  5
29A
330
298
100
AcDbEntity
  8
3
  6
Continuous
 62
     7
100
AcDbVertex
100
AcDb2dVertex
 10
1.748406247985938
 20
0.5802689868090642
 30
0.0
 40
0.0035
 41
0.0035
  0
SEQEND
  5
29B
330
298
100
AcDbEntity
  8
3
  6
Continuous
 62
     7
 48
0.0088394557130412
370
     0
  0
POLYLINE
  5
29C
330
1F
100
AcDbEntity
  8
2
  6
Continuous
 62
     7
 48
0.0088394557130412
370
     0
100
AcDb2dPolyline
 66
     1
 10
0.0
 20
0.0
 30
0.0
  0
VERTEX
  5
29D
330
29C
100
AcDbEntity
  8
2
  6
Continuous
 62
     7
 48
0.0088394557130412
100
AcDbVertex
100
AcDb2dVertex
 10
1.612301093185931
 20
0.0732689868090625
 30
0.0
 40
0.0035
 41
0.0035
  0
VERTEX
  5
29E
330
29C
100
AcDbEntity
  8
2
  6
Continuous
 62
     7
 48
0.0088394557130412
100
AcDbVertex
100
AcDb2dVertex
 10
1.598401093185932
 20
0.0732689868090625
 30
0.0
 40
0.0035
 41
0.0035
  0
SEQEND
  5
29F
330
29C
100
AcDbEntity
  8
2
  6
Continuous
 62
     7
 48
0.0088394557130412
370
     0
  0
POLYLINE
  5
2A0
330
1F
100
AcDbEntity
  8
2
  6
Continuous
 62
     7
 48
0.0088394557130412
370
     0
100
AcDb2dPolyline
 66
     1
 10
0.0
 20
0.0
 30
0.0
  0
VERTEX
  5
2A1
330
2A0
100
AcDbEntity
  8
2
  6
Continuous
 62
     7
 48
0.0088394557130412
100
AcDbVertex
100
AcDb2dVertex
 10
1.556744686685928
 20
0.0732689868090625
 30
0.0
 40
0.0035
 41
0.0035
  0
VERTEX
  5
2A2
330
2A0
100
AcDbEntity
  8
2
  6
Continuous
 62
     7
 48
0.0088394557130412
100
AcDbVertex
100
AcDb2dVertex
 10
1.542844686685929
 20
0.0732689868090625
 30
0.0
 40
0.0035
 41
0.0035
  0
SEQEND
  5
2A3
330
2A0
100
AcDbEntity
  8
2
  6
Continuous
 62
     7
 48
0.0088394557130412
370
     0
  0
POLYLINE
  5
2A4
330
1F
100
AcDbEntity
  8
2
  6
Continuous
 62
     7
 48
0.0088394557130412
370
     0
100
AcDb2dPolyline
 66
     1
 10
0.0
 20
0.0
 30
0.0
  0
VERTEX
  5
2A5
330
2A4
100
AcDbEntity
  8
2
  6
Continuous
 62
     7
 48
0.0088394557130412
100
AcDbVertex
100
AcDb2dVertex
 10
1.58103699158593
 20
0.0431934805090615
 30
0.0
 40
0.0035
 41
0.0035
  0
VERTEX
  5
2A6
330
2A4
100
AcDbEntity
  8
2
  6
Continuous
 62
     7
 48
0.0088394557130412
100
AcDbVertex
100
AcDb2dVertex
 10
1.57410878828593
 20
0.0431934805090615
 30
0.0
 40
0.0035
 41
0.0035
  0
SEQEND
  5
2A7
330
2A4
100
AcDbEntity
  8
2
  6
Continuous
 62
     7
 48
0.0088394557130412
370
     0
  0
POLYLINE
  5
2A8
330
1F
100
AcDbEntity
  8
2
  6
Continuous
 62
     7
 48
0.0088394557130412
370
     0
100
AcDb2dPolyline
 66
     1
 10
0.0
 20
0.0
 30
0.0
  0
VERTEX
  5
2A9
330
2A8
100
AcDbEntity
  8
2
  6
Continuous
 62
     7
 48
0.0088394557130412
100
AcDbVertex
100
AcDb2dVertex
 10
1.598401093185932
 20
0.0732689868090625
 30
0.0
 40
0.0035
 41
0.0035
  0
VERTEX
  5
2AA
330
2A8
100
AcDbEntity
  8
2
  6
Continuous
 62
     7
 48
0.0088394557130412
100
AcDbVertex
100
AcDb2dVertex
 10
1.58103699158593
 20
0.0431934805090615
 30
0.0
 40
0.0035
 41
0.0035
  0
SEQEND
  5
2AB
330
2A8
100
AcDbEntity
  8
2
  6
Continuous
 62
     7
 48
0.0088394557130412
370
     0
  0
POLYLINE
  5
2AC
330
1F
100
AcDbEntity
  8
2
  6
Continuous
 62
     7
 48
0.0088394557130412
370
     0
100
AcDb2dPolyline
 66
     1
 10
0.0
 20
0.0
 30
0.0
  0
VERTEX
  5
2AD
330
2AC
100
AcDbEntity
  8
2
  6
Continuous
 62
     7
 48
0.0088394557130412
100
AcDbVertex
100
AcDb2dVertex
 10
1.57410878828593
 20
0.0431934805090615
 30
0.0
 40
0.0035
 41
0.0035
  0
VERTEX
  5
2AE
330
2AC
100
AcDbEntity
  8
2
  6
Continuous
 62
     7
 48
0.0088394557130412
100
AcDbVertex
100
AcDb2dVertex
 10
1.556744686685928
 20
0.0732689868090625
 30
0.0
 40
0.0035
 41
0.0035
  0
SEQEND
  5
2AF
330
2AC
100
AcDbEntity
  8
2
  6
Continuous
 62
     7
 48
0.0088394557130412
370
     0
  0
POLYLINE
  5
2B0
330
1F
100
AcDbEntity
  8
2
  6
Continuous
 62
     7
 48
0.0088394557130412
370
     0
100
AcDb2dPolyline
 66
     1
 10
0.0
 20
0.0
 30
0.0
  0
VERTEX
  5
2B1
330
2B0
100
AcDbEntity
  8
2
  6
Continuous
 62
     7
 48
0.0088394557130412
100
AcDbVertex
100
AcDb2dVertex
 10
1.501188280285928
 20
0.0732689868090632
 30
0.0
 40
0.0035
 41
0.0035
  0
VERTEX
  5
2B2
330
2B0
100
AcDbEntity
  8
2
  6
Continuous
 62
     7
 48
0.0088394557130412
100
AcDbVertex
100
AcDb2dVertex
 10
1.487288280285928
 20
0.0732689868090625
 30
0.0
 40
0.0035
 41
0.0035
  0
SEQEND
  5
2B3
330
2B0
100
AcDbEntity
  8
2
  6
Continuous
 62
     7
 48
0.0088394557130412
370
     0
  0
POLYLINE
  5
2B4
330
1F
100
AcDbEntity
  8
2
  6
Continuous
 62
     7
 48
0.0088394557130412
370
     0
100
AcDb2dPolyline
 66
     1
 10
0.0
 20
0.0
 30
0.0
  0
VERTEX
  5
2B5
330
2B4
100
AcDbEntity
  8
2
  6
Continuous
 62
     7
 48
0.0088394557130412
100
AcDbVertex
100
AcDb2dVertex
 10
1.525480585085934
 20
0.0431934805090615
 30
0.0
 40
0.0035
 41
0.0035
  0
VERTEX
  5
2B6
330
2B4
100
AcDbEntity
  8
2
  6
Continuous
 62
     7
 48
0.0088394557130412
100
AcDbVertex
100
AcDb2dVertex
 10
1.518552381885929
 20
0.0431934805090615
 30
0.0
 40
0.0035
 41
0.0035
  0
SEQEND
  5
2B7
330
2B4
100
AcDbEntity
  8
2
  6
Continuous
 62
     7
 48
0.0088394557130412
370
     0
  0
POLYLINE
  5
2B8
330
1F
100
AcDbEntity
  8
2
  6
Continuous
 62
     7
 48
0.0088394557130412
370
     0
100
AcDb2dPolyline
 66
     1
 10
0.0
 20
0.0
 30
0.0
  0
VERTEX
  5
2B9
330
2B8
100
AcDbEntity
  8
2
  6
Continuous
 62
     7
 48
0.0088394557130412
100
AcDbVertex
100
AcDb2dVertex
 10
1.542844686685929
 20
0.0732689868090625
 30
0.0
 40
0.0035
 41
0.0035
  0
VERTEX
  5
2BA
330
2B8
100
AcDbEntity
  8
2
  6
Continuous
 62
     7
 48
0.0088394557130412
100
AcDbVertex
100
AcDb2dVertex
 10
1.525480585085934
 20
0.0431934805090615
 30
0.0
 40
0.0035
 41
0.0035
  0
SEQEND
  5
2BB
330
2B8
100
AcDbEntity
  8
2
  6
Continuous
 62
     7
 48
0.0088394557130412
370
     0
  0
POLYLINE
  5
2BC
330
1F
100
AcDbEntity
  8
2
  6
Continuous
 62
     7
 48
0.0088394557130412
370
     0
100
AcDb2dPolyline
 66
     1
 10
0.0
 20
0.0
 30
0.0
  0
VERTEX
  5
2BD
330
2BC
100
AcDbEntity
  8
2
  6
Continuous
 62
     7
 48
0.0088394557130412
100
AcDbVertex
100
AcDb2dVertex
 10
1.518552381885929
 20
0.0431934805090615
 30
0.0
 40
0.0035
 41
0.0035
  0
VERTEX
  5
2BE
330
2BC
100
AcDbEntity
  8
2
  6
Continuous
 62
     7
 48
0.0088394557130412
100
AcDbVertex
100
AcDb2dVertex
 10
1.501188280285928
 20
0.0732689868090632
 30
0.0
 40
0.0035
 41
0.0035
  0
SEQEND
  5
2BF
330
2BC
100
AcDbEntity
  8
2
  6
Continuous
 62
     7
 48
0.0088394557130412
370
     0
  0
POLYLINE
  5
2C0
330
1F
100
AcDbEntity
  8
2
  6
Continuous
 62
     7
 48
0.0088394557130412
370
     0
100
AcDb2dPolyline
 66
     1
 10
0.0
 20
0.0
 30
0.0
  0
VERTEX
  5
2C1
330
2C0
100
AcDbEntity
  8
2
  6
Continuous
 62
     7
 48
0.0088394557130412
100
AcDbVertex
100
AcDb2dVertex
 10
1.445631873785932
 20
0.0732689868090632
 30
0.0
 40
0.0035
 41
0.0035
  0
VERTEX
  5
2C2
330
2C0
100
AcDbEntity
  8
2
  6
Continuous
 62
     7
 48
0.0088394557130412
100
AcDbVertex
100
AcDb2dVertex
 10
1.431731873785933
 20
0.0732689868090625
 30
0.0
 40
0.0035
 41
0.0035
  0
SEQEND
  5
2C3
330
2C0
100
AcDbEntity
  8
2
  6
Continuous
 62
     7
 48
0.0088394557130412
370
     0
  0
POLYLINE
  5
2C4
330
1F
100
AcDbEntity
  8
2
  6
Continuous
 62
     7
 48
0.0088394557130412
370
     0
100
AcDb2dPolyline
 66
     1
 10
0.0
 20
0.0
 30
0.0
  0
VERTEX
  5
2C5
330
2C4
100
AcDbEntity
  8
2
  6
Continuous
 62
     7
 48
0.0088394557130412
100
AcDbVertex
100
AcDb2dVertex
 10
1.469924178585932
 20
0.0431934805090615
 30
0.0
 40
0.0035
 41
0.0035
  0
VERTEX
  5
2C6
330
2C4
100
AcDbEntity
  8
2
  6
Continuous
 62
     7
 48
0.0088394557130412
100
AcDbVertex
100
AcDb2dVertex
 10
1.462995975385935
 20
0.0431934805090615
 30
0.0
 40
0.0035
 41
0.0035
  0
SEQEND
  5
2C7
330
2C4
100
AcDbEntity
  8
2
  6
Continuous
 62
     7
 48
0.0088394557130412
370
     0
  0
POLYLINE
  5
2C8
330
1F
100
AcDbEntity
  8
2
  6
Continuous
 62
     7
 48
0.0088394557130412
370
     0
100
AcDb2dPolyline
 66
     1
 10
0.0
 20
0.0
 30
0.0
  0
VERTEX
  5
2C9
330
2C8
100
AcDbEntity
  8
2
  6
Continuous
 62
     7
 48
0.0088394557130412
100
AcDbVertex
100
AcDb2dVertex
 10
1.487288280285928
 20
0.0732689868090625
 30
0.0
 40
0.0035
 41
0.0035
  0
VERTEX
  5
2CA
330
2C8
100
AcDbEntity
  8
2
  6
Continuous
 62
     7
 48
0.0088394557130412
100
AcDbVertex
100
AcDb2dVertex
 10
1.469924178585932
 20
0.0431934805090615
 30
0.0
 40
0.0035
 41
0.0035
  0
SEQEND
  5
2CB
330
2C8
100
AcDbEntity
  8
2
  6
Continuous
 62
     7
 48
0.0088394557130412
370
     0
  0
POLYLINE
  5
2CC
330
1F
100
AcDbEntity
  8
2
  6
Continuous
 62
     7
 48
0.0088394557130412
370
     0
100
AcDb2dPolyline
 66
     1
 10
0.0
 20
0.0
 30
0.0
  0
VERTEX
  5
2CD
330
2CC
100
AcDbEntity
  8
2
  6
Continuous
 62
     7
 48
0.0088394557130412
100
AcDbVertex
100
AcDb2dVertex
 10
1.462995975385935
 20
0.0431934805090615
 30
0.0
 40
0.0035
 41
0.0035
  0
VERTEX
  5
2CE
330
2CC
100
AcDbEntity
  8
2
  6
Continuous
 62
     7
 48
0.0088394557130412
100
AcDbVertex
100
AcDb2dVertex
 10
1.445631873785932
 20
0.0732689868090632
 30
0.0
 40
0.0035
 41
0.0035
  0
SEQEND
  5
2CF
330
2CC
100
AcDbEntity
  8
2
  6
Continuous
 62
     7
 48
0.0088394557130412
370
     0
  0
POLYLINE
  5
2D0
330
1F
100
AcDbEntity
  8
2
  6
Continuous
 62
     7
 48
0.0088394557130412
370
     0
100
AcDb2dPolyline
 66
     1
 10
0.0
 20
0.0
 30
0.0
  0
VERTEX
  5
2D1
330
2D0
100
AcDbEntity
  8
2
  6
Continuous
 62
     7
 48
0.0088394557130412
100
AcDbVertex
100
AcDb2dVertex
 10
1.390075467285929
 20
0.0732689868090625
 30
0.0
 40
0.0035
 41
0.0035
  0
VERTEX
  5
2D2
330
2D0
100
AcDbEntity
  8
2
  6
Continuous
 62
     7
 48
0.0088394557130412
100
AcDbVertex
100
AcDb2dVertex
 10
1.37617546728593
 20
0.0732689868090625
 30
0.0
 40
0.0035
 41
0.0035
  0
SEQEND
  5
2D3
330
2D0
100
AcDbEntity
  8
2
  6
Continuous
 62
     7
 48
0.0088394557130412
370
     0
  0
POLYLINE
  5
2D4
330
1F
100
AcDbEntity
  8
2
  6
Continuous
 62
     7
 48
0.0088394557130412
370
     0
100
AcDb2dPolyline
 66
     1
 10
0.0
 20
0.0
 30
0.0
  0
VERTEX
  5
2D5
330
2D4
100
AcDbEntity
  8
2
  6
Continuous
 62
     7
 48
0.0088394557130412
100
AcDbVertex
100
AcDb2dVertex
 10
1.414367772185931
 20
0.0431934805090615
 30
0.0
 40
0.0035
 41
0.0035
  0
VERTEX
  5
2D6
330
2D4
100
AcDbEntity
  8
2
  6
Continuous
 62
     7
 48
0.0088394557130412
100
AcDbVertex
100
AcDb2dVertex
 10
1.407439568985933
 20
0.0431934805090615
 30
0.0
 40
0.0035
 41
0.0035
  0
SEQEND
  5
2D7
330
2D4
100
AcDbEntity
  8
2
  6
Continuous
 62
     7
 48
0.0088394557130412
370
     0
  0
POLYLINE
  5
2D8
330
1F
100
AcDbEntity
  8
2
  6
Continuous
 62
     7
 48
0.0088394557130412
370
     0
100
AcDb2dPolyline
 66
     1
 10
0.0
 20
0.0
 30
0.0
  0
VERTEX
  5
2D9
330
2D8
100
AcDbEntity
  8
2
  6
Continuous
 62
     7
 48
0.0088394557130412
100
AcDbVertex
100
AcDb2dVertex
 10
1.431731873785933
 20
0.0732689868090625
 30
0.0
 40
0.0035
 41
0.0035
  0
VERTEX
  5
2DA
330
2D8
100
AcDbEntity
  8
2
  6
Continuous
 62
     7
 48
0.0088394557130412
100
AcDbVertex
100
AcDb2dVertex
 10
1.414367772185931
 20
0.0431934805090615
 30
0.0
 40
0.0035
 41
0.0035
  0
SEQEND
  5
2DB
330
2D8
100
AcDbEntity
  8
2
  6
Continuous
 62
     7
 48
0.0088394557130412
370
     0
  0
POLYLINE
  5
2DC
330
1F
100
AcDbEntity
  8
2
  6
Continuous
 62
     7
 48
0.0088394557130412
370
     0
100
AcDb2dPolyline
 66
     1
 10
0.0
 20
0.0
 30
0.0
  0
VERTEX
  5
2DD
330
2DC
100
AcDbEntity
  8
2
  6
Continuous
 62
     7
 48
0.0088394557130412
100
AcDbVertex
100
AcDb2dVertex
 10
1.407439568985933
 20
0.0431934805090615
 30
0.0
 40
0.0035
 41
0.0035
  0
VERTEX
  5
2DE
330
2DC
100
AcDbEntity
  8
2
  6
Continuous
 62
     7
 48
0.0088394557130412
100
AcDbVertex
100
AcDb2dVertex
 10
1.390075467285929
 20
0.0732689868090625
 30
0.0
 40
0.0035
 41
0.0035
  0
SEQEND
  5
2DF
330
2DC
100
AcDbEntity
  8
2
  6
Continuous
 62
     7
 48
0.0088394557130412
370
     0
  0
POLYLINE
  5
2E0
330
1F
100
AcDbEntity
  8
2
  6
Continuous
 62
     7
 48
0.0088394557130412
370
     0
100
AcDb2dPolyline
 66
     1
 10
0.0
 20
0.0
 30
0.0
  0
VERTEX
  5
2E1
330
2E0
100
AcDbEntity
  8
2
  6
Continuous
 62
     7
 48
0.0088394557130412
100
AcDbVertex
100
AcDb2dVertex
 10
1.334519060885928
 20
0.0732689868090625
 30
0.0
 40
0.0035
 41
0.0035
  0
VERTEX
  5
2E2
330
2E0
100
AcDbEntity
  8
2
  6
Continuous
 62
     7
 48
0.0088394557130412
100
AcDbVertex
100
AcDb2dVertex
 10
1.320619060885929
 20
0.0732689868090625
 30
0.0
 40
0.0035
 41
0.0035
  0
SEQEND
  5
2E3
330
2E0
100
AcDbEntity
  8
2
  6
Continuous
 62
     7
 48
0.0088394557130412
370
     0
  0
POLYLINE
  5
2E4
330
1F
100
AcDbEntity
  8
2
  6
Continuous
 62
     7
 48
0.0088394557130412
370
     0
100
AcDb2dPolyline
 66
     1
 10
0.0
 20
0.0
 30
0.0
  0
VERTEX
  5
2E5
330
2E4
100
AcDbEntity
  8
2
  6
Continuous
 62
     7
 48
0.0088394557130412
100
AcDbVertex
100
AcDb2dVertex
 10
1.358811365685928
 20
0.0431934805090615
 30
0.0
 40
0.0035
 41
0.0035
  0
VERTEX
  5
2E6
330
2E4
100
AcDbEntity
  8
2
  6
Continuous
 62
     7
 48
0.0088394557130412
100
AcDbVertex
100
AcDb2dVertex
 10
1.35188316248593
 20
0.0431934805090615
 30
0.0
 40
0.0035
 41
0.0035
  0
SEQEND
  5
2E7
330
2E4
100
AcDbEntity
  8
2
  6
Continuous
 62
     7
 48
0.0088394557130412
370
     0
  0
POLYLINE
  5
2E8
330
1F
100
AcDbEntity
  8
2
  6
Continuous
 62
     7
 48
0.0088394557130412
370
     0
100
AcDb2dPolyline
 66
     1
 10
0.0
 20
0.0
 30
0.0
  0
VERTEX
  5
2E9
330
2E8
100
AcDbEntity
  8
2
  6
Continuous
 62
     7
 48
0.0088394557130412
100
AcDbVertex
100
AcDb2dVertex
 10
1.37617546728593
 20
0.0732689868090625
 30
0.0
 40
0.0035
 41
0.0035
  0
VERTEX
  5
2EA
330
2E8
100
AcDbEntity
  8
2
  6
Continuous
 62
     7
 48
0.0088394557130412
100
AcDbVertex
100
AcDb2dVertex
 10
1.358811365685928
 20
0.0431934805090615
 30
0.0
 40
0.0035
 41
0.0035
  0
SEQEND
  5
2EB
330
2E8
100
AcDbEntity
  8
2
  6
Continuous
 62
     7
 48
0.0088394557130412
370
     0
  0
POLYLINE
  5
2EC
330
1F
100
AcDbEntity
  8
2
  6
Continuous
 62
     7
 48
0.0088394557130412
370
     0
100
AcDb2dPolyline
 66
     1
 10
0.0
 20
0.0
 30
0.0
  0
VERTEX
  5
2ED
330
2EC
100
AcDbEntity
  8
2
  6
Continuous
 62
     7
 48
0.0088394557130412
100
AcDbVertex
100
AcDb2dVertex
 10
1.35188316248593
 20
0.0431934805090615
 30
0.0
 40
0.0035
 41
0.0035
  0
VERTEX
  5
2EE
330
2EC
100
AcDbEntity
  8
2
  6
Continuous
 62
     7
 48
0.0088394557130412
100
AcDbVertex
100
AcDb2dVertex
 10
1.334519060885928
 20
0.0732689868090625
 30
0.0
 40
0.0035
 41
0.0035
  0
SEQEND
  5
2EF
330
2EC
100
AcDbEntity
  8
2
  6
Continuous
 62
     7
 48
0.0088394557130412
370
     0
  0
POLYLINE
  5
2F0
330
1F
100
AcDbEntity
  8
2
  6
Continuous
 62
     7
 48
0.0088394557130412
370
     0
100
AcDb2dPolyline
 66
     1
 10
0.0
 20
0.0
 30
0.0
  0
VERTEX
  5
2F1
330
2F0
100
AcDbEntity
  8
2
  6
Continuous
 62
     7
 48
0.0088394557130412
100
AcDbVertex
100
AcDb2dVertex
 10
1.278962654385933
 20
0.0732689868090625
 30
0.0
 40
0.0035
 41
0.0035
  0
VERTEX
  5
2F2
330
2F0
100
AcDbEntity
  8
2
  6
Continuous
 62
     7
 48
0.0088394557130412
100
AcDbVertex
100
AcDb2dVertex
 10
1.265062654385934
 20
0.0732689868090632
 30
0.0
 40
0.0035
 41
0.0035
  0
SEQEND
  5
2F3
330
2F0
100
AcDbEntity
  8
2
  6
Continuous
 62
     7
 48
0.0088394557130412
370
     0
  0
POLYLINE
  5
2F4
330
1F
100
AcDbEntity
  8
2
  6
Continuous
 62
     7
 48
0.0088394557130412
370
     0
100
AcDb2dPolyline
 66
     1
 10
0.0
 20
0.0
 30
0.0
  0
VERTEX
  5
2F5
330
2F4
100
AcDbEntity
  8
2
  6
Continuous
 62
     7
 48
0.0088394557130412
100
AcDbVertex
100
AcDb2dVertex
 10
1.303254959285934
 20
0.0431934805090615
 30
0.0
 40
0.0035
 41
0.0035
  0
VERTEX
  5
2F6
330
2F4
100
AcDbEntity
  8
2
  6
Continuous
 62
     7
 48
0.0088394557130412
100
AcDbVertex
100
AcDb2dVertex
 10
1.296326755985928
 20
0.0431934805090615
 30
0.0
 40
0.0035
 41
0.0035
  0
SEQEND
  5
2F7
330
2F4
100
AcDbEntity
  8
2
  6
Continuous
 62
     7
 48
0.0088394557130412
370
     0
  0
POLYLINE
  5
2F8
330
1F
100
AcDbEntity
  8
2
  6
Continuous
 62
     7
 48
0.0088394557130412
370
     0
100
AcDb2dPolyline
 66
     1
 10
0.0
 20
0.0
 30
0.0
  0
VERTEX
  5
2F9
330
2F8
100
AcDbEntity
  8
2
  6
Continuous
 62
     7
 48
0.0088394557130412
100
AcDbVertex
100
AcDb2dVertex
 10
1.320619060885929
 20
0.0732689868090625
 30
0.0
 40
0.0035
 41
0.0035
  0
VERTEX
  5
2FA
330
2F8
100
AcDbEntity
  8
2
  6
Continuous
 62
     7
 48
0.0088394557130412
100
AcDbVertex
100
AcDb2dVertex
 10
1.303254959285934
 20
0.0431934805090615
 30
0.0
 40
0.0035
 41
0.0035
  0
SEQEND
  5
2FB
330
2F8
100
AcDbEntity
  8
2
  6
Continuous
 62
     7
 48
0.0088394557130412
370
     0
  0
POLYLINE
  5
2FC
330
1F
100
AcDbEntity
  8
2
  6
Continuous
 62
     7
 48
0.0088394557130412
370
     0
100
AcDb2dPolyline
 66
     1
 10
0.0
 20
0.0
 30
0.0
  0
VERTEX
  5
2FD
330
2FC
100
AcDbEntity
  8
2
  6
Continuous
 62
     7
 48
0.0088394557130412
100
AcDbVertex
100
AcDb2dVertex
 10
1.296326755985928
 20
0.0431934805090615
 30
0.0
 40
0.0035
 41
0.0035
  0
VERTEX
  5
2FE
330
2FC
100
AcDbEntity
  8
2
  6
Continuous
 62
     7
 48
0.0088394557130412
100
AcDbVertex
100
AcDb2dVertex
 10
1.278962654385933
 20
0.0732689868090625
 30
0.0
 40
0.0035
 41
0.0035
  0
SEQEND
  5
2FF
330
2FC
100
AcDbEntity
  8
2
  6
Continuous
 62
     7
 48
0.0088394557130412
370
     0
  0
POLYLINE
  5
300
330
1F
100
AcDbEntity
  8
2
  6
Continuous
 62
     7
 48
0.0088394557130412
370
     0
100
AcDb2dPolyline
 66
     1
 10
0.0
 20
0.0
 30
0.0
  0
VERTEX
  5
301
330
300
100
AcDbEntity
  8
2
  6
Continuous
 62
     7
 48
0.0088394557130412
100
AcDbVertex
100
AcDb2dVertex
 10
1.247698552785931
 20
0.0431934805090615
 30
0.0
 40
0.0035
 41
0.0035
  0
VERTEX
  5
302
330
300
100
AcDbEntity
  8
2
  6
Continuous
 62
     7
 48
0.0088394557130412
100
AcDbVertex
100
AcDb2dVertex
 10
1.240770349585934
 20
0.0431934805090615
 30
0.0
 40
0.0035
 41
0.0035
  0
SEQEND
  5
303
330
300
100
AcDbEntity
  8
2
  6
Continuous
 62
     7
 48
0.0088394557130412
370
     0
  0
POLYLINE
  5
304
330
1F
100
AcDbEntity
  8
2
  6
Continuous
 62
     7
 48
0.0088394557130412
370
     0
100
AcDb2dPolyline
 66
     1
 10
0.0
 20
0.0
 30
0.0
  0
VERTEX
  5
305
330
304
100
AcDbEntity
  8
2
  6
Continuous
 62
     7
 48
0.0088394557130412
100
AcDbVertex
100
AcDb2dVertex
 10
1.265062654385934
 20
0.0732689868090632
 30
0.0
 40
0.0035
 41
0.0035
  0
VERTEX
  5
306
330
304
100
AcDbEntity
  8
2
  6
Continuous
 62
     7
 48
0.0088394557130412
100
AcDbVertex
100
AcDb2dVertex
 10
1.247698552785931
 20
0.0431934805090615
 30
0.0
 40
0.0035
 41
0.0035
  0
SEQEND
  5
307
330
304
100
AcDbEntity
  8
2
  6
Continuous
 62
     7
 48
0.0088394557130412
370
     0
  0
POLYLINE
  5
308
330
1F
100
AcDbEntity
  8
2
  6
Continuous
 62
     7
 48
0.0088394557130412
370
     0
100
AcDb2dPolyline
 66
     1
 10
0.0
 20
0.0
 30
0.0
  0
VERTEX
  5
309
330
308
100
AcDbEntity
  8
2
  6
Continuous
 62
     7
 48
0.0088394557130412
100
AcDbVertex
100
AcDb2dVertex
 10
1.240770349585934
 20
0.0431934805090615
 30
0.0
 40
0.0035
 41
0.0035
  0
VERTEX
  5
30A
330
308
100
AcDbEntity
  8
2
  6
Continuous
 62
     7
 48
0.0088394557130412
100
AcDbVertex
100
AcDb2dVertex
 10
1.235485086285931
 20
0.0523478251090639
 30
0.0
 40
0.0035
 41
0.0035
  0
SEQEND
  5
30B
330
308
100
AcDbEntity
  8
2
  6
Continuous
 62
     7
 48
0.0088394557130412
370
     0
  0
POLYLINE
  5
30C
330
1F
100
AcDbEntity
  8
2
  6
Continuous
 62
     7
 48
0.0088394557130412
370
     0
100
AcDb2dPolyline
 66
     1
 10
0.0
 20
0.0
 30
0.0
  0
VERTEX
  5
30D
330
30C
100
AcDbEntity
  8
2
  6
Continuous
 62
     7
 48
0.0088394557130412
100
AcDbVertex
100
AcDb2dVertex
 10
1.584522889985931
 20
0.5792689868090667
 30
0.0
 40
0.0035
 41
0.0035
  0
VERTEX
  5
30E
330
30C
100
AcDbEntity
  8
2
  6
Continuous
 62
     7
 48
0.0088394557130412
100
AcDbVertex
100
AcDb2dVertex
 10
1.570622889985932
 20
0.5792689868090667
 30
0.0
 40
0.0035
 41
0.0035
  0
SEQEND
  5
30F
330
30C
100
AcDbEntity
  8
2
  6
Continuous
 62
     7
 48
0.0088394557130412
370
     0
  0
POLYLINE
  5
310
330
1F
100
AcDbEntity
  8
2
  6
Continuous
 62
     7
 48
0.0088394557130412
370
     0
100
AcDb2dPolyline
 66
     1
 10
0.0
 20
0.0
 30
0.0
  0
VERTEX
  5
311
330
310
100
AcDbEntity
  8
2
  6
Continuous
 62
     7
 48
0.0088394557130412
100
AcDbVertex
100
AcDb2dVertex
 10
1.60881519478593
 20
0.6093444930090586
 30
0.0
 40
0.0035
 41
0.0035
  0
VERTEX
  5
312
330
310
100
AcDbEntity
  8
2
  6
Continuous
 62
     7
 48
0.0088394557130412
100
AcDbVertex
100
AcDb2dVertex
 10
1.601886991585933
 20
0.6093444930090586
 30
0.0
 40
0.0035
 41
0.0035
  0
SEQEND
  5
313
330
310
100
AcDbEntity
  8
2
  6
Continuous
 62
     7
 48
0.0088394557130412
370
     0
  0
POLYLINE
  5
314
330
1F
100
AcDbEntity
  8
2
  6
Continuous
 62
     7
 48
0.0088394557130412
370
     0
100
AcDb2dPolyline
 66
     1
 10
0.0
 20
0.0
 30
0.0
  0
VERTEX
  5
315
330
314
100
AcDbEntity
  8
2
  6
Continuous
 62
     7
 48
0.0088394557130412
100
AcDbVertex
100
AcDb2dVertex
 10
1.601886991585933
 20
0.6093444930090586
 30
0.0
 40
0.0035
 41
0.0035
  0
VERTEX
  5
316
330
314
100
AcDbEntity
  8
2
  6
Continuous
 62
     7
 48
0.0088394557130412
100
AcDbVertex
100
AcDb2dVertex
 10
1.584522889985931
 20
0.5792689868090667
 30
0.0
 40
0.0035
 41
0.0035
  0
SEQEND
  5
317
330
314
100
AcDbEntity
  8
2
  6
Continuous
 62
     7
 48
0.0088394557130412
370
     0
  0
POLYLINE
  5
318
330
1F
100
AcDbEntity
  8
2
  6
Continuous
 62
     7
 48
0.0088394557130412
370
     0
100
AcDb2dPolyline
 66
     1
 10
0.0
 20
0.0
 30
0.0
  0
VERTEX
  5
319
330
318
100
AcDbEntity
  8
2
  6
Continuous
 62
     7
 48
0.0088394557130412
100
AcDbVertex
100
AcDb2dVertex
 10
1.528966483485928
 20
0.5792689868090667
 30
0.0
 40
0.0035
 41
0.0035
  0
VERTEX
  5
31A
330
318
100
AcDbEntity
  8
2
  6
Continuous
 62
     7
 48
0.0088394557130412
100
AcDbVertex
100
AcDb2dVertex
 10
1.515066483485929
 20
0.5792689868090667
 30
0.0
 40
0.0035
 41
0.0035
  0
SEQEND
  5
31B
330
318
100
AcDbEntity
  8
2
  6
Continuous
 62
     7
 48
0.0088394557130412
370
     0
  0
POLYLINE
  5
31C
330
1F
100
AcDbEntity
  8
2
  6
Continuous
 62
     7
 48
0.0088394557130412
370
     0
100
AcDb2dPolyline
 66
     1
 10
0.0
 20
0.0
 30
0.0
  0
VERTEX
  5
31D
330
31C
100
AcDbEntity
  8
2
  6
Continuous
 62
     7
 48
0.0088394557130412
100
AcDbVertex
100
AcDb2dVertex
 10
1.553258788285927
 20
0.6093444930090586
 30
0.0
 40
0.0035
 41
0.0035
  0
VERTEX
  5
31E
330
31C
100
AcDbEntity
  8
2
  6
Continuous
 62
     7
 48
0.0088394557130412
100
AcDbVertex
100
AcDb2dVertex
 10
1.54633058508593
 20
0.6093444930090586
 30
0.0
 40
0.0035
 41
0.0035
  0
SEQEND
  5
31F
330
31C
100
AcDbEntity
  8
2
  6
Continuous
 62
     7
 48
0.0088394557130412
370
     0
  0
POLYLINE
  5
320
330
1F
100
AcDbEntity
  8
2
  6
Continuous
 62
     7
 48
0.0088394557130412
370
     0
100
AcDb2dPolyline
 66
     1
 10
0.0
 20
0.0
 30
0.0
  0
VERTEX
  5
321
330
320
100
AcDbEntity
  8
2
  6
Continuous
 62
     7
 48
0.0088394557130412
100
AcDbVertex
100
AcDb2dVertex
 10
1.570622889985932
 20
0.5792689868090667
 30
0.0
 40
0.0035
 41
0.0035
  0
VERTEX
  5
322
330
320
100
AcDbEntity
  8
2
  6
Continuous
 62
     7
 48
0.0088394557130412
100
AcDbVertex
100
AcDb2dVertex
 10
1.553258788285927
 20
0.6093444930090586
 30
0.0
 40
0.0035
 41
0.0035
  0
SEQEND
  5
323
330
320
100
AcDbEntity
  8
2
  6
Continuous
 62
     7
 48
0.0088394557130412
370
     0
  0
POLYLINE
  5
324
330
1F
100
AcDbEntity
  8
2
  6
Continuous
 62
     7
 48
0.0088394557130412
370
     0
100
AcDb2dPolyline
 66
     1
 10
0.0
 20
0.0
 30
0.0
  0
VERTEX
  5
325
330
324
100
AcDbEntity
  8
2
  6
Continuous
 62
     7
 48
0.0088394557130412
100
AcDbVertex
100
AcDb2dVertex
 10
1.54633058508593
 20
0.6093444930090586
 30
0.0
 40
0.0035
 41
0.0035
  0
VERTEX
  5
326
330
324
100
AcDbEntity
  8
2
  6
Continuous
 62
     7
 48
0.0088394557130412
100
AcDbVertex
100
AcDb2dVertex
 10
1.528966483485928
 20
0.5792689868090667
 30
0.0
 40
0.0035
 41
0.0035
  0
SEQEND
  5
327
330
324
100
AcDbEntity
  8
2
  6
Continuous
 62
     7
 48
0.0088394557130412
370
     0
  0
POLYLINE
  5
328
330
1F
100
AcDbEntity
  8
2
  6
Continuous
 62
     7
 48
0.0088394557130412
370
     0
100
AcDb2dPolyline
 66
     1
 10
0.0
 20
0.0
 30
0.0
  0
VERTEX
  5
329
330
328
100
AcDbEntity
  8
2
  6
Continuous
 62
     7
 48
0.0088394557130412
100
AcDbVertex
100
AcDb2dVertex
 10
1.473410076985933
 20
0.5792689868090667
 30
0.0
 40
0.0035
 41
0.0035
  0
VERTEX
  5
32A
330
328
100
AcDbEntity
  8
2
  6
Continuous
 62
     7
 48
0.0088394557130412
100
AcDbVertex
100
AcDb2dVertex
 10
1.459510076985933
 20
0.5792689868090667
 30
0.0
 40
0.0035
 41
0.0035
  0
SEQEND
  5
32B
330
328
100
AcDbEntity
  8
2
  6
Continuous
 62
     7
 48
0.0088394557130412
370
     0
  0
POLYLINE
  5
32C
330
1F
100
AcDbEntity
  8
2
  6
Continuous
 62
     7
 48
0.0088394557130412
370
     0
100
AcDb2dPolyline
 66
     1
 10
0.0
 20
0.0
 30
0.0
  0
VERTEX
  5
32D
330
32C
100
AcDbEntity
  8
2
  6
Continuous
 62
     7
 48
0.0088394557130412
100
AcDbVertex
100
AcDb2dVertex
 10
1.497702381885934
 20
0.6093444930090586
 30
0.0
 40
0.0035
 41
0.0035
  0
VERTEX
  5
32E
330
32C
100
AcDbEntity
  8
2
  6
Continuous
 62
     7
 48
0.0088394557130412
100
AcDbVertex
100
AcDb2dVertex
 10
1.490774178585935
 20
0.6093444930090586
 30
0.0
 40
0.0035
 41
0.0035
  0
SEQEND
  5
32F
330
32C
100
AcDbEntity
  8
2
  6
Continuous
 62
     7
 48
0.0088394557130412
370
     0
  0
POLYLINE
  5
330
330
1F
100
AcDbEntity
  8
2
  6
Continuous
 62
     7
 48
0.0088394557130412
370
     0
100
AcDb2dPolyline
 66
     1
 10
0.0
 20
0.0
 30
0.0
  0
VERTEX
  5
331
330
330
100
AcDbEntity
  8
2
  6
Continuous
 62
     7
 48
0.0088394557130412
100
AcDbVertex
100
AcDb2dVertex
 10
1.515066483485929
 20
0.5792689868090667
 30
0.0
 40
0.0035
 41
0.0035
  0
VERTEX
  5
332
330
330
100
AcDbEntity
  8
2
  6
Continuous
 62
     7
 48
0.0088394557130412
100
AcDbVertex
100
AcDb2dVertex
 10
1.497702381885934
 20
0.6093444930090586
 30
0.0
 40
0.0035
 41
0.0035
  0
SEQEND
  5
333
330
330
100
AcDbEntity
  8
2
  6
Continuous
 62
     7
 48
0.0088394557130412
370
     0
  0
POLYLINE
  5
334
330
1F
100
AcDbEntity
  8
2
  6
Continuous
 62
     7
 48
0.0088394557130412
370
     0
100
AcDb2dPolyline
 66
     1
 10
0.0
 20
0.0
 30
0.0
  0
VERTEX
  5
335
330
334
100
AcDbEntity
  8
2
  6
Continuous
 62
     7
 48
0.0088394557130412
100
AcDbVertex
100
AcDb2dVertex
 10
1.490774178585935
 20
0.6093444930090586
 30
0.0
 40
0.0035
 41
0.0035
  0
VERTEX
  5
336
330
334
100
AcDbEntity
  8
2
  6
Continuous
 62
     7
 48
0.0088394557130412
100
AcDbVertex
100
AcDb2dVertex
 10
1.473410076985933
 20
0.5792689868090667
 30
0.0
 40
0.0035
 41
0.0035
  0
SEQEND
  5
337
330
334
100
AcDbEntity
  8
2
  6
Continuous
 62
     7
 48
0.0088394557130412
370
     0
  0
POLYLINE
  5
338
330
1F
100
AcDbEntity
  8
2
  6
Continuous
 62
     7
 48
0.0088394557130412
370
     0
100
AcDb2dPolyline
 66
     1
 10
0.0
 20
0.0
 30
0.0
  0
VERTEX
  5
339
330
338
100
AcDbEntity
  8
2
  6
Continuous
 62
     7
 48
0.0088394557130412
100
AcDbVertex
100
AcDb2dVertex
 10
1.417853670585932
 20
0.5792689868090667
 30
0.0
 40
0.0035
 41
0.0035
  0
VERTEX
  5
33A
330
338
100
AcDbEntity
  8
2
  6
Continuous
 62
     7
 48
0.0088394557130412
100
AcDbVertex
100
AcDb2dVertex
 10
1.403953670585932
 20
0.5792689868090667
 30
0.0
 40
0.0035
 41
0.0035
  0
SEQEND
  5
33B
330
338
100
AcDbEntity
  8
2
  6
Continuous
 62
     7
 48
0.0088394557130412
370
     0
  0
POLYLINE
  5
33C
330
1F
100
AcDbEntity
  8
2
  6
Continuous
 62
     7
 48
0.0088394557130412
370
     0
100
AcDb2dPolyline
 66
     1
 10
0.0
 20
0.0
 30
0.0
  0
VERTEX
  5
33D
330
33C
100
AcDbEntity
  8
2
  6
Continuous
 62
     7
 48
0.0088394557130412
100
AcDbVertex
100
AcDb2dVertex
 10
1.442145975385931
 20
0.6093444930090586
 30
0.0
 40
0.0035
 41
0.0035
  0
VERTEX
  5
33E
330
33C
100
AcDbEntity
  8
2
  6
Continuous
 62
     7
 48
0.0088394557130412
100
AcDbVertex
100
AcDb2dVertex
 10
1.435217772185934
 20
0.6093444930090586
 30
0.0
 40
0.0035
 41
0.0035
  0
SEQEND
  5
33F
330
33C
100
AcDbEntity
  8
2
  6
Continuous
 62
     7
 48
0.0088394557130412
370
     0
  0
POLYLINE
  5
340
330
1F
100
AcDbEntity
  8
2
  6
Continuous
 62
     7
 48
0.0088394557130412
370
     0
100
AcDb2dPolyline
 66
     1
 10
0.0
 20
0.0
 30
0.0
  0
VERTEX
  5
341
330
340
100
AcDbEntity
  8
2
  6
Continuous
 62
     7
 48
0.0088394557130412
100
AcDbVertex
100
AcDb2dVertex
 10
1.459510076985933
 20
0.5792689868090667
 30
0.0
 40
0.0035
 41
0.0035
  0
VERTEX
  5
342
330
340
100
AcDbEntity
  8
2
  6
Continuous
 62
     7
 48
0.0088394557130412
100
AcDbVertex
100
AcDb2dVertex
 10
1.442145975385931
 20
0.6093444930090586
 30
0.0
 40
0.0035
 41
0.0035
  0
SEQEND
  5
343
330
340
100
AcDbEntity
  8
2
  6
Continuous
 62
     7
 48
0.0088394557130412
370
     0
  0
POLYLINE
  5
344
330
1F
100
AcDbEntity
  8
2
  6
Continuous
 62
     7
 48
0.0088394557130412
370
     0
100
AcDb2dPolyline
 66
     1
 10
0.0
 20
0.0
 30
0.0
  0
VERTEX
  5
345
330
344
100
AcDbEntity
  8
2
  6
Continuous
 62
     7
 48
0.0088394557130412
100
AcDbVertex
100
AcDb2dVertex
 10
1.435217772185934
 20
0.6093444930090586
 30
0.0
 40
0.0035
 41
0.0035
  0
VERTEX
  5
346
330
344
100
AcDbEntity
  8
2
  6
Continuous
 62
     7
 48
0.0088394557130412
100
AcDbVertex
100
AcDb2dVertex
 10
1.417853670585932
 20
0.5792689868090667
 30
0.0
 40
0.0035
 41
0.0035
  0
SEQEND
  5
347
330
344
100
AcDbEntity
  8
2
  6
Continuous
 62
     7
 48
0.0088394557130412
370
     0
  0
POLYLINE
  5
348
330
1F
100
AcDbEntity
  8
2
  6
Continuous
 62
     7
 48
0.0088394557130412
370
     0
100
AcDb2dPolyline
 66
     1
 10
0.0
 20
0.0
 30
0.0
  0
VERTEX
  5
349
330
348
100
AcDbEntity
  8
2
  6
Continuous
 62
     7
 48
0.0088394557130412
100
AcDbVertex
100
AcDb2dVertex
 10
1.362297264085929
 20
0.5792689868090667
 30
0.0
 40
0.0035
 41
0.0035
  0
VERTEX
  5
34A
330
348
100
AcDbEntity
  8
2
  6
Continuous
 62
     7
 48
0.0088394557130412
100
AcDbVertex
100
AcDb2dVertex
 10
1.348397264085929
 20
0.5792689868090667
 30
0.0
 40
0.0035
 41
0.0035
  0
SEQEND
  5
34B
330
348
100
AcDbEntity
  8
2
  6
Continuous
 62
     7
 48
0.0088394557130412
370
     0
  0
POLYLINE
  5
34C
330
1F
100
AcDbEntity
  8
2
  6
Continuous
 62
     7
 48
0.0088394557130412
370
     0
100
AcDb2dPolyline
 66
     1
 10
0.0
 20
0.0
 30
0.0
  0
VERTEX
  5
34D
330
34C
100
AcDbEntity
  8
2
  6
Continuous
 62
     7
 48
0.0088394557130412
100
AcDbVertex
100
AcDb2dVertex
 10
1.38658956898593
 20
0.6093444930090586
 30
0.0
 40
0.0035
 41
0.0035
  0
VERTEX
  5
34E
330
34C
100
AcDbEntity
  8
2
  6
Continuous
 62
     7
 48
0.0088394557130412
100
AcDbVertex
100
AcDb2dVertex
 10
1.379661365685931
 20
0.6093444930090586
 30
0.0
 40
0.0035
 41
0.0035
  0
SEQEND
  5
34F
330
34C
100
AcDbEntity
  8
2
  6
Continuous
 62
     7
 48
0.0088394557130412
370
     0
  0
POLYLINE
  5
350
330
1F
100
AcDbEntity
  8
2
  6
Continuous
 62
     7
 48
0.0088394557130412
370
     0
100
AcDb2dPolyline
 66
     1
 10
0.0
 20
0.0
 30
0.0
  0
VERTEX
  5
351
330
350
100
AcDbEntity
  8
2
  6
Continuous
 62
     7
 48
0.0088394557130412
100
AcDbVertex
100
AcDb2dVertex
 10
1.403953670585932
 20
0.5792689868090667
 30
0.0
 40
0.0035
 41
0.0035
  0
VERTEX
  5
352
330
350
100
AcDbEntity
  8
2
  6
Continuous
 62
     7
 48
0.0088394557130412
100
AcDbVertex
100
AcDb2dVertex
 10
1.38658956898593
 20
0.6093444930090586
 30
0.0
 40
0.0035
 41
0.0035
  0
SEQEND
  5
353
330
350
100
AcDbEntity
  8
2
  6
Continuous
 62
     7
 48
0.0088394557130412
370
     0
  0
POLYLINE
  5
354
330
1F
100
AcDbEntity
  8
2
  6
Continuous
 62
     7
 48
0.0088394557130412
370
     0
100
AcDb2dPolyline
 66
     1
 10
0.0
 20
0.0
 30
0.0
  0
VERTEX
  5
355
330
354
100
AcDbEntity
  8
2
  6
Continuous
 62
     7
 48
0.0088394557130412
100
AcDbVertex
100
AcDb2dVertex
 10
1.379661365685931
 20
0.6093444930090586
 30
0.0
 40
0.0035
 41
0.0035
  0
VERTEX
  5
356
330
354
100
AcDbEntity
  8
2
  6
Continuous
 62
     7
 48
0.0088394557130412
100
AcDbVertex
100
AcDb2dVertex
 10
1.362297264085929
 20
0.5792689868090667
 30
0.0
 40
0.0035
 41
0.0035
  0
SEQEND
  5
357
330
354
100
AcDbEntity
  8
2
  6
Continuous
 62
     7
 48
0.0088394557130412
370
     0
  0
POLYLINE
  5
358
330
1F
100
AcDbEntity
  8
2
  6
Continuous
 62
     7
 48
0.0088394557130412
370
     0
100
AcDb2dPolyline
 66
     1
 10
0.0
 20
0.0
 30
0.0
  0
VERTEX
  5
359
330
358
100
AcDbEntity
  8
2
  6
Continuous
 62
     7
 48
0.0088394557130412
100
AcDbVertex
100
AcDb2dVertex
 10
1.306740857685928
 20
0.5792689868090667
 30
0.0
 40
0.0035
 41
0.0035
  0
VERTEX
  5
35A
330
358
100
AcDbEntity
  8
2
  6
Continuous
 62
     7
 48
0.0088394557130412
100
AcDbVertex
100
AcDb2dVertex
 10
1.292840857685928
 20
0.5792689868090667
 30
0.0
 40
0.0035
 41
0.0035
  0
SEQEND
  5
35B
330
358
100
AcDbEntity
  8
2
  6
Continuous
 62
     7
 48
0.0088394557130412
370
     0
  0
POLYLINE
  5
35C
330
1F
100
AcDbEntity
  8
2
  6
Continuous
 62
     7
 48
0.0088394557130412
370
     0
100
AcDb2dPolyline
 66
     1
 10
0.0
 20
0.0
 30
0.0
  0
VERTEX
  5
35D
330
35C
100
AcDbEntity
  8
2
  6
Continuous
 62
     7
 48
0.0088394557130412
100
AcDbVertex
100
AcDb2dVertex
 10
1.331033162485934
 20
0.6093444930090586
 30
0.0
 40
0.0035
 41
0.0035
  0
VERTEX
  5
35E
330
35C
100
AcDbEntity
  8
2
  6
Continuous
 62
     7
 48
0.0088394557130412
100
AcDbVertex
100
AcDb2dVertex
 10
1.32410495928593
 20
0.6093444930090586
 30
0.0
 40
0.0035
 41
0.0035
  0
SEQEND
  5
35F
330
35C
100
AcDbEntity
  8
2
  6
Continuous
 62
     7
 48
0.0088394557130412
370
     0
  0
POLYLINE
  5
360
330
1F
100
AcDbEntity
  8
2
  6
Continuous
 62
     7
 48
0.0088394557130412
370
     0
100
AcDb2dPolyline
 66
     1
 10
0.0
 20
0.0
 30
0.0
  0
VERTEX
  5
361
330
360
100
AcDbEntity
  8
2
  6
Continuous
 62
     7
 48
0.0088394557130412
100
AcDbVertex
100
AcDb2dVertex
 10
1.348397264085929
 20
0.5792689868090667
 30
0.0
 40
0.0035
 41
0.0035
  0
VERTEX
  5
362
330
360
100
AcDbEntity
  8
2
  6
Continuous
 62
     7
 48
0.0088394557130412
100
AcDbVertex
100
AcDb2dVertex
 10
1.331033162485934
 20
0.6093444930090586
 30
0.0
 40
0.0035
 41
0.0035
  0
SEQEND
  5
363
330
360
100
AcDbEntity
  8
2
  6
Continuous
 62
     7
 48
0.0088394557130412
370
     0
  0
POLYLINE
  5
364
330
1F
100
AcDbEntity
  8
2
  6
Continuous
 62
     7
 48
0.0088394557130412
370
     0
100
AcDb2dPolyline
 66
     1
 10
0.0
 20
0.0
 30
0.0
  0
VERTEX
  5
365
330
364
100
AcDbEntity
  8
2
  6
Continuous
 62
     7
 48
0.0088394557130412
100
AcDbVertex
100
AcDb2dVertex
 10
1.32410495928593
 20
0.6093444930090586
 30
0.0
 40
0.0035
 41
0.0035
  0
VERTEX
  5
366
330
364
100
AcDbEntity
  8
2
  6
Continuous
 62
     7
 48
0.0088394557130412
100
AcDbVertex
100
AcDb2dVertex
 10
1.306740857685928
 20
0.5792689868090667
 30
0.0
 40
0.0035
 41
0.0035
  0
SEQEND
  5
367
330
364
100
AcDbEntity
  8
2
  6
Continuous
 62
     7
 48
0.0088394557130412
370
     0
  0
POLYLINE
  5
368
330
1F
100
AcDbEntity
  8
2
  6
Continuous
 62
     7
 48
0.0088394557130412
370
     0
100
AcDb2dPolyline
 66
     1
 10
0.0
 20
0.0
 30
0.0
  0
VERTEX
  5
369
330
368
100
AcDbEntity
  8
2
  6
Continuous
 62
     7
 48
0.0088394557130412
100
AcDbVertex
100
AcDb2dVertex
 10
1.275476755985932
 20
0.6093444930090586
 30
0.0
 40
0.0035
 41
0.0035
  0
VERTEX
  5
36A
330
368
100
AcDbEntity
  8
2
  6
Continuous
 62
     7
 48
0.0088394557130412
100
AcDbVertex
100
AcDb2dVertex
 10
1.268548552785934
 20
0.6093444930090586
 30
0.0
 40
0.0035
 41
0.0035
  0
SEQEND
  5
36B
330
368
100
AcDbEntity
  8
2
  6
Continuous
 62
     7
 48
0.0088394557130412
370
     0
  0
POLYLINE
  5
36C
330
1F
100
AcDbEntity
  8
2
  6
Continuous
 62
     7
 48
0.0088394557130412
370
     0
100
AcDb2dPolyline
 66
     1
 10
0.0
 20
0.0
 30
0.0
  0
VERTEX
  5
36D
330
36C
100
AcDbEntity
  8
2
  6
Continuous
 62
     7
 48
0.0088394557130412
100
AcDbVertex
100
AcDb2dVertex
 10
1.292840857685928
 20
0.5792689868090667
 30
0.0
 40
0.0035
 41
0.0035
  0
VERTEX
  5
36E
330
36C
100
AcDbEntity
  8
2
  6
Continuous
 62
     7
 48
0.0088394557130412
100
AcDbVertex
100
AcDb2dVertex
 10
1.275476755985932
 20
0.6093444930090586
 30
0.0
 40
0.0035
 41
0.0035
  0
SEQEND
  5
36F
330
36C
100
AcDbEntity
  8
2
  6
Continuous
 62
     7
 48
0.0088394557130412
370
     0
  0
POLYLINE
  5
370
330
1F
100
AcDbEntity
  8
2
  6
Continuous
 62
     7
 48
0.0088394557130412
370
     0
100
AcDb2dPolyline
 66
     1
 10
0.0
 20
0.0
 30
0.0
  0
VERTEX
  5
371
330
370
100
AcDbEntity
  8
2
  6
Continuous
 62
     7
 48
0.0088394557130412
100
AcDbVertex
100
AcDb2dVertex
 10
1.268548552785934
 20
0.6093444930090586
 30
0.0
 40
0.0035
 41
0.0035
  0
VERTEX
  5
372
330
370
100
AcDbEntity
  8
2
  6
Continuous
 62
     7
 48
0.0088394557130412
100
AcDbVertex
100
AcDb2dVertex
 10
1.253095761485935
 20
0.5825794733090651
 30
0.0
 40
0.0035
 41
0.0035
  0
SEQEND
  5
373
330
370
100
AcDbEntity
  8
2
  6
Continuous
 62
     7
 48
0.0088394557130412
370
     0
  0
POLYLINE
  5
374
330
1F
100
AcDbEntity
  8
2
  6
Continuous
 62
     7
 48
0.0088394557130412
370
     0
100
AcDb2dPolyline
 66
     1
 10
0.0
 20
0.0
 30
0.0
  0
VERTEX
  5
375
330
374
100
AcDbEntity
  8
2
  6
Continuous
 62
     7
 48
0.0088394557130412
100
AcDbVertex
100
AcDb2dVertex
 10
1.223406247985932
 20
0.0732689868090625
 30
0.0
 40
0.0035
 41
0.0035
  0
VERTEX
  5
376
330
374
100
AcDbEntity
  8
2
  6
Continuous
 62
     7
 48
0.0088394557130412
100
AcDbVertex
100
AcDb2dVertex
 10
1.223406247985932
 20
0.5792689868090667
 30
0.0
 40
0.0035
 41
0.0035
  0
SEQEND
  5
377
330
374
100
AcDbEntity
  8
2
  6
Continuous
 62
     7
 48
0.0088394557130412
370
     0
  0
POLYLINE
  5
378
330
1F
100
AcDbEntity
  8
2
  6
Continuous
 62
     7
 48
0.0088394557130412
370
     0
100
AcDb2dPolyline
 66
     1
 10
0.0
 20
0.0
 30
0.0
  0
VERTEX
  5
379
330
378
100
AcDbEntity
  8
2
  6
Continuous
 62
     7
 48
0.0088394557130412
100
AcDbVertex
100
AcDb2dVertex
 10
1.627911347185933
 20
0.0582312336090648
 30
0.0
 40
0.0035
 41
0.0035
  0
VERTEX
  5
37A
330
378
100
AcDbEntity
  8
2
  6
Continuous
 62
     7
 48
0.0088394557130412
100
AcDbVertex
100
AcDb2dVertex
 10
1.620983143985929
 20
0.0582312336090648
 30
0.0
 40
0.0035
 41
0.0035
  0
SEQEND
  5
37B
330
378
100
AcDbEntity
  8
2
  6
Continuous
 62
     7
 48
0.0088394557130412
370
     0
  0
POLYLINE
  5
37C
330
1F
100
AcDbEntity
  8
2
  6
Continuous
 62
     7
 48
0.0088394557130412
370
     0
100
AcDb2dPolyline
 66
     1
 10
0.0
 20
0.0
 30
0.0
  0
VERTEX
  5
37D
330
37C
100
AcDbEntity
  8
2
  6
Continuous
 62
     7
 48
0.0088394557130412
100
AcDbVertex
100
AcDb2dVertex
 10
1.636016047785934
 20
0.0722689868090653
 30
0.0
 40
0.0035
 41
0.0035
  0
VERTEX
  5
37E
330
37C
100
AcDbEntity
  8
2
  6
Continuous
 62
     7
 48
0.0088394557130412
100
AcDbVertex
100
AcDb2dVertex
 10
1.627911347185933
 20
0.0582312336090648
 30
0.0
 40
0.0035
 41
0.0035
  0
SEQEND
  5
37F
330
37C
100
AcDbEntity
  8
2
  6
Continuous
 62
     7
 48
0.0088394557130412
370
     0
  0
POLYLINE
  5
380
330
1F
100
AcDbEntity
  8
2
  6
Continuous
 62
     7
 48
0.0088394557130412
370
     0
100
AcDb2dPolyline
 66
     1
 10
0.0
 20
0.0
 30
0.0
  0
VERTEX
  5
381
330
380
100
AcDbEntity
  8
2
  6
Continuous
 62
     7
 48
0.0088394557130412
100
AcDbVertex
100
AcDb2dVertex
 10
1.612301093185931
 20
0.0732689868090625
 30
0.0
 40
0.0035
 41
0.0035
  0
VERTEX
  5
382
330
380
100
AcDbEntity
  8
2
  6
Continuous
 62
     7
 48
0.0088394557130412
100
AcDbVertex
100
AcDb2dVertex
 10
1.620983143985929
 20
0.0582312336090648
 30
0.0
 40
0.0035
 41
0.0035
  0
SEQEND
  5
383
330
380
100
AcDbEntity
  8
2
  6
Continuous
 62
     7
 48
0.0088394557130412
370
     0
  0
POLYLINE
  5
384
330
1F
100
AcDbEntity
  8
3
  6
Continuous
 62
     7
 48
0.0088394557130412
370
     0
100
AcDb2dPolyline
 66
     1
 10
0.0
 20
0.0
 30
0.0
  0
VERTEX
  5
385
330
384
100
AcDbEntity
  8
3
  6
Continuous
 62
     7
100
AcDbVertex
100
AcDb2dVertex
 10
1.748406247985931
 20
0.0722689868090646
 30
0.0
 40
0.0035
 41
0.0035
 42
0.4142135624000113
  0
VERTEX
  5
386
330
384
100
AcDbEntity
  8
3
  6
Continuous
 62
     7
100
AcDbVertex
100
AcDb2dVertex
 10
1.787406247985932
 20
0.0332689868090638
 30
0.0
 40
0.0035
 41
0.0035
  0
SEQEND
  5
387
330
384
100
AcDbEntity
  8
3
  6
Continuous
 62
     7
 48
0.0088394557130412
370
     0
  0
POLYLINE
  5
388
330
1F
100
AcDbEntity
  8
1
  6
Continuous
 62
     7
 48
0.0088394557130412
370
     0
100
AcDb2dPolyline
 66
     1
 10
0.0
 20
0.0
 30
0.0
  0
VERTEX
  5
389
330
388
100
AcDbEntity
  8
1
  6
Continuous
 62
     7
100
AcDbVertex
100
AcDb2dVertex
 10
1.807406247987711
 20
0.5300689868090639
 30
0.0
 40
0.0035
 41
0.0035
 42
0.414213562373095
  0
VERTEX
  5
38A
330
388
100
AcDbEntity
  8
1
  6
Continuous
 62
     7
100
AcDbVertex
100
AcDb2dVertex
 10
1.847406247987711
 20
0.5700689868090597
 30
0.0
 40
0.0035
 41
0.0035
  0
SEQEND
  5
38B
330
388
100
AcDbEntity
  8
1
  6
Continuous
 62
     7
 48
0.0088394557130412
370
     0
  0
POLYLINE
  5
38C
330
1F
100
AcDbEntity
  8
1
  6
Continuous
 62
     7
 48
0.0088394557130412
370
     0
100
AcDb2dPolyline
 66
     1
 10
0.0
 20
0.0
 30
0.0
  0
VERTEX
  5
38D
330
38C
100
AcDbEntity
  8
1
  6
Continuous
 62
     7
100
AcDbVertex
100
AcDb2dVertex
 10
1.847406247987703
 20
0.5702689868090735
 30
0.0
 40
0.0035
 41
0.0035
 42
-0.4142135623720545
  0
VERTEX
  5
38E
330
38C
100
AcDbEntity
  8
1
  6
Continuous
 62
     7
100
AcDbVertex
100
AcDb2dVertex
 10
1.849406247987706
 20
0.5722689868090617
 30
0.0
 40
0.0035
 41
0.0035
  0
SEQEND
  5
38F
330
38C
100
AcDbEntity
  8
1
  6
Continuous
 62
     7
 48
0.0088394557130412
370
     0
  0
POLYLINE
  5
390
330
1F
100
AcDbEntity
  8
1
  6
Continuous
 62
     7
 48
0.0088394557130412
370
     0
100
AcDb2dPolyline
 66
     1
 10
0.0
 20
0.0
 30
0.0
  0
VERTEX
  5
391
330
390
100
AcDbEntity
  8
1
  6
Continuous
 62
     7
 48
0.0088394557130412
100
AcDbVertex
100
AcDb2dVertex
 10
1.847406247987711
 20
0.5700689868090597
 30
0.0
 40
0.0035
 41
0.0035
  0
VERTEX
  5
392
330
390
100
AcDbEntity
  8
1
  6
Continuous
 62
     7
 48
0.0088394557130412
100
AcDbVertex
100
AcDb2dVertex
 10
1.847406247987703
 20
0.5702689868090735
 30
0.0
 40
0.0035
 41
0.0035
  0
SEQEND
  5
393
330
390
100
AcDbEntity
  8
1
  6
Continuous
 62
     7
 48
0.0088394557130412
370
     0
  0
POLYLINE
  5
394
330
1F
100
AcDbEntity
  8
2
  6
Continuous
 62
     7
 48
0.0088394557130412
370
     0
100
AcDb2dPolyline
 66
     1
 10
0.0
 20
0.0
 30
0.0
  0
VERTEX
  5
395
330
394
100
AcDbEntity
  8
2
  6
Continuous
 62
     7
 48
0.0088394557130412
100
AcDbVertex
100
AcDb2dVertex
 10
1.752406247987712
 20
0.5760689868090597
 30
0.0
 40
0.0035
 41
0.0035
  0
VERTEX
  5
396
330
394
100
AcDbEntity
  8
2
  6
Continuous
 62
     7
 48
0.0088394557130412
100
AcDbVertex
100
AcDb2dVertex
 10
1.737406247987711
 20
0.5760689868090597
 30
0.0
 40
0.0035
 41
0.0035
  0
SEQEND
  5
397
330
394
100
AcDbEntity
  8
2
  6
Continuous
 62
     7
 48
0.0088394557130412
370
     0
  0
POLYLINE
  5
398
330
1F
100
AcDbEntity
  8
2
  6
Continuous
 62
     7
 48
0.0088394557130412
370
     0
100
AcDb2dPolyline
 66
     1
 10
0.0
 20
0.0
 30
0.0
  0
VERTEX
  5
399
330
398
100
AcDbEntity
  8
2
  6
Continuous
 62
     7
100
AcDbVertex
100
AcDb2dVertex
 10
1.607406247987708
 20
0.5633865926713331
 30
0.0
 40
0.0035
 41
0.0035
 42
-0.4076886291716867
  0
VERTEX
  5
39A
330
398
100
AcDbEntity
  8
2
  6
Continuous
 62
     7
100
AcDbVertex
100
AcDb2dVertex
 10
1.617182978595513
 20
0.5733840998995615
 30
0.0
 40
0.0035
 41
0.0035
  0
SEQEND
  5
39B
330
398
100
AcDbEntity
  8
2
  6
Continuous
 62
     7
 48
0.0088394557130412
370
     0
  0
POLYLINE
  5
39C
330
1F
100
AcDbEntity
  8
1
  6
Continuous
 62
     7
 48
0.0088394557130412
370
     0
100
AcDb2dPolyline
 66
     1
 10
0.0
 20
0.0
 30
0.0
  0
VERTEX
  5
39D
330
39C
100
AcDbEntity
  8
1
  6
Continuous
 62
     7
 48
0.0088394557130412
100
AcDbVertex
100
AcDb2dVertex
 10
1.737406247987711
 20
0.5760689868090597
 30
0.0
 40
0.0035
 41
0.0035
  0
VERTEX
  5
39E
330
39C
100
AcDbEntity
  8
1
  6
Continuous
 62
     7
 48
0.0088394557130412
100
AcDbVertex
100
AcDb2dVertex
 10
1.617182978595513
 20
0.5733840998995615
 30
0.0
 40
0.0035
 41
0.0035
  0
SEQEND
  5
39F
330
39C
100
AcDbEntity
  8
1
  6
Continuous
 62
     7
 48
0.0088394557130412
370
     0
  0
POLYLINE
  5
3A0
330
1F
100
AcDbEntity
  8
2
  6
Continuous
 62
     7
 48
0.0088394557130412
370
     0
100
AcDb2dPolyline
 66
     1
 10
0.0
 20
0.0
 30
0.0
  0
VERTEX
  5
3A1
330
3A0
100
AcDbEntity
  8
2
  6
Continuous
 62
     7
100
AcDbVertex
100
AcDb2dVertex
 10
1.757406247987715
 20
0.0814689868090614
 30
0.0
 40
0.0035
 41
0.0035
 42
-0.414213562373095
  0
VERTEX
  5
3A2
330
3A0
100
AcDbEntity
  8
2
  6
Continuous
 62
     7
100
AcDbVertex
100
AcDb2dVertex
 10
1.752406247987712
 20
0.0764689868090623
 30
0.0
 40
0.0035
 41
0.0035
  0
SEQEND
  5
3A3
330
3A0
100
AcDbEntity
  8
2
  6
Continuous
 62
     7
 48
0.0088394557130412
370
     0
  0
POLYLINE
  5
3A4
330
1F
100
AcDbEntity
  8
1
  6
Continuous
 62
     7
 48
0.0088394557130412
370
     0
100
AcDb2dPolyline
 66
     1
 10
0.0
 20
0.0
 30
0.0
  0
VERTEX
  5
3A5
330
3A4
100
AcDbEntity
  8
1
  6
Continuous
 62
     7
 48
0.0088394557130412
100
AcDbVertex
100
AcDb2dVertex
 10
1.757406247987715
 20
0.0814689868090614
 30
0.0
 40
0.0035
 41
0.0035
  0
VERTEX
  5
3A6
330
3A4
100
AcDbEntity
  8
1
  6
Continuous
 62
     7
 48
0.0088394557130412
100
AcDbVertex
100
AcDb2dVertex
 10
1.757406247987714
 20
0.0824689868090623
 30
0.0
 40
0.0035
 41
0.0035
  0
SEQEND
  5
3A7
330
3A4
100
AcDbEntity
  8
1
  6
Continuous
 62
     7
 48
0.0088394557130412
370
     0
  0
POLYLINE
  5
3A8
330
1F
100
AcDbEntity
  8
2
  6
Continuous
 62
     7
 48
0.0088394557130412
370
     0
100
AcDb2dPolyline
 66
     1
 10
0.0
 20
0.0
 30
0.0
  0
VERTEX
  5
3A9
330
3A8
100
AcDbEntity
  8
2
  6
Continuous
 62
     7
 48
0.0088394557130412
100
AcDbVertex
100
AcDb2dVertex
 10
1.752406247987712
 20
0.0764689868090623
 30
0.0
 40
0.0035
 41
0.0035
  0
VERTEX
  5
3AA
330
3A8
100
AcDbEntity
  8
2
  6
Continuous
 62
     7
 48
0.0088394557130412
100
AcDbVertex
100
AcDb2dVertex
 10
1.737406247987711
 20
0.0764689868090623
 30
0.0
 40
0.0035
 41
0.0035
  0
SEQEND
  5
3AB
330
3A8
100
AcDbEntity
  8
2
  6
Continuous
 62
     7
 48
0.0088394557130412
370
     0
  0
POLYLINE
  5
3AC
330
1F
100
AcDbEntity
  8
2
  6
Continuous
 62
     7
 48
0.0088394557130412
370
     0
100
AcDb2dPolyline
 66
     1
 10
0.0
 20
0.0
 30
0.0
  0
VERTEX
  5
3AD
330
3AC
100
AcDbEntity
  8
2
  6
Continuous
 62
     7
100
AcDbVertex
100
AcDb2dVertex
 10
1.607406247987708
 20
0.0891513809467967
 30
0.0
 40
0.0035
 41
0.0035
 42
0.4076886291716948
  0
VERTEX
  5
3AE
330
3AC
100
AcDbEntity
  8
2
  6
Continuous
 62
     7
100
AcDbVertex
100
AcDb2dVertex
 10
1.617182978595513
 20
0.0791538737185648
 30
0.0
 40
0.0035
 41
0.0035
  0
SEQEND
  5
3AF
330
3AC
100
AcDbEntity
  8
2
  6
Continuous
 62
     7
 48
0.0088394557130412
370
     0
  0
POLYLINE
  5
3B0
330
1F
100
AcDbEntity
  8
1
  6
Continuous
 62
     7
 48
0.0088394557130412
370
     0
100
AcDb2dPolyline
 66
     1
 10
0.0
 20
0.0
 30
0.0
  0
VERTEX
  5
3B1
330
3B0
100
AcDbEntity
  8
1
  6
Continuous
 62
     7
 48
0.0088394557130412
100
AcDbVertex
100
AcDb2dVertex
 10
1.737406247987711
 20
0.0764689868090623
 30
0.0
 40
0.0035
 41
0.0035
  0
VERTEX
  5
3B2
330
3B0
100
AcDbEntity
  8
1
  6
Continuous
 62
     7
 48
0.0088394557130412
100
AcDbVertex
100
AcDb2dVertex
 10
1.617182978595513
 20
0.0791538737185648
 30
0.0
 40
0.0035
 41
0.0035
  0
SEQEND
  5
3B3
330
3B0
100
AcDbEntity
  8
1
  6
Continuous
 62
     7
 48
0.0088394557130412
370
     0
  0
POLYLINE
  5
3B4
330
1F
100
AcDbEntity
  8
1
  6
Continuous
 62
     7
 48
0.0088394557130412
370
     0
100
AcDb2dPolyline
 66
     1
 10
0.0
 20
0.0
 30
0.0
  0
VERTEX
  5
3B5
330
3B4
100
AcDbEntity
  8
1
  6
Continuous
 62
     7
100
AcDbVertex
100
AcDb2dVertex
 10
1.849405771794534
 20
0.0802689868090603
 30
0.0
 40
0.0035
 41
0.0035
 42
-0.415608986018675
  0
VERTEX
  5
3B6
330
3B4
100
AcDbEntity
  8
1
  6
Continuous
 62
     7
100
AcDbVertex
100
AcDb2dVertex
 10
1.847405794470402
 20
0.0822785106185838
 30
0.0
 40
0.0035
 41
0.0035
  0
SEQEND
  5
3B7
330
3B4
100
AcDbEntity
  8
1
  6
Continuous
 62
     7
 48
0.0088394557130412
370
     0
  0
POLYLINE
  5
3B8
330
1F
100
AcDbEntity
  8
1
  6
Continuous
 62
     7
 48
0.0088394557130412
370
     0
100
AcDb2dPolyline
 66
     1
 10
0.0
 20
0.0
 30
0.0
  0
VERTEX
  5
3B9
330
3B8
100
AcDbEntity
  8
1
  6
Continuous
 62
     7
100
AcDbVertex
100
AcDb2dVertex
 10
1.847405794470402
 20
0.0822785106185838
 30
0.0
 40
0.0035
 41
0.0035
 42
0.4156089860187528
  0
VERTEX
  5
3BA
330
3B8
100
AcDbEntity
  8
1
  6
Continuous
 62
     7
100
AcDbVertex
100
AcDb2dVertex
 10
1.807406247987711
 20
0.1224689868090618
 30
0.0
 40
0.0035
 41
0.0035
  0
SEQEND
  5
3BB
330
3B8
100
AcDbEntity
  8
1
  6
Continuous
 62
     7
 48
0.0088394557130412
370
     0
  0
POLYLINE
  5
3BC
330
1F
100
AcDbEntity
  8
1
  6
Continuous
 62
     7
 48
0.0088394557130412
370
     0
100
AcDb2dPolyline
 66
     1
 10
0.0
 20
0.0
 30
0.0
  0
VERTEX
  5
3BD
330
3BC
100
AcDbEntity
  8
1
  6
Continuous
 62
     7
 48
0.0088394557130412
100
AcDbVertex
100
AcDb2dVertex
 10
1.79740624798593
 20
0.6192689868090588
 30
0.0
 40
0.0035
 41
0.0035
  0
VERTEX
  5
3BE
330
3BC
100
AcDbEntity
  8
1
  6
Continuous
 62
     7
 48
0.0088394557130412
100
AcDbVertex
100
AcDb2dVertex
 10
1.787406247985932
 20
0.6192689868090588
 30
0.0
 40
0.0035
 41
0.0035
  0
SEQEND
  5
3BF
330
3BC
100
AcDbEntity
  8
1
  6
Continuous
 62
     7
 48
0.0088394557130412
370
     0
  0
POLYLINE
  5
3C0
330
1F
100
AcDbEntity
  8
1
  6
Continuous
 62
     7
 48
0.0088394557130412
370
     0
100
AcDb2dPolyline
 66
     1
 10
0.0
 20
0.0
 30
0.0
  0
VERTEX
  5
3C1
330
3C0
100
AcDbEntity
  8
1
  6
Continuous
 62
     7
 48
0.0088394557130412
100
AcDbVertex
100
AcDb2dVertex
 10
1.79740624798593
 20
0.0332689868090638
 30
0.0
 40
0.0035
 41
0.0035
  0
VERTEX
  5
3C2
330
3C0
100
AcDbEntity
  8
1
  6
Continuous
 62
     7
 48
0.0088394557130412
100
AcDbVertex
100
AcDb2dVertex
 10
1.787406247985932
 20
0.0332689868090638
 30
0.0
 40
0.0035
 41
0.0035
  0
SEQEND
  5
3C3
330
3C0
100
AcDbEntity
  8
1
  6
Continuous
 62
     7
 48
0.0088394557130412
370
     0
  0
POLYLINE
  5
3C4
330
1F
100
AcDbEntity
  8
3
  6
Continuous
 62
     7
 48
0.0088394557130412
370
     0
100
AcDb2dPolyline
 66
     1
 10
0.0
 20
0.0
 30
0.0
  0
VERTEX
  5
3C5
330
3C4
100
AcDbEntity
  8
3
  6
Continuous
 62
     7
 48
0.0088394557130412
100
AcDbVertex
100
AcDb2dVertex
 10
1.748406247985931
 20
0.0722689868090646
 30
0.0
 40
0.0035
 41
0.0035
  0
VERTEX
  5
3C6
330
3C4
100
AcDbEntity
  8
3
  6
Continuous
 62
     7
 48
0.0088394557130412
100
AcDbVertex
100
AcDb2dVertex
 10
1.636016047785934
 20
0.0722689868090653
 30
0.0
 40
0.0035
 41
0.0035
  0
SEQEND
  5
3C7
330
3C4
100
AcDbEntity
  8
3
  6
Continuous
 62
     7
 48
0.0088394557130412
370
     0
  0
POLYLINE
  5
3C8
330
1F
100
AcDbEntity
  8
1
  6
Continuous
 62
     7
 48
0.0088394557130412
370
     0
100
AcDb2dPolyline
 66
     1
 10
0.0
 20
0.0
 30
0.0
  0
VERTEX
  5
3C9
330
3C8
100
AcDbEntity
  8
1
  6
Continuous
 62
     7
100
AcDbVertex
100
AcDb2dVertex
 10
1.941406247987712
 20
0.5722689868090617
 30
0.0
 40
0.0035
 41
0.0035
 42
0.414213562373095
  0
VERTEX
  5
3CA
330
3C8
100
AcDbEntity
  8
1
  6
Continuous
 62
     7
100
AcDbVertex
100
AcDb2dVertex
 10
1.956406247987713
 20
0.5872689868090624
 30
0.0
 40
0.0035
 41
0.0035
  0
SEQEND
  5
3CB
330
3C8
100
AcDbEntity
  8
1
  6
Continuous
 62
     7
 48
0.0088394557130412
370
     0
  0
POLYLINE
  5
3CC
330
1F
100
AcDbEntity
  8
1
  6
Continuous
 62
     7
 48
0.0088394557130412
370
     0
100
AcDb2dPolyline
 66
     1
 10
0.0
 20
0.0
 30
0.0
  0
VERTEX
  5
3CD
330
3CC
100
AcDbEntity
  8
1
  6
Continuous
 62
     7
 48
0.0088394557130412
100
AcDbVertex
100
AcDb2dVertex
 10
1.941406247987712
 20
0.5722689868090617
 30
0.0
 40
0.0035
 41
0.0035
  0
VERTEX
  5
3CE
330
3CC
100
AcDbEntity
  8
1
  6
Continuous
 62
     7
 48
0.0088394557130412
100
AcDbVertex
100
AcDb2dVertex
 10
1.849406247987706
 20
0.5722689868090617
 30
0.0
 40
0.0035
 41
0.0035
  0
SEQEND
  5
3CF
330
3CC
100
AcDbEntity
  8
1
  6
Continuous
 62
     7
 48
0.0088394557130412
370
     0
  0
POLYLINE
  5
3D0
330
1F
100
AcDbEntity
  8
1
  6
Continuous
 62
     7
 48
0.0088394557130412
370
     0
100
AcDb2dPolyline
 66
     1
 10
0.0
 20
0.0
 30
0.0
  0
VERTEX
  5
3D1
330
3D0
100
AcDbEntity
  8
1
  6
Continuous
 62
     7
100
AcDbVertex
100
AcDb2dVertex
 10
1.941406247987712
 20
0.0802689868090603
 30
0.0
 40
0.0035
 41
0.0035
 42
-0.414213562373095
  0
VERTEX
  5
3D2
330
3D0
100
AcDbEntity
  8
1
  6
Continuous
 62
     7
100
AcDbVertex
100
AcDb2dVertex
 10
1.956406247987712
 20
0.0652689868090604
 30
0.0
 40
0.0035
 41
0.0035
  0
SEQEND
  5
3D3
330
3D0
100
AcDbEntity
  8
1
  6
Continuous
 62
     7
 48
0.0088394557130412
370
     0
  0
POLYLINE
  5
3D4
330
1F
100
AcDbEntity
  8
1
  6
Continuous
 62
     7
 48
0.0088394557130412
370
     0
100
AcDb2dPolyline
 66
     1
 10
0.0
 20
0.0
 30
0.0
  0
VERTEX
  5
3D5
330
3D4
100
AcDbEntity
  8
1
  6
Continuous
 62
     7
 48
0.0088394557130412
100
AcDbVertex
100
AcDb2dVertex
 10
1.849405771794534
 20
0.0802689868090603
 30
0.0
 40
0.0035
 41
0.0035
  0
VERTEX
  5
3D6
330
3D4
100
AcDbEntity
  8
1
  6
Continuous
 62
     7
 48
0.0088394557130412
100
AcDbVertex
100
AcDb2dVertex
 10
1.941406247987712
 20
0.0802689868090603
 30
0.0
 40
0.0035
 41
0.0035
  0
SEQEND
  5
3D7
330
3D4
100
AcDbEntity
  8
1
  6
Continuous
 62
     7
 48
0.0088394557130412
370
     0
  0
POLYLINE
  5
3D8
330
1F
100
AcDbEntity
  8
2
  6
Continuous
 62
     7
 48
0.0088394557130412
370
     0
100
AcDb2dPolyline
 66
     1
 10
0.0
 20
0.0
 30
0.0
  0
VERTEX
  5
3D9
330
3D8
100
AcDbEntity
  8
2
  6
Continuous
 62
     7
 48
0.0088394557130412
100
AcDbVertex
100
AcDb2dVertex
 10
1.625601946116757
 20
0.5802689868090716
 30
0.0
 40
0.0035
 41
0.0035
  0
VERTEX
  5
3DA
330
3D8
100
AcDbEntity
  8
2
  6
Continuous
 62
     7
 48
0.0088394557130412
100
AcDbVertex
100
AcDb2dVertex
 10
1.60881519478593
 20
0.6093444930090586
 30
0.0
 40
0.0035
 41
0.0035
  0
SEQEND
  5
3DB
330
3D8
100
AcDbEntity
  8
2
  6
Continuous
 62
     7
 48
0.0088394557130412
370
     0
  0
POLYLINE
  5
3DC
330
1F
100
AcDbEntity
  8
3
  6
Continuous
 62
     7
 48
0.0088394557130412
370
     0
100
AcDb2dPolyline
 66
     1
 10
0.0
 20
0.0
 30
0.0
  0
VERTEX
  5
3DD
330
3DC
100
AcDbEntity
  8
3
  6
Continuous
 62
     7
 48
0.0088394557130412
100
AcDbVertex
100
AcDb2dVertex
 10
1.748406247985938
 20
0.5802689868090642
 30
0.0
 40
0.0035
 41
0.0035
  0
VERTEX
  5
3DE
330
3DC
100
AcDbEntity
  8
3
  6
Continuous
 62
     7
 48
0.0088394557130412
100
AcDbVertex
100
AcDb2dVertex
 10
1.625601946116757
 20
0.5802689868090716
 30
0.0
 40
0.0035
 41
0.0035
  0
SEQEND
  5
3DF
330
3DC
100
AcDbEntity
  8
3
  6
Continuous
 62
     7
 48
0.0088394557130412
370
     0
  0
POLYLINE
  5
3E0
330
1F
100
AcDbEntity
  8
1
  6
Continuous
 62
     7
 48
0.0088394557130412
370
     0
100
AcDb2dPolyline
 66
     1
 10
0.0
 20
0.0
 30
0.0
  0
VERTEX
  5
3E1
330
3E0
100
AcDbEntity
  8
1
  6
Continuous
 62
     7
100
AcDbVertex
100
AcDb2dVertex
 10
1.836406247985924
 20
0.57466898680907
 30
0.0
 40
0.0035
 41
0.0035
 42
0.9999999999999986
  0
VERTEX
  5
3E2
330
3E0
100
AcDbEntity
  8
1
  6
Continuous
 62
     7
100
AcDbVertex
100
AcDb2dVertex
 10
1.757406247987707
 20
0.574668986809072
 30
0.0
 40
0.0035
 41
0.0035
 42
0.9999999999999986
  0
VERTEX
  5
3E3
330
3E0
100
AcDbEntity
  8
1
  6
Continuous
 62
     7
100
AcDbVertex
100
AcDb2dVertex
 10
1.836406247985924
 20
0.57466898680907
 30
0.0
 40
0.0035
 41
0.0035
  0
SEQEND
  5
3E4
330
3E0
100
AcDbEntity
  8
1
  6
Continuous
 62
     7
 48
0.0088394557130412
370
     0
  0
POLYLINE
  5
3E5
330
1F
100
AcDbEntity
  8
1
  6
Continuous
 62
     7
 48
0.0088394557130412
370
     0
100
AcDb2dPolyline
 66
     1
 10
0.0
 20
0.0
 30
0.0
  0
VERTEX
  5
3E6
330
3E5
100
AcDbEntity
  8
1
  6
Continuous
 62
     7
100
AcDbVertex
100
AcDb2dVertex
 10
1.836406247985924
 20
0.0778689868090588
 30
0.0
 40
0.0035
 41
0.0035
 42
-0.9999999999999999
  0
VERTEX
  5
3E7
330
3E5
100
AcDbEntity
  8
1
  6
Continuous
 62
     7
100
AcDbVertex
100
AcDb2dVertex
 10
1.757406247987707
 20
0.0778689868090588
 30
0.0
 40
0.0035
 41
0.0035
 42
-0.9999999999999999
  0
VERTEX
  5
3E8
330
3E5
100
AcDbEntity
  8
1
  6
Continuous
 62
     7
100
AcDbVertex
100
AcDb2dVertex
 10
1.836406247985924
 20
0.0778689868090588
 30
0.0
 40
0.0035
 41
0.0035
  0
SEQEND
  5
3E9
330
3E5
100
AcDbEntity
  8
1
  6
Continuous
 62
     7
 48
0.0088394557130412
370
     0
  0
HATCH
  5
3EA
330
1F
100
AcDbEntity
  8
1
  6
Continuous
 62
   253
420
 10461087
 48
18.75
370
     0
100
AcDbHatch
 10
0.0
 20
0.0
 30
0.0
210
0.0
220
0.0
230
1.0
  2
SOLID
 70
     1
 71
     0
 91
        1
 92
        3
 72
     0
 73
     1
 93
       96
 10
1.829749297672028
 20
0.5966140110128443
 10
1.831114251435527
 20
0.5944189868086177
 10
1.832332721276555
 20
0.5921393900723233
 10
1.833399489520187
 20
0.5897849823871417
 10
1.834309988101031
 20
0.5873658456882516
 10
1.835060318124374
 20
0.5848923390903851
 10
1.835647266561868
 20
0.5823750545285311
 10
1.836068320010196
 20
0.5798247714016442
 10
1.83632167545385
 20
0.5772524104136042
 10
1.836406247985924
 20
0.57466898680907
 10
1.83632167545385
 20
0.5720855632045364
 10
1.836068320010196
 20
0.5695132022164958
 10
1.835647266561868
 20
0.5669629190896021
 10
1.835060318124375
 20
0.5644456345277481
 10
1.834309988101031
 20
0.5619721279298748
 10
1.833399489520187
 20
0.5595529912309847
 10
1.832332721276555
 20
0.5571985835458099
 10
1.831114251435527
 20
0.5549189868095084
 10
1.829749297672028
 20
0.5527239626052889
 10
1.828243704927613
 20
0.5506229103637682
 10
1.826603920381562
 20
0.5486248271131988
 10
1.824836965843052
 20
0.5467382689528268
 10
1.82295040768268
 20
0.5449713144143163
 10
1.820952324432118
 20
0.543331529868266
 10
1.818851272190597
 20
0.5418259371238582
 10
1.81665624798637
 20
0.5404609833603518
 10
1.81437665125007
 20
0.5392425135193242
 10
1.812022243564894
 20
0.5381757452756918
 10
1.809603106866005
 20
0.5372652466948554
 10
1.807129600268138
 20
0.5365149166715043
 10
1.804612315706277
 20
0.5359279682340176
 10
1.80206203257939
 20
0.5355069147856829
 10
1.79948967159135
 20
0.5352535593420354
 10
1.796906247986816
 20
0.5351689868099615
 10
1.794322824382282
 20
0.5352535593420354
 10
1.791750463394242
 20
0.5355069147856829
 10
1.789200180267355
 20
0.5359279682340176
 10
1.786682895705494
 20
0.5365149166715043
 10
1.784209389107628
 20
0.5372652466948554
 10
1.781790252408737
 20
0.5381757452756918
 10
1.779435844723562
 20
0.5392425135193242
 10
1.777156247987261
 20
0.5404609833603518
 10
1.774961223783035
 20
0.5418259371238582
 10
1.772860171541514
 20
0.543331529868266
 10
1.770862088290951
 20
0.5449713144143163
 10
1.76897553013058
 20
0.5467382689528268
 10
1.767208575592069
 20
0.5486248271131988
 10
1.765568791046019
 20
0.5506229103637682
 10
1.764063198301604
 20
0.5527239626052889
 10
1.762698244538105
 20
0.5549189868095084
 10
1.761479774697076
 20
0.5571985835458099
 10
1.760413006453444
 20
0.5595529912309847
 10
1.759502507872601
 20
0.5619721279298748
 10
1.758752177849257
 20
0.5644456345277481
 10
1.758165229411763
 20
0.5669629190896021
 10
1.757744175963435
 20
0.5695132022164958
 10
1.757490820519781
 20
0.5720855632045364
 10
1.757406247987708
 20
0.574668986809071
 10
1.757490820519781
 20
0.5772524104136042
 10
1.757744175963436
 20
0.5798247714016442
 10
1.758165229411763
 20
0.5823750545285311
 10
1.758752177849257
 20
0.5848923390903851
 10
1.759502507872601
 20
0.5873658456882516
 10
1.760413006453444
 20
0.5897849823871417
 10
1.761479774697077
 20
0.5921393900723233
 10
1.762698244538105
 20
0.5944189868086177
 10
1.764063198301604
 20
0.5966140110128443
 10
1.765568791046019
 20
0.5987150632543721
 10
1.767208575592069
 20
0.6007131465049272
 10
1.76897553013058
 20
0.6025997046653063
 10
1.770862088290951
 20
0.6043666592038166
 10
1.772860171541514
 20
0.6060064437498603
 10
1.774961223783035
 20
0.607512036494275
 10
1.777156247987261
 20
0.6088769902577814
 10
1.779435844723562
 20
0.610095460098809
 10
1.781790252408737
 20
0.6111622283424346
 10
1.784209389107627
 20
0.6120727269232783
 10
1.786682895705494
 20
0.6128230569466211
 10
1.789200180267355
 20
0.6134100053841227
 10
1.791750463394242
 20
0.6138310588324432
 10
1.794322824382282
 20
0.6140844142761045
 10
1.796906247986816
 20
0.6141689868081784
 10
1.79948967159135
 20
0.6140844142761045
 10
1.80206203257939
 20
0.6138310588324432
 10
1.804612315706277
 20
0.6134100053841227
 10
1.807129600268138
 20
0.6128230569466211
 10
1.809603106866004
 20
0.6120727269232783
 10
1.812022243564894
 20
0.6111622283424346
 10
1.814376651250069
 20
0.610095460098809
 10
1.81665624798637
 20
0.6088769902577814
 10
1.818851272190597
 20
0.607512036494275
 10
1.820952324432117
 20
0.6060064437498603
 10
1.82295040768268
 20
0.6043666592038166
 10
1.824836965843052
 20
0.6025997046653063
 10
1.826603920381562
 20
0.6007131465049272
 10
1.828243704927613
 20
0.5987150632543721
 97
        0
 75
     0
 76
     1
 98
        1
 10
0.0
 20
0.0
  0
HATCH
  5
3EB
330
1F
100
AcDbEntity
  8
1
  6
Continuous
 62
   253
420
 10461087
 48
18.75
370
     0
100
AcDbHatch
 10
0.0
 20
0.0
 30
0.0
210
0.0
220
0.0
230
1.0
  2
SOLID
 70
     1
 71
     0
 91
        1
 92
        3
 72
     0
 73
     1
 93
       96
 10
1.824836965843052
 20
0.1057997046652992
 10
1.826603920381562
 20
0.1039131465049239
 10
1.828243704927613
 20
0.1019150632543607
 10
1.829749297672028
 20
0.0998140110128364
 10
1.831114251435527
 20
0.0976189868086134
 10
1.832332721276555
 20
0.0953393900723159
 10
1.833399489520187
 20
0.0929849823871374
 10
1.83430998810103
 20
0.0905658456882472
 10
1.835060318124375
 20
0.088092339090378
 10
1.835647266561869
 20
0.0855750545285234
 10
1.836068320010196
 20
0.0830247714016331
 10
1.83632167545385
 20
0.0804524104135934
 10
1.836406247985924
 20
0.0778689868090588
 10
1.83632167545385
 20
0.0752855632045279
 10
1.836068320010196
 20
0.0727132022164846
 10
1.835647266561868
 20
0.0701629190895943
 10
1.835060318124375
 20
0.0676456345277403
 10
1.83430998810103
 20
0.0651721279298705
 10
1.833399489520187
 20
0.0627529912309803
 10
1.832332721276555
 20
0.060398583545802
 10
1.831114251435527
 20
0.0581189868095049
 10
1.829749297672028
 20
0.055923962605282
 10
1.828243704927613
 20
0.0538229103637577
 10
1.826603920381562
 20
0.0518248271131946
 10
1.824836965843052
 20
0.0499382689528193
 10
1.82295040768268
 20
0.0481713144143089
 10
1.820952324432118
 20
0.0465315298682624
 10
1.818851272190597
 20
0.0450259371238504
 10
1.81665624798637
 20
0.0436609833603448
 10
1.814376651250069
 20
0.0424425135193165
 10
1.812022243564894
 20
0.0413757452756882
 10
1.809603106866004
 20
0.0404652466948477
 10
1.807129600268138
 20
0.0397149166715009
 10
1.804612315706276
 20
0.0391279682340063
 10
1.80206203257939
 20
0.0387069147856785
 10
1.79948967159135
 20
0.0384535593420244
 10
1.796906247986816
 20
0.0383689868099504
 10
1.794322824382282
 20
0.0384535593420251
 10
1.791750463394241
 20
0.0387069147856785
 10
1.789200180267355
 20
0.0391279682340063
 10
1.786682895705494
 20
0.0397149166715009
 10
1.784209389107627
 20
0.0404652466948477
 10
1.781790252408737
 20
0.0413757452756882
 10
1.779435844723562
 20
0.0424425135193165
 10
1.777156247987261
 20
0.0436609833603448
 10
1.774961223783035
 20
0.0450259371238504
 10
1.772860171541514
 20
0.0465315298682624
 10
1.770862088290952
 20
0.0481713144143089
 10
1.76897553013058
 20
0.0499382689528193
 10
1.767208575592069
 20
0.0518248271131939
 10
1.765568791046019
 20
0.0538229103637577
 10
1.764063198301604
 20
0.055923962605282
 10
1.762698244538105
 20
0.0581189868095049
 10
1.761479774697077
 20
0.060398583545802
 10
1.760413006453444
 20
0.0627529912309803
 10
1.759502507872601
 20
0.0651721279298705
 10
1.758752177849257
 20
0.0676456345277403
 10
1.758165229411763
 20
0.0701629190895943
 10
1.757744175963435
 20
0.0727132022164846
 10
1.757490820519781
 20
0.0752855632045285
 10
1.757406247987707
 20
0.0778689868090588
 10
1.757490820519781
 20
0.0804524104135934
 10
1.757744175963435
 20
0.0830247714016331
 10
1.758165229411764
 20
0.0855750545285234
 10
1.758752177849257
 20
0.088092339090378
 10
1.759502507872601
 20
0.0905658456882472
 10
1.760413006453444
 20
0.0929849823871374
 10
1.761479774697077
 20
0.0953393900723159
 10
1.762698244538105
 20
0.0976189868086134
 10
1.764063198301604
 20
0.09981401101284
 10
1.765568791046019
 20
0.1019150632543607
 10
1.767208575592069
 20
0.1039131465049231
 10
1.76897553013058
 20
0.1057997046652984
 10
1.770862088290951
 20
0.107566659203809
 10
1.772860171541514
 20
0.109206443749856
 10
1.774961223783035
 20
0.1107120364942673
 10
1.777156247987261
 20
0.1120769902577737
 10
1.779435844723562
 20
0.113295460098802
 10
1.781790252408737
 20
0.1143622283424303
 10
1.784209389107627
 20
0.11527272692327
 10
1.786682895705494
 20
0.1160230569466177
 10
1.789200180267355
 20
0.1166100053841114
 10
1.791750463394242
 20
0.1170310588324392
 10
1.794322824382282
 20
0.1172844142760933
 10
1.796906247986816
 20
0.1173689868081673
 10
1.79948967159135
 20
0.1172844142760933
 10
1.80206203257939
 20
0.1170310588324392
 10
1.804612315706277
 20
0.1166100053841114
 10
1.807129600268138
 20
0.1160230569466177
 10
1.809603106866004
 20
0.11527272692327
 10
1.812022243564894
 20
0.1143622283424303
 10
1.81437665125007
 20
0.113295460098802
 10
1.81665624798637
 20
0.1120769902577737
 10
1.818851272190596
 20
0.1107120364942673
 10
1.820952324432118
 20
0.109206443749856
 10
1.82295040768268
 20
0.107566659203809
 97
        0
 75
     0
 76
     1
 98
        1
 10
0.0
 20
0.0
  0
POLYLINE
  5
3EC
330
1F
100
AcDbEntity
  8
1
  6
Continuous
 62
     7
 48
0.0088394557130412
370
     0
100
AcDb2dPolyline
 66
     1
 10
0.0
 20
0.0
 30
0.0
  0
VERTEX
  5
3ED
330
3EC
100
AcDbEntity
  8
1
  6
Continuous
 62
     7
 48
0.0088394557130412
100
AcDbVertex
100
AcDb2dVertex
 10
1.797406247987714
 20
0.1224689868090618
 30
0.0
 40
0.0035
 41
0.0035
  0
VERTEX
  5
3EE
330
3EC
100
AcDbEntity
  8
1
  6
Continuous
 62
     7
 48
0.0088394557130412
100
AcDbVertex
100
AcDb2dVertex
 10
1.807406247987711
 20
0.1224689868090618
 30
0.0
 40
0.0035
 41
0.0035
  0
SEQEND
  5
3EF
330
3EC
100
AcDbEntity
  8
1
  6
Continuous
 62
     7
 48
0.0088394557130412
370
     0
  0
POLYLINE
  5
3F0
330
1F
100
AcDbEntity
  8
1
  6
Continuous
 62
     7
 48
0.0088394557130412
370
     0
100
AcDb2dPolyline
 66
     1
 10
0.0
 20
0.0
 30
0.0
  0
VERTEX
  5
3F1
330
3F0
100
AcDbEntity
  8
1
  6
Continuous
 62
     7
 48
0.0088394557130412
100
AcDbVertex
100
AcDb2dVertex
 10
1.797406247987714
 20
0.5300689868090644
 30
0.0
 40
0.0035
 41
0.0035
  0
VERTEX
  5
3F2
330
3F0
100
AcDbEntity
  8
1
  6
Continuous
 62
     7
 48
0.0088394557130412
100
AcDbVertex
100
AcDb2dVertex
 10
1.807406247987711
 20
0.5300689868090639
 30
0.0
 40
0.0035
 41
0.0035
  0
SEQEND
  5
3F3
330
3F0
100
AcDbEntity
  8
1
  6
Continuous
 62
     7
 48
0.0088394557130412
370
     0
  0
POLYLINE
  5
3F4
330
1F
100
AcDbEntity
  8
1
  6
Continuous
 62
     7
 48
0.0088394557130412
370
     0
100
AcDb2dPolyline
 66
     1
 10
0.0
 20
0.0
 30
0.0
  0
VERTEX
  5
3F5
330
3F4
100
AcDbEntity
  8
1
  6
Continuous
 62
     7
 48
0.0088394557130412
100
AcDbVertex
100
AcDb2dVertex
 10
1.607406247987708
 20
0.0891513809467967
 30
0.0
 40
0.0035
 41
0.0035
  0
VERTEX
  5
3F6
330
3F4
100
AcDbEntity
  8
1
  6
Continuous
 62
     7
 48
0.0088394557130412
100
AcDbVertex
100
AcDb2dVertex
 10
1.607406247987708
 20
0.5633865926713331
 30
0.0
 40
0.0035
 41
0.0035
  0
SEQEND
  5
3F7
330
3F4
100
AcDbEntity
  8
1
  6
Continuous
 62
     7
 48
0.0088394557130412
370
     0
  0
LINE
  5
3F8
330
1F
100
AcDbEntity
  8
1
  6
CENTER
 62
    94
420
    43520
 48
0.1000000000002329
370
     0
100
AcDbLine
 10
1.198054218690131
 20
0.3262689868090656
 30
0.0
 11
2.448919721806964
 21
0.3262689868090654
 31
0.0
  0
POLYLINE
  5
3F9
330
1F
100
AcDbEntity
  8
2
  6
Continuous
 62
     7
 48
0.0088394557130412
370
     0
100
AcDb2dPolyline
 66
     1
 10
0.0
 20
0.0
 30
0.0
  0
VERTEX
  5
3FA
330
3F9
100
AcDbEntity
  8
2
  6
Continuous
 62
     7
100
AcDbVertex
100
AcDb2dVertex
 10
1.956406247987713
 20
0.6630557833734593
 30
0.0
 40
0.0035
 41
0.0035
 42
-0.1989123673796552
  0
VERTEX
  5
3FB
330
3F9
100
AcDbEntity
  8
2
  6
Continuous
 62
     7
100
AcDbVertex
100
AcDb2dVertex
 10
1.960799646269914
 20
0.6736623850912575
 30
0.0
 40
0.0035
 41
0.0035
  0
SEQEND
  5
3FC
330
3F9
100
AcDbEntity
  8
2
  6
Continuous
 62
     7
 48
0.0088394557130412
370
     0
  0
POLYLINE
  5
3FD
330
1F
100
AcDbEntity
  8
2
  6
Continuous
 62
     7
 48
0.0088394557130412
370
     0
100
AcDb2dPolyline
 66
     1
 10
0.0
 20
0.0
 30
0.0
  0
VERTEX
  5
3FE
330
3FD
100
AcDbEntity
  8
2
  6
Continuous
 62
     7
 48
0.0088394557130412
100
AcDbVertex
100
AcDb2dVertex
 10
1.956406247987713
 20
0.5872689868090624
 30
0.0
 40
0.0035
 41
0.0035
  0
VERTEX
  5
3FF
330
3FD
100
AcDbEntity
  8
2
  6
Continuous
 62
     7
 48
0.0088394557130412
100
AcDbVertex
100
AcDb2dVertex
 10
1.956406247987713
 20
0.6630557833734593
 30
0.0
 40
0.0035
 41
0.0035
  0
SEQEND
  5
400
330
3FD
100
AcDbEntity
  8
2
  6
Continuous
 62
     7
 48
0.0088394557130412
370
     0
  0
POLYLINE
  5
401
330
1F
100
AcDbEntity
  8
2
  6
Continuous
 62
     7
 48
0.0088394557130412
370
     0
100
AcDb2dPolyline
 66
     1
 10
0.0
 20
0.0
 30
0.0
  0
VERTEX
  5
402
330
401
100
AcDbEntity
  8
2
  6
Continuous
 62
     7
 48
0.0088394557130412
100
AcDbVertex
100
AcDb2dVertex
 10
1.996012849706412
 20
0.708875588527755
 30
0.0
 40
0.0035
 41
0.0035
  0
VERTEX
  5
403
330
401
100
AcDbEntity
  8
2
  6
Continuous
 62
     7
 48
0.0088394557130412
100
AcDbVertex
100
AcDb2dVertex
 10
1.960799646269914
 20
0.6736623850912575
 30
0.0
 40
0.0035
 41
0.0035
  0
SEQEND
  5
404
330
401
100
AcDbEntity
  8
2
  6
Continuous
 62
     7
 48
0.0088394557130412
370
     0
  0
POLYLINE
  5
405
330
1F
100
AcDbEntity
  8
2
  6
Continuous
 62
     7
 48
0.0088394557130412
370
     0
100
AcDb2dPolyline
 66
     1
 10
0.0
 20
0.0
 30
0.0
  0
VERTEX
  5
406
330
405
100
AcDbEntity
  8
2
  6
Continuous
 62
     7
100
AcDbVertex
100
AcDb2dVertex
 10
1.956406247987713
 20
-0.0105178097553277
 30
0.0
 40
0.0035
 41
0.0035
 42
0.198912367379661
  0
VERTEX
  5
407
330
405
100
AcDbEntity
  8
2
  6
Continuous
 62
     7
100
AcDbVertex
100
AcDb2dVertex
 10
1.960799646269914
 20
-0.0211244114731259
 30
0.0
 40
0.0035
 41
0.0035
  0
SEQEND
  5
408
330
405
100
AcDbEntity
  8
2
  6
Continuous
 62
     7
 48
0.0088394557130412
370
     0
  0
POLYLINE
  5
409
330
1F
100
AcDbEntity
  8
2
  6
Continuous
 62
     7
 48
0.0088394557130412
370
     0
100
AcDb2dPolyline
 66
     1
 10
0.0
 20
0.0
 30
0.0
  0
VERTEX
  5
40A
330
409
100
AcDbEntity
  8
2
  6
Continuous
 62
     7
 48
0.0088394557130412
100
AcDbVertex
100
AcDb2dVertex
 10
1.956406247987712
 20
0.0652689868090604
 30
0.0
 40
0.0035
 41
0.0035
  0
VERTEX
  5
40B
330
409
100
AcDbEntity
  8
2
  6
Continuous
 62
     7
 48
0.0088394557130412
100
AcDbVertex
100
AcDb2dVertex
 10
1.956406247987713
 20
-0.0105178097553277
 30
0.0
 40
0.0035
 41
0.0035
  0
SEQEND
  5
40C
330
409
100
AcDbEntity
  8
2
  6
Continuous
 62
     7
 48
0.0088394557130412
370
     0
  0
POLYLINE
  5
40D
330
1F
100
AcDbEntity
  8
2
  6
Continuous
 62
     7
 48
0.0088394557130412
370
     0
100
AcDb2dPolyline
 66
     1
 10
0.0
 20
0.0
 30
0.0
  0
VERTEX
  5
40E
330
40D
100
AcDbEntity
  8
2
  6
Continuous
 62
     7
 48
0.0088394557130412
100
AcDbVertex
100
AcDb2dVertex
 10
1.960799646269914
 20
-0.0211244114731259
 30
0.0
 40
0.0035
 41
0.0035
  0
VERTEX
  5
40F
330
40D
100
AcDbEntity
  8
2
  6
Continuous
 62
     7
 48
0.0088394557130412
100
AcDbVertex
100
AcDb2dVertex
 10
1.996012849706413
 20
-0.056337614909624
 30
0.0
 40
0.0035
 41
0.0035
  0
SEQEND
  5
410
330
40D
100
AcDbEntity
  8
2
  6
Continuous
 62
     7
 48
0.0088394557130412
370
     0
  0
POLYLINE
  5
411
330
1F
100
AcDbEntity
  8
2
  6
Continuous
 62
     7
 48
0.0088394557130412
370
     0
100
AcDb2dPolyline
 66
     1
 10
0.0
 20
0.0
 30
0.0
  0
VERTEX
  5
412
330
411
100
AcDbEntity
  8
2
  6
Continuous
 62
     7
 48
0.0088394557130412
100
AcDbVertex
100
AcDb2dVertex
 10
2.365188280285929
 20
0.0732689868090632
 30
0.0
 40
0.0035
 41
0.0035
  0
VERTEX
  5
413
330
411
100
AcDbEntity
  8
2
  6
Continuous
 62
     7
 48
0.0088394557130412
100
AcDbVertex
100
AcDb2dVertex
 10
2.351288280285929
 20
0.0732689868090625
 30
0.0
 40
0.0035
 41
0.0035
  0
SEQEND
  5
414
330
411
100
AcDbEntity
  8
2
  6
Continuous
 62
     7
 48
0.0088394557130412
370
     0
  0
POLYLINE
  5
415
330
1F
100
AcDbEntity
  8
2
  6
Continuous
 62
     7
 48
0.0088394557130412
370
     0
100
AcDb2dPolyline
 66
     1
 10
0.0
 20
0.0
 30
0.0
  0
VERTEX
  5
416
330
415
100
AcDbEntity
  8
2
  6
Continuous
 62
     7
 48
0.0088394557130412
100
AcDbVertex
100
AcDb2dVertex
 10
2.389480585085935
 20
0.0431934805090615
 30
0.0
 40
0.0035
 41
0.0035
  0
VERTEX
  5
417
330
415
100
AcDbEntity
  8
2
  6
Continuous
 62
     7
 48
0.0088394557130412
100
AcDbVertex
100
AcDb2dVertex
 10
2.38255238188593
 20
0.0431934805090615
 30
0.0
 40
0.0035
 41
0.0035
  0
SEQEND
  5
418
330
415
100
AcDbEntity
  8
2
  6
Continuous
 62
     7
 48
0.0088394557130412
370
     0
  0
POLYLINE
  5
419
330
1F
100
AcDbEntity
  8
2
  6
Continuous
 62
     7
 48
0.0088394557130412
370
     0
100
AcDb2dPolyline
 66
     1
 10
0.0
 20
0.0
 30
0.0
  0
VERTEX
  5
41A
330
419
100
AcDbEntity
  8
2
  6
Continuous
 62
     7
 48
0.0088394557130412
100
AcDbVertex
100
AcDb2dVertex
 10
2.38255238188593
 20
0.0431934805090615
 30
0.0
 40
0.0035
 41
0.0035
  0
VERTEX
  5
41B
330
419
100
AcDbEntity
  8
2
  6
Continuous
 62
     7
 48
0.0088394557130412
100
AcDbVertex
100
AcDb2dVertex
 10
2.365188280285929
 20
0.0732689868090632
 30
0.0
 40
0.0035
 41
0.0035
  0
SEQEND
  5
41C
330
419
100
AcDbEntity
  8
2
  6
Continuous
 62
     7
 48
0.0088394557130412
370
     0
  0
POLYLINE
  5
41D
330
1F
100
AcDbEntity
  8
2
  6
Continuous
 62
     7
 48
0.0088394557130412
370
     0
100
AcDb2dPolyline
 66
     1
 10
0.0
 20
0.0
 30
0.0
  0
VERTEX
  5
41E
330
41D
100
AcDbEntity
  8
2
  6
Continuous
 62
     7
 48
0.0088394557130412
100
AcDbVertex
100
AcDb2dVertex
 10
2.309631873785933
 20
0.0732689868090632
 30
0.0
 40
0.0035
 41
0.0035
  0
VERTEX
  5
41F
330
41D
100
AcDbEntity
  8
2
  6
Continuous
 62
     7
 48
0.0088394557130412
100
AcDbVertex
100
AcDb2dVertex
 10
2.295731873785933
 20
0.0732689868090625
 30
0.0
 40
0.0035
 41
0.0035
  0
SEQEND
  5
420
330
41D
100
AcDbEntity
  8
2
  6
Continuous
 62
     7
 48
0.0088394557130412
370
     0
  0
POLYLINE
  5
421
330
1F
100
AcDbEntity
  8
2
  6
Continuous
 62
     7
 48
0.0088394557130412
370
     0
100
AcDb2dPolyline
 66
     1
 10
0.0
 20
0.0
 30
0.0
  0
VERTEX
  5
422
330
421
100
AcDbEntity
  8
2
  6
Continuous
 62
     7
 48
0.0088394557130412
100
AcDbVertex
100
AcDb2dVertex
 10
2.333924178585932
 20
0.0431934805090615
 30
0.0
 40
0.0035
 41
0.0035
  0
VERTEX
  5
423
330
421
100
AcDbEntity
  8
2
  6
Continuous
 62
     7
 48
0.0088394557130412
100
AcDbVertex
100
AcDb2dVertex
 10
2.326995975385935
 20
0.0431934805090615
 30
0.0
 40
0.0035
 41
0.0035
  0
SEQEND
  5
424
330
421
100
AcDbEntity
  8
2
  6
Continuous
 62
     7
 48
0.0088394557130412
370
     0
  0
POLYLINE
  5
425
330
1F
100
AcDbEntity
  8
2
  6
Continuous
 62
     7
 48
0.0088394557130412
370
     0
100
AcDb2dPolyline
 66
     1
 10
0.0
 20
0.0
 30
0.0
  0
VERTEX
  5
426
330
425
100
AcDbEntity
  8
2
  6
Continuous
 62
     7
 48
0.0088394557130412
100
AcDbVertex
100
AcDb2dVertex
 10
2.351288280285929
 20
0.0732689868090625
 30
0.0
 40
0.0035
 41
0.0035
  0
VERTEX
  5
427
330
425
100
AcDbEntity
  8
2
  6
Continuous
 62
     7
 48
0.0088394557130412
100
AcDbVertex
100
AcDb2dVertex
 10
2.333924178585932
 20
0.0431934805090615
 30
0.0
 40
0.0035
 41
0.0035
  0
SEQEND
  5
428
330
425
100
AcDbEntity
  8
2
  6
Continuous
 62
     7
 48
0.0088394557130412
370
     0
  0
POLYLINE
  5
429
330
1F
100
AcDbEntity
  8
2
  6
Continuous
 62
     7
 48
0.0088394557130412
370
     0
100
AcDb2dPolyline
 66
     1
 10
0.0
 20
0.0
 30
0.0
  0
VERTEX
  5
42A
330
429
100
AcDbEntity
  8
2
  6
Continuous
 62
     7
 48
0.0088394557130412
100
AcDbVertex
100
AcDb2dVertex
 10
2.326995975385935
 20
0.0431934805090615
 30
0.0
 40
0.0035
 41
0.0035
  0
VERTEX
  5
42B
330
429
100
AcDbEntity
  8
2
  6
Continuous
 62
     7
 48
0.0088394557130412
100
AcDbVertex
100
AcDb2dVertex
 10
2.309631873785933
 20
0.0732689868090632
 30
0.0
 40
0.0035
 41
0.0035
  0
SEQEND
  5
42C
330
429
100
AcDbEntity
  8
2
  6
Continuous
 62
     7
 48
0.0088394557130412
370
     0
  0
POLYLINE
  5
42D
330
1F
100
AcDbEntity
  8
2
  6
Continuous
 62
     7
 48
0.0088394557130412
370
     0
100
AcDb2dPolyline
 66
     1
 10
0.0
 20
0.0
 30
0.0
  0
VERTEX
  5
42E
330
42D
100
AcDbEntity
  8
2
  6
Continuous
 62
     7
 48
0.0088394557130412
100
AcDbVertex
100
AcDb2dVertex
 10
2.25407546728593
 20
0.0732689868090625
 30
0.0
 40
0.0035
 41
0.0035
  0
VERTEX
  5
42F
330
42D
100
AcDbEntity
  8
2
  6
Continuous
 62
     7
 48
0.0088394557130412
100
AcDbVertex
100
AcDb2dVertex
 10
2.24017546728593
 20
0.0732689868090625
 30
0.0
 40
0.0035
 41
0.0035
  0
SEQEND
  5
430
330
42D
100
AcDbEntity
  8
2
  6
Continuous
 62
     7
 48
0.0088394557130412
370
     0
  0
POLYLINE
  5
431
330
1F
100
AcDbEntity
  8
2
  6
Continuous
 62
     7
 48
0.0088394557130412
370
     0
100
AcDb2dPolyline
 66
     1
 10
0.0
 20
0.0
 30
0.0
  0
VERTEX
  5
432
330
431
100
AcDbEntity
  8
2
  6
Continuous
 62
     7
 48
0.0088394557130412
100
AcDbVertex
100
AcDb2dVertex
 10
2.278367772185931
 20
0.0431934805090615
 30
0.0
 40
0.0035
 41
0.0035
  0
VERTEX
  5
433
330
431
100
AcDbEntity
  8
2
  6
Continuous
 62
     7
 48
0.0088394557130412
100
AcDbVertex
100
AcDb2dVertex
 10
2.271439568985933
 20
0.0431934805090615
 30
0.0
 40
0.0035
 41
0.0035
  0
SEQEND
  5
434
330
431
100
AcDbEntity
  8
2
  6
Continuous
 62
     7
 48
0.0088394557130412
370
     0
  0
POLYLINE
  5
435
330
1F
100
AcDbEntity
  8
2
  6
Continuous
 62
     7
 48
0.0088394557130412
370
     0
100
AcDb2dPolyline
 66
     1
 10
0.0
 20
0.0
 30
0.0
  0
VERTEX
  5
436
330
435
100
AcDbEntity
  8
2
  6
Continuous
 62
     7
 48
0.0088394557130412
100
AcDbVertex
100
AcDb2dVertex
 10
2.295731873785933
 20
0.0732689868090625
 30
0.0
 40
0.0035
 41
0.0035
  0
VERTEX
  5
437
330
435
100
AcDbEntity
  8
2
  6
Continuous
 62
     7
 48
0.0088394557130412
100
AcDbVertex
100
AcDb2dVertex
 10
2.278367772185931
 20
0.0431934805090615
 30
0.0
 40
0.0035
 41
0.0035
  0
SEQEND
  5
438
330
435
100
AcDbEntity
  8
2
  6
Continuous
 62
     7
 48
0.0088394557130412
370
     0
  0
POLYLINE
  5
439
330
1F
100
AcDbEntity
  8
2
  6
Continuous
 62
     7
 48
0.0088394557130412
370
     0
100
AcDb2dPolyline
 66
     1
 10
0.0
 20
0.0
 30
0.0
  0
VERTEX
  5
43A
330
439
100
AcDbEntity
  8
2
  6
Continuous
 62
     7
 48
0.0088394557130412
100
AcDbVertex
100
AcDb2dVertex
 10
2.271439568985933
 20
0.0431934805090615
 30
0.0
 40
0.0035
 41
0.0035
  0
VERTEX
  5
43B
330
439
100
AcDbEntity
  8
2
  6
Continuous
 62
     7
 48
0.0088394557130412
100
AcDbVertex
100
AcDb2dVertex
 10
2.25407546728593
 20
0.0732689868090625
 30
0.0
 40
0.0035
 41
0.0035
  0
SEQEND
  5
43C
330
439
100
AcDbEntity
  8
2
  6
Continuous
 62
     7
 48
0.0088394557130412
370
     0
  0
POLYLINE
  5
43D
330
1F
100
AcDbEntity
  8
2
  6
Continuous
 62
     7
 48
0.0088394557130412
370
     0
100
AcDb2dPolyline
 66
     1
 10
0.0
 20
0.0
 30
0.0
  0
VERTEX
  5
43E
330
43D
100
AcDbEntity
  8
2
  6
Continuous
 62
     7
 48
0.0088394557130412
100
AcDbVertex
100
AcDb2dVertex
 10
2.198519060885929
 20
0.0732689868090625
 30
0.0
 40
0.0035
 41
0.0035
  0
VERTEX
  5
43F
330
43D
100
AcDbEntity
  8
2
  6
Continuous
 62
     7
 48
0.0088394557130412
100
AcDbVertex
100
AcDb2dVertex
 10
2.184619060885929
 20
0.0732689868090625
 30
0.0
 40
0.0035
 41
0.0035
  0
SEQEND
  5
440
330
43D
100
AcDbEntity
  8
2
  6
Continuous
 62
     7
 48
0.0088394557130412
370
     0
  0
POLYLINE
  5
441
330
1F
100
AcDbEntity
  8
2
  6
Continuous
 62
     7
 48
0.0088394557130412
370
     0
100
AcDb2dPolyline
 66
     1
 10
0.0
 20
0.0
 30
0.0
  0
VERTEX
  5
442
330
441
100
AcDbEntity
  8
2
  6
Continuous
 62
     7
 48
0.0088394557130412
100
AcDbVertex
100
AcDb2dVertex
 10
2.222811365685928
 20
0.0431934805090615
 30
0.0
 40
0.0035
 41
0.0035
  0
VERTEX
  5
443
330
441
100
AcDbEntity
  8
2
  6
Continuous
 62
     7
 48
0.0088394557130412
100
AcDbVertex
100
AcDb2dVertex
 10
2.215883162485931
 20
0.0431934805090615
 30
0.0
 40
0.0035
 41
0.0035
  0
SEQEND
  5
444
330
441
100
AcDbEntity
  8
2
  6
Continuous
 62
     7
 48
0.0088394557130412
370
     0
  0
POLYLINE
  5
445
330
1F
100
AcDbEntity
  8
2
  6
Continuous
 62
     7
 48
0.0088394557130412
370
     0
100
AcDb2dPolyline
 66
     1
 10
0.0
 20
0.0
 30
0.0
  0
VERTEX
  5
446
330
445
100
AcDbEntity
  8
2
  6
Continuous
 62
     7
 48
0.0088394557130412
100
AcDbVertex
100
AcDb2dVertex
 10
2.24017546728593
 20
0.0732689868090625
 30
0.0
 40
0.0035
 41
0.0035
  0
VERTEX
  5
447
330
445
100
AcDbEntity
  8
2
  6
Continuous
 62
     7
 48
0.0088394557130412
100
AcDbVertex
100
AcDb2dVertex
 10
2.222811365685928
 20
0.0431934805090615
 30
0.0
 40
0.0035
 41
0.0035
  0
SEQEND
  5
448
330
445
100
AcDbEntity
  8
2
  6
Continuous
 62
     7
 48
0.0088394557130412
370
     0
  0
POLYLINE
  5
449
330
1F
100
AcDbEntity
  8
2
  6
Continuous
 62
     7
 48
0.0088394557130412
370
     0
100
AcDb2dPolyline
 66
     1
 10
0.0
 20
0.0
 30
0.0
  0
VERTEX
  5
44A
330
449
100
AcDbEntity
  8
2
  6
Continuous
 62
     7
 48
0.0088394557130412
100
AcDbVertex
100
AcDb2dVertex
 10
2.215883162485931
 20
0.0431934805090615
 30
0.0
 40
0.0035
 41
0.0035
  0
VERTEX
  5
44B
330
449
100
AcDbEntity
  8
2
  6
Continuous
 62
     7
 48
0.0088394557130412
100
AcDbVertex
100
AcDb2dVertex
 10
2.198519060885929
 20
0.0732689868090625
 30
0.0
 40
0.0035
 41
0.0035
  0
SEQEND
  5
44C
330
449
100
AcDbEntity
  8
2
  6
Continuous
 62
     7
 48
0.0088394557130412
370
     0
  0
POLYLINE
  5
44D
330
1F
100
AcDbEntity
  8
2
  6
Continuous
 62
     7
 48
0.0088394557130412
370
     0
100
AcDb2dPolyline
 66
     1
 10
0.0
 20
0.0
 30
0.0
  0
VERTEX
  5
44E
330
44D
100
AcDbEntity
  8
2
  6
Continuous
 62
     7
 48
0.0088394557130412
100
AcDbVertex
100
AcDb2dVertex
 10
2.167254959285934
 20
0.0431934805090615
 30
0.0
 40
0.0035
 41
0.0035
  0
VERTEX
  5
44F
330
44D
100
AcDbEntity
  8
2
  6
Continuous
 62
     7
 48
0.0088394557130412
100
AcDbVertex
100
AcDb2dVertex
 10
2.160326755985928
 20
0.0431934805090615
 30
0.0
 40
0.0035
 41
0.0035
  0
SEQEND
  5
450
330
44D
100
AcDbEntity
  8
2
  6
Continuous
 62
     7
 48
0.0088394557130412
370
     0
  0
POLYLINE
  5
451
330
1F
100
AcDbEntity
  8
2
  6
Continuous
 62
     7
 48
0.0088394557130412
370
     0
100
AcDb2dPolyline
 66
     1
 10
0.0
 20
0.0
 30
0.0
  0
VERTEX
  5
452
330
451
100
AcDbEntity
  8
2
  6
Continuous
 62
     7
 48
0.0088394557130412
100
AcDbVertex
100
AcDb2dVertex
 10
2.184619060885929
 20
0.0732689868090625
 30
0.0
 40
0.0035
 41
0.0035
  0
VERTEX
  5
453
330
451
100
AcDbEntity
  8
2
  6
Continuous
 62
     7
 48
0.0088394557130412
100
AcDbVertex
100
AcDb2dVertex
 10
2.167254959285934
 20
0.0431934805090615
 30
0.0
 40
0.0035
 41
0.0035
  0
SEQEND
  5
454
330
451
100
AcDbEntity
  8
2
  6
Continuous
 62
     7
 48
0.0088394557130412
370
     0
  0
POLYLINE
  5
455
330
1F
100
AcDbEntity
  8
2
  6
Continuous
 62
     7
 48
0.0088394557130412
370
     0
100
AcDb2dPolyline
 66
     1
 10
0.0
 20
0.0
 30
0.0
  0
VERTEX
  5
456
330
455
100
AcDbEntity
  8
2
  6
Continuous
 62
     7
 48
0.0088394557130412
100
AcDbVertex
100
AcDb2dVertex
 10
2.337410076985933
 20
0.5792689868090667
 30
0.0
 40
0.0035
 41
0.0035
  0
VERTEX
  5
457
330
455
100
AcDbEntity
  8
2
  6
Continuous
 62
     7
 48
0.0088394557130412
100
AcDbVertex
100
AcDb2dVertex
 10
2.323510076985933
 20
0.5792689868090667
 30
0.0
 40
0.0035
 41
0.0035
  0
SEQEND
  5
458
330
455
100
AcDbEntity
  8
2
  6
Continuous
 62
     7
 48
0.0088394557130412
370
     0
  0
POLYLINE
  5
459
330
1F
100
AcDbEntity
  8
2
  6
Continuous
 62
     7
 48
0.0088394557130412
370
     0
100
AcDb2dPolyline
 66
     1
 10
0.0
 20
0.0
 30
0.0
  0
VERTEX
  5
45A
330
459
100
AcDbEntity
  8
2
  6
Continuous
 62
     7
 48
0.0088394557130412
100
AcDbVertex
100
AcDb2dVertex
 10
2.361702381885934
 20
0.6093444930090586
 30
0.0
 40
0.0035
 41
0.0035
  0
VERTEX
  5
45B
330
459
100
AcDbEntity
  8
2
  6
Continuous
 62
     7
 48
0.0088394557130412
100
AcDbVertex
100
AcDb2dVertex
 10
2.354774178585935
 20
0.6093444930090586
 30
0.0
 40
0.0035
 41
0.0035
  0
SEQEND
  5
45C
330
459
100
AcDbEntity
  8
2
  6
Continuous
 62
     7
 48
0.0088394557130412
370
     0
  0
POLYLINE
  5
45D
330
1F
100
AcDbEntity
  8
2
  6
Continuous
 62
     7
 48
0.0088394557130412
370
     0
100
AcDb2dPolyline
 66
     1
 10
0.0
 20
0.0
 30
0.0
  0
VERTEX
  5
45E
330
45D
100
AcDbEntity
  8
2
  6
Continuous
 62
     7
 48
0.0088394557130412
100
AcDbVertex
100
AcDb2dVertex
 10
2.354774178585935
 20
0.6093444930090586
 30
0.0
 40
0.0035
 41
0.0035
  0
VERTEX
  5
45F
330
45D
100
AcDbEntity
  8
2
  6
Continuous
 62
     7
 48
0.0088394557130412
100
AcDbVertex
100
AcDb2dVertex
 10
2.337410076985933
 20
0.5792689868090667
 30
0.0
 40
0.0035
 41
0.0035
  0
SEQEND
  5
460
330
45D
100
AcDbEntity
  8
2
  6
Continuous
 62
     7
 48
0.0088394557130412
370
     0
  0
POLYLINE
  5
461
330
1F
100
AcDbEntity
  8
2
  6
Continuous
 62
     7
 48
0.0088394557130412
370
     0
100
AcDb2dPolyline
 66
     1
 10
0.0
 20
0.0
 30
0.0
  0
VERTEX
  5
462
330
461
100
AcDbEntity
  8
2
  6
Continuous
 62
     7
 48
0.0088394557130412
100
AcDbVertex
100
AcDb2dVertex
 10
2.281853670585932
 20
0.5792689868090667
 30
0.0
 40
0.0035
 41
0.0035
  0
VERTEX
  5
463
330
461
100
AcDbEntity
  8
2
  6
Continuous
 62
     7
 48
0.0088394557130412
100
AcDbVertex
100
AcDb2dVertex
 10
2.267953670585932
 20
0.5792689868090667
 30
0.0
 40
0.0035
 41
0.0035
  0
SEQEND
  5
464
330
461
100
AcDbEntity
  8
2
  6
Continuous
 62
     7
 48
0.0088394557130412
370
     0
  0
POLYLINE
  5
465
330
1F
100
AcDbEntity
  8
2
  6
Continuous
 62
     7
 48
0.0088394557130412
370
     0
100
AcDb2dPolyline
 66
     1
 10
0.0
 20
0.0
 30
0.0
  0
VERTEX
  5
466
330
465
100
AcDbEntity
  8
2
  6
Continuous
 62
     7
 48
0.0088394557130412
100
AcDbVertex
100
AcDb2dVertex
 10
2.306145975385931
 20
0.6093444930090586
 30
0.0
 40
0.0035
 41
0.0035
  0
VERTEX
  5
467
330
465
100
AcDbEntity
  8
2
  6
Continuous
 62
     7
 48
0.0088394557130412
100
AcDbVertex
100
AcDb2dVertex
 10
2.299217772185934
 20
0.6093444930090586
 30
0.0
 40
0.0035
 41
0.0035
  0
SEQEND
  5
468
330
465
100
AcDbEntity
  8
2
  6
Continuous
 62
     7
 48
0.0088394557130412
370
     0
  0
POLYLINE
  5
469
330
1F
100
AcDbEntity
  8
2
  6
Continuous
 62
     7
 48
0.0088394557130412
370
     0
100
AcDb2dPolyline
 66
     1
 10
0.0
 20
0.0
 30
0.0
  0
VERTEX
  5
46A
330
469
100
AcDbEntity
  8
2
  6
Continuous
 62
     7
 48
0.0088394557130412
100
AcDbVertex
100
AcDb2dVertex
 10
2.323510076985933
 20
0.5792689868090667
 30
0.0
 40
0.0035
 41
0.0035
  0
VERTEX
  5
46B
330
469
100
AcDbEntity
  8
2
  6
Continuous
 62
     7
 48
0.0088394557130412
100
AcDbVertex
100
AcDb2dVertex
 10
2.306145975385931
 20
0.6093444930090586
 30
0.0
 40
0.0035
 41
0.0035
  0
SEQEND
  5
46C
330
469
100
AcDbEntity
  8
2
  6
Continuous
 62
     7
 48
0.0088394557130412
370
     0
  0
POLYLINE
  5
46D
330
1F
100
AcDbEntity
  8
2
  6
Continuous
 62
     7
 48
0.0088394557130412
370
     0
100
AcDb2dPolyline
 66
     1
 10
0.0
 20
0.0
 30
0.0
  0
VERTEX
  5
46E
330
46D
100
AcDbEntity
  8
2
  6
Continuous
 62
     7
 48
0.0088394557130412
100
AcDbVertex
100
AcDb2dVertex
 10
2.299217772185934
 20
0.6093444930090586
 30
0.0
 40
0.0035
 41
0.0035
  0
VERTEX
  5
46F
330
46D
100
AcDbEntity
  8
2
  6
Continuous
 62
     7
 48
0.0088394557130412
100
AcDbVertex
100
AcDb2dVertex
 10
2.281853670585932
 20
0.5792689868090667
 30
0.0
 40
0.0035
 41
0.0035
  0
SEQEND
  5
470
330
46D
100
AcDbEntity
  8
2
  6
Continuous
 62
     7
 48
0.0088394557130412
370
     0
  0
POLYLINE
  5
471
330
1F
100
AcDbEntity
  8
2
  6
Continuous
 62
     7
 48
0.0088394557130412
370
     0
100
AcDb2dPolyline
 66
     1
 10
0.0
 20
0.0
 30
0.0
  0
VERTEX
  5
472
330
471
100
AcDbEntity
  8
2
  6
Continuous
 62
     7
 48
0.0088394557130412
100
AcDbVertex
100
AcDb2dVertex
 10
2.226297264085929
 20
0.5792689868090667
 30
0.0
 40
0.0035
 41
0.0035
  0
VERTEX
  5
473
330
471
100
AcDbEntity
  8
2
  6
Continuous
 62
     7
 48
0.0088394557130412
100
AcDbVertex
100
AcDb2dVertex
 10
2.21239726408593
 20
0.5792689868090667
 30
0.0
 40
0.0035
 41
0.0035
  0
SEQEND
  5
474
330
471
100
AcDbEntity
  8
2
  6
Continuous
 62
     7
 48
0.0088394557130412
370
     0
  0
POLYLINE
  5
475
330
1F
100
AcDbEntity
  8
2
  6
Continuous
 62
     7
 48
0.0088394557130412
370
     0
100
AcDb2dPolyline
 66
     1
 10
0.0
 20
0.0
 30
0.0
  0
VERTEX
  5
476
330
475
100
AcDbEntity
  8
2
  6
Continuous
 62
     7
 48
0.0088394557130412
100
AcDbVertex
100
AcDb2dVertex
 10
2.250589568985931
 20
0.6093444930090586
 30
0.0
 40
0.0035
 41
0.0035
  0
VERTEX
  5
477
330
475
100
AcDbEntity
  8
2
  6
Continuous
 62
     7
 48
0.0088394557130412
100
AcDbVertex
100
AcDb2dVertex
 10
2.243661365685931
 20
0.6093444930090586
 30
0.0
 40
0.0035
 41
0.0035
  0
SEQEND
  5
478
330
475
100
AcDbEntity
  8
2
  6
Continuous
 62
     7
 48
0.0088394557130412
370
     0
  0
POLYLINE
  5
479
330
1F
100
AcDbEntity
  8
2
  6
Continuous
 62
     7
 48
0.0088394557130412
370
     0
100
AcDb2dPolyline
 66
     1
 10
0.0
 20
0.0
 30
0.0
  0
VERTEX
  5
47A
330
479
100
AcDbEntity
  8
2
  6
Continuous
 62
     7
 48
0.0088394557130412
100
AcDbVertex
100
AcDb2dVertex
 10
2.267953670585932
 20
0.5792689868090667
 30
0.0
 40
0.0035
 41
0.0035
  0
VERTEX
  5
47B
330
479
100
AcDbEntity
  8
2
  6
Continuous
 62
     7
 48
0.0088394557130412
100
AcDbVertex
100
AcDb2dVertex
 10
2.250589568985931
 20
0.6093444930090586
 30
0.0
 40
0.0035
 41
0.0035
  0
SEQEND
  5
47C
330
479
100
AcDbEntity
  8
2
  6
Continuous
 62
     7
 48
0.0088394557130412
370
     0
  0
POLYLINE
  5
47D
330
1F
100
AcDbEntity
  8
2
  6
Continuous
 62
     7
 48
0.0088394557130412
370
     0
100
AcDb2dPolyline
 66
     1
 10
0.0
 20
0.0
 30
0.0
  0
VERTEX
  5
47E
330
47D
100
AcDbEntity
  8
2
  6
Continuous
 62
     7
 48
0.0088394557130412
100
AcDbVertex
100
AcDb2dVertex
 10
2.243661365685931
 20
0.6093444930090586
 30
0.0
 40
0.0035
 41
0.0035
  0
VERTEX
  5
47F
330
47D
100
AcDbEntity
  8
2
  6
Continuous
 62
     7
 48
0.0088394557130412
100
AcDbVertex
100
AcDb2dVertex
 10
2.226297264085929
 20
0.5792689868090667
 30
0.0
 40
0.0035
 41
0.0035
  0
SEQEND
  5
480
330
47D
100
AcDbEntity
  8
2
  6
Continuous
 62
     7
 48
0.0088394557130412
370
     0
  0
POLYLINE
  5
481
330
1F
100
AcDbEntity
  8
2
  6
Continuous
 62
     7
 48
0.0088394557130412
370
     0
100
AcDb2dPolyline
 66
     1
 10
0.0
 20
0.0
 30
0.0
  0
VERTEX
  5
482
330
481
100
AcDbEntity
  8
2
  6
Continuous
 62
     7
 48
0.0088394557130412
100
AcDbVertex
100
AcDb2dVertex
 10
2.195033162485935
 20
0.6093444930090586
 30
0.0
 40
0.0035
 41
0.0035
  0
VERTEX
  5
483
330
481
100
AcDbEntity
  8
2
  6
Continuous
 62
     7
 48
0.0088394557130412
100
AcDbVertex
100
AcDb2dVertex
 10
2.18810495928593
 20
0.6093444930090586
 30
0.0
 40
0.0035
 41
0.0035
  0
SEQEND
  5
484
330
481
100
AcDbEntity
  8
2
  6
Continuous
 62
     7
 48
0.0088394557130412
370
     0
  0
POLYLINE
  5
485
330
1F
100
AcDbEntity
  8
2
  6
Continuous
 62
     7
 48
0.0088394557130412
370
     0
100
AcDb2dPolyline
 66
     1
 10
0.0
 20
0.0
 30
0.0
  0
VERTEX
  5
486
330
485
100
AcDbEntity
  8
2
  6
Continuous
 62
     7
 48
0.0088394557130412
100
AcDbVertex
100
AcDb2dVertex
 10
2.21239726408593
 20
0.5792689868090667
 30
0.0
 40
0.0035
 41
0.0035
  0
VERTEX
  5
487
330
485
100
AcDbEntity
  8
2
  6
Continuous
 62
     7
 48
0.0088394557130412
100
AcDbVertex
100
AcDb2dVertex
 10
2.195033162485935
 20
0.6093444930090586
 30
0.0
 40
0.0035
 41
0.0035
  0
SEQEND
  5
488
330
485
100
AcDbEntity
  8
2
  6
Continuous
 62
     7
 48
0.0088394557130412
370
     0
  0
POLYLINE
  5
489
330
1F
100
AcDbEntity
  8
2
  6
Continuous
 62
     7
 48
0.0088394557130412
370
     0
100
AcDb2dPolyline
 66
     1
 10
0.0
 20
0.0
 30
0.0
  0
VERTEX
  5
48A
330
489
100
AcDbEntity
  8
2
  6
Continuous
 62
     7
 48
0.0088394557130412
100
AcDbVertex
100
AcDb2dVertex
 10
2.142106247988954
 20
0.0312689868083783
 30
0.0
 40
0.0035
 41
0.0035
  0
VERTEX
  5
48B
330
489
100
AcDbEntity
  8
2
  6
Continuous
 62
     7
 48
0.0088394557130412
100
AcDbVertex
100
AcDb2dVertex
 10
2.158022254815803
 20
0.0471849936352275
 30
0.0
 40
0.0035
 41
0.0035
  0
SEQEND
  5
48C
330
489
100
AcDbEntity
  8
2
  6
Continuous
 62
     7
 48
0.0088394557130412
370
     0
  0
POLYLINE
  5
48D
330
1F
100
AcDbEntity
  8
2
  6
Continuous
 62
     7
 48
0.0088394557130412
370
     0
100
AcDb2dPolyline
 66
     1
 10
0.0
 20
0.0
 30
0.0
  0
VERTEX
  5
48E
330
48D
100
AcDbEntity
  8
2
  6
Continuous
 62
     7
 48
0.0088394557130412
100
AcDbVertex
100
AcDb2dVertex
 10
2.160326755985928
 20
0.0431934805090615
 30
0.0
 40
0.0035
 41
0.0035
  0
VERTEX
  5
48F
330
48D
100
AcDbEntity
  8
2
  6
Continuous
 62
     7
 48
0.0088394557130412
100
AcDbVertex
100
AcDb2dVertex
 10
2.158022254815803
 20
0.0471849936352275
 30
0.0
 40
0.0035
 41
0.0035
  0
SEQEND
  5
490
330
48D
100
AcDbEntity
  8
2
  6
Continuous
 62
     7
 48
0.0088394557130412
370
     0
  0
POLYLINE
  5
491
330
1F
100
AcDbEntity
  8
2
  6
Continuous
 62
     7
 48
0.0088394557130412
370
     0
100
AcDb2dPolyline
 66
     1
 10
0.0
 20
0.0
 30
0.0
  0
VERTEX
  5
492
330
491
100
AcDbEntity
  8
2
  6
Continuous
 62
     7
 48
0.0088394557130412
100
AcDbVertex
100
AcDb2dVertex
 10
2.175632930068478
 20
0.5877423047302295
 30
0.0
 40
0.0035
 41
0.0035
  0
VERTEX
  5
493
330
491
100
AcDbEntity
  8
2
  6
Continuous
 62
     7
 48
0.0088394557130412
100
AcDbVertex
100
AcDb2dVertex
 10
2.142106247988954
 20
0.6212689868097532
 30
0.0
 40
0.0035
 41
0.0035
  0
SEQEND
  5
494
330
491
100
AcDbEntity
  8
2
  6
Continuous
 62
     7
 48
0.0088394557130412
370
     0
  0
POLYLINE
  5
495
330
1F
100
AcDbEntity
  8
2
  6
Continuous
 62
     7
 48
0.0088394557130412
370
     0
100
AcDb2dPolyline
 66
     1
 10
0.0
 20
0.0
 30
0.0
  0
VERTEX
  5
496
330
495
100
AcDbEntity
  8
2
  6
Continuous
 62
     7
 48
0.0088394557130412
100
AcDbVertex
100
AcDb2dVertex
 10
2.18810495928593
 20
0.6093444930090586
 30
0.0
 40
0.0035
 41
0.0035
  0
VERTEX
  5
497
330
495
100
AcDbEntity
  8
2
  6
Continuous
 62
     7
 48
0.0088394557130412
100
AcDbVertex
100
AcDb2dVertex
 10
2.175632930068478
 20
0.5877423047302295
 30
0.0
 40
0.0035
 41
0.0035
  0
SEQEND
  5
498
330
495
100
AcDbEntity
  8
2
  6
Continuous
 62
     7
 48
0.0088394557130412
370
     0
  0
POLYLINE
  5
499
330
1F
100
AcDbEntity
  8
1
  6
Continuous
 62
     7
 48
0.0088394557130412
370
     0
100
AcDb2dPolyline
 66
     1
 10
0.0
 20
0.0
 30
0.0
  0
VERTEX
  5
49A
330
499
100
AcDbEntity
  8
1
  6
Continuous
 62
     7
 48
0.0088394557130412
100
AcDbVertex
100
AcDb2dVertex
 10
2.413406247989586
 20
0.6253444929657588
 30
0.0
 40
0.0035
 41
0.0035
  0
VERTEX
  5
49B
330
499
100
AcDbEntity
  8
1
  6
Continuous
 62
     7
 48
0.0088394557130412
100
AcDbVertex
100
AcDb2dVertex
 10
2.374770903908759
 20
0.5867091488849312
 30
0.0
 40
0.0035
 41
0.0035
  0
SEQEND
  5
49C
330
499
100
AcDbEntity
  8
1
  6
Continuous
 62
     7
 48
0.0088394557130412
370
     0
  0
POLYLINE
  5
49D
330
1F
100
AcDbEntity
  8
2
  6
Continuous
 62
     7
 48
0.0088394557130412
370
     0
100
AcDb2dPolyline
 66
     1
 10
0.0
 20
0.0
 30
0.0
  0
VERTEX
  5
49E
330
49D
100
AcDbEntity
  8
2
  6
Continuous
 62
     7
 48
0.0088394557130412
100
AcDbVertex
100
AcDb2dVertex
 10
2.374770903908759
 20
0.5867091488849312
 30
0.0
 40
0.0035
 41
0.0035
  0
VERTEX
  5
49F
330
49D
100
AcDbEntity
  8
2
  6
Continuous
 62
     7
 48
0.0088394557130412
100
AcDbVertex
100
AcDb2dVertex
 10
2.361702381885934
 20
0.6093444930090586
 30
0.0
 40
0.0035
 41
0.0035
  0
SEQEND
  5
4A0
330
49D
100
AcDbEntity
  8
2
  6
Continuous
 62
     7
 48
0.0088394557130412
370
     0
  0
POLYLINE
  5
4A1
330
1F
100
AcDbEntity
  8
2
  6
Continuous
 62
     7
 48
0.0088394557130412
370
     0
100
AcDb2dPolyline
 66
     1
 10
0.0
 20
0.0
 30
0.0
  0
VERTEX
  5
4A2
330
4A1
100
AcDbEntity
  8
2
  6
Continuous
 62
     7
 48
0.0088394557130412
100
AcDbVertex
100
AcDb2dVertex
 10
2.413406247989586
 20
0.027193480652372
 30
0.0
 40
0.0035
 41
0.0035
  0
VERTEX
  5
4A3
330
4A1
100
AcDbEntity
  8
2
  6
Continuous
 62
     7
 48
0.0088394557130412
100
AcDbVertex
100
AcDb2dVertex
 10
2.413406247989586
 20
-0.0037310131917032
 30
0.0
 40
0.0035
 41
0.0035
  0
SEQEND
  5
4A4
330
4A1
100
AcDbEntity
  8
2
  6
Continuous
 62
     7
 48
0.0088394557130412
370
     0
  0
POLYLINE
  5
4A5
330
1F
100
AcDbEntity
  8
2
  6
Continuous
 62
     7
 48
0.0088394557130412
370
     0
100
AcDb2dPolyline
 66
     1
 10
0.0
 20
0.0
 30
0.0
  0
VERTEX
  5
4A6
330
4A5
100
AcDbEntity
  8
2
  6
Continuous
 62
     7
 48
0.0088394557130412
100
AcDbVertex
100
AcDb2dVertex
 10
2.392381579096781
 20
0.0482181495451777
 30
0.0
 40
0.0035
 41
0.0035
  0
VERTEX
  5
4A7
330
4A5
100
AcDbEntity
  8
2
  6
Continuous
 62
     7
 48
0.0088394557130412
100
AcDbVertex
100
AcDb2dVertex
 10
2.389480585085935
 20
0.0431934805090615
 30
0.0
 40
0.0035
 41
0.0035
  0
SEQEND
  5
4A8
330
4A5
100
AcDbEntity
  8
2
  6
Continuous
 62
     7
 48
0.0088394557130412
370
     0
  0
POLYLINE
  5
4A9
330
1F
100
AcDbEntity
  8
1
  6
Continuous
 62
     7
 48
0.0088394557130412
370
     0
100
AcDb2dPolyline
 66
     1
 10
0.0
 20
0.0
 30
0.0
  0
VERTEX
  5
4AA
330
4A9
100
AcDbEntity
  8
1
  6
Continuous
 62
     7
 48
0.0088394557130412
100
AcDbVertex
100
AcDb2dVertex
 10
2.413406247989586
 20
0.027193480652372
 30
0.0
 40
0.0035
 41
0.0035
  0
VERTEX
  5
4AB
330
4A9
100
AcDbEntity
  8
1
  6
Continuous
 62
     7
 48
0.0088394557130412
100
AcDbVertex
100
AcDb2dVertex
 10
2.392381579096781
 20
0.0482181495451777
 30
0.0
 40
0.0035
 41
0.0035
  0
SEQEND
  5
4AC
330
4A9
100
AcDbEntity
  8
1
  6
Continuous
 62
     7
 48
0.0088394557130412
370
     0
  0
POLYLINE
  5
4AD
330
1F
100
AcDbEntity
  8
1
  6
Continuous
 62
     7
 48
0.0088394557130412
370
     0
100
AcDb2dPolyline
 66
     1
 10
0.0
 20
0.0
 30
0.0
  0
VERTEX
  5
4AE
330
4AD
100
AcDbEntity
  8
1
  6
Continuous
 62
     7
100
AcDbVertex
100
AcDb2dVertex
 10
2.127106247988721
 20
0.5862689868097539
 30
0.0
 40
0.0035
 41
0.0035
 42
0.9999999999999999
  0
VERTEX
  5
4AF
330
4AD
100
AcDbEntity
  8
1
  6
Continuous
 62
     7
100
AcDbVertex
100
AcDb2dVertex
 10
2.057106247988722
 20
0.5862689868097539
 30
0.0
 40
0.0035
 41
0.0035
 42
0.9999999999999999
  0
VERTEX
  5
4B0
330
4AD
100
AcDbEntity
  8
1
  6
Continuous
 62
     7
100
AcDbVertex
100
AcDb2dVertex
 10
2.127106247988721
 20
0.5862689868097539
 30
0.0
 40
0.0035
 41
0.0035
  0
SEQEND
  5
4B1
330
4AD
100
AcDbEntity
  8
1
  6
Continuous
 62
     7
 48
0.0088394557130412
370
     0
  0
POLYLINE
  5
4B2
330
1F
100
AcDbEntity
  8
1
  6
Continuous
 62
     7
 48
0.0088394557130412
370
     0
100
AcDb2dPolyline
 66
     1
 10
0.0
 20
0.0
 30
0.0
  0
VERTEX
  5
4B3
330
4B2
100
AcDbEntity
  8
1
  6
Continuous
 62
     7
100
AcDbVertex
100
AcDb2dVertex
 10
2.127106247988721
 20
0.0662689868083783
 30
0.0
 40
0.0035
 41
0.0035
 42
0.9999999999999999
  0
VERTEX
  5
4B4
330
4B2
100
AcDbEntity
  8
1
  6
Continuous
 62
     7
100
AcDbVertex
100
AcDb2dVertex
 10
2.057106247988722
 20
0.0662689868083783
 30
0.0
 40
0.0035
 41
0.0035
 42
0.9999999999999999
  0
VERTEX
  5
4B5
330
4B2
100
AcDbEntity
  8
1
  6
Continuous
 62
     7
100
AcDbVertex
100
AcDb2dVertex
 10
2.127106247988721
 20
0.0662689868083783
 30
0.0
 40
0.0035
 41
0.0035
  0
SEQEND
  5
4B6
330
4B2
100
AcDbEntity
  8
1
  6
Continuous
 62
     7
 48
0.0088394557130412
370
     0
  0
POLYLINE
  5
4B7
330
1F
100
AcDbEntity
  8
1
  6
Continuous
 62
     7
 48
0.0088394557130412
370
     0
100
AcDb2dPolyline
 66
     1
 10
0.0
 20
0.0
 30
0.0
  0
VERTEX
  5
4B8
330
4B7
100
AcDbEntity
  8
1
  6
Continuous
 62
     7
 48
0.0088394557130412
100
AcDbVertex
100
AcDb2dVertex
 10
1.923999258864229
 20
0.1772689868087186
 30
0.0
 40
0.0035
 41
0.0035
  0
VERTEX
  5
4B9
330
4B7
100
AcDbEntity
  8
1
  6
Continuous
 62
     7
 48
0.0088394557130412
100
AcDbVertex
100
AcDb2dVertex
 10
2.042106247988721
 20
0.0882689868085112
 30
0.0
 40
0.0035
 41
0.0035
  0
SEQEND
  5
4BA
330
4B7
100
AcDbEntity
  8
1
  6
Continuous
 62
     7
 48
0.0088394557130412
370
     0
  0
HATCH
  5
4BB
330
1F
100
AcDbEntity
  8
1
  6
Continuous
 62
     7
 48
0.0000212248202832
370
     0
100
AcDbHatch
 10
0.0
 20
0.0
 30
0.0
210
0.0
220
0.0
230
1.0
  2
SOLID
 70
     1
 71
     0
 91
        1
 92
        3
 72
     0
 73
     1
 93
       32
 10
2.12120768441931
 20
0.60571394496544
 10
2.124442031626616
 20
0.5996629069425322
 10
2.126433732802834
 20
0.5930971480803187
 10
2.127106247988721
 20
0.5862689868097539
 10
2.126433732802834
 20
0.5794408255391899
 10
2.124442031626616
 20
0.572875066676976
 10
2.12120768441931
 20
0.5668240286540682
 10
2.11685498533025
 20
0.561520249468225
 10
2.111551206144407
 20
0.5571675503791651
 10
2.1055001681215
 20
0.5539332031718589
 10
2.098934409259285
 20
0.5519415019956411
 10
2.092106247988721
 20
0.5512689868097541
 10
2.085278086718157
 20
0.5519415019956411
 10
2.078712327855943
 20
0.5539332031718589
 10
2.072661289833035
 20
0.5571675503791651
 10
2.067357510647192
 20
0.561520249468225
 10
2.063004811558133
 20
0.5668240286540679
 10
2.059770464350826
 20
0.572875066676976
 10
2.057778763174608
 20
0.5794408255391895
 10
2.057106247988721
 20
0.5862689868097539
 10
2.057778763174608
 20
0.5930971480803183
 10
2.059770464350826
 20
0.5996629069425322
 10
2.063004811558133
 20
0.60571394496544
 10
2.067357510647192
 20
0.6110177241512832
 10
2.072661289833035
 20
0.6153704232403431
 10
2.078712327855943
 20
0.6186047704476489
 10
2.085278086718157
 20
0.6205964716238671
 10
2.092106254578399
 20
0.6212689868097532
 10
2.098934409259285
 20
0.6205964716238671
 10
2.105500168121499
 20
0.6186047704476489
 10
2.111551206144407
 20
0.6153704232403431
 10
2.11685498533025
 20
0.6110177241512832
 97
        0
 75
     0
 76
     1
 98
        1
 10
0.0
 20
0.0
  0
HATCH
  5
4BC
330
1F
100
AcDbEntity
  8
1
  6
Continuous
 62
     7
 48
0.0000212248202832
370
     0
100
AcDbHatch
 10
0.0
 20
0.0
 30
0.0
210
0.0
220
0.0
230
1.0
  2
SOLID
 70
     1
 71
     0
 91
        1
 92
        3
 72
     0
 73
     1
 93
       32
 10
2.12120768441931
 20
0.0857139449640643
 10
2.124442031626616
 20
0.0796629069411564
 10
2.126433732802834
 20
0.0730971480789427
 10
2.127106247988721
 20
0.0662689868083783
 10
2.126433732802834
 20
0.0594408255378139
 10
2.124442031626616
 20
0.0528750666756003
 10
2.12120768441931
 20
0.0468240286526925
 10
2.11685498533025
 20
0.0415202494668493
 10
2.111551206144407
 20
0.0371675503777893
 10
2.1055001681215
 20
0.0339332031704835
 10
2.098934409259285
 20
0.0319415019942655
 10
2.092106247988721
 20
0.0312689868083785
 10
2.085278086718157
 20
0.0319415019942653
 10
2.078712327855943
 20
0.0339332031704833
 10
2.072661289833035
 20
0.0371675503777893
 10
2.067357510647192
 20
0.0415202494668492
 10
2.063004811558133
 20
0.0468240286526923
 10
2.059770464350826
 20
0.0528750666756002
 10
2.057778763174608
 20
0.0594408255378137
 10
2.057106247988721
 20
0.0662689868083783
 10
2.057778763174608
 20
0.0730971480789427
 10
2.059770464350826
 20
0.0796629069411564
 10
2.063004811558133
 20
0.0857139449640643
 10
2.067357510647192
 20
0.0910177241499073
 10
2.072661289833035
 20
0.0953704232389673
 10
2.078712327855943
 20
0.0986047704462731
 10
2.085278086718157
 20
0.1005964716224912
 10
2.092106247988721
 20
0.1012689868083782
 10
2.098934409259285
 20
0.1005964716224912
 10
2.105500168121499
 20
0.0986047704462731
 10
2.111551206144407
 20
0.0953704232389673
 10
2.11685498533025
 20
0.0910177241499073
 97
        0
 75
     0
 76
     1
 98
        1
 10
0.0
 20
0.0
  0
DIMENSION
  5
4BD
330
1F
100
AcDbEntity
  8
1
  6
Continuous
 62
     7
 48
0.0000424496405664
370
     0
100
AcDbDimension
  2
*D2
 10
2.413406247989586
 20
0.8032689868099668
 30
0.0
 11
2.010406247988648
 21
0.8335839868099668
 31
0.0
 70
    32
 71
     5
 42
0.8060000000018779
  3
Standard
100
AcDbAlignedDimension
 13
1.607406247987708
 23
0.5633865926713331
 33
0.0
 14
2.413406247989586
 24
0.6562689868098343
 34
0.0
100
AcDbRotatedDimension
1001
ACAD
1000
DSTYLE
1002
{
1070
   172
1070
     1
1070
    77
1070
     1
1070
   280
1070
     0
1070
   279
1070
     0
1070
    74
1070
     0
1070
    73
1070
     0
1070
   174
1070
     0
1070
   147
1040
0.015
1070
    42
1040
0.03
1070
   290
1070
     0
1070
   340
1005
4BE
1070
    78
1070
     0
1070
   272
1070
     3
1070
    71
1070
     0
1070
   146
1040
1.0
1070
   140
1040
0.03
1070
   271
1070
     3
1070
    41
1040
0.03
1070
   342
1005
0
1070
   173
1070
     0
1070
   277
1070
     2
1070
    44
1040
0.015
1002
}
  0
DIMENSION
  5
4CC
330
1F
100
AcDbEntity
  8
1
  6
Continuous
 62
     7
 48
0.0000424496405664
370
     0
100
AcDbDimension
  2
*D3
 10
2.413406247989586
 20
0.8932689868099669
 30
0.0
 11
1.818406247987759
 21
0.9235839868099669
 31
0.0
 70
    32
 71
     5
 42
1.190000000003655
  3
Standard
100
AcDbAlignedDimension
 13
1.223406247985932
 23
0.6512689868090689
 33
0.0
 14
2.413406247989586
 24
0.6562689868098343
 34
0.0
100
AcDbRotatedDimension
1001
ACAD
1000
DSTYLE
1002
{
1070
   172
1070
     1
1070
    77
1070
     1
1070
   280
1070
     0
1070
   279
1070
     0
1070
    74
1070
     0
1070
    73
1070
     0
1070
   174
1070
     0
1070
   147
1040
0.015
1070
    42
1040
0.03
1070
   290
1070
     0
1070
   340
1005
4BE
1070
    78
1070
     0
1070
   272
1070
     3
1070
    71
1070
     0
1070
   146
1040
1.0
1070
   140
1040
0.03
1070
   271
1070
     3
1070
    41
1040
0.03
1070
   342
1005
0
1070
   173
1070
     0
1070
   277
1070
     2
1070
    44
1040
0.015
1002
}
  0
TEXT
  5
4D9
330
1F
100
AcDbEntity
  8
1
  6
DASHED
 62
     5
420
      255
370
     0
100
AcDbText
 10
2.070826247988749
 20
0.8182689868098989
 30
0.0
 40
0.0299999999999998
  1
(20.5mm)
  7
DC_TEXTSTYLE5
 72
     1
 11
2.160406247988748
 21
0.8182689868098989
 31
0.0
100
AcDbText
  0
TEXT
  5
4DA
330
1F
100
AcDbEntity
  8
1
  6
DASHED
 62
     5
420
      255
370
     0
100
AcDbText
 10
1.878826247986859
 20
0.9082689868098537
 30
0.0
 40
0.0299999999999998
  1
(30.2mm)
  7
DC_TEXTSTYLE5
 72
     1
 11
1.968406247986859
 21
0.9082689868098537
 31
0.0
100
AcDbText
  0
DIMENSION
  5
4DB
330
1F
100
AcDbEntity
  8
1
  6
Continuous
 62
     7
 48
0.0000424496405664
370
     0
100
AcDbDimension
  2
*D4
 10
2.533406247989587
 20
0.7132689868099668
 30
0.0
 11
2.502266247989587
 21
0.3262689868090654
 31
0.0
 70
    32
 71
     5
 42
0.7740000000018028
  3
Standard
100
AcDbAlignedDimension
 13
2.217739581322464
 23
-0.060731013191836
 33
0.0
 14
2.217739581322464
 24
0.7132689868099668
 34
0.0
 50
90.0
100
AcDbRotatedDimension
1001
ACAD
1000
DSTYLE
1002
{
1070
   172
1070
     1
1070
    77
1070
     1
1070
   280
1070
     0
1070
   279
1070
     0
1070
    74
1070
     0
1070
    73
1070
     0
1070
   174
1070
     0
1070
   147
1040
0.015
1070
    42
1040
0.03
1070
   290
1070
     0
1070
   340
1005
4BE
1070
    78
1070
     0
1070
   272
1070
     3
1070
    71
1070
     0
1070
     3
1000
HEX TIP Ø<>
1070
   146
1040
1.0
1070
   140
1040
0.03
1070
   271
1070
     3
1070
    41
1040
0.03
1070
   342
1005
0
1070
   173
1070
     0
1070
   277
1070
     2
1070
    44
1040
0.015
1002
}
  0
TEXT
  5
4E8
330
1F
100
AcDbEntity
  8
1
  6
DASHED
 62
     5
420
      255
370
     0
100
AcDbText
 10
2.578406247989598
 20
0.236688986808761
 30
0.0
 40
0.0300000000000001
  1
(19.7mm)
 50
90.0
  7
DC_TEXTSTYLE5
 72
     1
 11
2.578406247989598
 21
0.3262689868087614
 31
0.0
100
AcDbText
  0
LINE
  5
4E9
330
1F
100
AcDbEntity
  8
1
  6
Continuous
 62
     7
 48
0.0006791942490616
370
     0
100
AcDbLine
 10
1.768975530130578
 20
0.0499382689528197
 30
0.0
 11
1.564975530130577
 21
-0.1540617310471803
 31
0.0
  0
LINE
  5
4EA
330
1F
100
AcDbEntity
  8
1
  6
Continuous
 62
     7
 48
0.0006791942490616
370
     0
100
AcDbLine
 10
2.318406247989365
 20
-0.0137310131917265
 30
0.0
 11
2.458736965844819
 21
-0.1540617310471803
 31
0.0
  0
LINE
  5
4EB
330
1F
100
AcDbEntity
  8
1
  6
Continuous
 62
     7
 48
0.0006791942490616
370
     0
100
AcDbLine
 10
2.092106247988721
 20
0.0662689868083783
 30
0.0
 11
1.871775530133162
 21
-0.1540617310471803
 31
0.0
  0
LINE
  5
4EC
330
1F
100
AcDbEntity
  8
1
  6
Continuous
 62
     7
 48
0.0006791942490616
370
     0
100
AcDbLine
 10
1.320906247985932
 20
-0.0137310131909379
 30
0.0
 11
1.18057553012969
 21
-0.1540617310471803
 31
0.0
  0
TEXT
  5
4ED
330
1F
100
AcDbEntity
  8
1
  6
DASHED
 62
     7
370
     0
100
AcDbText
 10
2.465480148292327
 20
-0.1874407834592533
 30
0.0
 40
0.03
  1
4
  7
DC_TEXTSTYLE5
 72
     1
 11
2.477120148292327
 21
-0.1874407834592533
 31
0.0
100
AcDbText
  0
CIRCLE
  5
4EE
330
1F
100
AcDbEntity
  8
1
  6
Continuous
 62
     7
 48
0.0006791942490616
370
     0
100
AcDbCircle
 10
2.477120148292326
 20
-0.172440783459252
 30
0.0
 40
0.0259948257248246
  0
TEXT
  5
4EF
330
1F
100
AcDbEntity
  8
1
  6
DASHED
 62
     7
370
     0
100
AcDbText
 10
1.150556477717618
 20
-0.1874449134946877
 30
0.0
 40
0.03
  1
1
  7
DC_TEXTSTYLE5
 72
     1
 11
1.162196477717619
 21
-0.1874449134946877
 31
0.0
100
AcDbText
  0
CIRCLE
  5
4F0
330
1F
100
AcDbEntity
  8
1
  6
Continuous
 62
     7
 48
0.0006791942490616
370
     0
100
AcDbCircle
 10
1.162196477717618
 20
-0.1724449134946877
 30
0.0
 40
0.0259948257248246
  0
TEXT
  5
4F1
330
1F
100
AcDbEntity
  8
1
  6
DASHED
 62
     7
370
     0
100
AcDbText
 10
1.534956477718506
 20
-0.1874449134946889
 30
0.0
 40
0.03
  1
2
  7
DC_TEXTSTYLE5
 72
     1
 11
1.546596477718506
 21
-0.1874449134946889
 31
0.0
100
AcDbText
  0
CIRCLE
  5
4F2
330
1F
100
AcDbEntity
  8
1
  6
Continuous
 62
     7
 48
0.0006791942490616
370
     0
100
AcDbCircle
 10
1.546596477718505
 20
-0.1724449134946877
 30
0.0
 40
0.0259948257248246
  0
TEXT
  5
4F3
330
1F
100
AcDbEntity
  8
1
  6
DASHED
 62
     7
370
     0
100
AcDbText
 10
1.841756477721091
 20
-0.1874449134946889
 30
0.0
 40
0.03
  1
3
  7
DC_TEXTSTYLE5
 72
     1
 11
1.853396477721091
 21
-0.1874449134946889
 31
0.0
100
AcDbText
  0
CIRCLE
  5
4F4
330
1F
100
AcDbEntity
  8
1
  6
Continuous
 62
     7
 48
0.0006791942490616
370
     0
100
AcDbCircle
 10
1.85339647772109
 20
-0.1724449134946877
 30
0.0
 40
0.0259948257248246
  0
TEXT
  5
4F5
330
1F
100
AcDbEntity
  8
1
  6
Continuous
 62
     7
370
     0
100
AcDbText
 10
3.063832619786324
 20
-0.6728396175153585
 30
0.0
 40
0.0258461538181539
  1
AS PURCHASED
 41
1.000000000000004
  7
DC_TEXTSTYLE5
100
AcDbText
  0
TEXT
  5
4F6
330
1F
100
AcDbEntity
  8
1
  6
DASHED
 62
     7
370
     0
100
AcDbText
 10
2.92326348490723
 20
-0.9997397372409376
 30
0.0
 40
0.0450000000000001
  1
FEMALE FEMALE
 41
0.9999999999999973
  7
DC_TEXTSTYLE5
 72
     1
 11
3.18331848490723
 21
-0.9997397372409376
 31
0.0
100
AcDbText
  0
TEXT
  5
4F7
330
1F
100
AcDbEntity
  8
1
  6
DASHED
 62
     5
420
      255
370
     0
100
AcDbText
 10
1.480256970248547
 20
-0.3037310131910542
 30
0.0
 40
0.0300000000000001
  1
PART NETT WEIGHT IS 12 GRAMS
  7
DC_TEXTSTYLE5
 72
     1
 11
1.823486970248548
 21
-0.3037310131910542
 31
0.0
100
AcDbText
  0
TEXT
  5
4F8
330
1F
100
AcDbEntity
  8
1
  6
HIDDEN
 62
     7
370
     0
100
AcDbText
 10
2.98919087720888
 20
-0.552378079151647
 30
0.0
 40
0.03
  1
HEX AF = HEX TIP %%c / 1.125
  7
DC_TEXTSTYLE5
 72
     2
 11
3.534980877208879
 21
-0.552378079151647
 31
0.0
100
AcDbText
  0
ENDSEC
  0
SECTION
  2
OBJECTS
  0
DICTIONARY
  5
C
330
0
100
AcDbDictionary
281
     1
  3
ACAD_DETAILVIEWSTYLE
350
53D
  3
ACAD_GROUP
350
D
  3
ACAD_IMAGE_VARS
350
99
  3
ACAD_LAYOUT
350
1A
  3
ACAD_MATERIAL
350
91
  3
ACAD_MLEADERSTYLE
350
97
  3
ACAD_MLINESTYLE
350
17
  3
ACAD_PLOTSETTINGS
350
19
  3
ACAD_PLOTSTYLENAME
350
E
  3
ACAD_SCALELIST
350
6F
  3
ACAD_SECTIONVIEWSTYLE
350
53E
  3
ACAD_TABLESTYLE
350
95
  3
ACAD_VISUALSTYLE
350
56
  3
ACDB_RECOMPOSE_DATA
350
539
  3
AcDbVariableDictionary
350
4E
  0
DICTIONARY
  5
4F9
330
8
100
AcDbDictionary
280
     1
281
     1
  3
ACAD_XREC_ROUNDTRIP
360
4FA
  0
DICTIONARY
  5
53D
102
{ACAD_REACTORS
330
C
102
}
330
C
100
AcDbDictionary
281
     1
  0
DICTIONARY
  5
D
102
{ACAD_REACTORS
330
C
102
}
330
C
100
AcDbDictionary
281
     1
  0
RASTERVARIABLES
  5
99
102
{ACAD_REACTORS
330
C
102
}
330
C
100
AcDbRasterVariables
 90
        0
 70
     0
 71
     1
 72
     5
  0
DICTIONARY
  5
1A
102
{ACAD_REACTORS
330
C
102
}
330
C
100
AcDbDictionary
281
     1
  3
Layout1
350
1E
  3
Model
350
22
  0
DICTIONARY
  5
91
102
{ACAD_REACTORS
330
C
102
}
330
C
100
AcDbDictionary
281
     1
  3
ByBlock
350
93
  3
ByLayer
350
92
  3
Global
350
94
  0
DICTIONARY
  5
97
102
{ACAD_REACTORS
330
C
102
}
330
C
100
AcDbDictionary
281
     1
  3
Standard
350
98
  0
DICTIONARY
  5
17
102
{ACAD_REACTORS
330
C
102
}
330
C
100
AcDbDictionary
281
     1
  3
Standard
350
18
  0
DICTIONARY
  5
19
102
{ACAD_REACTORS
330
C
102
}
330
C
100
AcDbDictionary
281
     1
  0
ACDBDICTIONARYWDFLT
  5
E
102
{ACAD_REACTORS
330
C
102
}
330
C
100
AcDbDictionary
281
     1
  3
Normal
350
F
100
AcDbDictionaryWithDefault
340
F
  0
DICTIONARY
  5
6F
102
{ACAD_REACTORS
330
C
102
}
330
C
100
AcDbDictionary
281
     1
  3
A0
350
70
  3
A1
350
71
  3
A2
350
72
  3
A3
350
73
  3
A4
350
74
  3
A5
350
75
  3
A6
350
76
  3
A7
350
77
  3
A8
350
78
  3
A9
350
79
  3
B0
350
7A
  3
B1
350
7B
  3
B2
350
7C
  3
B3
350
7D
  3
B4
350
7E
  3
B5
350
7F
  3
B6
350
80
  3
B7
350
81
  3
B8
350
82
  3
B9
350
83
  3
C0
350
84
  3
C1
350
85
  3
C2
350
86
  3
C3
350
87
  3
C4
350
88
  3
C5
350
89
  3
C6
350
8A
  3
C7
350
8B
  3
C8
350
8C
  3
C9
350
8D
  3
D0
350
8E
  3
D1
350
8F
  3
D2
350
90
  0
DICTIONARY
  5
53E
102
{ACAD_REACTORS
330
C
102
}
330
C
100
AcDbDictionary
281
     1
  0
DICTIONARY
  5
95
102
{ACAD_REACTORS
330
C
102
}
330
C
100
AcDbDictionary
281
     1
  3
Standard
350
96
  0
DICTIONARY
  5
56
102
{ACAD_REACTORS
330
C
102
}
330
C
100
AcDbDictionary
281
     1
  3
2dWireframe
350
5B
  3
Basic
350
5E
  3
Brighten
350
62
  3
ColorChange
350
66
  3
Conceptual
350
60
  3
Dim
350
61
  3
EdgeColorOff
350
69
  3
Facepattern
350
65
  3
Flat
350
57
  3
FlatWithEdges
350
58
  3
Gouraud
350
59
  3
GouraudWithEdges
350
5A
  3
Hidden
350
5D
  3
JitterOff
350
67
  3
Linepattern
350
64
  3
OverhangOff
350
68
  3
Realistic
350
5F
  3
Shaded
350
6E
  3
Shaded with edges
350
6D
  3
Shades of Gray
350
6A
  3
Sketchy
350
6B
  3
Thicken
350
63
  3
Wireframe
350
5C
  3
X-Ray
350
6C
  0
XRECORD
  5
539
102
{ACAD_REACTORS
330
C
102
}
330
C
100
AcDbXrecord
280
     1
 90
        1
330
96
  0
DICTIONARY
  5
4E
102
{ACAD_REACTORS
330
C
102
}
330
C
100
AcDbDictionary
281
     1
  3
CANNOSCALE
350
4FB
  3
CMLEADERSTYLE
350
53B
  3
CTABLESTYLE
350
53A
  3
DIMASSOC
350
4F
  3
MSLTSCALE
350
53C
  3
XCLIPFRAME
350
4FC
  0
XRECORD
  5
4FA
102
{ACAD_REACTORS
330
4F9
102
}
330
4F9
100
AcDbXrecord
280
     1
102
VTR_0.000_0.000_1.000_1.000_VISUALSTYLE
340
5B
102
VTR_0.000_0.000_1.000_1.000_GRIDDISPLAY
 70
     3
102
VTR_0.000_0.000_1.000_1.000_GRIDMAJOR
 70
     5
102
VTR_0.000_0.000_1.000_1.000_DEFAULTLIGHTING
280
     1
102
VTR_0.000_0.000_1.000_1.000_DEFAULTLIGHTINGTYPE
 70
     1
102
VTR_0.000_0.000_1.000_1.000_BRIGHTNESS
141
0.0
102
VTR_0.000_0.000_1.000_1.000_CONTRAST
142
0.0
  0
LAYOUT
  5
1E
102
{ACAD_REACTORS
330
1A
102
}
330
1A
100
AcDbPlotSettings
  1

  2
HP DeskJet 720C v10.3
  4

  6

 40
0.0
 41
0.0
 42
0.0
 43
0.0
 44
0.0
 45
0.0
 46
0.0
 47
0.0
 48
0.0
 49
0.0
140
0.0
141
0.0
142
1.0
143
1.0
 70
   688
 72
     0
 73
     0
 74
     5
  7

 75
    16
 76
     0
 77
     2
 78
   300
147
1.0
148
0.0
149
0.0
100
AcDbLayout
  1
Layout1
 70
     1
 71
     1
 10
0.0
 20
0.0
 11
12.0
 21
9.0
 12
0.0
 22
0.0
 32
0.0
 14
1.000000000000000E+20
 24
1.000000000000000E+20
 34
1.000000000000000E+20
 15
-1.000000000000000E+20
 25
-1.000000000000000E+20
 35
-1.000000000000000E+20
146
0.0
 13
0.0
 23
0.0
 33
0.0
 16
1.0
 26
0.0
 36
0.0
 17
0.0
 27
1.0
 37
0.0
 76
     0
330
1B
  0
LAYOUT
  5
22
102
{ACAD_REACTORS
330
1A
102
}
330
1A
100
AcDbPlotSettings
  1

  2
None
  4
Custom Paper
  6

 40
0.5
 41
0.5
 42
0.5
 43
0.5
 44
296.9683333333333
 45
209.9733333333333
 46
0.2101666666665949
 47
-0.0000000000000142
 48
0.0
 49
0.0
140
0.0
141
0.0
142
1.0
143
0.0131172453332464
 70
  5796
 72
     2
 73
     0
 74
     0
  7

 75
     0
 76
     0
 77
     2
 78
   300
147
76.2355185555187
148
1.93838781187516
149
1.37057724071981
100
AcDbLayout
  1
Model
 70
     1
 71
     0
 10
0.0
 20
0.0
 11
12.0
 21
9.0
 12
0.0
 22
0.0
 32
0.0
 14
0.0649808772088798
 24
-1.055044607335967
 34
0.0035
 15
3.589322353345539
 25
1.4369140121546
 35
-0.0035
146
0.0
 13
0.0
 23
0.0
 33
0.0
 16
1.0
 26
0.0
 36
0.0
 17
0.0
 27
1.0
 37
0.0
 76
     0
330
1F
331
55
  0
MATERIAL
  5
93
102
{ACAD_REACTORS
330
91
102
}
102
{ACAD_XDICTIONARY
360
52F
102
}
330
91
100
AcDbMaterial
  1
ByBlock
  0
MATERIAL
  5
92
102
{ACAD_REACTORS
330
91
102
}
102
{ACAD_XDICTIONARY
360
52D
102
}
330
91
100
AcDbMaterial
  1
ByLayer
  0
MATERIAL
  5
94
102
{ACAD_REACTORS
330
91
102
}
102
{ACAD_XDICTIONARY
360
531
102
}
330
91
100
AcDbMaterial
  1
Global
  0
MLEADERSTYLE
  5
98
102
{ACAD_REACTORS
330
97
102
}
102
{ACAD_XDICTIONARY
360
537
102
}
330
97
100
AcDbMLeaderStyle
170
     2
171
     1
172
     0
 90
        2
 40
0.0
 41
0.0
173
     1
 91
-1056964608
340
14
 92
       -2
290
     1
 42
0.09
291
     1
 43
0.36
  3
Standard
341
0
 44
0.18
300

342
11
174
     1
178
     6
175
     1
176
     0
 93
-1056964608
 45
0.18
292
     0
297
     0
 46
0.18
343
0
 94
-1056964608
 47
1.0
 49
1.0
140
1.0
293
     1
141
0.0
294
     1
177
     0
142
1.0
295
     0
296
     0
143
0.125
1001
ACAD_MLEADERVER
1070
     2
  0
MLINESTYLE
  5
18
102
{ACAD_REACTORS
330
17
102
}
330
17
100
AcDbMlineStyle
  2
STANDARD
 70
     0
  3

 62
   256
 51
90.0
 52
90.0
 71
     2
 49
0.5
 62
   256
  6
BYLAYER
 49
-0.5
 62
   256
  6
BYLAYER
  0
ACDBPLACEHOLDER
  5
F
102
{ACAD_REACTORS
330
E
102
}
330
E
  0
SCALE
  5
70
102
{ACAD_REACTORS
330
6F
102
}
330
6F
100
AcDbScale
 70
     0
300
1:1
140
1.0
141
1.0
290
     1
  0
SCALE
  5
71
102
{ACAD_REACTORS
330
6F
102
}
330
6F
100
AcDbScale
 70
     0
300
1:2
140
1.0
141
2.0
290
     0
  0
SCALE
  5
72
102
{ACAD_REACTORS
330
6F
102
}
330
6F
100
AcDbScale
 70
     0
300
1:4
140
1.0
141
4.0
290
     0
  0
SCALE
  5
73
102
{ACAD_REACTORS
330
6F
102
}
330
6F
100
AcDbScale
 70
     0
300
1:5
140
1.0
141
5.0
290
     0
  0
SCALE
  5
74
102
{ACAD_REACTORS
330
6F
102
}
330
6F
100
AcDbScale
 70
     0
300
1:8
140
1.0
141
8.0
290
     0
  0
SCALE
  5
75
102
{ACAD_REACTORS
330
6F
102
}
330
6F
100
AcDbScale
 70
     0
300
1:10
140
1.0
141
10.0
290
     0
  0
SCALE
  5
76
102
{ACAD_REACTORS
330
6F
102
}
330
6F
100
AcDbScale
 70
     0
300
1:16
140
1.0
141
16.0
290
     0
  0
SCALE
  5
77
102
{ACAD_REACTORS
330
6F
102
}
330
6F
100
AcDbScale
 70
     0
300
1:20
140
1.0
141
20.0
290
     0
  0
SCALE
  5
78
102
{ACAD_REACTORS
330
6F
102
}
330
6F
100
AcDbScale
 70
     0
300
1:30
140
1.0
141
30.0
290
     0
  0
SCALE
  5
79
102
{ACAD_REACTORS
330
6F
102
}
330
6F
100
AcDbScale
 70
     0
300
1:40
140
1.0
141
40.0
290
     0
  0
SCALE
  5
7A
102
{ACAD_REACTORS
330
6F
102
}
330
6F
100
AcDbScale
 70
     0
300
1:50
140
1.0
141
50.0
290
     0
  0
SCALE
  5
7B
102
{ACAD_REACTORS
330
6F
102
}
330
6F
100
AcDbScale
 70
     0
300
1:100
140
1.0
141
100.0
290
     0
  0
SCALE
  5
7C
102
{ACAD_REACTORS
330
6F
102
}
330
6F
100
AcDbScale
 70
     0
300
2:1
140
2.0
141
1.0
290
     0
  0
SCALE
  5
7D
102
{ACAD_REACTORS
330
6F
102
}
330
6F
100
AcDbScale
 70
     0
300
4:1
140
4.0
141
1.0
290
     0
  0
SCALE
  5
7E
102
{ACAD_REACTORS
330
6F
102
}
330
6F
100
AcDbScale
 70
     0
300
8:1
140
8.0
141
1.0
290
     0
  0
SCALE
  5
7F
102
{ACAD_REACTORS
330
6F
102
}
330
6F
100
AcDbScale
 70
     0
300
10:1
140
10.0
141
1.0
290
     0
  0
SCALE
  5
80
102
{ACAD_REACTORS
330
6F
102
}
330
6F
100
AcDbScale
 70
     0
300
100:1
140
100.0
141
1.0
290
     0
  0
SCALE
  5
81
102
{ACAD_REACTORS
330
6F
102
}
330
6F
100
AcDbScale
 70
     0
300
1/128" = 1'-0"
140
0.0078125
141
12.0
290
     0
  0
SCALE
  5
82
102
{ACAD_REACTORS
330
6F
102
}
330
6F
100
AcDbScale
 70
     0
300
1/64" = 1'-0"
140
0.015625
141
12.0
290
     0
  0
SCALE
  5
83
102
{ACAD_REACTORS
330
6F
102
}
330
6F
100
AcDbScale
 70
     0
300
1/32" = 1'-0"
140
0.03125
141
12.0
290
     0
  0
SCALE
  5
84
102
{ACAD_REACTORS
330
6F
102
}
330
6F
100
AcDbScale
 70
     0
300
1/16" = 1'-0"
140
0.0625
141
12.0
290
     0
  0
SCALE
  5
85
102
{ACAD_REACTORS
330
6F
102
}
330
6F
100
AcDbScale
 70
     0
300
3/32" = 1'-0"
140
0.09375
141
12.0
290
     0
  0
SCALE
  5
86
102
{ACAD_REACTORS
330
6F
102
}
330
6F
100
AcDbScale
 70
     0
300
1/8" = 1'-0"
140
0.125
141
12.0
290
     0
  0
SCALE
  5
87
102
{ACAD_REACTORS
330
6F
102
}
330
6F
100
AcDbScale
 70
     0
300
3/16" = 1'-0"
140
0.1875
141
12.0
290
     0
  0
SCALE
  5
88
102
{ACAD_REACTORS
330
6F
102
}
330
6F
100
AcDbScale
 70
     0
300
1/4" = 1'-0"
140
0.25
141
12.0
290
     0
  0
SCALE
  5
89
102
{ACAD_REACTORS
330
6F
102
}
330
6F
100
AcDbScale
 70
     0
300
3/8" = 1'-0"
140
0.375
141
12.0
290
     0
  0
SCALE
  5
8A
102
{ACAD_REACTORS
330
6F
102
}
330
6F
100
AcDbScale
 70
     0
300
1/2" = 1'-0"
140
0.5
141
12.0
290
     0
  0
SCALE
  5
8B
102
{ACAD_REACTORS
330
6F
102
}
330
6F
100
AcDbScale
 70
     0
300
3/4" = 1'-0"
140
0.75
141
12.0
290
     0
  0
SCALE
  5
8C
102
{ACAD_REACTORS
330
6F
102
}
330
6F
100
AcDbScale
 70
     0
300
1" = 1'-0"
140
1.0
141
12.0
290
     0
  0
SCALE
  5
8D
102
{ACAD_REACTORS
330
6F
102
}
330
6F
100
AcDbScale
 70
     0
300
1-1/2" = 1'-0"
140
1.5
141
12.0
290
     0
  0
SCALE
  5
8E
102
{ACAD_REACTORS
330
6F
102
}
330
6F
100
AcDbScale
 70
     0
300
3" = 1'-0"
140
3.0
141
12.0
290
     0
  0
SCALE
  5
8F
102
{ACAD_REACTORS
330
6F
102
}
330
6F
100
AcDbScale
 70
     0
300
6" = 1'-0"
140
6.0
141
12.0
290
     0
  0
SCALE
  5
90
102
{ACAD_REACTORS
330
6F
102
}
330
6F
100
AcDbScale
 70
     0
300
1'-0" = 1'-0"
140
12.0
141
12.0
290
     0
  0
TABLESTYLE
  5
96
102
{ACAD_REACTORS
330
95
102
}
102
{ACAD_XDICTIONARY
360
533
102
}
330
95
100
AcDbTableStyle
  3
Standard
 70
     0
 71
     0
 40
0.06
 41
0.06
280
     0
281
     0
  7
Standard
140
0.18
170
     2
 62
     0
 63
   257
283
     0
274
    -2
284
     1
 64
     0
275
    -2
285
     1
 65
     0
276
    -2
286
     1
 66
     0
277
    -2
287
     1
 67
     0
278
    -2
288
     1
 68
     0
279
    -2
289
     1
 69
     0
  7
Standard
140
0.25
170
     5
 62
     0
 63
   257
283
     0
274
    -2
284
     1
 64
     0
275
    -2
285
     1
 65
     0
276
    -2
286
     1
 66
     0
277
    -2
287
     1
 67
     0
278
    -2
288
     1
 68
     0
279
    -2
289
     1
 69
     0
  7
Standard
140
0.18
170
     5
 62
     0
 63
   257
283
     0
274
    -2
284
     1
 64
     0
275
    -2
285
     1
 65
     0
276
    -2
286
     1
 66
     0
277
    -2
287
     1
 67
     0
278
    -2
288
     1
 68
     0
279
    -2
289
     1
 69
     0
  0
VISUALSTYLE
  5
5B
102
{ACAD_REACTORS
330
56
102
}
102
{ACAD_XDICTIONARY
360
505
102
}
330
56
100
AcDbVisualStyle
  2
2dWireframe
 70
     4
 71
     0
 72
     2
 73
     0
 90
        0
 40
0.6
 41
30.0
 62
     5
 63
     7
421
 16777215
 74
     1
 91
        4
 64
     7
 65
   257
 75
     1
175
     1
 42
1.0
 92
        0
 66
   257
 43
1.0
 76
     1
 77
     6
 78
     2
 67
     7
 79
     5
170
     0
171
     0
290
     0
174
     0
 93
        1
 44
0.0
173
     0
291
     0
 45
0.0
1001
ACAD
1000
AcDbSavedByObjectVersion
1070
     0
  0
VISUALSTYLE
  5
5E
102
{ACAD_REACTORS
330
56
102
}
102
{ACAD_XDICTIONARY
360
50B
102
}
330
56
100
AcDbVisualStyle
  2
Basic
 70
     7
 71
     1
 72
     0
 73
     1
 90
        0
 40
0.6
 41
30.0
 62
     5
 63
     7
421
 16777215
 74
     0
 91
        4
 64
     7
 65
   257
 75
     1
175
     1
 42
1.0
 92
        8
 66
     7
 43
1.0
 76
     1
 77
     6
 78
     2
 67
     7
 79
     5
170
     0
171
     0
290
     0
174
     0
 93
        1
 44
0.0
173
     0
291
     1
 45
0.0
1001
ACAD
1000
AcDbSavedByObjectVersion
1070
     0
  0
VISUALSTYLE
  5
62
102
{ACAD_REACTORS
330
56
102
}
102
{ACAD_XDICTIONARY
360
513
102
}
330
56
100
AcDbVisualStyle
  2
Brighten
 70
    12
 71
     2
 72
     2
 73
     0
 90
        0
 40
0.6
 41
30.0
 62
     5
 63
     7
421
 16777215
 74
     1
 91
        4
 64
     7
 65
   257
 75
     1
175
     1
 42
1.0
 92
        8
 66
     7
 43
1.0
 76
     1
 77
     6
 78
     2
 67
     7
 79
     5
170
     0
171
     0
290
     0
174
     0
 93
        1
 44
50.0
173
     0
291
     1
 45
0.0
1001
ACAD
1000
AcDbSavedByObjectVersion
1070
     0
  0
VISUALSTYLE
  5
66
102
{ACAD_REACTORS
330
56
102
}
102
{ACAD_XDICTIONARY
360
51B
102
}
330
56
100
AcDbVisualStyle
  2
ColorChange
 70
    16
 71
     2
 72
     2
 73
     3
 90
        0
 40
0.6
 41
30.0
 62
     5
 63
     8
421
  8421504
 74
     1
 91
        4
 64
     7
 65
   257
 75
     1
175
     1
 42
1.0
 92
        8
 66
     8
424
  8421504
 43
1.0
 76
     1
 77
     6
 78
     2
 67
     7
 79
     5
170
     0
171
     0
290
     0
174
     0
 93
        1
 44
0.0
173
     0
291
     1
 45
0.0
1001
ACAD
1000
AcDbSavedByObjectVersion
1070
     0
  0
VISUALSTYLE
  5
60
102
{ACAD_REACTORS
330
56
102
}
102
{ACAD_XDICTIONARY
360
50F
102
}
330
56
100
AcDbVisualStyle
  2
Conceptual
 70
     9
 71
     3
 72
     2
 73
     0
 90
        0
 40
0.6
 41
30.0
 62
     5
 63
     7
421
 16777215
 74
     2
 91
        2
 64
     7
 65
   257
 75
     1
175
     1
 42
179.0
 92
        8
 66
     7
 43
1.0
 76
     1
 77
     6
 78
     2
 67
     7
 79
     3
170
     0
171
     0
290
     0
174
     0
 93
        1
 44
0.0
173
     0
291
     0
 45
0.0
1001
ACAD
1000
AcDbSavedByObjectVersion
1070
     0
  0
VISUALSTYLE
  5
61
102
{ACAD_REACTORS
330
56
102
}
102
{ACAD_XDICTIONARY
360
511
102
}
330
56
100
AcDbVisualStyle
  2
Dim
 70
    11
 71
     2
 72
     2
 73
     0
 90
        0
 40
0.6
 41
30.0
 62
     5
 63
     7
421
 16777215
 74
     1
 91
        4
 64
     7
 65
   257
 75
     1
175
     1
 42
1.0
 92
        8
 66
     7
 43
1.0
 76
     1
 77
     6
 78
     2
 67
     7
 79
     5
170
     0
171
     0
290
     0
174
     0
 93
        1
 44
-50.0
173
     0
291
     1
 45
0.0
1001
ACAD
1000
AcDbSavedByObjectVersion
1070
     0
  0
VISUALSTYLE
  5
69
102
{ACAD_REACTORS
330
56
102
}
102
{ACAD_XDICTIONARY
360
521
102
}
330
56
100
AcDbVisualStyle
  2
EdgeColorOff
 70
    22
 71
     2
 72
     2
 73
     0
 90
        0
 40
0.6
 41
30.0
 62
     5
 63
     7
421
 16777215
 74
     1
 91
        4
 64
     7
 65
   257
 75
     1
175
     1
 42
1.0
 92
        8
 66
     7
 43
1.0
 76
     1
 77
     6
 78
     2
 67
     7
 79
     5
170
     0
171
     0
290
     0
174
     0
 93
        1
 44
0.0
173
     0
291
     1
 45
0.0
1001
ACAD
1000
AcDbSavedByObjectVersion
1070
     0
  0
VISUALSTYLE
  5
65
102
{ACAD_REACTORS
330
56
102
}
102
{ACAD_XDICTIONARY
360
519
102
}
330
56
100
AcDbVisualStyle
  2
Facepattern
 70
    15
 71
     2
 72
     2
 73
     0
 90
        0
 40
0.6
 41
30.0
 62
     5
 63
     7
421
 16777215
 74
     1
 91
        4
 64
     7
 65
   257
 75
     1
175
     1
 42
1.0
 92
        8
 66
     7
 43
1.0
 76
     1
 77
     6
 78
     2
 67
     7
 79
     5
170
     0
171
     0
290
     0
174
     0
 93
        1
 44
0.0
173
     0
291
     1
 45
0.0
1001
ACAD
1000
AcDbSavedByObjectVersion
1070
     0
  0
VISUALSTYLE
  5
57
102
{ACAD_REACTORS
330
56
102
}
102
{ACAD_XDICTIONARY
360
4FD
102
}
330
56
100
AcDbVisualStyle
  2
Flat
 70
     0
 71
     2
 72
     1
 73
     1
 90
        2
 40
0.6
 41
30.0
 62
     5
 63
     7
421
 16777215
 74
     0
 91
        0
 64
     7
 65
   257
 75
     1
175
     1
 42
1.0
 92
        8
 66
     7
 43
1.0
 76
     1
 77
     6
 78
     2
 67
     7
 79
     5
170
     0
171
     0
290
     0
174
     0
 93
       13
 44
0.0
173
     0
291
     1
 45
0.0
1001
ACAD
1000
AcDbSavedByObjectVersion
1070
     0
  0
VISUALSTYLE
  5
58
102
{ACAD_REACTORS
330
56
102
}
102
{ACAD_XDICTIONARY
360
4FF
102
}
330
56
100
AcDbVisualStyle
  2
FlatWithEdges
 70
     1
 71
     2
 72
     1
 73
     1
 90
        2
 40
0.6
 41
30.0
 62
     5
 63
     7
421
 16777215
 74
     1
 91
        0
 64
     7
 65
   257
 75
     1
175
     1
 42
1.0
 92
        0
 66
   257
 43
1.0
 76
     1
 77
     6
 78
     2
 67
     7
 79
     5
170
     0
171
     0
290
     0
174
     0
 93
       13
 44
0.0
173
     0
291
     1
 45
0.0
1001
ACAD
1000
AcDbSavedByObjectVersion
1070
     0
  0
VISUALSTYLE
  5
59
102
{ACAD_REACTORS
330
56
102
}
102
{ACAD_XDICTIONARY
360
501
102
}
330
56
100
AcDbVisualStyle
  2
Gouraud
 70
     2
 71
     2
 72
     2
 73
     1
 90
        2
 40
0.6
 41
30.0
 62
     5
 63
     7
421
 16777215
 74
     0
 91
        0
 64
     7
 65
   257
 75
     1
175
     1
 42
1.0
 92
        0
 66
     7
 43
1.0
 76
     1
 77
     6
 78
     2
 67
     7
 79
     5
170
     0
171
     0
290
     0
174
     0
 93
       13
 44
0.0
173
     0
291
     1
 45
0.0
1001
ACAD
1000
AcDbSavedByObjectVersion
1070
     0
  0
VISUALSTYLE
  5
5A
102
{ACAD_REACTORS
330
56
102
}
102
{ACAD_XDICTIONARY
360
503
102
}
330
56
100
AcDbVisualStyle
  2
GouraudWithEdges
 70
     3
 71
     2
 72
     2
 73
     1
 90
        2
 40
0.6
 41
30.0
 62
     5
 63
     7
421
 16777215
 74
     1
 91
        0
 64
     7
 65
   257
 75
     1
175
     1
 42
1.0
 92
        0
 66
   257
 43
1.0
 76
     1
 77
     6
 78
     2
 67
     7
 79
     5
170
     0
171
     0
290
     0
174
     0
 93
       13
 44
0.0
173
     0
291
     1
 45
0.0
1001
ACAD
1000
AcDbSavedByObjectVersion
1070
     0
  0
VISUALSTYLE
  5
5D
102
{ACAD_REACTORS
330
56
102
}
102
{ACAD_XDICTIONARY
360
509
102
}
330
56
100
AcDbVisualStyle
  2
Hidden
 70
     6
 71
     1
 72
     2
 73
     2
 90
        0
 40
0.6
 41
30.0
 62
     5
 63
     7
421
 16777215
 74
     2
 91
        2
 64
     7
 65
   257
 75
     2
175
     1
 42
40.0
 92
        0
 66
   257
 43
1.0
 76
     1
 77
     6
 78
     2
 67
     7
 79
     3
170
     0
171
     0
290
     0
174
     0
 93
        1
 44
0.0
173
     0
291
     0
 45
0.0
1001
ACAD
1000
AcDbSavedByObjectVersion
1070
     0
  0
VISUALSTYLE
  5
67
102
{ACAD_REACTORS
330
56
102
}
102
{ACAD_XDICTIONARY
360
51D
102
}
330
56
100
AcDbVisualStyle
  2
JitterOff
 70
    20
 71
     2
 72
     2
 73
     0
 90
        0
 40
0.6
 41
30.0
 62
     5
 63
     7
421
 16777215
 74
     1
 91
        4
 64
     7
 65
   257
 75
     1
175
     1
 42
1.0
 92
       10
 66
     7
 43
1.0
 76
     1
 77
     6
 78
     2
 67
     7
 79
     5
170
     0
171
     0
290
     0
174
     0
 93
        1
 44
0.0
173
     0
291
     1
 45
0.0
1001
ACAD
1000
AcDbSavedByObjectVersion
1070
     0
  0
VISUALSTYLE
  5
64
102
{ACAD_REACTORS
330
56
102
}
102
{ACAD_XDICTIONARY
360
517
102
}
330
56
100
AcDbVisualStyle
  2
Linepattern
 70
    14
 71
     2
 72
     2
 73
     0
 90
        0
 40
0.6
 41
30.0
 62
     5
 63
     7
421
 16777215
 74
     1
 91
        4
 64
     7
 65
   257
 75
     7
175
     7
 42
1.0
 92
        8
 66
     7
 43
1.0
 76
     1
 77
     6
 78
     2
 67
     7
 79
     5
170
     0
171
     0
290
     0
174
     0
 93
        1
 44
0.0
173
     0
291
     1
 45
0.0
1001
ACAD
1000
AcDbSavedByObjectVersion
1070
     0
  0
VISUALSTYLE
  5
68
102
{ACAD_REACTORS
330
56
102
}
102
{ACAD_XDICTIONARY
360
51F
102
}
330
56
100
AcDbVisualStyle
  2
OverhangOff
 70
    21
 71
     2
 72
     2
 73
     0
 90
        0
 40
0.6
 41
30.0
 62
     5
 63
     7
421
 16777215
 74
     1
 91
        4
 64
     7
 65
   257
 75
     1
175
     1
 42
1.0
 92
        9
 66
     7
 43
1.0
 76
     1
 77
     6
 78
     2
 67
     7
 79
     5
170
     0
171
     0
290
     0
174
     0
 93
        1
 44
0.0
173
     0
291
     1
 45
0.0
1001
ACAD
1000
AcDbSavedByObjectVersion
1070
     0
  0
VISUALSTYLE
  5
5F
102
{ACAD_REACTORS
330
56
102
}
102
{ACAD_XDICTIONARY
360
50D
102
}
330
56
100
AcDbVisualStyle
  2
Realistic
 70
     8
 71
     2
 72
     3
 73
     0
 90
        2
 40
0.6
 41
30.0
 62
     5
 63
     7
421
 16777215
 74
     0
 91
        0
 64
     7
 65
   257
 75
     1
175
     1
 42
1.0
 92
        8
 66
   257
 43
1.0
 76
     1
 77
     6
 78
     2
 67
     7
 79
     3
170
     0
171
     0
290
     0
174
     0
 93
       13
 44
0.0
173
     0
291
     0
 45
0.0
1001
ACAD
1000
AcDbSavedByObjectVersion
1070
     0
  0
VISUALSTYLE
  5
6E
102
{ACAD_REACTORS
330
56
102
}
102
{ACAD_XDICTIONARY
360
52B
102
}
330
56
100
AcDbVisualStyle
  2
Shaded
 70
    27
 71
     2
 72
     2
 73
     1
 90
        2
 40
0.6
 41
30.0
 62
     5
 63
     7
421
 16777215
 74
     0
 91
        4
 64
     7
 65
   257
 75
     1
175
     1
 42
1.0
 92
        8
 66
   257
 43
1.0
 76
     1
 77
     6
 78
     2
 67
     8
425
  7895160
 79
     3
170
     0
171
     0
290
     0
174
     0
 93
        5
 44
0.0
173
     0
291
     0
 45
0.0
1001
ACAD
1000
AcDbSavedByObjectVersion
1070
     0
  0
VISUALSTYLE
  5
6D
102
{ACAD_REACTORS
330
56
102
}
102
{ACAD_XDICTIONARY
360
529
102
}
330
56
100
AcDbVisualStyle
  2
Shaded with edges
 70
    26
 71
     2
 72
     2
 73
     1
 90
        2
 40
0.6
 41
30.0
 62
     5
 63
     7
421
 16777215
 74
     1
 91
       10
 64
     7
 65
   257
 75
     2
175
     1
 42
1.0
 92
        8
 66
   257
 43
1.0
 76
     1
 77
     6
 78
     2
 67
     7
 79
     3
170
     0
171
     0
290
     0
174
     0
 93
        5
 44
0.0
173
     0
291
     0
 45
0.0
1001
ACAD
1000
AcDbSavedByObjectVersion
1070
     0
  0
VISUALSTYLE
  5
6A
102
{ACAD_REACTORS
330
56
102
}
102
{ACAD_XDICTIONARY
360
523
102
}
330
56
100
AcDbVisualStyle
  2
Shades of Gray
 70
    23
 71
     2
 72
     2
 73
     3
 90
        0
 40
0.6
 41
30.0
 62
     5
 63
     7
421
 16777215
 74
     2
 91
        2
 64
     7
 65
     7
 75
     1
175
     1
 42
40.0
 92
        8
 66
     7
 43
1.0
 76
     1
 77
     6
 78
     2
 67
     7
 79
     3
170
     0
171
     0
290
     0
174
     0
 93
        1
 44
0.0
173
     0
291
     0
 45
0.0
1001
ACAD
1000
AcDbSavedByObjectVersion
1070
     0
  0
VISUALSTYLE
  5
6B
102
{ACAD_REACTORS
330
56
102
}
102
{ACAD_XDICTIONARY
360
525
102
}
330
56
100
AcDbVisualStyle
  2
Sketchy
 70
    24
 71
     1
 72
     2
 73
     2
 90
        0
 40
0.6
 41
30.0
 62
     5
 63
     7
421
 16777215
 74
     2
 91
        2
 64
     7
 65
     7
 75
     1
175
     1
 42
40.0
 92
       11
 66
     7
 43
1.0
 76
     1
 77
     6
 78
     2
 67
     7
 79
     6
170
     0
171
     0
290
     0
174
     0
 93
        1
 44
0.0
173
     0
291
     0
 45
0.0
1001
ACAD
1000
AcDbSavedByObjectVersion
1070
     0
  0
VISUALSTYLE
  5
63
102
{ACAD_REACTORS
330
56
102
}
102
{ACAD_XDICTIONARY
360
515
102
}
330
56
100
AcDbVisualStyle
  2
Thicken
 70
    13
 71
     2
 72
     2
 73
     0
 90
        0
 40
0.6
 41
30.0
 62
     5
 63
     7
421
 16777215
 74
     1
 91
        4
 64
     7
 65
   257
 75
     1
175
     1
 42
1.0
 92
       12
 66
     7
 43
1.0
 76
     1
 77
     6
 78
     2
 67
     7
 79
     5
170
     0
171
     0
290
     0
174
     0
 93
        1
 44
0.0
173
     0
291
     1
 45
0.0
1001
ACAD
1000
AcDbSavedByObjectVersion
1070
     0
  0
VISUALSTYLE
  5
5C
102
{ACAD_REACTORS
330
56
102
}
102
{ACAD_XDICTIONARY
360
507
102
}
330
56
100
AcDbVisualStyle
  2
Wireframe
 70
     5
 71
     0
 72
     2
 73
     0
 90
        0
 40
0.6
 41
30.0
 62
     5
 63
     7
421
 16777215
 74
     1
 91
        4
 64
     7
 65
   257
 75
     1
175
     1
 42
1.0
 92
        0
 66
   257
 43
1.0
 76
     1
 77
     6
 78
     2
 67
     7
 79
     3
170
     0
171
     0
290
     0
174
     0
 93
        1
 44
0.0
173
     0
291
     0
 45
0.0
1001
ACAD
1000
AcDbSavedByObjectVersion
1070
     0
  0
VISUALSTYLE
  5
6C
102
{ACAD_REACTORS
330
56
102
}
102
{ACAD_XDICTIONARY
360
527
102
}
330
56
100
AcDbVisualStyle
  2
X-Ray
 70
    25
 71
     2
 72
     2
 73
     1
 90
        1
 40
0.5
 41
30.0
 62
     5
 63
     7
421
 16777215
 74
     1
 91
        0
 64
     7
 65
   257
 75
     1
175
     1
 42
1.0
 92
        8
 66
     7
 43
1.0
 76
     1
 77
     6
 78
     2
 67
     7
 79
     3
170
     0
171
     0
290
     0
174
     0
 93
       13
 44
0.0
173
     0
291
     0
 45
0.0
1001
ACAD
1000
AcDbSavedByObjectVersion
1070
     0
  0
DICTIONARYVAR
  5
4FB
102
{ACAD_REACTORS
330
4E
102
}
330
4E
100
DictionaryVariables
280
     0
  1
1:1
  0
DICTIONARYVAR
  5
53B
102
{ACAD_REACTORS
330
4E
102
}
330
4E
100
DictionaryVariables
280
     0
  1
Standard
  0
DICTIONARYVAR
  5
53A
102
{ACAD_REACTORS
330
4E
102
}
330
4E
100
DictionaryVariables
280
     0
  1
Standard
  0
DICTIONARYVAR
  5
4F
102
{ACAD_REACTORS
330
4E
102
}
330
4E
100
DictionaryVariables
280
     0
  1
1
  0
DICTIONARYVAR
  5
53C
102
{ACAD_REACTORS
330
4E
102
}
330
4E
100
DictionaryVariables
280
     0
  1
0
  0
DICTIONARYVAR
  5
4FC
102
{ACAD_REACTORS
330
4E
102
}
330
4E
100
DictionaryVariables
280
     0
  1
2
  0
DICTIONARY
  5
52F
330
93
100
AcDbDictionary
280
     1
281
     1
  3
ACAD_XREC_ROUNDTRIP
360
530
  0
DICTIONARY
  5
52D
330
92
100
AcDbDictionary
280
     1
281
     1
  3
ACAD_XREC_ROUNDTRIP
360
52E
  0
DICTIONARY
  5
531
330
94
100
AcDbDictionary
280
     1
281
     1
  3
ACAD_XREC_ROUNDTRIP
360
532
  0
DICTIONARY
  5
537
330
98
100
AcDbDictionary
280
     1
281
     1
  3
ACAD_XREC_ROUNDTRIP
360
538
  0
DICTIONARY
  5
533
330
96
100
AcDbDictionary
280
     1
281
     1
  3
ACAD_ROUNDTRIP_2008_TABLESTYLE_CELLSTYLEMAP
360
535
  3
ACAD_XREC_ROUNDTRIP
360
534
  0
DICTIONARY
  5
505
330
5B
100
AcDbDictionary
280
     1
281
     1
  3
ACAD_XREC_ROUNDTRIP
360
506
  0
DICTIONARY
  5
50B
330
5E
100
AcDbDictionary
280
     1
281
     1
  3
ACAD_XREC_ROUNDTRIP
360
50C
  0
DICTIONARY
  5
513
330
62
100
AcDbDictionary
280
     1
281
     1
  3
ACAD_XREC_ROUNDTRIP
360
514
  0
DICTIONARY
  5
51B
330
66
100
AcDbDictionary
280
     1
281
     1
  3
ACAD_XREC_ROUNDTRIP
360
51C
  0
DICTIONARY
  5
50F
330
60
100
AcDbDictionary
280
     1
281
     1
  3
ACAD_XREC_ROUNDTRIP
360
510
  0
DICTIONARY
  5
511
330
61
100
AcDbDictionary
280
     1
281
     1
  3
ACAD_XREC_ROUNDTRIP
360
512
  0
DICTIONARY
  5
521
330
69
100
AcDbDictionary
280
     1
281
     1
  3
ACAD_XREC_ROUNDTRIP
360
522
  0
DICTIONARY
  5
519
330
65
100
AcDbDictionary
280
     1
281
     1
  3
ACAD_XREC_ROUNDTRIP
360
51A
  0
DICTIONARY
  5
4FD
330
57
100
AcDbDictionary
280
     1
281
     1
  3
ACAD_XREC_ROUNDTRIP
360
4FE
  0
DICTIONARY
  5
4FF
330
58
100
AcDbDictionary
280
     1
281
     1
  3
ACAD_XREC_ROUNDTRIP
360
500
  0
DICTIONARY
  5
501
330
59
100
AcDbDictionary
280
     1
281
     1
  3
ACAD_XREC_ROUNDTRIP
360
502
  0
DICTIONARY
  5
503
330
5A
100
AcDbDictionary
280
     1
281
     1
  3
ACAD_XREC_ROUNDTRIP
360
504
  0
DICTIONARY
  5
509
330
5D
100
AcDbDictionary
280
     1
281
     1
  3
ACAD_XREC_ROUNDTRIP
360
50A
  0
DICTIONARY
  5
51D
330
67
100
AcDbDictionary
280
     1
281
     1
  3
ACAD_XREC_ROUNDTRIP
360
51E
  0
DICTIONARY
  5
517
330
64
100
AcDbDictionary
280
     1
281
     1
  3
ACAD_XREC_ROUNDTRIP
360
518
  0
DICTIONARY
  5
51F
330
68
100
AcDbDictionary
280
     1
281
     1
  3
ACAD_XREC_ROUNDTRIP
360
520
  0
DICTIONARY
  5
50D
330
5F
100
AcDbDictionary
280
     1
281
     1
  3
ACAD_XREC_ROUNDTRIP
360
50E
  0
DICTIONARY
  5
52B
330
6E
100
AcDbDictionary
280
     1
281
     1
  3
ACAD_XREC_ROUNDTRIP
360
52C
  0
DICTIONARY
  5
529
330
6D
100
AcDbDictionary
280
     1
281
     1
  3
ACAD_XREC_ROUNDTRIP
360
52A
  0
DICTIONARY
  5
523
330
6A
100
AcDbDictionary
280
     1
281
     1
  3
ACAD_XREC_ROUNDTRIP
360
524
  0
DICTIONARY
  5
525
330
6B
100
AcDbDictionary
280
     1
281
     1
  3
ACAD_XREC_ROUNDTRIP
360
526
  0
DICTIONARY
  5
515
330
63
100
AcDbDictionary
280
     1
281
     1
  3
ACAD_XREC_ROUNDTRIP
360
516
  0
DICTIONARY
  5
507
330
5C
100
AcDbDictionary
280
     1
281
     1
  3
ACAD_XREC_ROUNDTRIP
360
508
  0
DICTIONARY
  5
527
330
6C
100
AcDbDictionary
280
     1
281
     1
  3
ACAD_XREC_ROUNDTRIP
360
528
  0
XRECORD
  5
530
102
{ACAD_REACTORS
330
52F
102
}
330
52F
100
AcDbXrecord
280
     1
102
MATERIAL
148
0.0
149
0.0
149
0.0
 93
        0
 94
      127
282
     0
 72
     1
 77
     1
171
     1
175
     1
179
     1
273
     0
  0
XRECORD
  5
52E
102
{ACAD_REACTORS
330
52D
102
}
330
52D
100
AcDbXrecord
280
     1
102
MATERIAL
148
0.0
149
0.0
149
0.0
 93
        0
 94
      127
282
     0
 72
     1
 77
     1
171
     1
175
     1
179
     1
273
     0
  0
XRECORD
  5
532
102
{ACAD_REACTORS
330
531
102
}
330
531
100
AcDbXrecord
280
     1
102
MATERIAL
148
0.0
149
0.0
149
0.0
 93
        0
 94
      127
282
     0
 72
     1
 77
     1
171
     1
175
     1
179
     1
273
     0
  0
XRECORD
  5
538
102
{ACAD_REACTORS
330
537
102
}
330
537
100
AcDbXrecord
280
     1
102
ACAD_ROUNDTRIP_2010_MLEADER_STYLE
  0
CELLSTYLEMAP
  5
535
102
{ACAD_REACTORS
330
533
102
}
330
533
100
AcDbCellStyleMap
 90
        3
300
CELLSTYLE
  1
TABLEFORMAT_BEGIN
 90
        5
170
     1
 91
        0
 92
    32768
 62
   257
 93
        1
300
CONTENTFORMAT
  1
CONTENTFORMAT_BEGIN
 90
        0
 91
        0
 92
        4
 93
        0
300

 40
0.0
140
1.0
 94
        5
 62
     0
340
11
144
0.25
309
CONTENTFORMAT_END
171
     1
301
MARGIN
  1
CELLMARGIN_BEGIN
 40
0.06
 40
0.06
 40
0.06
 40
0.06
 40
0.06
 40
0.06
309
CELLMARGIN_END
 94
        6
 95
        1
302
GRIDFORMAT
  1
GRIDFORMAT_BEGIN
 90
        0
 91
        1
 62
     0
 92
       -2
340
14
 93
        0
 40
0.045
309
GRIDFORMAT_END
 95
        2
302
GRIDFORMAT
  1
GRIDFORMAT_BEGIN
 90
        0
 91
        1
 62
     0
 92
       -2
340
14
 93
        0
 40
0.045
309
GRIDFORMAT_END
 95
        4
302
GRIDFORMAT
  1
GRIDFORMAT_BEGIN
 90
        0
 91
        1
 62
     0
 92
       -2
340
14
 93
        0
 40
0.045
309
GRIDFORMAT_END
 95
        8
302
GRIDFORMAT
  1
GRIDFORMAT_BEGIN
 90
        0
 91
        1
 62
     0
 92
       -2
340
14
 93
        0
 40
0.045
309
GRIDFORMAT_END
 95
       16
302
GRIDFORMAT
  1
GRIDFORMAT_BEGIN
 90
        0
 91
        1
 62
     0
 92
       -2
340
14
 93
        0
 40
0.045
309
GRIDFORMAT_END
 95
       32
302
GRIDFORMAT
  1
GRIDFORMAT_BEGIN
 90
        0
 91
        1
 62
     0
 92
       -2
340
14
 93
        0
 40
0.045
309
GRIDFORMAT_END
309
TABLEFORMAT_END
  1
CELLSTYLE_BEGIN
 90
        1
 91
        1
300
_TITLE
309
CELLSTYLE_END
300
CELLSTYLE
  1
TABLEFORMAT_BEGIN
 90
        5
170
     1
 91
        0
 92
        0
 62
   257
 93
        1
300
CONTENTFORMAT
  1
CONTENTFORMAT_BEGIN
 90
        0
 91
        0
 92
        4
 93
        0
300

 40
0.0
140
1.0
 94
        5
 62
     0
340
11
144
0.18
309
CONTENTFORMAT_END
171
     1
301
MARGIN
  1
CELLMARGIN_BEGIN
 40
0.06
 40
0.06
 40
0.06
 40
0.06
 40
0.06
 40
0.06
309
CELLMARGIN_END
 94
        6
 95
        1
302
GRIDFORMAT
  1
GRIDFORMAT_BEGIN
 90
        0
 91
        1
 62
     0
 92
       -2
340
14
 93
        0
 40
0.045
309
GRIDFORMAT_END
 95
        2
302
GRIDFORMAT
  1
GRIDFORMAT_BEGIN
 90
        0
 91
        1
 62
     0
 92
       -2
340
14
 93
        0
 40
0.045
309
GRIDFORMAT_END
 95
        4
302
GRIDFORMAT
  1
GRIDFORMAT_BEGIN
 90
        0
 91
        1
 62
     0
 92
       -2
340
14
 93
        0
 40
0.045
309
GRIDFORMAT_END
 95
        8
302
GRIDFORMAT
  1
GRIDFORMAT_BEGIN
 90
        0
 91
        1
 62
     0
 92
       -2
340
14
 93
        0
 40
0.045
309
GRIDFORMAT_END
 95
       16
302
GRIDFORMAT
  1
GRIDFORMAT_BEGIN
 90
        0
 91
        1
 62
     0
 92
       -2
340
14
 93
        0
 40
0.045
309
GRIDFORMAT_END
 95
       32
302
GRIDFORMAT
  1
GRIDFORMAT_BEGIN
 90
        0
 91
        1
 62
     0
 92
       -2
340
14
 93
        0
 40
0.045
309
GRIDFORMAT_END
309
TABLEFORMAT_END
  1
CELLSTYLE_BEGIN
 90
        2
 91
        1
300
_HEADER
309
CELLSTYLE_END
300
CELLSTYLE
  1
TABLEFORMAT_BEGIN
 90
        5
170
     1
 91
        0
 92
        0
 62
   257
 93
        1
300
CONTENTFORMAT
  1
CONTENTFORMAT_BEGIN
 90
        0
 91
        0
 92
        4
 93
        0
300

 40
0.0
140
1.0
 94
        2
 62
     0
340
11
144
0.18
309
CONTENTFORMAT_END
171
     1
301
MARGIN
  1
CELLMARGIN_BEGIN
 40
0.06
 40
0.06
 40
0.06
 40
0.06
 40
0.06
 40
0.06
309
CELLMARGIN_END
 94
        6
 95
        1
302
GRIDFORMAT
  1
GRIDFORMAT_BEGIN
 90
        0
 91
        1
 62
     0
 92
       -2
340
14
 93
        0
 40
0.045
309
GRIDFORMAT_END
 95
        2
302
GRIDFORMAT
  1
GRIDFORMAT_BEGIN
 90
        0
 91
        1
 62
     0
 92
       -2
340
14
 93
        0
 40
0.045
309
GRIDFORMAT_END
 95
        4
302
GRIDFORMAT
  1
GRIDFORMAT_BEGIN
 90
        0
 91
        1
 62
     0
 92
       -2
340
14
 93
        0
 40
0.045
309
GRIDFORMAT_END
 95
        8
302
GRIDFORMAT
  1
GRIDFORMAT_BEGIN
 90
        0
 91
        1
 62
     0
 92
       -2
340
14
 93
        0
 40
0.045
309
GRIDFORMAT_END
 95
       16
302
GRIDFORMAT
  1
GRIDFORMAT_BEGIN
 90
        0
 91
        1
 62
     0
 92
       -2
340
14
 93
        0
 40
0.045
309
GRIDFORMAT_END
 95
       32
302
GRIDFORMAT
  1
GRIDFORMAT_BEGIN
 90
        0
 91
        1
 62
     0
 92
       -2
340
14
 93
        0
 40
0.045
309
GRIDFORMAT_END
309
TABLEFORMAT_END
  1
CELLSTYLE_BEGIN
 90
        3
 91
        2
300
_DATA
309
CELLSTYLE_END
  0
XRECORD
  5
534
102
{ACAD_REACTORS
330
533
102
}
330
533
100
AcDbXrecord
280
     1
102
ACAD_ROUNDTRIP_PRE2007_TABLESTYLE
 90
        4
 91
        0
  1

 92
        4
 93
        0
  2

 94
        4
 95
        0
  3

  0
XRECORD
  5
506
102
{ACAD_REACTORS
330
505
102
}
330
505
100
AcDbXrecord
280
     1
102
RTVSPropertyOp0
 70
     1
102
RTVSPropertyOp1
 70
     1
102
RTVSPropertyOp2
 70
     1
102
RTVSPropertyOp3
 70
     1
102
RTVSPropertyOp4
 70
     1
102
RTVSPropertyOp5
 70
     1
102
RTVSPropertyOp6
 70
     1
102
RTVSPropertyOp7
 70
     1
102
RTVSPropertyOp8
 70
     1
102
RTVSPropertyOp9
 70
     1
102
RTVSPropertyOp10
 70
     1
102
RTVSPropertyOp11
 70
     1
102
RTVSPropertyOp12
 70
     1
102
RTVSPropertyOp13
 70
     1
102
RTVSPropertyOp14
 70
     1
102
RTVSPropertyOp15
 70
     1
102
RTVSPropertyOp16
 70
     1
102
RTVSPropertyOp17
 70
     1
102
RTVSPropertyOp18
 70
     1
102
RTVSPropertyOp19
 70
     1
102
RTVSPropertyOp20
 70
     1
102
RTVSPropertyOp21
 70
     1
102
RTVSPropertyOp22
 70
     1
102
RTVSPropertyOp23
 70
     1
102
RTVSPropertyOp24
 70
     1
102
RTVSPropertyOp25
 70
     1
102
RTVSPropertyOp26
 70
     1
102
RTVSPropertyOp27
 70
     1
102
RTVSPropertyOp28
 70
     1
102
RTVSPropertyOp29
 70
     1
102
RTVSPropertyOp30
 70
     1
102
RTVSPropertyOp31
 70
     1
102
RTVSPropertyOp32
 70
     1
102
RTVSPropertyOp33
 70
     1
102
RTVSPropertyOp34
 70
     1
102
RTVSPropertyOp35
 70
     1
102
RTVSPropertyOp36
 70
     1
102
RTVSPropertyOp37
 70
     1
102
RTVSPropertyOp38
 70
     1
102
RTVSPropertyOp39
 70
     1
102
RTVSPropertyOp40
 70
     1
102
RTVSPropertyOp41
 70
     1
102
RTVSPropertyOp42
 70
     1
102
RTVSPropertyOp43
 70
     1
102
RTVSPropertyOp44
 70
     1
102
RTVSPropertyOp45
 70
     1
102
RTVSPropertyOp46
 70
     1
102
RTVSPropertyOp47
 70
     1
102
RTVSPropertyOp48
 70
     1
102
RTVSPropertyOp49
 70
     1
102
RTVSPropertyOp50
 70
     1
102
RTVSPropertyOp51
 70
     0
102
RTVSPropertyOp52
 70
     0
102
RTVSPropertyOp53
 70
     1
102
RTVSPropertyOp54
 70
     1
102
RTVSPropertyOp55
 70
     1
102
RTVSPropertyOp56
 70
     1
102
RTVSPropertyOp57
 70
     1
102
RTVSPost2010Prop28
280
     1
102
RTVSPost2010PropOp28
 70
     1
102
RTVSPost2010Prop29
280
     1
102
RTVSPost2010PropOp29
 70
     1
102
RTVSPost2010Prop30
280
     0
102
RTVSPost2010PropOp30
 70
     1
102
RTVSPost2010Prop31
280
     0
102
RTVSPost2010PropOp31
 70
     1
102
RTVSPost2010Prop32
280
     0
102
RTVSPost2010PropOp32
 70
     1
102
RTVSPost2010Prop33
280
     0
102
RTVSPost2010PropOp33
 70
     1
102
RTVSPost2010Prop34
280
     0
102
RTVSPost2010PropOp34
 70
     1
102
RTVSPost2010Prop35
280
     0
102
RTVSPost2010PropOp35
 70
     1
102
RTVSPost2010Prop36
280
     0
102
RTVSPost2010PropOp36
 70
     1
102
RTVSPost2010Prop37
 90
       50
102
RTVSPost2010PropOp37
 70
     1
102
RTVSPost2010Prop38
140
0.0
102
RTVSPost2010PropOp38
 70
     1
102
RTVSPost2010Prop39
140
1.0
102
RTVSPost2010PropOp39
 70
     1
102
RTVSPost2010Prop40
 90
        0
102
RTVSPost2010PropOp40
 70
     1
102
RTVSPost2010Prop41ColorIndex
 90
       18
102
RTVSPost2010Prop41ColorRGB
 90
        0
102
RTVSPost2010PropOp41
 70
     1
102
RTVSPost2010Prop42
 90
       50
102
RTVSPost2010PropOp42
 70
     1
102
RTVSPost2010Prop43
 90
        3
102
RTVSPost2010PropOp43
 70
     1
102
RTVSPost2010Prop44ColorIndex
 90
        5
102
RTVSPost2010Prop44ColorRGB
 90
      255
102
RTVSPost2010PropOp44
 70
     1
102
RTVSPost2010Prop45
280
     0
102
RTVSPost2010PropOp45
 70
     1
102
RTVSPost2010Prop46
 90
       50
102
RTVSPost2010PropOp46
 70
     1
102
RTVSPost2010Prop47
 90
       50
102
RTVSPost2010PropOp47
 70
     1
102
RTVSPost2010Prop48
 90
       50
102
RTVSPost2010PropOp48
 70
     1
102
RTVSPost2010Prop49
280
     0
102
RTVSPost2010PropOp49
 70
     1
102
RTVSPost2010Prop50
 90
       50
102
RTVSPost2010PropOp50
 70
     1
102
RTVSPost2010Prop51ColorIndex
 90
      256
102
RTVSPost2010Prop51ColorRGB
 90
-16777216
102
RTVSPost2010PropOp51
 70
     0
102
RTVSPost2010Prop52
140
1.0
102
RTVSPost2010PropOp52
 70
     0
102
RTVSPost2010Prop53
 90
        2
102
RTVSPost2010PropOp53
 70
     1
102
RTVSPost2010Prop54
  1
strokes_ogs.tif
102
RTVSPost2010PropOp54
 70
     1
102
RTVSPost2010Prop55
280
     0
102
RTVSPost2010PropOp55
 70
     1
102
RTVSPost2010Prop56
140
1.0
102
RTVSPost2010PropOp56
 70
     1
102
RTVSPost2010Prop57
140
1.0
102
RTVSPost2010PropOp57
 70
     1
  0
XRECORD
  5
50C
102
{ACAD_REACTORS
330
50B
102
}
330
50B
100
AcDbXrecord
280
     1
102
RTVSPropertyOp0
 70
     1
102
RTVSPropertyOp1
 70
     1
102
RTVSPropertyOp2
 70
     1
102
RTVSPropertyOp3
 70
     1
102
RTVSPropertyOp4
 70
     1
102
RTVSPropertyOp5
 70
     1
102
RTVSPropertyOp6
 70
     1
102
RTVSPropertyOp7
 70
     1
102
RTVSPropertyOp8
 70
     1
102
RTVSPropertyOp9
 70
     1
102
RTVSPropertyOp10
 70
     1
102
RTVSPropertyOp11
 70
     1
102
RTVSPropertyOp12
 70
     1
102
RTVSPropertyOp13
 70
     1
102
RTVSPropertyOp14
 70
     1
102
RTVSPropertyOp15
 70
     1
102
RTVSPropertyOp16
 70
     1
102
RTVSPropertyOp17
 70
     1
102
RTVSPropertyOp18
 70
     1
102
RTVSPropertyOp19
 70
     1
102
RTVSPropertyOp20
 70
     1
102
RTVSPropertyOp21
 70
     1
102
RTVSPropertyOp22
 70
     1
102
RTVSPropertyOp23
 70
     1
102
RTVSPropertyOp24
 70
     1
102
RTVSPropertyOp25
 70
     1
102
RTVSPropertyOp26
 70
     1
102
RTVSPropertyOp27
 70
     1
102
RTVSPropertyOp28
 70
     1
102
RTVSPropertyOp29
 70
     1
102
RTVSPropertyOp30
 70
     1
102
RTVSPropertyOp31
 70
     1
102
RTVSPropertyOp32
 70
     1
102
RTVSPropertyOp33
 70
     1
102
RTVSPropertyOp34
 70
     1
102
RTVSPropertyOp35
 70
     1
102
RTVSPropertyOp36
 70
     1
102
RTVSPropertyOp37
 70
     1
102
RTVSPropertyOp38
 70
     1
102
RTVSPropertyOp39
 70
     1
102
RTVSPropertyOp40
 70
     1
102
RTVSPropertyOp41
 70
     1
102
RTVSPropertyOp42
 70
     1
102
RTVSPropertyOp43
 70
     1
102
RTVSPropertyOp44
 70
     1
102
RTVSPropertyOp45
 70
     1
102
RTVSPropertyOp46
 70
     1
102
RTVSPropertyOp47
 70
     1
102
RTVSPropertyOp48
 70
     1
102
RTVSPropertyOp49
 70
     1
102
RTVSPropertyOp50
 70
     1
102
RTVSPropertyOp51
 70
     0
102
RTVSPropertyOp52
 70
     0
102
RTVSPropertyOp53
 70
     1
102
RTVSPropertyOp54
 70
     1
102
RTVSPropertyOp55
 70
     1
102
RTVSPropertyOp56
 70
     1
102
RTVSPropertyOp57
 70
     1
102
RTVSPost2010Prop28
280
     0
102
RTVSPost2010PropOp28
 70
     1
102
RTVSPost2010Prop29
280
     1
102
RTVSPost2010PropOp29
 70
     1
102
RTVSPost2010Prop30
280
     1
102
RTVSPost2010PropOp30
 70
     1
102
RTVSPost2010Prop31
280
     0
102
RTVSPost2010PropOp31
 70
     1
102
RTVSPost2010Prop32
280
     0
102
RTVSPost2010PropOp32
 70
     1
102
RTVSPost2010Prop33
280
     0
102
RTVSPost2010PropOp33
 70
     1
102
RTVSPost2010Prop34
280
     0
102
RTVSPost2010PropOp34
 70
     1
102
RTVSPost2010Prop35
280
     0
102
RTVSPost2010PropOp35
 70
     1
102
RTVSPost2010Prop36
280
     0
102
RTVSPost2010PropOp36
 70
     1
102
RTVSPost2010Prop37
 90
       50
102
RTVSPost2010PropOp37
 70
     1
102
RTVSPost2010Prop38
140
0.0
102
RTVSPost2010PropOp38
 70
     1
102
RTVSPost2010Prop39
140
1.0
102
RTVSPost2010PropOp39
 70
     1
102
RTVSPost2010Prop40
 90
        0
102
RTVSPost2010PropOp40
 70
     1
102
RTVSPost2010Prop41ColorIndex
 90
       18
102
RTVSPost2010Prop41ColorRGB
 90
        0
102
RTVSPost2010PropOp41
 70
     1
102
RTVSPost2010Prop42
 90
       50
102
RTVSPost2010PropOp42
 70
     1
102
RTVSPost2010Prop43
 90
        3
102
RTVSPost2010PropOp43
 70
     1
102
RTVSPost2010Prop44ColorIndex
 90
        5
102
RTVSPost2010Prop44ColorRGB
 90
      255
102
RTVSPost2010PropOp44
 70
     1
102
RTVSPost2010Prop45
280
     0
102
RTVSPost2010PropOp45
 70
     1
102
RTVSPost2010Prop46
 90
       50
102
RTVSPost2010PropOp46
 70
     1
102
RTVSPost2010Prop47
 90
       50
102
RTVSPost2010PropOp47
 70
     1
102
RTVSPost2010Prop48
 90
       50
102
RTVSPost2010PropOp48
 70
     1
102
RTVSPost2010Prop49
280
     0
102
RTVSPost2010PropOp49
 70
     1
102
RTVSPost2010Prop50
 90
       50
102
RTVSPost2010PropOp50
 70
     1
102
RTVSPost2010Prop51ColorIndex
 90
      256
102
RTVSPost2010Prop51ColorRGB
 90
-16777216
102
RTVSPost2010PropOp51
 70
     0
102
RTVSPost2010Prop52
140
1.0
102
RTVSPost2010PropOp52
 70
     0
102
RTVSPost2010Prop53
 90
        2
102
RTVSPost2010PropOp53
 70
     1
102
RTVSPost2010Prop54
  1
strokes_ogs.tif
102
RTVSPost2010PropOp54
 70
     1
102
RTVSPost2010Prop55
280
     0
102
RTVSPost2010PropOp55
 70
     1
102
RTVSPost2010Prop56
140
1.0
102
RTVSPost2010PropOp56
 70
     1
102
RTVSPost2010Prop57
140
1.0
102
RTVSPost2010PropOp57
 70
     1
  0
XRECORD
  5
514
102
{ACAD_REACTORS
330
513
102
}
330
513
100
AcDbXrecord
280
     1
102
RTVSPropertyOp0
 70
     1
102
RTVSPropertyOp1
 70
     1
102
RTVSPropertyOp2
 70
     1
102
RTVSPropertyOp3
 70
     1
102
RTVSPropertyOp4
 70
     1
102
RTVSPropertyOp5
 70
     1
102
RTVSPropertyOp6
 70
     1
102
RTVSPropertyOp7
 70
     1
102
RTVSPropertyOp8
 70
     1
102
RTVSPropertyOp9
 70
     1
102
RTVSPropertyOp10
 70
     1
102
RTVSPropertyOp11
 70
     1
102
RTVSPropertyOp12
 70
     1
102
RTVSPropertyOp13
 70
     1
102
RTVSPropertyOp14
 70
     1
102
RTVSPropertyOp15
 70
     1
102
RTVSPropertyOp16
 70
     1
102
RTVSPropertyOp17
 70
     1
102
RTVSPropertyOp18
 70
     1
102
RTVSPropertyOp19
 70
     1
102
RTVSPropertyOp20
 70
     1
102
RTVSPropertyOp21
 70
     1
102
RTVSPropertyOp22
 70
     1
102
RTVSPropertyOp23
 70
     1
102
RTVSPropertyOp24
 70
     1
102
RTVSPropertyOp25
 70
     1
102
RTVSPropertyOp26
 70
     1
102
RTVSPropertyOp27
 70
     1
102
RTVSPropertyOp28
 70
     1
102
RTVSPropertyOp29
 70
     1
102
RTVSPropertyOp30
 70
     1
102
RTVSPropertyOp31
 70
     1
102
RTVSPropertyOp32
 70
     1
102
RTVSPropertyOp33
 70
     1
102
RTVSPropertyOp34
 70
     1
102
RTVSPropertyOp35
 70
     1
102
RTVSPropertyOp36
 70
     1
102
RTVSPropertyOp37
 70
     1
102
RTVSPropertyOp38
 70
     1
102
RTVSPropertyOp39
 70
     1
102
RTVSPropertyOp40
 70
     1
102
RTVSPropertyOp41
 70
     1
102
RTVSPropertyOp42
 70
     1
102
RTVSPropertyOp43
 70
     1
102
RTVSPropertyOp44
 70
     1
102
RTVSPropertyOp45
 70
     1
102
RTVSPropertyOp46
 70
     1
102
RTVSPropertyOp47
 70
     1
102
RTVSPropertyOp48
 70
     1
102
RTVSPropertyOp49
 70
     1
102
RTVSPropertyOp50
 70
     1
102
RTVSPropertyOp51
 70
     0
102
RTVSPropertyOp52
 70
     0
102
RTVSPropertyOp53
 70
     1
102
RTVSPropertyOp54
 70
     1
102
RTVSPropertyOp55
 70
     1
102
RTVSPropertyOp56
 70
     1
102
RTVSPropertyOp57
 70
     1
102
RTVSPost2010Prop28
280
     0
102
RTVSPost2010PropOp28
 70
     1
102
RTVSPost2010Prop29
280
     1
102
RTVSPost2010PropOp29
 70
     1
102
RTVSPost2010Prop30
280
     1
102
RTVSPost2010PropOp30
 70
     1
102
RTVSPost2010Prop31
280
     0
102
RTVSPost2010PropOp31
 70
     1
102
RTVSPost2010Prop32
280
     0
102
RTVSPost2010PropOp32
 70
     1
102
RTVSPost2010Prop33
280
     0
102
RTVSPost2010PropOp33
 70
     1
102
RTVSPost2010Prop34
280
     0
102
RTVSPost2010PropOp34
 70
     1
102
RTVSPost2010Prop35
280
     0
102
RTVSPost2010PropOp35
 70
     1
102
RTVSPost2010Prop36
280
     0
102
RTVSPost2010PropOp36
 70
     1
102
RTVSPost2010Prop37
 90
       50
102
RTVSPost2010PropOp37
 70
     1
102
RTVSPost2010Prop38
140
0.0
102
RTVSPost2010PropOp38
 70
     1
102
RTVSPost2010Prop39
140
1.0
102
RTVSPost2010PropOp39
 70
     1
102
RTVSPost2010Prop40
 90
        0
102
RTVSPost2010PropOp40
 70
     1
102
RTVSPost2010Prop41ColorIndex
 90
       18
102
RTVSPost2010Prop41ColorRGB
 90
        0
102
RTVSPost2010PropOp41
 70
     1
102
RTVSPost2010Prop42
 90
       50
102
RTVSPost2010PropOp42
 70
     1
102
RTVSPost2010Prop43
 90
        3
102
RTVSPost2010PropOp43
 70
     1
102
RTVSPost2010Prop44ColorIndex
 90
        5
102
RTVSPost2010Prop44ColorRGB
 90
      255
102
RTVSPost2010PropOp44
 70
     1
102
RTVSPost2010Prop45
280
     0
102
RTVSPost2010PropOp45
 70
     1
102
RTVSPost2010Prop46
 90
       50
102
RTVSPost2010PropOp46
 70
     1
102
RTVSPost2010Prop47
 90
       50
102
RTVSPost2010PropOp47
 70
     1
102
RTVSPost2010Prop48
 90
       50
102
RTVSPost2010PropOp48
 70
     1
102
RTVSPost2010Prop49
280
     0
102
RTVSPost2010PropOp49
 70
     1
102
RTVSPost2010Prop50
 90
       50
102
RTVSPost2010PropOp50
 70
     1
102
RTVSPost2010Prop51ColorIndex
 90
      256
102
RTVSPost2010Prop51ColorRGB
 90
-16777216
102
RTVSPost2010PropOp51
 70
     0
102
RTVSPost2010Prop52
140
1.0
102
RTVSPost2010PropOp52
 70
     0
102
RTVSPost2010Prop53
 90
        2
102
RTVSPost2010PropOp53
 70
     1
102
RTVSPost2010Prop54
  1
strokes_ogs.tif
102
RTVSPost2010PropOp54
 70
     1
102
RTVSPost2010Prop55
280
     0
102
RTVSPost2010PropOp55
 70
     1
102
RTVSPost2010Prop56
140
1.0
102
RTVSPost2010PropOp56
 70
     1
102
RTVSPost2010Prop57
140
1.0
102
RTVSPost2010PropOp57
 70
     1
  0
XRECORD
  5
51C
102
{ACAD_REACTORS
330
51B
102
}
330
51B
100
AcDbXrecord
280
     1
102
RTVSPropertyOp0
 70
     1
102
RTVSPropertyOp1
 70
     1
102
RTVSPropertyOp2
 70
     1
102
RTVSPropertyOp3
 70
     1
102
RTVSPropertyOp4
 70
     1
102
RTVSPropertyOp5
 70
     1
102
RTVSPropertyOp6
 70
     1
102
RTVSPropertyOp7
 70
     1
102
RTVSPropertyOp8
 70
     1
102
RTVSPropertyOp9
 70
     1
102
RTVSPropertyOp10
 70
     1
102
RTVSPropertyOp11
 70
     1
102
RTVSPropertyOp12
 70
     1
102
RTVSPropertyOp13
 70
     1
102
RTVSPropertyOp14
 70
     1
102
RTVSPropertyOp15
 70
     1
102
RTVSPropertyOp16
 70
     1
102
RTVSPropertyOp17
 70
     1
102
RTVSPropertyOp18
 70
     1
102
RTVSPropertyOp19
 70
     1
102
RTVSPropertyOp20
 70
     1
102
RTVSPropertyOp21
 70
     1
102
RTVSPropertyOp22
 70
     1
102
RTVSPropertyOp23
 70
     1
102
RTVSPropertyOp24
 70
     1
102
RTVSPropertyOp25
 70
     1
102
RTVSPropertyOp26
 70
     1
102
RTVSPropertyOp27
 70
     1
102
RTVSPropertyOp28
 70
     1
102
RTVSPropertyOp29
 70
     1
102
RTVSPropertyOp30
 70
     1
102
RTVSPropertyOp31
 70
     1
102
RTVSPropertyOp32
 70
     1
102
RTVSPropertyOp33
 70
     1
102
RTVSPropertyOp34
 70
     1
102
RTVSPropertyOp35
 70
     1
102
RTVSPropertyOp36
 70
     1
102
RTVSPropertyOp37
 70
     1
102
RTVSPropertyOp38
 70
     1
102
RTVSPropertyOp39
 70
     1
102
RTVSPropertyOp40
 70
     1
102
RTVSPropertyOp41
 70
     1
102
RTVSPropertyOp42
 70
     1
102
RTVSPropertyOp43
 70
     1
102
RTVSPropertyOp44
 70
     1
102
RTVSPropertyOp45
 70
     1
102
RTVSPropertyOp46
 70
     1
102
RTVSPropertyOp47
 70
     1
102
RTVSPropertyOp48
 70
     1
102
RTVSPropertyOp49
 70
     1
102
RTVSPropertyOp50
 70
     1
102
RTVSPropertyOp51
 70
     0
102
RTVSPropertyOp52
 70
     0
102
RTVSPropertyOp53
 70
     1
102
RTVSPropertyOp54
 70
     1
102
RTVSPropertyOp55
 70
     1
102
RTVSPropertyOp56
 70
     1
102
RTVSPropertyOp57
 70
     1
102
RTVSPost2010Prop28
280
     0
102
RTVSPost2010PropOp28
 70
     1
102
RTVSPost2010Prop29
280
     1
102
RTVSPost2010PropOp29
 70
     1
102
RTVSPost2010Prop30
280
     1
102
RTVSPost2010PropOp30
 70
     1
102
RTVSPost2010Prop31
280
     0
102
RTVSPost2010PropOp31
 70
     1
102
RTVSPost2010Prop32
280
     0
102
RTVSPost2010PropOp32
 70
     1
102
RTVSPost2010Prop33
280
     0
102
RTVSPost2010PropOp33
 70
     1
102
RTVSPost2010Prop34
280
     0
102
RTVSPost2010PropOp34
 70
     1
102
RTVSPost2010Prop35
280
     0
102
RTVSPost2010PropOp35
 70
     1
102
RTVSPost2010Prop36
280
     0
102
RTVSPost2010PropOp36
 70
     1
102
RTVSPost2010Prop37
 90
       50
102
RTVSPost2010PropOp37
 70
     1
102
RTVSPost2010Prop38
140
0.0
102
RTVSPost2010PropOp38
 70
     1
102
RTVSPost2010Prop39
140
1.0
102
RTVSPost2010PropOp39
 70
     1
102
RTVSPost2010Prop40
 90
        0
102
RTVSPost2010PropOp40
 70
     1
102
RTVSPost2010Prop41ColorIndex
 90
       18
102
RTVSPost2010Prop41ColorRGB
 90
        0
102
RTVSPost2010PropOp41
 70
     1
102
RTVSPost2010Prop42
 90
       50
102
RTVSPost2010PropOp42
 70
     1
102
RTVSPost2010Prop43
 90
        3
102
RTVSPost2010PropOp43
 70
     1
102
RTVSPost2010Prop44ColorIndex
 90
        5
102
RTVSPost2010Prop44ColorRGB
 90
      255
102
RTVSPost2010PropOp44
 70
     1
102
RTVSPost2010Prop45
280
     0
102
RTVSPost2010PropOp45
 70
     1
102
RTVSPost2010Prop46
 90
       50
102
RTVSPost2010PropOp46
 70
     1
102
RTVSPost2010Prop47
 90
       50
102
RTVSPost2010PropOp47
 70
     1
102
RTVSPost2010Prop48
 90
       50
102
RTVSPost2010PropOp48
 70
     1
102
RTVSPost2010Prop49
280
     0
102
RTVSPost2010PropOp49
 70
     1
102
RTVSPost2010Prop50
 90
       50
102
RTVSPost2010PropOp50
 70
     1
102
RTVSPost2010Prop51ColorIndex
 90
      256
102
RTVSPost2010Prop51ColorRGB
 90
-16777216
102
RTVSPost2010PropOp51
 70
     0
102
RTVSPost2010Prop52
140
1.0
102
RTVSPost2010PropOp52
 70
     0
102
RTVSPost2010Prop53
 90
        2
102
RTVSPost2010PropOp53
 70
     1
102
RTVSPost2010Prop54
  1
strokes_ogs.tif
102
RTVSPost2010PropOp54
 70
     1
102
RTVSPost2010Prop55
280
     0
102
RTVSPost2010PropOp55
 70
     1
102
RTVSPost2010Prop56
140
1.0
102
RTVSPost2010PropOp56
 70
     1
102
RTVSPost2010Prop57
140
1.0
102
RTVSPost2010PropOp57
 70
     1
  0
XRECORD
  5
510
102
{ACAD_REACTORS
330
50F
102
}
330
50F
100
AcDbXrecord
280
     1
102
RTVSPropertyOp0
 70
     1
102
RTVSPropertyOp1
 70
     1
102
RTVSPropertyOp2
 70
     1
102
RTVSPropertyOp3
 70
     1
102
RTVSPropertyOp4
 70
     1
102
RTVSPropertyOp5
 70
     1
102
RTVSPropertyOp6
 70
     1
102
RTVSPropertyOp7
 70
     1
102
RTVSPropertyOp8
 70
     1
102
RTVSPropertyOp9
 70
     1
102
RTVSPropertyOp10
 70
     1
102
RTVSPropertyOp11
 70
     1
102
RTVSPropertyOp12
 70
     1
102
RTVSPropertyOp13
 70
     1
102
RTVSPropertyOp14
 70
     1
102
RTVSPropertyOp15
 70
     1
102
RTVSPropertyOp16
 70
     1
102
RTVSPropertyOp17
 70
     1
102
RTVSPropertyOp18
 70
     1
102
RTVSPropertyOp19
 70
     1
102
RTVSPropertyOp20
 70
     1
102
RTVSPropertyOp21
 70
     1
102
RTVSPropertyOp22
 70
     1
102
RTVSPropertyOp23
 70
     1
102
RTVSPropertyOp24
 70
     1
102
RTVSPropertyOp25
 70
     1
102
RTVSPropertyOp26
 70
     1
102
RTVSPropertyOp27
 70
     1
102
RTVSPropertyOp28
 70
     1
102
RTVSPropertyOp29
 70
     1
102
RTVSPropertyOp30
 70
     1
102
RTVSPropertyOp31
 70
     1
102
RTVSPropertyOp32
 70
     1
102
RTVSPropertyOp33
 70
     1
102
RTVSPropertyOp34
 70
     1
102
RTVSPropertyOp35
 70
     1
102
RTVSPropertyOp36
 70
     1
102
RTVSPropertyOp37
 70
     1
102
RTVSPropertyOp38
 70
     1
102
RTVSPropertyOp39
 70
     1
102
RTVSPropertyOp40
 70
     1
102
RTVSPropertyOp41
 70
     1
102
RTVSPropertyOp42
 70
     1
102
RTVSPropertyOp43
 70
     1
102
RTVSPropertyOp44
 70
     1
102
RTVSPropertyOp45
 70
     1
102
RTVSPropertyOp46
 70
     1
102
RTVSPropertyOp47
 70
     1
102
RTVSPropertyOp48
 70
     1
102
RTVSPropertyOp49
 70
     1
102
RTVSPropertyOp50
 70
     1
102
RTVSPropertyOp51
 70
     0
102
RTVSPropertyOp52
 70
     0
102
RTVSPropertyOp53
 70
     1
102
RTVSPropertyOp54
 70
     1
102
RTVSPropertyOp55
 70
     1
102
RTVSPropertyOp56
 70
     1
102
RTVSPropertyOp57
 70
     1
102
RTVSPost2010Prop28
280
     0
102
RTVSPost2010PropOp28
 70
     1
102
RTVSPost2010Prop29
280
     1
102
RTVSPost2010PropOp29
 70
     1
102
RTVSPost2010Prop30
280
     1
102
RTVSPost2010PropOp30
 70
     1
102
RTVSPost2010Prop31
280
     0
102
RTVSPost2010PropOp31
 70
     1
102
RTVSPost2010Prop32
280
     0
102
RTVSPost2010PropOp32
 70
     1
102
RTVSPost2010Prop33
280
     0
102
RTVSPost2010PropOp33
 70
     1
102
RTVSPost2010Prop34
280
     0
102
RTVSPost2010PropOp34
 70
     1
102
RTVSPost2010Prop35
280
     0
102
RTVSPost2010PropOp35
 70
     1
102
RTVSPost2010Prop36
280
     0
102
RTVSPost2010PropOp36
 70
     1
102
RTVSPost2010Prop37
 90
       50
102
RTVSPost2010PropOp37
 70
     1
102
RTVSPost2010Prop38
140
0.0
102
RTVSPost2010PropOp38
 70
     1
102
RTVSPost2010Prop39
140
1.0
102
RTVSPost2010PropOp39
 70
     1
102
RTVSPost2010Prop40
 90
        0
102
RTVSPost2010PropOp40
 70
     1
102
RTVSPost2010Prop41ColorIndex
 90
       18
102
RTVSPost2010Prop41ColorRGB
 90
        0
102
RTVSPost2010PropOp41
 70
     1
102
RTVSPost2010Prop42
 90
       50
102
RTVSPost2010PropOp42
 70
     1
102
RTVSPost2010Prop43
 90
        3
102
RTVSPost2010PropOp43
 70
     1
102
RTVSPost2010Prop44ColorIndex
 90
        5
102
RTVSPost2010Prop44ColorRGB
 90
      255
102
RTVSPost2010PropOp44
 70
     1
102
RTVSPost2010Prop45
280
     0
102
RTVSPost2010PropOp45
 70
     1
102
RTVSPost2010Prop46
 90
       50
102
RTVSPost2010PropOp46
 70
     1
102
RTVSPost2010Prop47
 90
       50
102
RTVSPost2010PropOp47
 70
     1
102
RTVSPost2010Prop48
 90
       50
102
RTVSPost2010PropOp48
 70
     1
102
RTVSPost2010Prop49
280
     0
102
RTVSPost2010PropOp49
 70
     1
102
RTVSPost2010Prop50
 90
       50
102
RTVSPost2010PropOp50
 70
     1
102
RTVSPost2010Prop51ColorIndex
 90
      256
102
RTVSPost2010Prop51ColorRGB
 90
-16777216
102
RTVSPost2010PropOp51
 70
     0
102
RTVSPost2010Prop52
140
1.0
102
RTVSPost2010PropOp52
 70
     0
102
RTVSPost2010Prop53
 90
        2
102
RTVSPost2010PropOp53
 70
     1
102
RTVSPost2010Prop54
  1
strokes_ogs.tif
102
RTVSPost2010PropOp54
 70
     1
102
RTVSPost2010Prop55
280
     0
102
RTVSPost2010PropOp55
 70
     1
102
RTVSPost2010Prop56
140
1.0
102
RTVSPost2010PropOp56
 70
     1
102
RTVSPost2010Prop57
140
1.0
102
RTVSPost2010PropOp57
 70
     1
  0
XRECORD
  5
512
102
{ACAD_REACTORS
330
511
102
}
330
511
100
AcDbXrecord
280
     1
102
RTVSPropertyOp0
 70
     1
102
RTVSPropertyOp1
 70
     1
102
RTVSPropertyOp2
 70
     1
102
RTVSPropertyOp3
 70
     1
102
RTVSPropertyOp4
 70
     1
102
RTVSPropertyOp5
 70
     1
102
RTVSPropertyOp6
 70
     1
102
RTVSPropertyOp7
 70
     1
102
RTVSPropertyOp8
 70
     1
102
RTVSPropertyOp9
 70
     1
102
RTVSPropertyOp10
 70
     1
102
RTVSPropertyOp11
 70
     1
102
RTVSPropertyOp12
 70
     1
102
RTVSPropertyOp13
 70
     1
102
RTVSPropertyOp14
 70
     1
102
RTVSPropertyOp15
 70
     1
102
RTVSPropertyOp16
 70
     1
102
RTVSPropertyOp17
 70
     1
102
RTVSPropertyOp18
 70
     1
102
RTVSPropertyOp19
 70
     1
102
RTVSPropertyOp20
 70
     1
102
RTVSPropertyOp21
 70
     1
102
RTVSPropertyOp22
 70
     1
102
RTVSPropertyOp23
 70
     1
102
RTVSPropertyOp24
 70
     1
102
RTVSPropertyOp25
 70
     1
102
RTVSPropertyOp26
 70
     1
102
RTVSPropertyOp27
 70
     1
102
RTVSPropertyOp28
 70
     1
102
RTVSPropertyOp29
 70
     1
102
RTVSPropertyOp30
 70
     1
102
RTVSPropertyOp31
 70
     1
102
RTVSPropertyOp32
 70
     1
102
RTVSPropertyOp33
 70
     1
102
RTVSPropertyOp34
 70
     1
102
RTVSPropertyOp35
 70
     1
102
RTVSPropertyOp36
 70
     1
102
RTVSPropertyOp37
 70
     1
102
RTVSPropertyOp38
 70
     1
102
RTVSPropertyOp39
 70
     1
102
RTVSPropertyOp40
 70
     1
102
RTVSPropertyOp41
 70
     1
102
RTVSPropertyOp42
 70
     1
102
RTVSPropertyOp43
 70
     1
102
RTVSPropertyOp44
 70
     1
102
RTVSPropertyOp45
 70
     1
102
RTVSPropertyOp46
 70
     1
102
RTVSPropertyOp47
 70
     1
102
RTVSPropertyOp48
 70
     1
102
RTVSPropertyOp49
 70
     1
102
RTVSPropertyOp50
 70
     1
102
RTVSPropertyOp51
 70
     0
102
RTVSPropertyOp52
 70
     0
102
RTVSPropertyOp53
 70
     1
102
RTVSPropertyOp54
 70
     1
102
RTVSPropertyOp55
 70
     1
102
RTVSPropertyOp56
 70
     1
102
RTVSPropertyOp57
 70
     1
102
RTVSPost2010Prop28
280
     0
102
RTVSPost2010PropOp28
 70
     1
102
RTVSPost2010Prop29
280
     1
102
RTVSPost2010PropOp29
 70
     1
102
RTVSPost2010Prop30
280
     1
102
RTVSPost2010PropOp30
 70
     1
102
RTVSPost2010Prop31
280
     0
102
RTVSPost2010PropOp31
 70
     1
102
RTVSPost2010Prop32
280
     0
102
RTVSPost2010PropOp32
 70
     1
102
RTVSPost2010Prop33
280
     0
102
RTVSPost2010PropOp33
 70
     1
102
RTVSPost2010Prop34
280
     0
102
RTVSPost2010PropOp34
 70
     1
102
RTVSPost2010Prop35
280
     0
102
RTVSPost2010PropOp35
 70
     1
102
RTVSPost2010Prop36
280
     0
102
RTVSPost2010PropOp36
 70
     1
102
RTVSPost2010Prop37
 90
       50
102
RTVSPost2010PropOp37
 70
     1
102
RTVSPost2010Prop38
140
0.0
102
RTVSPost2010PropOp38
 70
     1
102
RTVSPost2010Prop39
140
1.0
102
RTVSPost2010PropOp39
 70
     1
102
RTVSPost2010Prop40
 90
        0
102
RTVSPost2010PropOp40
 70
     1
102
RTVSPost2010Prop41ColorIndex
 90
       18
102
RTVSPost2010Prop41ColorRGB
 90
        0
102
RTVSPost2010PropOp41
 70
     1
102
RTVSPost2010Prop42
 90
       50
102
RTVSPost2010PropOp42
 70
     1
102
RTVSPost2010Prop43
 90
        3
102
RTVSPost2010PropOp43
 70
     1
102
RTVSPost2010Prop44ColorIndex
 90
        5
102
RTVSPost2010Prop44ColorRGB
 90
      255
102
RTVSPost2010PropOp44
 70
     1
102
RTVSPost2010Prop45
280
     0
102
RTVSPost2010PropOp45
 70
     1
102
RTVSPost2010Prop46
 90
       50
102
RTVSPost2010PropOp46
 70
     1
102
RTVSPost2010Prop47
 90
       50
102
RTVSPost2010PropOp47
 70
     1
102
RTVSPost2010Prop48
 90
       50
102
RTVSPost2010PropOp48
 70
     1
102
RTVSPost2010Prop49
280
     0
102
RTVSPost2010PropOp49
 70
     1
102
RTVSPost2010Prop50
 90
       50
102
RTVSPost2010PropOp50
 70
     1
102
RTVSPost2010Prop51ColorIndex
 90
      256
102
RTVSPost2010Prop51ColorRGB
 90
-16777216
102
RTVSPost2010PropOp51
 70
     0
102
RTVSPost2010Prop52
140
1.0
102
RTVSPost2010PropOp52
 70
     0
102
RTVSPost2010Prop53
 90
        2
102
RTVSPost2010PropOp53
 70
     1
102
RTVSPost2010Prop54
  1
strokes_ogs.tif
102
RTVSPost2010PropOp54
 70
     1
102
RTVSPost2010Prop55
280
     0
102
RTVSPost2010PropOp55
 70
     1
102
RTVSPost2010Prop56
140
1.0
102
RTVSPost2010PropOp56
 70
     1
102
RTVSPost2010Prop57
140
1.0
102
RTVSPost2010PropOp57
 70
     1
  0
XRECORD
  5
522
102
{ACAD_REACTORS
330
521
102
}
330
521
100
AcDbXrecord
280
     1
102
RTVSPropertyOp0
 70
     0
102
RTVSPropertyOp1
 70
     0
102
RTVSPropertyOp2
 70
     0
102
RTVSPropertyOp3
 70
     0
102
RTVSPropertyOp4
 70
     0
102
RTVSPropertyOp5
 70
     0
102
RTVSPropertyOp6
 70
     0
102
RTVSPropertyOp7
 70
     0
102
RTVSPropertyOp8
 70
     0
102
RTVSPropertyOp9
 70
     0
102
RTVSPropertyOp10
 70
     0
102
RTVSPropertyOp11
 70
     0
102
RTVSPropertyOp12
 70
     0
102
RTVSPropertyOp13
 70
     0
102
RTVSPropertyOp14
 70
     2
102
RTVSPropertyOp15
 70
     0
102
RTVSPropertyOp16
 70
     0
102
RTVSPropertyOp17
 70
     0
102
RTVSPropertyOp18
 70
     0
102
RTVSPropertyOp19
 70
     0
102
RTVSPropertyOp20
 70
     0
102
RTVSPropertyOp21
 70
     0
102
RTVSPropertyOp22
 70
     0
102
RTVSPropertyOp23
 70
     0
102
RTVSPropertyOp24
 70
     0
102
RTVSPropertyOp25
 70
     0
102
RTVSPropertyOp26
 70
     0
102
RTVSPropertyOp27
 70
     0
102
RTVSPropertyOp28
 70
     0
102
RTVSPropertyOp29
 70
     0
102
RTVSPropertyOp30
 70
     0
102
RTVSPropertyOp31
 70
     0
102
RTVSPropertyOp32
 70
     0
102
RTVSPropertyOp33
 70
     0
102
RTVSPropertyOp34
 70
     0
102
RTVSPropertyOp35
 70
     0
102
RTVSPropertyOp36
 70
     0
102
RTVSPropertyOp37
 70
     0
102
RTVSPropertyOp38
 70
     0
102
RTVSPropertyOp39
 70
     0
102
RTVSPropertyOp40
 70
     0
102
RTVSPropertyOp41
 70
     0
102
RTVSPropertyOp42
 70
     0
102
RTVSPropertyOp43
 70
     0
102
RTVSPropertyOp44
 70
     0
102
RTVSPropertyOp45
 70
     0
102
RTVSPropertyOp46
 70
     0
102
RTVSPropertyOp47
 70
     0
102
RTVSPropertyOp48
 70
     0
102
RTVSPropertyOp49
 70
     0
102
RTVSPropertyOp50
 70
     0
102
RTVSPropertyOp51
 70
     0
102
RTVSPropertyOp52
 70
     0
102
RTVSPropertyOp53
 70
     0
102
RTVSPropertyOp54
 70
     0
102
RTVSPropertyOp55
 70
     0
102
RTVSPropertyOp56
 70
     0
102
RTVSPropertyOp57
 70
     0
102
RTVSPost2010Prop28
280
     0
102
RTVSPost2010PropOp28
 70
     0
102
RTVSPost2010Prop29
280
     1
102
RTVSPost2010PropOp29
 70
     0
102
RTVSPost2010Prop30
280
     1
102
RTVSPost2010PropOp30
 70
     0
102
RTVSPost2010Prop31
280
     0
102
RTVSPost2010PropOp31
 70
     0
102
RTVSPost2010Prop32
280
     0
102
RTVSPost2010PropOp32
 70
     0
102
RTVSPost2010Prop33
280
     0
102
RTVSPost2010PropOp33
 70
     0
102
RTVSPost2010Prop34
280
     0
102
RTVSPost2010PropOp34
 70
     0
102
RTVSPost2010Prop35
280
     0
102
RTVSPost2010PropOp35
 70
     0
102
RTVSPost2010Prop36
280
     0
102
RTVSPost2010PropOp36
 70
     0
102
RTVSPost2010Prop37
 90
       50
102
RTVSPost2010PropOp37
 70
     0
102
RTVSPost2010Prop38
140
0.0
102
RTVSPost2010PropOp38
 70
     0
102
RTVSPost2010Prop39
140
1.0
102
RTVSPost2010PropOp39
 70
     0
102
RTVSPost2010Prop40
 90
        0
102
RTVSPost2010PropOp40
 70
     0
102
RTVSPost2010Prop41ColorIndex
 90
       18
102
RTVSPost2010Prop41ColorRGB
 90
        0
102
RTVSPost2010PropOp41
 70
     0
102
RTVSPost2010Prop42
 90
       50
102
RTVSPost2010PropOp42
 70
     0
102
RTVSPost2010Prop43
 90
        3
102
RTVSPost2010PropOp43
 70
     0
102
RTVSPost2010Prop44ColorIndex
 90
        5
102
RTVSPost2010Prop44ColorRGB
 90
      255
102
RTVSPost2010PropOp44
 70
     0
102
RTVSPost2010Prop45
280
     0
102
RTVSPost2010PropOp45
 70
     0
102
RTVSPost2010Prop46
 90
       50
102
RTVSPost2010PropOp46
 70
     0
102
RTVSPost2010Prop47
 90
       50
102
RTVSPost2010PropOp47
 70
     0
102
RTVSPost2010Prop48
 90
       50
102
RTVSPost2010PropOp48
 70
     0
102
RTVSPost2010Prop49
280
     0
102
RTVSPost2010PropOp49
 70
     0
102
RTVSPost2010Prop50
 90
       50
102
RTVSPost2010PropOp50
 70
     0
102
RTVSPost2010Prop51ColorIndex
 90
      256
102
RTVSPost2010Prop51ColorRGB
 90
-16777216
102
RTVSPost2010PropOp51
 70
     0
102
RTVSPost2010Prop52
140
1.0
102
RTVSPost2010PropOp52
 70
     0
102
RTVSPost2010Prop53
 90
        2
102
RTVSPost2010PropOp53
 70
     0
102
RTVSPost2010Prop54
  1
strokes_ogs.tif
102
RTVSPost2010PropOp54
 70
     0
102
RTVSPost2010Prop55
280
     0
102
RTVSPost2010PropOp55
 70
     0
102
RTVSPost2010Prop56
140
1.0
102
RTVSPost2010PropOp56
 70
     0
102
RTVSPost2010Prop57
140
1.0
102
RTVSPost2010PropOp57
 70
     0
  0
XRECORD
  5
51A
102
{ACAD_REACTORS
330
519
102
}
330
519
100
AcDbXrecord
280
     1
102
RTVSPropertyOp0
 70
     1
102
RTVSPropertyOp1
 70
     1
102
RTVSPropertyOp2
 70
     1
102
RTVSPropertyOp3
 70
     1
102
RTVSPropertyOp4
 70
     1
102
RTVSPropertyOp5
 70
     1
102
RTVSPropertyOp6
 70
     1
102
RTVSPropertyOp7
 70
     1
102
RTVSPropertyOp8
 70
     1
102
RTVSPropertyOp9
 70
     1
102
RTVSPropertyOp10
 70
     1
102
RTVSPropertyOp11
 70
     1
102
RTVSPropertyOp12
 70
     1
102
RTVSPropertyOp13
 70
     1
102
RTVSPropertyOp14
 70
     1
102
RTVSPropertyOp15
 70
     1
102
RTVSPropertyOp16
 70
     1
102
RTVSPropertyOp17
 70
     1
102
RTVSPropertyOp18
 70
     1
102
RTVSPropertyOp19
 70
     1
102
RTVSPropertyOp20
 70
     1
102
RTVSPropertyOp21
 70
     1
102
RTVSPropertyOp22
 70
     1
102
RTVSPropertyOp23
 70
     1
102
RTVSPropertyOp24
 70
     1
102
RTVSPropertyOp25
 70
     1
102
RTVSPropertyOp26
 70
     1
102
RTVSPropertyOp27
 70
     1
102
RTVSPropertyOp28
 70
     1
102
RTVSPropertyOp29
 70
     1
102
RTVSPropertyOp30
 70
     1
102
RTVSPropertyOp31
 70
     1
102
RTVSPropertyOp32
 70
     1
102
RTVSPropertyOp33
 70
     1
102
RTVSPropertyOp34
 70
     1
102
RTVSPropertyOp35
 70
     1
102
RTVSPropertyOp36
 70
     1
102
RTVSPropertyOp37
 70
     1
102
RTVSPropertyOp38
 70
     1
102
RTVSPropertyOp39
 70
     1
102
RTVSPropertyOp40
 70
     1
102
RTVSPropertyOp41
 70
     1
102
RTVSPropertyOp42
 70
     1
102
RTVSPropertyOp43
 70
     1
102
RTVSPropertyOp44
 70
     1
102
RTVSPropertyOp45
 70
     1
102
RTVSPropertyOp46
 70
     1
102
RTVSPropertyOp47
 70
     1
102
RTVSPropertyOp48
 70
     1
102
RTVSPropertyOp49
 70
     1
102
RTVSPropertyOp50
 70
     1
102
RTVSPropertyOp51
 70
     0
102
RTVSPropertyOp52
 70
     0
102
RTVSPropertyOp53
 70
     1
102
RTVSPropertyOp54
 70
     1
102
RTVSPropertyOp55
 70
     1
102
RTVSPropertyOp56
 70
     1
102
RTVSPropertyOp57
 70
     1
102
RTVSPost2010Prop28
280
     0
102
RTVSPost2010PropOp28
 70
     1
102
RTVSPost2010Prop29
280
     1
102
RTVSPost2010PropOp29
 70
     1
102
RTVSPost2010Prop30
280
     1
102
RTVSPost2010PropOp30
 70
     1
102
RTVSPost2010Prop31
280
     0
102
RTVSPost2010PropOp31
 70
     1
102
RTVSPost2010Prop32
280
     0
102
RTVSPost2010PropOp32
 70
     1
102
RTVSPost2010Prop33
280
     0
102
RTVSPost2010PropOp33
 70
     1
102
RTVSPost2010Prop34
280
     0
102
RTVSPost2010PropOp34
 70
     1
102
RTVSPost2010Prop35
280
     0
102
RTVSPost2010PropOp35
 70
     1
102
RTVSPost2010Prop36
280
     0
102
RTVSPost2010PropOp36
 70
     1
102
RTVSPost2010Prop37
 90
       50
102
RTVSPost2010PropOp37
 70
     1
102
RTVSPost2010Prop38
140
0.0
102
RTVSPost2010PropOp38
 70
     1
102
RTVSPost2010Prop39
140
1.0
102
RTVSPost2010PropOp39
 70
     1
102
RTVSPost2010Prop40
 90
        0
102
RTVSPost2010PropOp40
 70
     1
102
RTVSPost2010Prop41ColorIndex
 90
       18
102
RTVSPost2010Prop41ColorRGB
 90
        0
102
RTVSPost2010PropOp41
 70
     1
102
RTVSPost2010Prop42
 90
       50
102
RTVSPost2010PropOp42
 70
     1
102
RTVSPost2010Prop43
 90
        3
102
RTVSPost2010PropOp43
 70
     1
102
RTVSPost2010Prop44ColorIndex
 90
        5
102
RTVSPost2010Prop44ColorRGB
 90
      255
102
RTVSPost2010PropOp44
 70
     1
102
RTVSPost2010Prop45
280
     0
102
RTVSPost2010PropOp45
 70
     1
102
RTVSPost2010Prop46
 90
       50
102
RTVSPost2010PropOp46
 70
     1
102
RTVSPost2010Prop47
 90
       50
102
RTVSPost2010PropOp47
 70
     1
102
RTVSPost2010Prop48
 90
       50
102
RTVSPost2010PropOp48
 70
     1
102
RTVSPost2010Prop49
280
     0
102
RTVSPost2010PropOp49
 70
     1
102
RTVSPost2010Prop50
 90
       50
102
RTVSPost2010PropOp50
 70
     1
102
RTVSPost2010Prop51ColorIndex
 90
      256
102
RTVSPost2010Prop51ColorRGB
 90
-16777216
102
RTVSPost2010PropOp51
 70
     0
102
RTVSPost2010Prop52
140
1.0
102
RTVSPost2010PropOp52
 70
     0
102
RTVSPost2010Prop53
 90
        2
102
RTVSPost2010PropOp53
 70
     1
102
RTVSPost2010Prop54
  1
strokes_ogs.tif
102
RTVSPost2010PropOp54
 70
     1
102
RTVSPost2010Prop55
280
     0
102
RTVSPost2010PropOp55
 70
     1
102
RTVSPost2010Prop56
140
1.0
102
RTVSPost2010PropOp56
 70
     1
102
RTVSPost2010Prop57
140
1.0
102
RTVSPost2010PropOp57
 70
     1
  0
XRECORD
  5
4FE
102
{ACAD_REACTORS
330
4FD
102
}
330
4FD
100
AcDbXrecord
280
     1
102
RTVSPropertyOp0
 70
     1
102
RTVSPropertyOp1
 70
     1
102
RTVSPropertyOp2
 70
     1
102
RTVSPropertyOp3
 70
     1
102
RTVSPropertyOp4
 70
     1
102
RTVSPropertyOp5
 70
     1
102
RTVSPropertyOp6
 70
     1
102
RTVSPropertyOp7
 70
     1
102
RTVSPropertyOp8
 70
     1
102
RTVSPropertyOp9
 70
     1
102
RTVSPropertyOp10
 70
     1
102
RTVSPropertyOp11
 70
     1
102
RTVSPropertyOp12
 70
     1
102
RTVSPropertyOp13
 70
     1
102
RTVSPropertyOp14
 70
     1
102
RTVSPropertyOp15
 70
     1
102
RTVSPropertyOp16
 70
     1
102
RTVSPropertyOp17
 70
     1
102
RTVSPropertyOp18
 70
     1
102
RTVSPropertyOp19
 70
     1
102
RTVSPropertyOp20
 70
     1
102
RTVSPropertyOp21
 70
     1
102
RTVSPropertyOp22
 70
     1
102
RTVSPropertyOp23
 70
     1
102
RTVSPropertyOp24
 70
     1
102
RTVSPropertyOp25
 70
     1
102
RTVSPropertyOp26
 70
     1
102
RTVSPropertyOp27
 70
     1
102
RTVSPropertyOp28
 70
     1
102
RTVSPropertyOp29
 70
     1
102
RTVSPropertyOp30
 70
     1
102
RTVSPropertyOp31
 70
     1
102
RTVSPropertyOp32
 70
     1
102
RTVSPropertyOp33
 70
     1
102
RTVSPropertyOp34
 70
     1
102
RTVSPropertyOp35
 70
     1
102
RTVSPropertyOp36
 70
     1
102
RTVSPropertyOp37
 70
     1
102
RTVSPropertyOp38
 70
     1
102
RTVSPropertyOp39
 70
     1
102
RTVSPropertyOp40
 70
     1
102
RTVSPropertyOp41
 70
     1
102
RTVSPropertyOp42
 70
     1
102
RTVSPropertyOp43
 70
     1
102
RTVSPropertyOp44
 70
     1
102
RTVSPropertyOp45
 70
     1
102
RTVSPropertyOp46
 70
     1
102
RTVSPropertyOp47
 70
     1
102
RTVSPropertyOp48
 70
     1
102
RTVSPropertyOp49
 70
     1
102
RTVSPropertyOp50
 70
     1
102
RTVSPropertyOp51
 70
     0
102
RTVSPropertyOp52
 70
     0
102
RTVSPropertyOp53
 70
     1
102
RTVSPropertyOp54
 70
     1
102
RTVSPropertyOp55
 70
     1
102
RTVSPropertyOp56
 70
     1
102
RTVSPropertyOp57
 70
     1
102
RTVSPost2010Prop28
280
     0
102
RTVSPost2010PropOp28
 70
     1
102
RTVSPost2010Prop29
280
     1
102
RTVSPost2010PropOp29
 70
     1
102
RTVSPost2010Prop30
280
     1
102
RTVSPost2010PropOp30
 70
     1
102
RTVSPost2010Prop31
280
     0
102
RTVSPost2010PropOp31
 70
     1
102
RTVSPost2010Prop32
280
     0
102
RTVSPost2010PropOp32
 70
     1
102
RTVSPost2010Prop33
280
     0
102
RTVSPost2010PropOp33
 70
     1
102
RTVSPost2010Prop34
280
     0
102
RTVSPost2010PropOp34
 70
     1
102
RTVSPost2010Prop35
280
     0
102
RTVSPost2010PropOp35
 70
     1
102
RTVSPost2010Prop36
280
     0
102
RTVSPost2010PropOp36
 70
     1
102
RTVSPost2010Prop37
 90
       50
102
RTVSPost2010PropOp37
 70
     1
102
RTVSPost2010Prop38
140
0.0
102
RTVSPost2010PropOp38
 70
     1
102
RTVSPost2010Prop39
140
1.0
102
RTVSPost2010PropOp39
 70
     1
102
RTVSPost2010Prop40
 90
        0
102
RTVSPost2010PropOp40
 70
     1
102
RTVSPost2010Prop41ColorIndex
 90
       18
102
RTVSPost2010Prop41ColorRGB
 90
        0
102
RTVSPost2010PropOp41
 70
     1
102
RTVSPost2010Prop42
 90
       50
102
RTVSPost2010PropOp42
 70
     1
102
RTVSPost2010Prop43
 90
        3
102
RTVSPost2010PropOp43
 70
     1
102
RTVSPost2010Prop44ColorIndex
 90
        5
102
RTVSPost2010Prop44ColorRGB
 90
      255
102
RTVSPost2010PropOp44
 70
     1
102
RTVSPost2010Prop45
280
     0
102
RTVSPost2010PropOp45
 70
     1
102
RTVSPost2010Prop46
 90
       50
102
RTVSPost2010PropOp46
 70
     1
102
RTVSPost2010Prop47
 90
       50
102
RTVSPost2010PropOp47
 70
     1
102
RTVSPost2010Prop48
 90
       50
102
RTVSPost2010PropOp48
 70
     1
102
RTVSPost2010Prop49
280
     0
102
RTVSPost2010PropOp49
 70
     1
102
RTVSPost2010Prop50
 90
       50
102
RTVSPost2010PropOp50
 70
     1
102
RTVSPost2010Prop51ColorIndex
 90
      256
102
RTVSPost2010Prop51ColorRGB
 90
-16777216
102
RTVSPost2010PropOp51
 70
     0
102
RTVSPost2010Prop52
140
1.0
102
RTVSPost2010PropOp52
 70
     0
102
RTVSPost2010Prop53
 90
        2
102
RTVSPost2010PropOp53
 70
     1
102
RTVSPost2010Prop54
  1
strokes_ogs.tif
102
RTVSPost2010PropOp54
 70
     1
102
RTVSPost2010Prop55
280
     0
102
RTVSPost2010PropOp55
 70
     1
102
RTVSPost2010Prop56
140
1.0
102
RTVSPost2010PropOp56
 70
     1
102
RTVSPost2010Prop57
140
1.0
102
RTVSPost2010PropOp57
 70
     1
  0
XRECORD
  5
500
102
{ACAD_REACTORS
330
4FF
102
}
330
4FF
100
AcDbXrecord
280
     1
102
RTVSPropertyOp0
 70
     1
102
RTVSPropertyOp1
 70
     1
102
RTVSPropertyOp2
 70
     1
102
RTVSPropertyOp3
 70
     1
102
RTVSPropertyOp4
 70
     1
102
RTVSPropertyOp5
 70
     1
102
RTVSPropertyOp6
 70
     1
102
RTVSPropertyOp7
 70
     1
102
RTVSPropertyOp8
 70
     1
102
RTVSPropertyOp9
 70
     1
102
RTVSPropertyOp10
 70
     1
102
RTVSPropertyOp11
 70
     1
102
RTVSPropertyOp12
 70
     1
102
RTVSPropertyOp13
 70
     1
102
RTVSPropertyOp14
 70
     1
102
RTVSPropertyOp15
 70
     1
102
RTVSPropertyOp16
 70
     1
102
RTVSPropertyOp17
 70
     1
102
RTVSPropertyOp18
 70
     1
102
RTVSPropertyOp19
 70
     1
102
RTVSPropertyOp20
 70
     1
102
RTVSPropertyOp21
 70
     1
102
RTVSPropertyOp22
 70
     1
102
RTVSPropertyOp23
 70
     1
102
RTVSPropertyOp24
 70
     1
102
RTVSPropertyOp25
 70
     1
102
RTVSPropertyOp26
 70
     1
102
RTVSPropertyOp27
 70
     1
102
RTVSPropertyOp28
 70
     1
102
RTVSPropertyOp29
 70
     1
102
RTVSPropertyOp30
 70
     1
102
RTVSPropertyOp31
 70
     1
102
RTVSPropertyOp32
 70
     1
102
RTVSPropertyOp33
 70
     1
102
RTVSPropertyOp34
 70
     1
102
RTVSPropertyOp35
 70
     1
102
RTVSPropertyOp36
 70
     1
102
RTVSPropertyOp37
 70
     1
102
RTVSPropertyOp38
 70
     1
102
RTVSPropertyOp39
 70
     1
102
RTVSPropertyOp40
 70
     1
102
RTVSPropertyOp41
 70
     1
102
RTVSPropertyOp42
 70
     1
102
RTVSPropertyOp43
 70
     1
102
RTVSPropertyOp44
 70
     1
102
RTVSPropertyOp45
 70
     1
102
RTVSPropertyOp46
 70
     1
102
RTVSPropertyOp47
 70
     1
102
RTVSPropertyOp48
 70
     1
102
RTVSPropertyOp49
 70
     1
102
RTVSPropertyOp50
 70
     1
102
RTVSPropertyOp51
 70
     0
102
RTVSPropertyOp52
 70
     0
102
RTVSPropertyOp53
 70
     1
102
RTVSPropertyOp54
 70
     1
102
RTVSPropertyOp55
 70
     1
102
RTVSPropertyOp56
 70
     1
102
RTVSPropertyOp57
 70
     1
102
RTVSPost2010Prop28
280
     0
102
RTVSPost2010PropOp28
 70
     1
102
RTVSPost2010Prop29
280
     1
102
RTVSPost2010PropOp29
 70
     1
102
RTVSPost2010Prop30
280
     1
102
RTVSPost2010PropOp30
 70
     1
102
RTVSPost2010Prop31
280
     0
102
RTVSPost2010PropOp31
 70
     1
102
RTVSPost2010Prop32
280
     0
102
RTVSPost2010PropOp32
 70
     1
102
RTVSPost2010Prop33
280
     0
102
RTVSPost2010PropOp33
 70
     1
102
RTVSPost2010Prop34
280
     0
102
RTVSPost2010PropOp34
 70
     1
102
RTVSPost2010Prop35
280
     0
102
RTVSPost2010PropOp35
 70
     1
102
RTVSPost2010Prop36
280
     0
102
RTVSPost2010PropOp36
 70
     1
102
RTVSPost2010Prop37
 90
       50
102
RTVSPost2010PropOp37
 70
     1
102
RTVSPost2010Prop38
140
0.0
102
RTVSPost2010PropOp38
 70
     1
102
RTVSPost2010Prop39
140
1.0
102
RTVSPost2010PropOp39
 70
     1
102
RTVSPost2010Prop40
 90
        0
102
RTVSPost2010PropOp40
 70
     1
102
RTVSPost2010Prop41ColorIndex
 90
       18
102
RTVSPost2010Prop41ColorRGB
 90
        0
102
RTVSPost2010PropOp41
 70
     1
102
RTVSPost2010Prop42
 90
       50
102
RTVSPost2010PropOp42
 70
     1
102
RTVSPost2010Prop43
 90
        3
102
RTVSPost2010PropOp43
 70
     1
102
RTVSPost2010Prop44ColorIndex
 90
        5
102
RTVSPost2010Prop44ColorRGB
 90
      255
102
RTVSPost2010PropOp44
 70
     1
102
RTVSPost2010Prop45
280
     0
102
RTVSPost2010PropOp45
 70
     1
102
RTVSPost2010Prop46
 90
       50
102
RTVSPost2010PropOp46
 70
     1
102
RTVSPost2010Prop47
 90
       50
102
RTVSPost2010PropOp47
 70
     1
102
RTVSPost2010Prop48
 90
       50
102
RTVSPost2010PropOp48
 70
     1
102
RTVSPost2010Prop49
280
     0
102
RTVSPost2010PropOp49
 70
     1
102
RTVSPost2010Prop50
 90
       50
102
RTVSPost2010PropOp50
 70
     1
102
RTVSPost2010Prop51ColorIndex
 90
      256
102
RTVSPost2010Prop51ColorRGB
 90
-16777216
102
RTVSPost2010PropOp51
 70
     0
102
RTVSPost2010Prop52
140
1.0
102
RTVSPost2010PropOp52
 70
     0
102
RTVSPost2010Prop53
 90
        2
102
RTVSPost2010PropOp53
 70
     1
102
RTVSPost2010Prop54
  1
strokes_ogs.tif
102
RTVSPost2010PropOp54
 70
     1
102
RTVSPost2010Prop55
280
     0
102
RTVSPost2010PropOp55
 70
     1
102
RTVSPost2010Prop56
140
1.0
102
RTVSPost2010PropOp56
 70
     1
102
RTVSPost2010Prop57
140
1.0
102
RTVSPost2010PropOp57
 70
     1
  0
XRECORD
  5
502
102
{ACAD_REACTORS
330
501
102
}
330
501
100
AcDbXrecord
280
     1
102
RTVSPropertyOp0
 70
     1
102
RTVSPropertyOp1
 70
     1
102
RTVSPropertyOp2
 70
     1
102
RTVSPropertyOp3
 70
     1
102
RTVSPropertyOp4
 70
     1
102
RTVSPropertyOp5
 70
     1
102
RTVSPropertyOp6
 70
     1
102
RTVSPropertyOp7
 70
     1
102
RTVSPropertyOp8
 70
     1
102
RTVSPropertyOp9
 70
     1
102
RTVSPropertyOp10
 70
     1
102
RTVSPropertyOp11
 70
     1
102
RTVSPropertyOp12
 70
     1
102
RTVSPropertyOp13
 70
     1
102
RTVSPropertyOp14
 70
     1
102
RTVSPropertyOp15
 70
     1
102
RTVSPropertyOp16
 70
     1
102
RTVSPropertyOp17
 70
     1
102
RTVSPropertyOp18
 70
     1
102
RTVSPropertyOp19
 70
     1
102
RTVSPropertyOp20
 70
     1
102
RTVSPropertyOp21
 70
     1
102
RTVSPropertyOp22
 70
     1
102
RTVSPropertyOp23
 70
     1
102
RTVSPropertyOp24
 70
     1
102
RTVSPropertyOp25
 70
     1
102
RTVSPropertyOp26
 70
     1
102
RTVSPropertyOp27
 70
     1
102
RTVSPropertyOp28
 70
     1
102
RTVSPropertyOp29
 70
     1
102
RTVSPropertyOp30
 70
     1
102
RTVSPropertyOp31
 70
     1
102
RTVSPropertyOp32
 70
     1
102
RTVSPropertyOp33
 70
     1
102
RTVSPropertyOp34
 70
     1
102
RTVSPropertyOp35
 70
     1
102
RTVSPropertyOp36
 70
     1
102
RTVSPropertyOp37
 70
     1
102
RTVSPropertyOp38
 70
     1
102
RTVSPropertyOp39
 70
     1
102
RTVSPropertyOp40
 70
     1
102
RTVSPropertyOp41
 70
     1
102
RTVSPropertyOp42
 70
     1
102
RTVSPropertyOp43
 70
     1
102
RTVSPropertyOp44
 70
     1
102
RTVSPropertyOp45
 70
     1
102
RTVSPropertyOp46
 70
     1
102
RTVSPropertyOp47
 70
     1
102
RTVSPropertyOp48
 70
     1
102
RTVSPropertyOp49
 70
     1
102
RTVSPropertyOp50
 70
     1
102
RTVSPropertyOp51
 70
     0
102
RTVSPropertyOp52
 70
     0
102
RTVSPropertyOp53
 70
     1
102
RTVSPropertyOp54
 70
     1
102
RTVSPropertyOp55
 70
     1
102
RTVSPropertyOp56
 70
     1
102
RTVSPropertyOp57
 70
     1
102
RTVSPost2010Prop28
280
     0
102
RTVSPost2010PropOp28
 70
     1
102
RTVSPost2010Prop29
280
     1
102
RTVSPost2010PropOp29
 70
     1
102
RTVSPost2010Prop30
280
     1
102
RTVSPost2010PropOp30
 70
     1
102
RTVSPost2010Prop31
280
     0
102
RTVSPost2010PropOp31
 70
     1
102
RTVSPost2010Prop32
280
     0
102
RTVSPost2010PropOp32
 70
     1
102
RTVSPost2010Prop33
280
     0
102
RTVSPost2010PropOp33
 70
     1
102
RTVSPost2010Prop34
280
     0
102
RTVSPost2010PropOp34
 70
     1
102
RTVSPost2010Prop35
280
     0
102
RTVSPost2010PropOp35
 70
     1
102
RTVSPost2010Prop36
280
     0
102
RTVSPost2010PropOp36
 70
     1
102
RTVSPost2010Prop37
 90
       50
102
RTVSPost2010PropOp37
 70
     1
102
RTVSPost2010Prop38
140
0.0
102
RTVSPost2010PropOp38
 70
     1
102
RTVSPost2010Prop39
140
1.0
102
RTVSPost2010PropOp39
 70
     1
102
RTVSPost2010Prop40
 90
        0
102
RTVSPost2010PropOp40
 70
     1
102
RTVSPost2010Prop41ColorIndex
 90
       18
102
RTVSPost2010Prop41ColorRGB
 90
        0
102
RTVSPost2010PropOp41
 70
     1
102
RTVSPost2010Prop42
 90
       50
102
RTVSPost2010PropOp42
 70
     1
102
RTVSPost2010Prop43
 90
        3
102
RTVSPost2010PropOp43
 70
     1
102
RTVSPost2010Prop44ColorIndex
 90
        5
102
RTVSPost2010Prop44ColorRGB
 90
      255
102
RTVSPost2010PropOp44
 70
     1
102
RTVSPost2010Prop45
280
     0
102
RTVSPost2010PropOp45
 70
     1
102
RTVSPost2010Prop46
 90
       50
102
RTVSPost2010PropOp46
 70
     1
102
RTVSPost2010Prop47
 90
       50
102
RTVSPost2010PropOp47
 70
     1
102
RTVSPost2010Prop48
 90
       50
102
RTVSPost2010PropOp48
 70
     1
102
RTVSPost2010Prop49
280
     0
102
RTVSPost2010PropOp49
 70
     1
102
RTVSPost2010Prop50
 90
       50
102
RTVSPost2010PropOp50
 70
     1
102
RTVSPost2010Prop51ColorIndex
 90
      256
102
RTVSPost2010Prop51ColorRGB
 90
-16777216
102
RTVSPost2010PropOp51
 70
     0
102
RTVSPost2010Prop52
140
1.0
102
RTVSPost2010PropOp52
 70
     0
102
RTVSPost2010Prop53
 90
        2
102
RTVSPost2010PropOp53
 70
     1
102
RTVSPost2010Prop54
  1
strokes_ogs.tif
102
RTVSPost2010PropOp54
 70
     1
102
RTVSPost2010Prop55
280
     0
102
RTVSPost2010PropOp55
 70
     1
102
RTVSPost2010Prop56
140
1.0
102
RTVSPost2010PropOp56
 70
     1
102
RTVSPost2010Prop57
140
1.0
102
RTVSPost2010PropOp57
 70
     1
  0
XRECORD
  5
504
102
{ACAD_REACTORS
330
503
102
}
330
503
100
AcDbXrecord
280
     1
102
RTVSPropertyOp0
 70
     1
102
RTVSPropertyOp1
 70
     1
102
RTVSPropertyOp2
 70
     1
102
RTVSPropertyOp3
 70
     1
102
RTVSPropertyOp4
 70
     1
102
RTVSPropertyOp5
 70
     1
102
RTVSPropertyOp6
 70
     1
102
RTVSPropertyOp7
 70
     1
102
RTVSPropertyOp8
 70
     1
102
RTVSPropertyOp9
 70
     1
102
RTVSPropertyOp10
 70
     1
102
RTVSPropertyOp11
 70
     1
102
RTVSPropertyOp12
 70
     1
102
RTVSPropertyOp13
 70
     1
102
RTVSPropertyOp14
 70
     1
102
RTVSPropertyOp15
 70
     1
102
RTVSPropertyOp16
 70
     1
102
RTVSPropertyOp17
 70
     1
102
RTVSPropertyOp18
 70
     1
102
RTVSPropertyOp19
 70
     1
102
RTVSPropertyOp20
 70
     1
102
RTVSPropertyOp21
 70
     1
102
RTVSPropertyOp22
 70
     1
102
RTVSPropertyOp23
 70
     1
102
RTVSPropertyOp24
 70
     1
102
RTVSPropertyOp25
 70
     1
102
RTVSPropertyOp26
 70
     1
102
RTVSPropertyOp27
 70
     1
102
RTVSPropertyOp28
 70
     1
102
RTVSPropertyOp29
 70
     1
102
RTVSPropertyOp30
 70
     1
102
RTVSPropertyOp31
 70
     1
102
RTVSPropertyOp32
 70
     1
102
RTVSPropertyOp33
 70
     1
102
RTVSPropertyOp34
 70
     1
102
RTVSPropertyOp35
 70
     1
102
RTVSPropertyOp36
 70
     1
102
RTVSPropertyOp37
 70
     1
102
RTVSPropertyOp38
 70
     1
102
RTVSPropertyOp39
 70
     1
102
RTVSPropertyOp40
 70
     1
102
RTVSPropertyOp41
 70
     1
102
RTVSPropertyOp42
 70
     1
102
RTVSPropertyOp43
 70
     1
102
RTVSPropertyOp44
 70
     1
102
RTVSPropertyOp45
 70
     1
102
RTVSPropertyOp46
 70
     1
102
RTVSPropertyOp47
 70
     1
102
RTVSPropertyOp48
 70
     1
102
RTVSPropertyOp49
 70
     1
102
RTVSPropertyOp50
 70
     1
102
RTVSPropertyOp51
 70
     0
102
RTVSPropertyOp52
 70
     0
102
RTVSPropertyOp53
 70
     1
102
RTVSPropertyOp54
 70
     1
102
RTVSPropertyOp55
 70
     1
102
RTVSPropertyOp56
 70
     1
102
RTVSPropertyOp57
 70
     1
102
RTVSPost2010Prop28
280
     0
102
RTVSPost2010PropOp28
 70
     1
102
RTVSPost2010Prop29
280
     1
102
RTVSPost2010PropOp29
 70
     1
102
RTVSPost2010Prop30
280
     1
102
RTVSPost2010PropOp30
 70
     1
102
RTVSPost2010Prop31
280
     0
102
RTVSPost2010PropOp31
 70
     1
102
RTVSPost2010Prop32
280
     0
102
RTVSPost2010PropOp32
 70
     1
102
RTVSPost2010Prop33
280
     0
102
RTVSPost2010PropOp33
 70
     1
102
RTVSPost2010Prop34
280
     0
102
RTVSPost2010PropOp34
 70
     1
102
RTVSPost2010Prop35
280
     0
102
RTVSPost2010PropOp35
 70
     1
102
RTVSPost2010Prop36
280
     0
102
RTVSPost2010PropOp36
 70
     1
102
RTVSPost2010Prop37
 90
       50
102
RTVSPost2010PropOp37
 70
     1
102
RTVSPost2010Prop38
140
0.0
102
RTVSPost2010PropOp38
 70
     1
102
RTVSPost2010Prop39
140
1.0
102
RTVSPost2010PropOp39
 70
     1
102
RTVSPost2010Prop40
 90
        0
102
RTVSPost2010PropOp40
 70
     1
102
RTVSPost2010Prop41ColorIndex
 90
       18
102
RTVSPost2010Prop41ColorRGB
 90
        0
102
RTVSPost2010PropOp41
 70
     1
102
RTVSPost2010Prop42
 90
       50
102
RTVSPost2010PropOp42
 70
     1
102
RTVSPost2010Prop43
 90
        3
102
RTVSPost2010PropOp43
 70
     1
102
RTVSPost2010Prop44ColorIndex
 90
        5
102
RTVSPost2010Prop44ColorRGB
 90
      255
102
RTVSPost2010PropOp44
 70
     1
102
RTVSPost2010Prop45
280
     0
102
RTVSPost2010PropOp45
 70
     1
102
RTVSPost2010Prop46
 90
       50
102
RTVSPost2010PropOp46
 70
     1
102
RTVSPost2010Prop47
 90
       50
102
RTVSPost2010PropOp47
 70
     1
102
RTVSPost2010Prop48
 90
       50
102
RTVSPost2010PropOp48
 70
     1
102
RTVSPost2010Prop49
280
     0
102
RTVSPost2010PropOp49
 70
     1
102
RTVSPost2010Prop50
 90
       50
102
RTVSPost2010PropOp50
 70
     1
102
RTVSPost2010Prop51ColorIndex
 90
      256
102
RTVSPost2010Prop51ColorRGB
 90
-16777216
102
RTVSPost2010PropOp51
 70
     0
102
RTVSPost2010Prop52
140
1.0
102
RTVSPost2010PropOp52
 70
     0
102
RTVSPost2010Prop53
 90
        2
102
RTVSPost2010PropOp53
 70
     1
102
RTVSPost2010Prop54
  1
strokes_ogs.tif
102
RTVSPost2010PropOp54
 70
     1
102
RTVSPost2010Prop55
280
     0
102
RTVSPost2010PropOp55
 70
     1
102
RTVSPost2010Prop56
140
1.0
102
RTVSPost2010PropOp56
 70
     1
102
RTVSPost2010Prop57
140
1.0
102
RTVSPost2010PropOp57
 70
     1
  0
XRECORD
  5
50A
102
{ACAD_REACTORS
330
509
102
}
330
509
100
AcDbXrecord
280
     1
102
RTVSPropertyOp0
 70
     1
102
RTVSPropertyOp1
 70
     1
102
RTVSPropertyOp2
 70
     1
102
RTVSPropertyOp3
 70
     1
102
RTVSPropertyOp4
 70
     1
102
RTVSPropertyOp5
 70
     1
102
RTVSPropertyOp6
 70
     1
102
RTVSPropertyOp7
 70
     1
102
RTVSPropertyOp8
 70
     1
102
RTVSPropertyOp9
 70
     1
102
RTVSPropertyOp10
 70
     1
102
RTVSPropertyOp11
 70
     1
102
RTVSPropertyOp12
 70
     1
102
RTVSPropertyOp13
 70
     1
102
RTVSPropertyOp14
 70
     1
102
RTVSPropertyOp15
 70
     1
102
RTVSPropertyOp16
 70
     1
102
RTVSPropertyOp17
 70
     1
102
RTVSPropertyOp18
 70
     1
102
RTVSPropertyOp19
 70
     1
102
RTVSPropertyOp20
 70
     1
102
RTVSPropertyOp21
 70
     1
102
RTVSPropertyOp22
 70
     1
102
RTVSPropertyOp23
 70
     1
102
RTVSPropertyOp24
 70
     1
102
RTVSPropertyOp25
 70
     1
102
RTVSPropertyOp26
 70
     1
102
RTVSPropertyOp27
 70
     1
102
RTVSPropertyOp28
 70
     1
102
RTVSPropertyOp29
 70
     1
102
RTVSPropertyOp30
 70
     1
102
RTVSPropertyOp31
 70
     1
102
RTVSPropertyOp32
 70
     1
102
RTVSPropertyOp33
 70
     1
102
RTVSPropertyOp34
 70
     1
102
RTVSPropertyOp35
 70
     1
102
RTVSPropertyOp36
 70
     1
102
RTVSPropertyOp37
 70
     1
102
RTVSPropertyOp38
 70
     1
102
RTVSPropertyOp39
 70
     1
102
RTVSPropertyOp40
 70
     1
102
RTVSPropertyOp41
 70
     1
102
RTVSPropertyOp42
 70
     1
102
RTVSPropertyOp43
 70
     1
102
RTVSPropertyOp44
 70
     1
102
RTVSPropertyOp45
 70
     1
102
RTVSPropertyOp46
 70
     1
102
RTVSPropertyOp47
 70
     1
102
RTVSPropertyOp48
 70
     1
102
RTVSPropertyOp49
 70
     1
102
RTVSPropertyOp50
 70
     1
102
RTVSPropertyOp51
 70
     0
102
RTVSPropertyOp52
 70
     0
102
RTVSPropertyOp53
 70
     1
102
RTVSPropertyOp54
 70
     1
102
RTVSPropertyOp55
 70
     1
102
RTVSPropertyOp56
 70
     1
102
RTVSPropertyOp57
 70
     1
102
RTVSPost2010Prop28
280
     0
102
RTVSPost2010PropOp28
 70
     1
102
RTVSPost2010Prop29
280
     1
102
RTVSPost2010PropOp29
 70
     1
102
RTVSPost2010Prop30
280
     1
102
RTVSPost2010PropOp30
 70
     1
102
RTVSPost2010Prop31
280
     0
102
RTVSPost2010PropOp31
 70
     1
102
RTVSPost2010Prop32
280
     0
102
RTVSPost2010PropOp32
 70
     1
102
RTVSPost2010Prop33
280
     0
102
RTVSPost2010PropOp33
 70
     1
102
RTVSPost2010Prop34
280
     0
102
RTVSPost2010PropOp34
 70
     1
102
RTVSPost2010Prop35
280
     0
102
RTVSPost2010PropOp35
 70
     1
102
RTVSPost2010Prop36
280
     0
102
RTVSPost2010PropOp36
 70
     1
102
RTVSPost2010Prop37
 90
       50
102
RTVSPost2010PropOp37
 70
     1
102
RTVSPost2010Prop38
140
0.0
102
RTVSPost2010PropOp38
 70
     1
102
RTVSPost2010Prop39
140
1.0
102
RTVSPost2010PropOp39
 70
     1
102
RTVSPost2010Prop40
 90
        0
102
RTVSPost2010PropOp40
 70
     1
102
RTVSPost2010Prop41ColorIndex
 90
       18
102
RTVSPost2010Prop41ColorRGB
 90
        0
102
RTVSPost2010PropOp41
 70
     1
102
RTVSPost2010Prop42
 90
       50
102
RTVSPost2010PropOp42
 70
     1
102
RTVSPost2010Prop43
 90
        3
102
RTVSPost2010PropOp43
 70
     1
102
RTVSPost2010Prop44ColorIndex
 90
        5
102
RTVSPost2010Prop44ColorRGB
 90
      255
102
RTVSPost2010PropOp44
 70
     1
102
RTVSPost2010Prop45
280
     0
102
RTVSPost2010PropOp45
 70
     1
102
RTVSPost2010Prop46
 90
       50
102
RTVSPost2010PropOp46
 70
     1
102
RTVSPost2010Prop47
 90
       50
102
RTVSPost2010PropOp47
 70
     1
102
RTVSPost2010Prop48
 90
       50
102
RTVSPost2010PropOp48
 70
     1
102
RTVSPost2010Prop49
280
     0
102
RTVSPost2010PropOp49
 70
     1
102
RTVSPost2010Prop50
 90
       50
102
RTVSPost2010PropOp50
 70
     1
102
RTVSPost2010Prop51ColorIndex
 90
      256
102
RTVSPost2010Prop51ColorRGB
 90
-16777216
102
RTVSPost2010PropOp51
 70
     0
102
RTVSPost2010Prop52
140
1.0
102
RTVSPost2010PropOp52
 70
     0
102
RTVSPost2010Prop53
 90
        2
102
RTVSPost2010PropOp53
 70
     1
102
RTVSPost2010Prop54
  1
strokes_ogs.tif
102
RTVSPost2010PropOp54
 70
     1
102
RTVSPost2010Prop55
280
     0
102
RTVSPost2010PropOp55
 70
     1
102
RTVSPost2010Prop56
140
1.0
102
RTVSPost2010PropOp56
 70
     1
102
RTVSPost2010Prop57
140
1.0
102
RTVSPost2010PropOp57
 70
     1
  0
XRECORD
  5
51E
102
{ACAD_REACTORS
330
51D
102
}
330
51D
100
AcDbXrecord
280
     1
102
RTVSPropertyOp0
 70
     0
102
RTVSPropertyOp1
 70
     0
102
RTVSPropertyOp2
 70
     0
102
RTVSPropertyOp3
 70
     0
102
RTVSPropertyOp4
 70
     0
102
RTVSPropertyOp5
 70
     0
102
RTVSPropertyOp6
 70
     0
102
RTVSPropertyOp7
 70
     0
102
RTVSPropertyOp8
 70
     0
102
RTVSPropertyOp9
 70
     0
102
RTVSPropertyOp10
 70
     0
102
RTVSPropertyOp11
 70
     0
102
RTVSPropertyOp12
 70
     0
102
RTVSPropertyOp13
 70
     0
102
RTVSPropertyOp14
 70
     2
102
RTVSPropertyOp15
 70
     0
102
RTVSPropertyOp16
 70
     0
102
RTVSPropertyOp17
 70
     0
102
RTVSPropertyOp18
 70
     0
102
RTVSPropertyOp19
 70
     0
102
RTVSPropertyOp20
 70
     0
102
RTVSPropertyOp21
 70
     0
102
RTVSPropertyOp22
 70
     0
102
RTVSPropertyOp23
 70
     0
102
RTVSPropertyOp24
 70
     0
102
RTVSPropertyOp25
 70
     0
102
RTVSPropertyOp26
 70
     0
102
RTVSPropertyOp27
 70
     0
102
RTVSPropertyOp28
 70
     0
102
RTVSPropertyOp29
 70
     0
102
RTVSPropertyOp30
 70
     0
102
RTVSPropertyOp31
 70
     0
102
RTVSPropertyOp32
 70
     0
102
RTVSPropertyOp33
 70
     0
102
RTVSPropertyOp34
 70
     0
102
RTVSPropertyOp35
 70
     0
102
RTVSPropertyOp36
 70
     0
102
RTVSPropertyOp37
 70
     0
102
RTVSPropertyOp38
 70
     0
102
RTVSPropertyOp39
 70
     0
102
RTVSPropertyOp40
 70
     0
102
RTVSPropertyOp41
 70
     0
102
RTVSPropertyOp42
 70
     0
102
RTVSPropertyOp43
 70
     0
102
RTVSPropertyOp44
 70
     0
102
RTVSPropertyOp45
 70
     0
102
RTVSPropertyOp46
 70
     0
102
RTVSPropertyOp47
 70
     0
102
RTVSPropertyOp48
 70
     0
102
RTVSPropertyOp49
 70
     0
102
RTVSPropertyOp50
 70
     0
102
RTVSPropertyOp51
 70
     0
102
RTVSPropertyOp52
 70
     0
102
RTVSPropertyOp53
 70
     0
102
RTVSPropertyOp54
 70
     0
102
RTVSPropertyOp55
 70
     0
102
RTVSPropertyOp56
 70
     0
102
RTVSPropertyOp57
 70
     0
102
RTVSPost2010Prop28
280
     0
102
RTVSPost2010PropOp28
 70
     0
102
RTVSPost2010Prop29
280
     1
102
RTVSPost2010PropOp29
 70
     0
102
RTVSPost2010Prop30
280
     1
102
RTVSPost2010PropOp30
 70
     0
102
RTVSPost2010Prop31
280
     0
102
RTVSPost2010PropOp31
 70
     0
102
RTVSPost2010Prop32
280
     0
102
RTVSPost2010PropOp32
 70
     0
102
RTVSPost2010Prop33
280
     0
102
RTVSPost2010PropOp33
 70
     0
102
RTVSPost2010Prop34
280
     0
102
RTVSPost2010PropOp34
 70
     0
102
RTVSPost2010Prop35
280
     0
102
RTVSPost2010PropOp35
 70
     0
102
RTVSPost2010Prop36
280
     0
102
RTVSPost2010PropOp36
 70
     0
102
RTVSPost2010Prop37
 90
       50
102
RTVSPost2010PropOp37
 70
     0
102
RTVSPost2010Prop38
140
0.0
102
RTVSPost2010PropOp38
 70
     0
102
RTVSPost2010Prop39
140
1.0
102
RTVSPost2010PropOp39
 70
     0
102
RTVSPost2010Prop40
 90
        0
102
RTVSPost2010PropOp40
 70
     0
102
RTVSPost2010Prop41ColorIndex
 90
       18
102
RTVSPost2010Prop41ColorRGB
 90
        0
102
RTVSPost2010PropOp41
 70
     0
102
RTVSPost2010Prop42
 90
       50
102
RTVSPost2010PropOp42
 70
     0
102
RTVSPost2010Prop43
 90
        3
102
RTVSPost2010PropOp43
 70
     0
102
RTVSPost2010Prop44ColorIndex
 90
        5
102
RTVSPost2010Prop44ColorRGB
 90
      255
102
RTVSPost2010PropOp44
 70
     0
102
RTVSPost2010Prop45
280
     0
102
RTVSPost2010PropOp45
 70
     0
102
RTVSPost2010Prop46
 90
       50
102
RTVSPost2010PropOp46
 70
     0
102
RTVSPost2010Prop47
 90
       50
102
RTVSPost2010PropOp47
 70
     0
102
RTVSPost2010Prop48
 90
       50
102
RTVSPost2010PropOp48
 70
     0
102
RTVSPost2010Prop49
280
     0
102
RTVSPost2010PropOp49
 70
     0
102
RTVSPost2010Prop50
 90
       50
102
RTVSPost2010PropOp50
 70
     0
102
RTVSPost2010Prop51ColorIndex
 90
      256
102
RTVSPost2010Prop51ColorRGB
 90
-16777216
102
RTVSPost2010PropOp51
 70
     0
102
RTVSPost2010Prop52
140
1.0
102
RTVSPost2010PropOp52
 70
     0
102
RTVSPost2010Prop53
 90
        2
102
RTVSPost2010PropOp53
 70
     0
102
RTVSPost2010Prop54
  1
strokes_ogs.tif
102
RTVSPost2010PropOp54
 70
     0
102
RTVSPost2010Prop55
280
     0
102
RTVSPost2010PropOp55
 70
     0
102
RTVSPost2010Prop56
140
1.0
102
RTVSPost2010PropOp56
 70
     0
102
RTVSPost2010Prop57
140
1.0
102
RTVSPost2010PropOp57
 70
     0
  0
XRECORD
  5
518
102
{ACAD_REACTORS
330
517
102
}
330
517
100
AcDbXrecord
280
     1
102
RTVSPropertyOp0
 70
     1
102
RTVSPropertyOp1
 70
     1
102
RTVSPropertyOp2
 70
     1
102
RTVSPropertyOp3
 70
     1
102
RTVSPropertyOp4
 70
     1
102
RTVSPropertyOp5
 70
     1
102
RTVSPropertyOp6
 70
     1
102
RTVSPropertyOp7
 70
     1
102
RTVSPropertyOp8
 70
     1
102
RTVSPropertyOp9
 70
     1
102
RTVSPropertyOp10
 70
     1
102
RTVSPropertyOp11
 70
     1
102
RTVSPropertyOp12
 70
     1
102
RTVSPropertyOp13
 70
     1
102
RTVSPropertyOp14
 70
     1
102
RTVSPropertyOp15
 70
     1
102
RTVSPropertyOp16
 70
     1
102
RTVSPropertyOp17
 70
     1
102
RTVSPropertyOp18
 70
     1
102
RTVSPropertyOp19
 70
     1
102
RTVSPropertyOp20
 70
     1
102
RTVSPropertyOp21
 70
     1
102
RTVSPropertyOp22
 70
     1
102
RTVSPropertyOp23
 70
     1
102
RTVSPropertyOp24
 70
     1
102
RTVSPropertyOp25
 70
     1
102
RTVSPropertyOp26
 70
     1
102
RTVSPropertyOp27
 70
     1
102
RTVSPropertyOp28
 70
     1
102
RTVSPropertyOp29
 70
     1
102
RTVSPropertyOp30
 70
     1
102
RTVSPropertyOp31
 70
     1
102
RTVSPropertyOp32
 70
     1
102
RTVSPropertyOp33
 70
     1
102
RTVSPropertyOp34
 70
     1
102
RTVSPropertyOp35
 70
     1
102
RTVSPropertyOp36
 70
     1
102
RTVSPropertyOp37
 70
     1
102
RTVSPropertyOp38
 70
     1
102
RTVSPropertyOp39
 70
     1
102
RTVSPropertyOp40
 70
     1
102
RTVSPropertyOp41
 70
     1
102
RTVSPropertyOp42
 70
     1
102
RTVSPropertyOp43
 70
     1
102
RTVSPropertyOp44
 70
     1
102
RTVSPropertyOp45
 70
     1
102
RTVSPropertyOp46
 70
     1
102
RTVSPropertyOp47
 70
     1
102
RTVSPropertyOp48
 70
     1
102
RTVSPropertyOp49
 70
     1
102
RTVSPropertyOp50
 70
     1
102
RTVSPropertyOp51
 70
     0
102
RTVSPropertyOp52
 70
     0
102
RTVSPropertyOp53
 70
     1
102
RTVSPropertyOp54
 70
     1
102
RTVSPropertyOp55
 70
     1
102
RTVSPropertyOp56
 70
     1
102
RTVSPropertyOp57
 70
     1
102
RTVSPost2010Prop28
280
     0
102
RTVSPost2010PropOp28
 70
     1
102
RTVSPost2010Prop29
280
     1
102
RTVSPost2010PropOp29
 70
     1
102
RTVSPost2010Prop30
280
     1
102
RTVSPost2010PropOp30
 70
     1
102
RTVSPost2010Prop31
280
     0
102
RTVSPost2010PropOp31
 70
     1
102
RTVSPost2010Prop32
280
     0
102
RTVSPost2010PropOp32
 70
     1
102
RTVSPost2010Prop33
280
     0
102
RTVSPost2010PropOp33
 70
     1
102
RTVSPost2010Prop34
280
     0
102
RTVSPost2010PropOp34
 70
     1
102
RTVSPost2010Prop35
280
     0
102
RTVSPost2010PropOp35
 70
     1
102
RTVSPost2010Prop36
280
     0
102
RTVSPost2010PropOp36
 70
     1
102
RTVSPost2010Prop37
 90
       50
102
RTVSPost2010PropOp37
 70
     1
102
RTVSPost2010Prop38
140
0.0
102
RTVSPost2010PropOp38
 70
     1
102
RTVSPost2010Prop39
140
1.0
102
RTVSPost2010PropOp39
 70
     1
102
RTVSPost2010Prop40
 90
        0
102
RTVSPost2010PropOp40
 70
     1
102
RTVSPost2010Prop41ColorIndex
 90
       18
102
RTVSPost2010Prop41ColorRGB
 90
        0
102
RTVSPost2010PropOp41
 70
     1
102
RTVSPost2010Prop42
 90
       50
102
RTVSPost2010PropOp42
 70
     1
102
RTVSPost2010Prop43
 90
        3
102
RTVSPost2010PropOp43
 70
     1
102
RTVSPost2010Prop44ColorIndex
 90
        5
102
RTVSPost2010Prop44ColorRGB
 90
      255
102
RTVSPost2010PropOp44
 70
     1
102
RTVSPost2010Prop45
280
     0
102
RTVSPost2010PropOp45
 70
     1
102
RTVSPost2010Prop46
 90
       50
102
RTVSPost2010PropOp46
 70
     1
102
RTVSPost2010Prop47
 90
       50
102
RTVSPost2010PropOp47
 70
     1
102
RTVSPost2010Prop48
 90
       50
102
RTVSPost2010PropOp48
 70
     1
102
RTVSPost2010Prop49
280
     0
102
RTVSPost2010PropOp49
 70
     1
102
RTVSPost2010Prop50
 90
       50
102
RTVSPost2010PropOp50
 70
     1
102
RTVSPost2010Prop51ColorIndex
 90
      256
102
RTVSPost2010Prop51ColorRGB
 90
-16777216
102
RTVSPost2010PropOp51
 70
     0
102
RTVSPost2010Prop52
140
1.0
102
RTVSPost2010PropOp52
 70
     0
102
RTVSPost2010Prop53
 90
        2
102
RTVSPost2010PropOp53
 70
     1
102
RTVSPost2010Prop54
  1
strokes_ogs.tif
102
RTVSPost2010PropOp54
 70
     1
102
RTVSPost2010Prop55
280
     0
102
RTVSPost2010PropOp55
 70
     1
102
RTVSPost2010Prop56
140
1.0
102
RTVSPost2010PropOp56
 70
     1
102
RTVSPost2010Prop57
140
1.0
102
RTVSPost2010PropOp57
 70
     1
  0
XRECORD
  5
520
102
{ACAD_REACTORS
330
51F
102
}
330
51F
100
AcDbXrecord
280
     1
102
RTVSPropertyOp0
 70
     0
102
RTVSPropertyOp1
 70
     0
102
RTVSPropertyOp2
 70
     0
102
RTVSPropertyOp3
 70
     0
102
RTVSPropertyOp4
 70
     0
102
RTVSPropertyOp5
 70
     0
102
RTVSPropertyOp6
 70
     0
102
RTVSPropertyOp7
 70
     0
102
RTVSPropertyOp8
 70
     0
102
RTVSPropertyOp9
 70
     0
102
RTVSPropertyOp10
 70
     0
102
RTVSPropertyOp11
 70
     0
102
RTVSPropertyOp12
 70
     0
102
RTVSPropertyOp13
 70
     0
102
RTVSPropertyOp14
 70
     2
102
RTVSPropertyOp15
 70
     0
102
RTVSPropertyOp16
 70
     0
102
RTVSPropertyOp17
 70
     0
102
RTVSPropertyOp18
 70
     0
102
RTVSPropertyOp19
 70
     0
102
RTVSPropertyOp20
 70
     0
102
RTVSPropertyOp21
 70
     0
102
RTVSPropertyOp22
 70
     0
102
RTVSPropertyOp23
 70
     0
102
RTVSPropertyOp24
 70
     0
102
RTVSPropertyOp25
 70
     0
102
RTVSPropertyOp26
 70
     0
102
RTVSPropertyOp27
 70
     0
102
RTVSPropertyOp28
 70
     0
102
RTVSPropertyOp29
 70
     0
102
RTVSPropertyOp30
 70
     0
102
RTVSPropertyOp31
 70
     0
102
RTVSPropertyOp32
 70
     0
102
RTVSPropertyOp33
 70
     0
102
RTVSPropertyOp34
 70
     0
102
RTVSPropertyOp35
 70
     0
102
RTVSPropertyOp36
 70
     0
102
RTVSPropertyOp37
 70
     0
102
RTVSPropertyOp38
 70
     0
102
RTVSPropertyOp39
 70
     0
102
RTVSPropertyOp40
 70
     0
102
RTVSPropertyOp41
 70
     0
102
RTVSPropertyOp42
 70
     0
102
RTVSPropertyOp43
 70
     0
102
RTVSPropertyOp44
 70
     0
102
RTVSPropertyOp45
 70
     0
102
RTVSPropertyOp46
 70
     0
102
RTVSPropertyOp47
 70
     0
102
RTVSPropertyOp48
 70
     0
102
RTVSPropertyOp49
 70
     0
102
RTVSPropertyOp50
 70
     0
102
RTVSPropertyOp51
 70
     0
102
RTVSPropertyOp52
 70
     0
102
RTVSPropertyOp53
 70
     0
102
RTVSPropertyOp54
 70
     0
102
RTVSPropertyOp55
 70
     0
102
RTVSPropertyOp56
 70
     0
102
RTVSPropertyOp57
 70
     0
102
RTVSPost2010Prop28
280
     0
102
RTVSPost2010PropOp28
 70
     0
102
RTVSPost2010Prop29
280
     1
102
RTVSPost2010PropOp29
 70
     0
102
RTVSPost2010Prop30
280
     1
102
RTVSPost2010PropOp30
 70
     0
102
RTVSPost2010Prop31
280
     0
102
RTVSPost2010PropOp31
 70
     0
102
RTVSPost2010Prop32
280
     0
102
RTVSPost2010PropOp32
 70
     0
102
RTVSPost2010Prop33
280
     0
102
RTVSPost2010PropOp33
 70
     0
102
RTVSPost2010Prop34
280
     0
102
RTVSPost2010PropOp34
 70
     0
102
RTVSPost2010Prop35
280
     0
102
RTVSPost2010PropOp35
 70
     0
102
RTVSPost2010Prop36
280
     0
102
RTVSPost2010PropOp36
 70
     0
102
RTVSPost2010Prop37
 90
       50
102
RTVSPost2010PropOp37
 70
     0
102
RTVSPost2010Prop38
140
0.0
102
RTVSPost2010PropOp38
 70
     0
102
RTVSPost2010Prop39
140
1.0
102
RTVSPost2010PropOp39
 70
     0
102
RTVSPost2010Prop40
 90
        0
102
RTVSPost2010PropOp40
 70
     0
102
RTVSPost2010Prop41ColorIndex
 90
       18
102
RTVSPost2010Prop41ColorRGB
 90
        0
102
RTVSPost2010PropOp41
 70
     0
102
RTVSPost2010Prop42
 90
       50
102
RTVSPost2010PropOp42
 70
     0
102
RTVSPost2010Prop43
 90
        3
102
RTVSPost2010PropOp43
 70
     0
102
RTVSPost2010Prop44ColorIndex
 90
        5
102
RTVSPost2010Prop44ColorRGB
 90
      255
102
RTVSPost2010PropOp44
 70
     0
102
RTVSPost2010Prop45
280
     0
102
RTVSPost2010PropOp45
 70
     0
102
RTVSPost2010Prop46
 90
       50
102
RTVSPost2010PropOp46
 70
     0
102
RTVSPost2010Prop47
 90
       50
102
RTVSPost2010PropOp47
 70
     0
102
RTVSPost2010Prop48
 90
       50
102
RTVSPost2010PropOp48
 70
     0
102
RTVSPost2010Prop49
280
     0
102
RTVSPost2010PropOp49
 70
     0
102
RTVSPost2010Prop50
 90
       50
102
RTVSPost2010PropOp50
 70
     0
102
RTVSPost2010Prop51ColorIndex
 90
      256
102
RTVSPost2010Prop51ColorRGB
 90
-16777216
102
RTVSPost2010PropOp51
 70
     0
102
RTVSPost2010Prop52
140
1.0
102
RTVSPost2010PropOp52
 70
     0
102
RTVSPost2010Prop53
 90
        2
102
RTVSPost2010PropOp53
 70
     0
102
RTVSPost2010Prop54
  1
strokes_ogs.tif
102
RTVSPost2010PropOp54
 70
     0
102
RTVSPost2010Prop55
280
     0
102
RTVSPost2010PropOp55
 70
     0
102
RTVSPost2010Prop56
140
1.0
102
RTVSPost2010PropOp56
 70
     0
102
RTVSPost2010Prop57
140
1.0
102
RTVSPost2010PropOp57
 70
     0
  0
XRECORD
  5
50E
102
{ACAD_REACTORS
330
50D
102
}
330
50D
100
AcDbXrecord
280
     1
102
RTVSPropertyOp0
 70
     1
102
RTVSPropertyOp1
 70
     1
102
RTVSPropertyOp2
 70
     1
102
RTVSPropertyOp3
 70
     1
102
RTVSPropertyOp4
 70
     1
102
RTVSPropertyOp5
 70
     1
102
RTVSPropertyOp6
 70
     1
102
RTVSPropertyOp7
 70
     1
102
RTVSPropertyOp8
 70
     1
102
RTVSPropertyOp9
 70
     1
102
RTVSPropertyOp10
 70
     1
102
RTVSPropertyOp11
 70
     1
102
RTVSPropertyOp12
 70
     1
102
RTVSPropertyOp13
 70
     1
102
RTVSPropertyOp14
 70
     1
102
RTVSPropertyOp15
 70
     1
102
RTVSPropertyOp16
 70
     1
102
RTVSPropertyOp17
 70
     1
102
RTVSPropertyOp18
 70
     1
102
RTVSPropertyOp19
 70
     1
102
RTVSPropertyOp20
 70
     1
102
RTVSPropertyOp21
 70
     1
102
RTVSPropertyOp22
 70
     1
102
RTVSPropertyOp23
 70
     1
102
RTVSPropertyOp24
 70
     1
102
RTVSPropertyOp25
 70
     1
102
RTVSPropertyOp26
 70
     1
102
RTVSPropertyOp27
 70
     1
102
RTVSPropertyOp28
 70
     1
102
RTVSPropertyOp29
 70
     1
102
RTVSPropertyOp30
 70
     1
102
RTVSPropertyOp31
 70
     1
102
RTVSPropertyOp32
 70
     1
102
RTVSPropertyOp33
 70
     1
102
RTVSPropertyOp34
 70
     1
102
RTVSPropertyOp35
 70
     1
102
RTVSPropertyOp36
 70
     1
102
RTVSPropertyOp37
 70
     1
102
RTVSPropertyOp38
 70
     1
102
RTVSPropertyOp39
 70
     1
102
RTVSPropertyOp40
 70
     1
102
RTVSPropertyOp41
 70
     1
102
RTVSPropertyOp42
 70
     1
102
RTVSPropertyOp43
 70
     1
102
RTVSPropertyOp44
 70
     1
102
RTVSPropertyOp45
 70
     1
102
RTVSPropertyOp46
 70
     1
102
RTVSPropertyOp47
 70
     1
102
RTVSPropertyOp48
 70
     1
102
RTVSPropertyOp49
 70
     1
102
RTVSPropertyOp50
 70
     1
102
RTVSPropertyOp51
 70
     0
102
RTVSPropertyOp52
 70
     0
102
RTVSPropertyOp53
 70
     1
102
RTVSPropertyOp54
 70
     1
102
RTVSPropertyOp55
 70
     1
102
RTVSPropertyOp56
 70
     1
102
RTVSPropertyOp57
 70
     1
102
RTVSPost2010Prop28
280
     0
102
RTVSPost2010PropOp28
 70
     1
102
RTVSPost2010Prop29
280
     1
102
RTVSPost2010PropOp29
 70
     1
102
RTVSPost2010Prop30
280
     1
102
RTVSPost2010PropOp30
 70
     1
102
RTVSPost2010Prop31
280
     0
102
RTVSPost2010PropOp31
 70
     1
102
RTVSPost2010Prop32
280
     0
102
RTVSPost2010PropOp32
 70
     1
102
RTVSPost2010Prop33
280
     0
102
RTVSPost2010PropOp33
 70
     1
102
RTVSPost2010Prop34
280
     0
102
RTVSPost2010PropOp34
 70
     1
102
RTVSPost2010Prop35
280
     0
102
RTVSPost2010PropOp35
 70
     1
102
RTVSPost2010Prop36
280
     0
102
RTVSPost2010PropOp36
 70
     1
102
RTVSPost2010Prop37
 90
       50
102
RTVSPost2010PropOp37
 70
     1
102
RTVSPost2010Prop38
140
0.0
102
RTVSPost2010PropOp38
 70
     1
102
RTVSPost2010Prop39
140
1.0
102
RTVSPost2010PropOp39
 70
     1
102
RTVSPost2010Prop40
 90
        0
102
RTVSPost2010PropOp40
 70
     1
102
RTVSPost2010Prop41ColorIndex
 90
       18
102
RTVSPost2010Prop41ColorRGB
 90
        0
102
RTVSPost2010PropOp41
 70
     1
102
RTVSPost2010Prop42
 90
       50
102
RTVSPost2010PropOp42
 70
     1
102
RTVSPost2010Prop43
 90
        3
102
RTVSPost2010PropOp43
 70
     1
102
RTVSPost2010Prop44ColorIndex
 90
        5
102
RTVSPost2010Prop44ColorRGB
 90
      255
102
RTVSPost2010PropOp44
 70
     1
102
RTVSPost2010Prop45
280
     0
102
RTVSPost2010PropOp45
 70
     1
102
RTVSPost2010Prop46
 90
       50
102
RTVSPost2010PropOp46
 70
     1
102
RTVSPost2010Prop47
 90
       50
102
RTVSPost2010PropOp47
 70
     1
102
RTVSPost2010Prop48
 90
       50
102
RTVSPost2010PropOp48
 70
     1
102
RTVSPost2010Prop49
280
     0
102
RTVSPost2010PropOp49
 70
     1
102
RTVSPost2010Prop50
 90
       50
102
RTVSPost2010PropOp50
 70
     1
102
RTVSPost2010Prop51ColorIndex
 90
      256
102
RTVSPost2010Prop51ColorRGB
 90
-16777216
102
RTVSPost2010PropOp51
 70
     0
102
RTVSPost2010Prop52
140
1.0
102
RTVSPost2010PropOp52
 70
     0
102
RTVSPost2010Prop53
 90
        2
102
RTVSPost2010PropOp53
 70
     1
102
RTVSPost2010Prop54
  1
strokes_ogs.tif
102
RTVSPost2010PropOp54
 70
     1
102
RTVSPost2010Prop55
280
     0
102
RTVSPost2010PropOp55
 70
     1
102
RTVSPost2010Prop56
140
1.0
102
RTVSPost2010PropOp56
 70
     1
102
RTVSPost2010Prop57
140
1.0
102
RTVSPost2010PropOp57
 70
     1
  0
XRECORD
  5
52C
102
{ACAD_REACTORS
330
52B
102
}
330
52B
100
AcDbXrecord
280
     1
102
RTVSPropertyOp0
 70
     1
102
RTVSPropertyOp1
 70
     1
102
RTVSPropertyOp2
 70
     1
102
RTVSPropertyOp3
 70
     1
102
RTVSPropertyOp4
 70
     1
102
RTVSPropertyOp5
 70
     1
102
RTVSPropertyOp6
 70
     1
102
RTVSPropertyOp7
 70
     1
102
RTVSPropertyOp8
 70
     1
102
RTVSPropertyOp9
 70
     1
102
RTVSPropertyOp10
 70
     1
102
RTVSPropertyOp11
 70
     1
102
RTVSPropertyOp12
 70
     1
102
RTVSPropertyOp13
 70
     1
102
RTVSPropertyOp14
 70
     1
102
RTVSPropertyOp15
 70
     1
102
RTVSPropertyOp16
 70
     1
102
RTVSPropertyOp17
 70
     1
102
RTVSPropertyOp18
 70
     1
102
RTVSPropertyOp19
 70
     1
102
RTVSPropertyOp20
 70
     1
102
RTVSPropertyOp21
 70
     1
102
RTVSPropertyOp22
 70
     1
102
RTVSPropertyOp23
 70
     1
102
RTVSPropertyOp24
 70
     1
102
RTVSPropertyOp25
 70
     1
102
RTVSPropertyOp26
 70
     1
102
RTVSPropertyOp27
 70
     1
102
RTVSPropertyOp28
 70
     1
102
RTVSPropertyOp29
 70
     1
102
RTVSPropertyOp30
 70
     1
102
RTVSPropertyOp31
 70
     1
102
RTVSPropertyOp32
 70
     1
102
RTVSPropertyOp33
 70
     1
102
RTVSPropertyOp34
 70
     1
102
RTVSPropertyOp35
 70
     1
102
RTVSPropertyOp36
 70
     1
102
RTVSPropertyOp37
 70
     1
102
RTVSPropertyOp38
 70
     1
102
RTVSPropertyOp39
 70
     1
102
RTVSPropertyOp40
 70
     1
102
RTVSPropertyOp41
 70
     1
102
RTVSPropertyOp42
 70
     1
102
RTVSPropertyOp43
 70
     1
102
RTVSPropertyOp44
 70
     1
102
RTVSPropertyOp45
 70
     1
102
RTVSPropertyOp46
 70
     1
102
RTVSPropertyOp47
 70
     1
102
RTVSPropertyOp48
 70
     1
102
RTVSPropertyOp49
 70
     1
102
RTVSPropertyOp50
 70
     1
102
RTVSPropertyOp51
 70
     0
102
RTVSPropertyOp52
 70
     0
102
RTVSPropertyOp53
 70
     1
102
RTVSPropertyOp54
 70
     1
102
RTVSPropertyOp55
 70
     1
102
RTVSPropertyOp56
 70
     1
102
RTVSPropertyOp57
 70
     1
102
RTVSPost2010Prop28
280
     0
102
RTVSPost2010PropOp28
 70
     1
102
RTVSPost2010Prop29
280
     1
102
RTVSPost2010PropOp29
 70
     1
102
RTVSPost2010Prop30
280
     1
102
RTVSPost2010PropOp30
 70
     1
102
RTVSPost2010Prop31
280
     0
102
RTVSPost2010PropOp31
 70
     1
102
RTVSPost2010Prop32
280
     0
102
RTVSPost2010PropOp32
 70
     1
102
RTVSPost2010Prop33
280
     0
102
RTVSPost2010PropOp33
 70
     1
102
RTVSPost2010Prop34
280
     0
102
RTVSPost2010PropOp34
 70
     1
102
RTVSPost2010Prop35
280
     0
102
RTVSPost2010PropOp35
 70
     1
102
RTVSPost2010Prop36
280
     0
102
RTVSPost2010PropOp36
 70
     1
102
RTVSPost2010Prop37
 90
       50
102
RTVSPost2010PropOp37
 70
     1
102
RTVSPost2010Prop38
140
0.0
102
RTVSPost2010PropOp38
 70
     1
102
RTVSPost2010Prop39
140
1.0
102
RTVSPost2010PropOp39
 70
     1
102
RTVSPost2010Prop40
 90
        0
102
RTVSPost2010PropOp40
 70
     1
102
RTVSPost2010Prop41ColorIndex
 90
       18
102
RTVSPost2010Prop41ColorRGB
 90
        0
102
RTVSPost2010PropOp41
 70
     1
102
RTVSPost2010Prop42
 90
       50
102
RTVSPost2010PropOp42
 70
     1
102
RTVSPost2010Prop43
 90
        3
102
RTVSPost2010PropOp43
 70
     1
102
RTVSPost2010Prop44ColorIndex
 90
        5
102
RTVSPost2010Prop44ColorRGB
 90
      255
102
RTVSPost2010PropOp44
 70
     1
102
RTVSPost2010Prop45
280
     0
102
RTVSPost2010PropOp45
 70
     1
102
RTVSPost2010Prop46
 90
       50
102
RTVSPost2010PropOp46
 70
     1
102
RTVSPost2010Prop47
 90
       50
102
RTVSPost2010PropOp47
 70
     1
102
RTVSPost2010Prop48
 90
       50
102
RTVSPost2010PropOp48
 70
     1
102
RTVSPost2010Prop49
280
     0
102
RTVSPost2010PropOp49
 70
     1
102
RTVSPost2010Prop50
 90
       50
102
RTVSPost2010PropOp50
 70
     1
102
RTVSPost2010Prop51ColorIndex
 90
      256
102
RTVSPost2010Prop51ColorRGB
 90
-16777216
102
RTVSPost2010PropOp51
 70
     0
102
RTVSPost2010Prop52
140
1.0
102
RTVSPost2010PropOp52
 70
     0
102
RTVSPost2010Prop53
 90
        2
102
RTVSPost2010PropOp53
 70
     1
102
RTVSPost2010Prop54
  1
strokes_ogs.tif
102
RTVSPost2010PropOp54
 70
     1
102
RTVSPost2010Prop55
280
     0
102
RTVSPost2010PropOp55
 70
     1
102
RTVSPost2010Prop56
140
1.0
102
RTVSPost2010PropOp56
 70
     1
102
RTVSPost2010Prop57
140
1.0
102
RTVSPost2010PropOp57
 70
     1
  0
XRECORD
  5
52A
102
{ACAD_REACTORS
330
529
102
}
330
529
100
AcDbXrecord
280
     1
102
RTVSPropertyOp0
 70
     1
102
RTVSPropertyOp1
 70
     1
102
RTVSPropertyOp2
 70
     1
102
RTVSPropertyOp3
 70
     1
102
RTVSPropertyOp4
 70
     1
102
RTVSPropertyOp5
 70
     1
102
RTVSPropertyOp6
 70
     1
102
RTVSPropertyOp7
 70
     1
102
RTVSPropertyOp8
 70
     1
102
RTVSPropertyOp9
 70
     1
102
RTVSPropertyOp10
 70
     1
102
RTVSPropertyOp11
 70
     1
102
RTVSPropertyOp12
 70
     1
102
RTVSPropertyOp13
 70
     1
102
RTVSPropertyOp14
 70
     1
102
RTVSPropertyOp15
 70
     1
102
RTVSPropertyOp16
 70
     1
102
RTVSPropertyOp17
 70
     1
102
RTVSPropertyOp18
 70
     1
102
RTVSPropertyOp19
 70
     1
102
RTVSPropertyOp20
 70
     1
102
RTVSPropertyOp21
 70
     1
102
RTVSPropertyOp22
 70
     1
102
RTVSPropertyOp23
 70
     1
102
RTVSPropertyOp24
 70
     1
102
RTVSPropertyOp25
 70
     1
102
RTVSPropertyOp26
 70
     1
102
RTVSPropertyOp27
 70
     1
102
RTVSPropertyOp28
 70
     1
102
RTVSPropertyOp29
 70
     1
102
RTVSPropertyOp30
 70
     1
102
RTVSPropertyOp31
 70
     1
102
RTVSPropertyOp32
 70
     1
102
RTVSPropertyOp33
 70
     1
102
RTVSPropertyOp34
 70
     1
102
RTVSPropertyOp35
 70
     1
102
RTVSPropertyOp36
 70
     1
102
RTVSPropertyOp37
 70
     1
102
RTVSPropertyOp38
 70
     1
102
RTVSPropertyOp39
 70
     1
102
RTVSPropertyOp40
 70
     1
102
RTVSPropertyOp41
 70
     1
102
RTVSPropertyOp42
 70
     1
102
RTVSPropertyOp43
 70
     1
102
RTVSPropertyOp44
 70
     1
102
RTVSPropertyOp45
 70
     1
102
RTVSPropertyOp46
 70
     1
102
RTVSPropertyOp47
 70
     1
102
RTVSPropertyOp48
 70
     1
102
RTVSPropertyOp49
 70
     1
102
RTVSPropertyOp50
 70
     1
102
RTVSPropertyOp51
 70
     0
102
RTVSPropertyOp52
 70
     0
102
RTVSPropertyOp53
 70
     1
102
RTVSPropertyOp54
 70
     1
102
RTVSPropertyOp55
 70
     1
102
RTVSPropertyOp56
 70
     1
102
RTVSPropertyOp57
 70
     1
102
RTVSPost2010Prop28
280
     0
102
RTVSPost2010PropOp28
 70
     1
102
RTVSPost2010Prop29
280
     1
102
RTVSPost2010PropOp29
 70
     1
102
RTVSPost2010Prop30
280
     1
102
RTVSPost2010PropOp30
 70
     1
102
RTVSPost2010Prop31
280
     0
102
RTVSPost2010PropOp31
 70
     1
102
RTVSPost2010Prop32
280
     0
102
RTVSPost2010PropOp32
 70
     1
102
RTVSPost2010Prop33
280
     0
102
RTVSPost2010PropOp33
 70
     1
102
RTVSPost2010Prop34
280
     0
102
RTVSPost2010PropOp34
 70
     1
102
RTVSPost2010Prop35
280
     0
102
RTVSPost2010PropOp35
 70
     1
102
RTVSPost2010Prop36
280
     0
102
RTVSPost2010PropOp36
 70
     1
102
RTVSPost2010Prop37
 90
       50
102
RTVSPost2010PropOp37
 70
     1
102
RTVSPost2010Prop38
140
0.0
102
RTVSPost2010PropOp38
 70
     1
102
RTVSPost2010Prop39
140
1.0
102
RTVSPost2010PropOp39
 70
     1
102
RTVSPost2010Prop40
 90
        0
102
RTVSPost2010PropOp40
 70
     1
102
RTVSPost2010Prop41ColorIndex
 90
       18
102
RTVSPost2010Prop41ColorRGB
 90
        0
102
RTVSPost2010PropOp41
 70
     1
102
RTVSPost2010Prop42
 90
       50
102
RTVSPost2010PropOp42
 70
     1
102
RTVSPost2010Prop43
 90
        3
102
RTVSPost2010PropOp43
 70
     1
102
RTVSPost2010Prop44ColorIndex
 90
        5
102
RTVSPost2010Prop44ColorRGB
 90
      255
102
RTVSPost2010PropOp44
 70
     1
102
RTVSPost2010Prop45
280
     0
102
RTVSPost2010PropOp45
 70
     1
102
RTVSPost2010Prop46
 90
       50
102
RTVSPost2010PropOp46
 70
     1
102
RTVSPost2010Prop47
 90
       50
102
RTVSPost2010PropOp47
 70
     1
102
RTVSPost2010Prop48
 90
       50
102
RTVSPost2010PropOp48
 70
     1
102
RTVSPost2010Prop49
280
     0
102
RTVSPost2010PropOp49
 70
     1
102
RTVSPost2010Prop50
 90
       50
102
RTVSPost2010PropOp50
 70
     1
102
RTVSPost2010Prop51ColorIndex
 90
      256
102
RTVSPost2010Prop51ColorRGB
 90
-16777216
102
RTVSPost2010PropOp51
 70
     0
102
RTVSPost2010Prop52
140
1.0
102
RTVSPost2010PropOp52
 70
     0
102
RTVSPost2010Prop53
 90
        2
102
RTVSPost2010PropOp53
 70
     1
102
RTVSPost2010Prop54
  1
strokes_ogs.tif
102
RTVSPost2010PropOp54
 70
     1
102
RTVSPost2010Prop55
280
     0
102
RTVSPost2010PropOp55
 70
     1
102
RTVSPost2010Prop56
140
1.0
102
RTVSPost2010PropOp56
 70
     1
102
RTVSPost2010Prop57
140
1.0
102
RTVSPost2010PropOp57
 70
     1
  0
XRECORD
  5
524
102
{ACAD_REACTORS
330
523
102
}
330
523
100
AcDbXrecord
280
     1
102
RTVSPropertyOp0
 70
     1
102
RTVSPropertyOp1
 70
     1
102
RTVSPropertyOp2
 70
     1
102
RTVSPropertyOp3
 70
     1
102
RTVSPropertyOp4
 70
     1
102
RTVSPropertyOp5
 70
     1
102
RTVSPropertyOp6
 70
     1
102
RTVSPropertyOp7
 70
     1
102
RTVSPropertyOp8
 70
     1
102
RTVSPropertyOp9
 70
     1
102
RTVSPropertyOp10
 70
     1
102
RTVSPropertyOp11
 70
     1
102
RTVSPropertyOp12
 70
     1
102
RTVSPropertyOp13
 70
     1
102
RTVSPropertyOp14
 70
     1
102
RTVSPropertyOp15
 70
     1
102
RTVSPropertyOp16
 70
     1
102
RTVSPropertyOp17
 70
     1
102
RTVSPropertyOp18
 70
     1
102
RTVSPropertyOp19
 70
     1
102
RTVSPropertyOp20
 70
     1
102
RTVSPropertyOp21
 70
     1
102
RTVSPropertyOp22
 70
     1
102
RTVSPropertyOp23
 70
     1
102
RTVSPropertyOp24
 70
     1
102
RTVSPropertyOp25
 70
     1
102
RTVSPropertyOp26
 70
     1
102
RTVSPropertyOp27
 70
     1
102
RTVSPropertyOp28
 70
     1
102
RTVSPropertyOp29
 70
     1
102
RTVSPropertyOp30
 70
     1
102
RTVSPropertyOp31
 70
     1
102
RTVSPropertyOp32
 70
     1
102
RTVSPropertyOp33
 70
     1
102
RTVSPropertyOp34
 70
     1
102
RTVSPropertyOp35
 70
     1
102
RTVSPropertyOp36
 70
     1
102
RTVSPropertyOp37
 70
     1
102
RTVSPropertyOp38
 70
     1
102
RTVSPropertyOp39
 70
     1
102
RTVSPropertyOp40
 70
     1
102
RTVSPropertyOp41
 70
     1
102
RTVSPropertyOp42
 70
     1
102
RTVSPropertyOp43
 70
     1
102
RTVSPropertyOp44
 70
     1
102
RTVSPropertyOp45
 70
     1
102
RTVSPropertyOp46
 70
     1
102
RTVSPropertyOp47
 70
     1
102
RTVSPropertyOp48
 70
     1
102
RTVSPropertyOp49
 70
     1
102
RTVSPropertyOp50
 70
     1
102
RTVSPropertyOp51
 70
     0
102
RTVSPropertyOp52
 70
     0
102
RTVSPropertyOp53
 70
     1
102
RTVSPropertyOp54
 70
     1
102
RTVSPropertyOp55
 70
     1
102
RTVSPropertyOp56
 70
     1
102
RTVSPropertyOp57
 70
     1
102
RTVSPost2010Prop28
280
     0
102
RTVSPost2010PropOp28
 70
     1
102
RTVSPost2010Prop29
280
     1
102
RTVSPost2010PropOp29
 70
     1
102
RTVSPost2010Prop30
280
     1
102
RTVSPost2010PropOp30
 70
     1
102
RTVSPost2010Prop31
280
     0
102
RTVSPost2010PropOp31
 70
     1
102
RTVSPost2010Prop32
280
     0
102
RTVSPost2010PropOp32
 70
     1
102
RTVSPost2010Prop33
280
     0
102
RTVSPost2010PropOp33
 70
     1
102
RTVSPost2010Prop34
280
     0
102
RTVSPost2010PropOp34
 70
     1
102
RTVSPost2010Prop35
280
     0
102
RTVSPost2010PropOp35
 70
     1
102
RTVSPost2010Prop36
280
     0
102
RTVSPost2010PropOp36
 70
     1
102
RTVSPost2010Prop37
 90
       50
102
RTVSPost2010PropOp37
 70
     1
102
RTVSPost2010Prop38
140
0.0
102
RTVSPost2010PropOp38
 70
     1
102
RTVSPost2010Prop39
140
1.0
102
RTVSPost2010PropOp39
 70
     1
102
RTVSPost2010Prop40
 90
        0
102
RTVSPost2010PropOp40
 70
     1
102
RTVSPost2010Prop41ColorIndex
 90
       18
102
RTVSPost2010Prop41ColorRGB
 90
        0
102
RTVSPost2010PropOp41
 70
     1
102
RTVSPost2010Prop42
 90
       50
102
RTVSPost2010PropOp42
 70
     1
102
RTVSPost2010Prop43
 90
        3
102
RTVSPost2010PropOp43
 70
     1
102
RTVSPost2010Prop44ColorIndex
 90
        5
102
RTVSPost2010Prop44ColorRGB
 90
      255
102
RTVSPost2010PropOp44
 70
     1
102
RTVSPost2010Prop45
280
     0
102
RTVSPost2010PropOp45
 70
     1
102
RTVSPost2010Prop46
 90
       50
102
RTVSPost2010PropOp46
 70
     1
102
RTVSPost2010Prop47
 90
       50
102
RTVSPost2010PropOp47
 70
     1
102
RTVSPost2010Prop48
 90
       50
102
RTVSPost2010PropOp48
 70
     1
102
RTVSPost2010Prop49
280
     0
102
RTVSPost2010PropOp49
 70
     1
102
RTVSPost2010Prop50
 90
       50
102
RTVSPost2010PropOp50
 70
     1
102
RTVSPost2010Prop51ColorIndex
 90
      256
102
RTVSPost2010Prop51ColorRGB
 90
-16777216
102
RTVSPost2010PropOp51
 70
     0
102
RTVSPost2010Prop52
140
1.0
102
RTVSPost2010PropOp52
 70
     0
102
RTVSPost2010Prop53
 90
        2
102
RTVSPost2010PropOp53
 70
     1
102
RTVSPost2010Prop54
  1
strokes_ogs.tif
102
RTVSPost2010PropOp54
 70
     1
102
RTVSPost2010Prop55
280
     0
102
RTVSPost2010PropOp55
 70
     1
102
RTVSPost2010Prop56
140
1.0
102
RTVSPost2010PropOp56
 70
     1
102
RTVSPost2010Prop57
140
1.0
102
RTVSPost2010PropOp57
 70
     1
  0
XRECORD
  5
526
102
{ACAD_REACTORS
330
525
102
}
330
525
100
AcDbXrecord
280
     1
102
RTVSPropertyOp0
 70
     1
102
RTVSPropertyOp1
 70
     1
102
RTVSPropertyOp2
 70
     1
102
RTVSPropertyOp3
 70
     1
102
RTVSPropertyOp4
 70
     1
102
RTVSPropertyOp5
 70
     1
102
RTVSPropertyOp6
 70
     1
102
RTVSPropertyOp7
 70
     1
102
RTVSPropertyOp8
 70
     1
102
RTVSPropertyOp9
 70
     1
102
RTVSPropertyOp10
 70
     1
102
RTVSPropertyOp11
 70
     1
102
RTVSPropertyOp12
 70
     1
102
RTVSPropertyOp13
 70
     1
102
RTVSPropertyOp14
 70
     1
102
RTVSPropertyOp15
 70
     1
102
RTVSPropertyOp16
 70
     1
102
RTVSPropertyOp17
 70
     1
102
RTVSPropertyOp18
 70
     1
102
RTVSPropertyOp19
 70
     1
102
RTVSPropertyOp20
 70
     1
102
RTVSPropertyOp21
 70
     1
102
RTVSPropertyOp22
 70
     1
102
RTVSPropertyOp23
 70
     1
102
RTVSPropertyOp24
 70
     1
102
RTVSPropertyOp25
 70
     1
102
RTVSPropertyOp26
 70
     1
102
RTVSPropertyOp27
 70
     1
102
RTVSPropertyOp28
 70
     1
102
RTVSPropertyOp29
 70
     1
102
RTVSPropertyOp30
 70
     1
102
RTVSPropertyOp31
 70
     1
102
RTVSPropertyOp32
 70
     1
102
RTVSPropertyOp33
 70
     1
102
RTVSPropertyOp34
 70
     1
102
RTVSPropertyOp35
 70
     1
102
RTVSPropertyOp36
 70
     1
102
RTVSPropertyOp37
 70
     1
102
RTVSPropertyOp38
 70
     1
102
RTVSPropertyOp39
 70
     1
102
RTVSPropertyOp40
 70
     1
102
RTVSPropertyOp41
 70
     1
102
RTVSPropertyOp42
 70
     1
102
RTVSPropertyOp43
 70
     1
102
RTVSPropertyOp44
 70
     1
102
RTVSPropertyOp45
 70
     1
102
RTVSPropertyOp46
 70
     1
102
RTVSPropertyOp47
 70
     1
102
RTVSPropertyOp48
 70
     1
102
RTVSPropertyOp49
 70
     1
102
RTVSPropertyOp50
 70
     1
102
RTVSPropertyOp51
 70
     0
102
RTVSPropertyOp52
 70
     0
102
RTVSPropertyOp53
 70
     1
102
RTVSPropertyOp54
 70
     1
102
RTVSPropertyOp55
 70
     1
102
RTVSPropertyOp56
 70
     1
102
RTVSPropertyOp57
 70
     1
102
RTVSPost2010Prop28
280
     0
102
RTVSPost2010PropOp28
 70
     1
102
RTVSPost2010Prop29
280
     1
102
RTVSPost2010PropOp29
 70
     1
102
RTVSPost2010Prop30
280
     1
102
RTVSPost2010PropOp30
 70
     1
102
RTVSPost2010Prop31
280
     0
102
RTVSPost2010PropOp31
 70
     1
102
RTVSPost2010Prop32
280
     0
102
RTVSPost2010PropOp32
 70
     1
102
RTVSPost2010Prop33
280
     0
102
RTVSPost2010PropOp33
 70
     1
102
RTVSPost2010Prop34
280
     0
102
RTVSPost2010PropOp34
 70
     1
102
RTVSPost2010Prop35
280
     0
102
RTVSPost2010PropOp35
 70
     1
102
RTVSPost2010Prop36
280
     0
102
RTVSPost2010PropOp36
 70
     1
102
RTVSPost2010Prop37
 90
       50
102
RTVSPost2010PropOp37
 70
     1
102
RTVSPost2010Prop38
140
0.0
102
RTVSPost2010PropOp38
 70
     1
102
RTVSPost2010Prop39
140
1.0
102
RTVSPost2010PropOp39
 70
     1
102
RTVSPost2010Prop40
 90
        0
102
RTVSPost2010PropOp40
 70
     1
102
RTVSPost2010Prop41ColorIndex
 90
       18
102
RTVSPost2010Prop41ColorRGB
 90
        0
102
RTVSPost2010PropOp41
 70
     1
102
RTVSPost2010Prop42
 90
       50
102
RTVSPost2010PropOp42
 70
     1
102
RTVSPost2010Prop43
 90
        3
102
RTVSPost2010PropOp43
 70
     1
102
RTVSPost2010Prop44ColorIndex
 90
        5
102
RTVSPost2010Prop44ColorRGB
 90
      255
102
RTVSPost2010PropOp44
 70
     1
102
RTVSPost2010Prop45
280
     0
102
RTVSPost2010PropOp45
 70
     1
102
RTVSPost2010Prop46
 90
       50
102
RTVSPost2010PropOp46
 70
     1
102
RTVSPost2010Prop47
 90
       50
102
RTVSPost2010PropOp47
 70
     1
102
RTVSPost2010Prop48
 90
       50
102
RTVSPost2010PropOp48
 70
     1
102
RTVSPost2010Prop49
280
     0
102
RTVSPost2010PropOp49
 70
     1
102
RTVSPost2010Prop50
 90
       50
102
RTVSPost2010PropOp50
 70
     1
102
RTVSPost2010Prop51ColorIndex
 90
      256
102
RTVSPost2010Prop51ColorRGB
 90
-16777216
102
RTVSPost2010PropOp51
 70
     0
102
RTVSPost2010Prop52
140
1.0
102
RTVSPost2010PropOp52
 70
     0
102
RTVSPost2010Prop53
 90
        2
102
RTVSPost2010PropOp53
 70
     1
102
RTVSPost2010Prop54
  1
strokes_ogs.tif
102
RTVSPost2010PropOp54
 70
     1
102
RTVSPost2010Prop55
280
     0
102
RTVSPost2010PropOp55
 70
     1
102
RTVSPost2010Prop56
140
1.0
102
RTVSPost2010PropOp56
 70
     1
102
RTVSPost2010Prop57
140
1.0
102
RTVSPost2010PropOp57
 70
     1
  0
XRECORD
  5
516
102
{ACAD_REACTORS
330
515
102
}
330
515
100
AcDbXrecord
280
     1
102
RTVSPropertyOp0
 70
     1
102
RTVSPropertyOp1
 70
     1
102
RTVSPropertyOp2
 70
     1
102
RTVSPropertyOp3
 70
     1
102
RTVSPropertyOp4
 70
     1
102
RTVSPropertyOp5
 70
     1
102
RTVSPropertyOp6
 70
     1
102
RTVSPropertyOp7
 70
     1
102
RTVSPropertyOp8
 70
     1
102
RTVSPropertyOp9
 70
     1
102
RTVSPropertyOp10
 70
     1
102
RTVSPropertyOp11
 70
     1
102
RTVSPropertyOp12
 70
     1
102
RTVSPropertyOp13
 70
     1
102
RTVSPropertyOp14
 70
     1
102
RTVSPropertyOp15
 70
     1
102
RTVSPropertyOp16
 70
     1
102
RTVSPropertyOp17
 70
     1
102
RTVSPropertyOp18
 70
     1
102
RTVSPropertyOp19
 70
     1
102
RTVSPropertyOp20
 70
     1
102
RTVSPropertyOp21
 70
     1
102
RTVSPropertyOp22
 70
     1
102
RTVSPropertyOp23
 70
     1
102
RTVSPropertyOp24
 70
     1
102
RTVSPropertyOp25
 70
     1
102
RTVSPropertyOp26
 70
     1
102
RTVSPropertyOp27
 70
     1
102
RTVSPropertyOp28
 70
     1
102
RTVSPropertyOp29
 70
     1
102
RTVSPropertyOp30
 70
     1
102
RTVSPropertyOp31
 70
     1
102
RTVSPropertyOp32
 70
     1
102
RTVSPropertyOp33
 70
     1
102
RTVSPropertyOp34
 70
     1
102
RTVSPropertyOp35
 70
     1
102
RTVSPropertyOp36
 70
     1
102
RTVSPropertyOp37
 70
     1
102
RTVSPropertyOp38
 70
     1
102
RTVSPropertyOp39
 70
     1
102
RTVSPropertyOp40
 70
     1
102
RTVSPropertyOp41
 70
     1
102
RTVSPropertyOp42
 70
     1
102
RTVSPropertyOp43
 70
     1
102
RTVSPropertyOp44
 70
     1
102
RTVSPropertyOp45
 70
     1
102
RTVSPropertyOp46
 70
     1
102
RTVSPropertyOp47
 70
     1
102
RTVSPropertyOp48
 70
     1
102
RTVSPropertyOp49
 70
     1
102
RTVSPropertyOp50
 70
     1
102
RTVSPropertyOp51
 70
     0
102
RTVSPropertyOp52
 70
     0
102
RTVSPropertyOp53
 70
     1
102
RTVSPropertyOp54
 70
     1
102
RTVSPropertyOp55
 70
     1
102
RTVSPropertyOp56
 70
     1
102
RTVSPropertyOp57
 70
     1
102
RTVSPost2010Prop28
280
     0
102
RTVSPost2010PropOp28
 70
     1
102
RTVSPost2010Prop29
280
     1
102
RTVSPost2010PropOp29
 70
     1
102
RTVSPost2010Prop30
280
     1
102
RTVSPost2010PropOp30
 70
     1
102
RTVSPost2010Prop31
280
     0
102
RTVSPost2010PropOp31
 70
     1
102
RTVSPost2010Prop32
280
     0
102
RTVSPost2010PropOp32
 70
     1
102
RTVSPost2010Prop33
280
     0
102
RTVSPost2010PropOp33
 70
     1
102
RTVSPost2010Prop34
280
     0
102
RTVSPost2010PropOp34
 70
     1
102
RTVSPost2010Prop35
280
     0
102
RTVSPost2010PropOp35
 70
     1
102
RTVSPost2010Prop36
280
     0
102
RTVSPost2010PropOp36
 70
     1
102
RTVSPost2010Prop37
 90
       50
102
RTVSPost2010PropOp37
 70
     1
102
RTVSPost2010Prop38
140
0.0
102
RTVSPost2010PropOp38
 70
     1
102
RTVSPost2010Prop39
140
1.0
102
RTVSPost2010PropOp39
 70
     1
102
RTVSPost2010Prop40
 90
        0
102
RTVSPost2010PropOp40
 70
     1
102
RTVSPost2010Prop41ColorIndex
 90
       18
102
RTVSPost2010Prop41ColorRGB
 90
        0
102
RTVSPost2010PropOp41
 70
     1
102
RTVSPost2010Prop42
 90
       50
102
RTVSPost2010PropOp42
 70
     1
102
RTVSPost2010Prop43
 90
        3
102
RTVSPost2010PropOp43
 70
     1
102
RTVSPost2010Prop44ColorIndex
 90
        5
102
RTVSPost2010Prop44ColorRGB
 90
      255
102
RTVSPost2010PropOp44
 70
     1
102
RTVSPost2010Prop45
280
     0
102
RTVSPost2010PropOp45
 70
     1
102
RTVSPost2010Prop46
 90
       50
102
RTVSPost2010PropOp46
 70
     1
102
RTVSPost2010Prop47
 90
       50
102
RTVSPost2010PropOp47
 70
     1
102
RTVSPost2010Prop48
 90
       50
102
RTVSPost2010PropOp48
 70
     1
102
RTVSPost2010Prop49
280
     0
102
RTVSPost2010PropOp49
 70
     1
102
RTVSPost2010Prop50
 90
       50
102
RTVSPost2010PropOp50
 70
     1
102
RTVSPost2010Prop51ColorIndex
 90
      256
102
RTVSPost2010Prop51ColorRGB
 90
-16777216
102
RTVSPost2010PropOp51
 70
     0
102
RTVSPost2010Prop52
140
1.0
102
RTVSPost2010PropOp52
 70
     0
102
RTVSPost2010Prop53
 90
        2
102
RTVSPost2010PropOp53
 70
     1
102
RTVSPost2010Prop54
  1
strokes_ogs.tif
102
RTVSPost2010PropOp54
 70
     1
102
RTVSPost2010Prop55
280
     0
102
RTVSPost2010PropOp55
 70
     1
102
RTVSPost2010Prop56
140
1.0
102
RTVSPost2010PropOp56
 70
     1
102
RTVSPost2010Prop57
140
1.0
102
RTVSPost2010PropOp57
 70
     1
  0
XRECORD
  5
508
102
{ACAD_REACTORS
330
507
102
}
330
507
100
AcDbXrecord
280
     1
102
RTVSPropertyOp0
 70
     1
102
RTVSPropertyOp1
 70
     1
102
RTVSPropertyOp2
 70
     1
102
RTVSPropertyOp3
 70
     1
102
RTVSPropertyOp4
 70
     1
102
RTVSPropertyOp5
 70
     1
102
RTVSPropertyOp6
 70
     1
102
RTVSPropertyOp7
 70
     1
102
RTVSPropertyOp8
 70
     1
102
RTVSPropertyOp9
 70
     1
102
RTVSPropertyOp10
 70
     1
102
RTVSPropertyOp11
 70
     1
102
RTVSPropertyOp12
 70
     1
102
RTVSPropertyOp13
 70
     1
102
RTVSPropertyOp14
 70
     1
102
RTVSPropertyOp15
 70
     1
102
RTVSPropertyOp16
 70
     1
102
RTVSPropertyOp17
 70
     1
102
RTVSPropertyOp18
 70
     1
102
RTVSPropertyOp19
 70
     1
102
RTVSPropertyOp20
 70
     1
102
RTVSPropertyOp21
 70
     1
102
RTVSPropertyOp22
 70
     1
102
RTVSPropertyOp23
 70
     1
102
RTVSPropertyOp24
 70
     1
102
RTVSPropertyOp25
 70
     1
102
RTVSPropertyOp26
 70
     1
102
RTVSPropertyOp27
 70
     1
102
RTVSPropertyOp28
 70
     1
102
RTVSPropertyOp29
 70
     1
102
RTVSPropertyOp30
 70
     1
102
RTVSPropertyOp31
 70
     1
102
RTVSPropertyOp32
 70
     1
102
RTVSPropertyOp33
 70
     1
102
RTVSPropertyOp34
 70
     1
102
RTVSPropertyOp35
 70
     1
102
RTVSPropertyOp36
 70
     1
102
RTVSPropertyOp37
 70
     1
102
RTVSPropertyOp38
 70
     1
102
RTVSPropertyOp39
 70
     1
102
RTVSPropertyOp40
 70
     1
102
RTVSPropertyOp41
 70
     1
102
RTVSPropertyOp42
 70
     1
102
RTVSPropertyOp43
 70
     1
102
RTVSPropertyOp44
 70
     1
102
RTVSPropertyOp45
 70
     1
102
RTVSPropertyOp46
 70
     1
102
RTVSPropertyOp47
 70
     1
102
RTVSPropertyOp48
 70
     1
102
RTVSPropertyOp49
 70
     1
102
RTVSPropertyOp50
 70
     1
102
RTVSPropertyOp51
 70
     0
102
RTVSPropertyOp52
 70
     0
102
RTVSPropertyOp53
 70
     1
102
RTVSPropertyOp54
 70
     1
102
RTVSPropertyOp55
 70
     1
102
RTVSPropertyOp56
 70
     1
102
RTVSPropertyOp57
 70
     1
102
RTVSPost2010Prop28
280
     0
102
RTVSPost2010PropOp28
 70
     1
102
RTVSPost2010Prop29
280
     1
102
RTVSPost2010PropOp29
 70
     1
102
RTVSPost2010Prop30
280
     1
102
RTVSPost2010PropOp30
 70
     1
102
RTVSPost2010Prop31
280
     0
102
RTVSPost2010PropOp31
 70
     1
102
RTVSPost2010Prop32
280
     0
102
RTVSPost2010PropOp32
 70
     1
102
RTVSPost2010Prop33
280
     0
102
RTVSPost2010PropOp33
 70
     1
102
RTVSPost2010Prop34
280
     0
102
RTVSPost2010PropOp34
 70
     1
102
RTVSPost2010Prop35
280
     0
102
RTVSPost2010PropOp35
 70
     1
102
RTVSPost2010Prop36
280
     0
102
RTVSPost2010PropOp36
 70
     1
102
RTVSPost2010Prop37
 90
       50
102
RTVSPost2010PropOp37
 70
     1
102
RTVSPost2010Prop38
140
0.0
102
RTVSPost2010PropOp38
 70
     1
102
RTVSPost2010Prop39
140
1.0
102
RTVSPost2010PropOp39
 70
     1
102
RTVSPost2010Prop40
 90
        0
102
RTVSPost2010PropOp40
 70
     1
102
RTVSPost2010Prop41ColorIndex
 90
       18
102
RTVSPost2010Prop41ColorRGB
 90
        0
102
RTVSPost2010PropOp41
 70
     1
102
RTVSPost2010Prop42
 90
       50
102
RTVSPost2010PropOp42
 70
     1
102
RTVSPost2010Prop43
 90
        3
102
RTVSPost2010PropOp43
 70
     1
102
RTVSPost2010Prop44ColorIndex
 90
        5
102
RTVSPost2010Prop44ColorRGB
 90
      255
102
RTVSPost2010PropOp44
 70
     1
102
RTVSPost2010Prop45
280
     0
102
RTVSPost2010PropOp45
 70
     1
102
RTVSPost2010Prop46
 90
       50
102
RTVSPost2010PropOp46
 70
     1
102
RTVSPost2010Prop47
 90
       50
102
RTVSPost2010PropOp47
 70
     1
102
RTVSPost2010Prop48
 90
       50
102
RTVSPost2010PropOp48
 70
     1
102
RTVSPost2010Prop49
280
     0
102
RTVSPost2010PropOp49
 70
     1
102
RTVSPost2010Prop50
 90
       50
102
RTVSPost2010PropOp50
 70
     1
102
RTVSPost2010Prop51ColorIndex
 90
      256
102
RTVSPost2010Prop51ColorRGB
 90
-16777216
102
RTVSPost2010PropOp51
 70
     0
102
RTVSPost2010Prop52
140
1.0
102
RTVSPost2010PropOp52
 70
     0
102
RTVSPost2010Prop53
 90
        2
102
RTVSPost2010PropOp53
 70
     1
102
RTVSPost2010Prop54
  1
strokes_ogs.tif
102
RTVSPost2010PropOp54
 70
     1
102
RTVSPost2010Prop55
280
     0
102
RTVSPost2010PropOp55
 70
     1
102
RTVSPost2010Prop56
140
1.0
102
RTVSPost2010PropOp56
 70
     1
102
RTVSPost2010Prop57
140
1.0
102
RTVSPost2010PropOp57
 70
     1
  0
XRECORD
  5
528
102
{ACAD_REACTORS
330
527
102
}
330
527
100
AcDbXrecord
280
     1
102
RTVSPropertyOp0
 70
     1
102
RTVSPropertyOp1
 70
     1
102
RTVSPropertyOp2
 70
     1
102
RTVSPropertyOp3
 70
     1
102
RTVSPropertyOp4
 70
     1
102
RTVSPropertyOp5
 70
     1
102
RTVSPropertyOp6
 70
     1
102
RTVSPropertyOp7
 70
     1
102
RTVSPropertyOp8
 70
     1
102
RTVSPropertyOp9
 70
     1
102
RTVSPropertyOp10
 70
     1
102
RTVSPropertyOp11
 70
     1
102
RTVSPropertyOp12
 70
     1
102
RTVSPropertyOp13
 70
     1
102
RTVSPropertyOp14
 70
     1
102
RTVSPropertyOp15
 70
     1
102
RTVSPropertyOp16
 70
     1
102
RTVSPropertyOp17
 70
     1
102
RTVSPropertyOp18
 70
     1
102
RTVSPropertyOp19
 70
     1
102
RTVSPropertyOp20
 70
     1
102
RTVSPropertyOp21
 70
     1
102
RTVSPropertyOp22
 70
     1
102
RTVSPropertyOp23
 70
     1
102
RTVSPropertyOp24
 70
     1
102
RTVSPropertyOp25
 70
     1
102
RTVSPropertyOp26
 70
     1
102
RTVSPropertyOp27
 70
     1
102
RTVSPropertyOp28
 70
     1
102
RTVSPropertyOp29
 70
     1
102
RTVSPropertyOp30
 70
     1
102
RTVSPropertyOp31
 70
     1
102
RTVSPropertyOp32
 70
     1
102
RTVSPropertyOp33
 70
     1
102
RTVSPropertyOp34
 70
     1
102
RTVSPropertyOp35
 70
     1
102
RTVSPropertyOp36
 70
     1
102
RTVSPropertyOp37
 70
     1
102
RTVSPropertyOp38
 70
     1
102
RTVSPropertyOp39
 70
     1
102
RTVSPropertyOp40
 70
     1
102
RTVSPropertyOp41
 70
     1
102
RTVSPropertyOp42
 70
     1
102
RTVSPropertyOp43
 70
     1
102
RTVSPropertyOp44
 70
     1
102
RTVSPropertyOp45
 70
     1
102
RTVSPropertyOp46
 70
     1
102
RTVSPropertyOp47
 70
     1
102
RTVSPropertyOp48
 70
     1
102
RTVSPropertyOp49
 70
     1
102
RTVSPropertyOp50
 70
     1
102
RTVSPropertyOp51
 70
     0
102
RTVSPropertyOp52
 70
     0
102
RTVSPropertyOp53
 70
     1
102
RTVSPropertyOp54
 70
     1
102
RTVSPropertyOp55
 70
     1
102
RTVSPropertyOp56
 70
     1
102
RTVSPropertyOp57
 70
     1
102
RTVSPost2010Prop28
280
     0
102
RTVSPost2010PropOp28
 70
     1
102
RTVSPost2010Prop29
280
     1
102
RTVSPost2010PropOp29
 70
     1
102
RTVSPost2010Prop30
280
     1
102
RTVSPost2010PropOp30
 70
     1
102
RTVSPost2010Prop31
280
     0
102
RTVSPost2010PropOp31
 70
     1
102
RTVSPost2010Prop32
280
     0
102
RTVSPost2010PropOp32
 70
     1
102
RTVSPost2010Prop33
280
     0
102
RTVSPost2010PropOp33
 70
     1
102
RTVSPost2010Prop34
280
     0
102
RTVSPost2010PropOp34
 70
     1
102
RTVSPost2010Prop35
280
     0
102
RTVSPost2010PropOp35
 70
     1
102
RTVSPost2010Prop36
280
     0
102
RTVSPost2010PropOp36
 70
     1
102
RTVSPost2010Prop37
 90
       50
102
RTVSPost2010PropOp37
 70
     1
102
RTVSPost2010Prop38
140
0.0
102
RTVSPost2010PropOp38
 70
     1
102
RTVSPost2010Prop39
140
1.0
102
RTVSPost2010PropOp39
 70
     1
102
RTVSPost2010Prop40
 90
        0
102
RTVSPost2010PropOp40
 70
     1
102
RTVSPost2010Prop41ColorIndex
 90
       18
102
RTVSPost2010Prop41ColorRGB
 90
        0
102
RTVSPost2010PropOp41
 70
     1
102
RTVSPost2010Prop42
 90
       50
102
RTVSPost2010PropOp42
 70
     1
102
RTVSPost2010Prop43
 90
        3
102
RTVSPost2010PropOp43
 70
     1
102
RTVSPost2010Prop44ColorIndex
 90
        5
102
RTVSPost2010Prop44ColorRGB
 90
      255
102
RTVSPost2010PropOp44
 70
     1
102
RTVSPost2010Prop45
280
     0
102
RTVSPost2010PropOp45
 70
     1
102
RTVSPost2010Prop46
 90
       50
102
RTVSPost2010PropOp46
 70
     1
102
RTVSPost2010Prop47
 90
       50
102
RTVSPost2010PropOp47
 70
     1
102
RTVSPost2010Prop48
 90
       50
102
RTVSPost2010PropOp48
 70
     1
102
RTVSPost2010Prop49
280
     0
102
RTVSPost2010PropOp49
 70
     1
102
RTVSPost2010Prop50
 90
       50
102
RTVSPost2010PropOp50
 70
     1
102
RTVSPost2010Prop51ColorIndex
 90
      256
102
RTVSPost2010Prop51ColorRGB
 90
-16777216
102
RTVSPost2010PropOp51
 70
     0
102
RTVSPost2010Prop52
140
1.0
102
RTVSPost2010PropOp52
 70
     0
102
RTVSPost2010Prop53
 90
        2
102
RTVSPost2010PropOp53
 70
     1
102
RTVSPost2010Prop54
  1
strokes_ogs.tif
102
RTVSPost2010PropOp54
 70
     1
102
RTVSPost2010Prop55
280
     0
102
RTVSPost2010PropOp55
 70
     1
102
RTVSPost2010Prop56
140
1.0
102
RTVSPost2010PropOp56
 70
     1
102
RTVSPost2010Prop57
140
1.0
102
RTVSPost2010PropOp57
 70
     1
  0
ENDSEC
  0
EOF
